osu file format v14

[General]
AudioFilename: audio.mp3
AudioLeadIn: 0
PreviewTime: 77812
Countdown: 0
SampleSet: Normal
StackLeniency: 0.7
Mode: 2
LetterboxInBreaks: 0
EpilepsyWarning: 1
WidescreenStoryboard: 0

[Editor]
DistanceSpacing: 0.8
BeatDivisor: 4
GridSize: 4
TimelineZoom: 2.899999

[Metadata]
Title:ouroVoros
TitleUnicode:ouroVoros
Artist:Negentropy (a.k.a. Team Grimoire)
ArtistUnicode:Negentropy (a.k.a. Team Grimoire)
Creator:autofanboy
Version:du5t's overdose
Source:
Tags:BMS BOFU2017 OF FIGHTERS ULTIMATE 2017 LEGENDA EST A MYTH Employ “Zero-Origin” Zero Origin Symphonic Roar teamgrimoire Λögeln Aogeln CHAOS MAGNVM Muse Dash Give Up TREATMENT Vol.4 Groove Coaster Hardcore Gothic Video Game Instrumental Electronic Ouroboros Cycle alienflybot AFB Razor Sharp Arthas IDu5t IDust Jemzuu AJamez Daletto salchow
BeatmapID:2279454
BeatmapSetID:1087679

[Difficulty]
HPDrainRate:6
CircleSize:4
OverallDifficulty:9.3
ApproachRate:9.3
SliderMultiplier:2
SliderTickRate:2

[Events]
//Background and Video events
Video,-295,"video.mp4"
0,0,"Meeting with Shade_DaisanART.jpg",0,0
//Break Periods
2,16228,17582
//Storyboard Layer 0 (Background)
//Storyboard Layer 1 (Fail)
//Storyboard Layer 2 (Pass)
//Storyboard Layer 3 (Foreground)
//Storyboard Layer 4 (Overlay)
//Storyboard Sound Samples

[TimingPoints]
-25,324.324324324324,4,1,1,70,1,0
5812,-100,4,1,10,40,0,0
10353,-100,4,1,1,70,0,0
11002,-100,4,1,10,40,0,0
14245,-100,4,1,1,40,0,0
14569,-100,4,1,1,42,0,0
14893,-100,4,1,1,44,0,0
15218,-100,4,1,1,46,0,0
15542,-100,4,1,1,48,0,0
15866,-100,4,1,1,10,0,0
16029,-100,4,1,1,50,0,0
18461,-100,4,1,1,10,0,0
18623,-100,4,1,1,50,0,0
19434,-83.3333333333333,4,1,1,50,0,0
20731,-100,4,1,1,50,0,0
21218,-100,4,1,1,52,0,0
21542,-100,4,1,1,54,0,0
22029,-100,4,1,1,56,0,0
22515,-100,4,1,1,58,0,0
22839,-100,4,1,1,60,0,0
23326,-100,4,1,1,50,0,0
23974,-100,4,1,1,52,0,0
24623,-100,4,1,1,54,0,0
25272,-100,4,1,1,56,0,0
25515,-100,4,1,1,58,0,0
25758,-100,4,1,1,60,0,0
25920,-100,4,1,1,70,0,1
26164,-100,4,1,1,10,0,1
26245,-100,4,1,1,70,0,1
26407,-100,4,1,1,10,0,1
26488,-100,4,1,1,70,0,1
28191,-100,4,1,1,70,0,1
28515,-100,4,1,1,70,0,1
28758,-100,4,1,1,10,0,1
28839,-100,4,1,1,70,0,1
29974,-100,4,1,1,50,0,1
30056,-100,4,1,1,70,0,1
31029,-100,4,1,1,10,0,1
31110,-100,4,1,1,70,0,1
31272,-100,4,1,1,10,0,1
31353,-100,4,1,1,70,0,1
35002,-100,4,1,1,70,0,0
36664,-100,4,1,1,30,0,0
36704,-100,4,1,1,25,0,0
36745,-100,4,1,1,20,0,0
36785,-100,4,1,1,15,0,0
36826,-100,4,1,1,10,0,0
36866,-100,4,1,1,70,0,0
36947,-100,4,1,1,70,0,1
37920,-100,4,1,1,70,0,1
38569,-100,4,1,1,70,0,1
39056,-100,4,1,1,10,0,1
39137,-100,4,1,1,70,0,1
41407,-100,4,1,1,10,0,1
41488,-100,4,1,1,70,0,1
41650,-100,4,1,1,10,0,1
41731,-100,4,1,1,70,0,1
46677,-100,4,1,1,70,0,0
47002,-100,4,1,1,10,0,0
47164,-100,4,1,1,70,0,0
47326,-100,4,1,1,10,0,0
47488,-100,4,1,1,70,0,0
47974,-100,4,1,1,10,0,0
48137,-100,4,1,1,70,0,0
48461,-100,4,1,1,10,0,0
48623,-57.1428571428571,4,1,1,70,0,0
48785,-57.1428571428571,4,1,1,10,0,0
48866,-57.1428571428571,4,1,1,70,0,0
49029,-57.1428571428571,4,1,1,10,0,0
49110,-57.1428571428571,4,1,1,70,0,0
49758,-100,4,1,1,10,0,0
49839,-100,4,1,1,70,0,0
50083,-100,4,1,1,10,0,0
50164,-100,4,1,1,70,0,0
50326,-100,4,1,1,10,0,0
50407,-100,4,1,1,70,0,0
52434,-100,4,1,1,10,0,0
52515,-100,4,1,1,70,0,0
53326,-100,4,1,1,10,0,0
53407,-100,4,1,1,70,0,0
53569,-100,4,1,1,10,0,0
53650,-100,4,1,1,70,0,0
53812,-100,4,1,1,10,0,0
53893,-100,4,1,1,70,0,0
54056,-100,4,1,1,10,0,0
54137,-100,4,1,1,70,0,0
54218,-100,4,1,1,10,0,0
54299,-100,4,1,1,70,0,0
54380,-100,4,1,1,10,0,0
54461,-100,4,1,1,70,0,0
54623,-100,4,1,1,10,0,0
54704,-100,4,1,1,70,0,0
54866,-100,4,1,1,10,0,0
54947,-100,4,1,1,70,0,0
55110,-100,4,1,1,10,0,0
55191,-100,4,1,1,70,0,0
55353,-100,4,1,1,10,0,0
55434,-100,4,1,1,70,0,0
55515,-100,4,1,1,10,0,0
55596,-100,4,1,1,70,0,0
55677,-100,4,1,1,10,0,0
55758,-100,4,1,1,70,0,0
56407,-100,4,1,1,70,0,0
57056,-100,4,1,1,40,0,0
67434,-100,4,1,1,40,0,0
68569,-100,4,1,1,10,0,0
68731,-100,4,1,1,40,0,0
69866,-100,4,1,1,10,0,0
70029,-100,4,1,1,40,0,0
71326,-100,4,1,1,10,0,0
71407,-100,4,1,1,40,0,0
72461,-100,4,2,66,10,0,0
72623,-100,4,1,1,70,0,0
74002,-100,4,2,66,30,0,0
76515,-100,4,1,66,40,0,0
76677,-100,4,1,1,10,0,0
77812,-100,4,1,1,70,0,1
77974,-100,4,1,1,10,0,1
78056,-100,4,1,1,70,0,1
80326,-100,4,1,1,10,0,1
80407,-100,4,1,1,70,0,1
83326,-100,4,1,2,40,0,1
83407,-100,4,1,1,70,0,1
83650,-100,4,1,1,70,0,1
83974,-100,4,1,2,40,0,1
84056,-100,4,1,1,70,0,1
84299,-100,4,1,1,70,0,1
84623,-100,4,1,2,40,0,1
84704,-100,4,1,1,70,0,1
84947,-100,4,1,1,70,0,1
85272,-100,4,1,1,70,0,1
87866,-100,4,1,1,70,0,0
88191,-100,4,1,1,70,0,1
88353,-100,4,1,1,10,0,1
88434,-100,4,1,1,70,0,1
90704,-100,4,1,1,10,0,1
90785,-100,4,1,1,70,0,1
93704,-100,4,1,2,40,0,1
93705,-100,4,1,2,40,0,1
93785,-100,4,1,1,70,0,1
94029,-100,4,1,1,70,0,1
94353,-100,4,1,2,40,0,1
94434,-100,4,1,1,70,0,1
94678,-100,4,1,1,70,0,1
95002,-100,4,1,2,40,0,1
95083,-100,4,1,1,70,0,1
95326,-100,4,1,1,70,0,1
95651,-100,4,1,1,70,0,1
95974,-100,4,1,1,75,0,1
97272,-100,4,1,1,80,0,1
98488,-100,4,1,1,80,0,0
98569,-100,4,1,1,80,0,1
98731,-100,4,1,1,40,0,0
100029,-100,4,1,1,10,0,0
100110,-100,4,1,1,40,0,0
100272,-100,4,1,1,10,0,0
100353,-100,4,1,1,40,0,0
102623,-100,4,1,1,10,0,0
102704,-100,4,1,1,40,0,0
102866,-100,4,1,1,10,0,0
102947,-100,4,1,1,40,0,0
105218,-100,4,1,1,10,0,0
105299,-100,4,1,1,40,0,0
105461,-100,4,1,1,20,0,0
105542,-100,4,1,1,40,0,0
108948,-100,4,1,1,40,0,0
109110,-100,4,1,1,20,0,0
111542,-100,4,1,1,22,0,0
112029,-100,4,1,1,10,0,0
112191,-100,4,1,1,24,0,0
112677,-100,4,1,1,10,0,0
112839,-100,4,1,1,26,0,0
113326,-100,4,1,1,10,0,0
113488,-100,4,1,1,28,0,0
113974,-100,4,1,1,10,0,0
114137,-100,4,1,1,30,0,0
115272,-100,4,1,1,10,0,0
115434,-100,4,1,1,32,0,0
115920,-100,4,1,1,10,0,0
116083,-100,4,1,1,34,0,0
116407,-100,4,1,1,36,0,0
116731,-100,4,1,1,38,0,0
118029,-100,4,2,66,30,0,0
119326,-100,4,1,1,70,0,1
124515,-100,4,1,2,40,0,1
124596,-100,4,1,1,70,0,1
124758,-100,4,1,2,40,0,1
124839,-100,4,1,1,70,0,1
125002,-100,4,1,2,40,0,1
125083,-100,4,1,1,70,0,1
125245,-100,4,1,2,40,0,1
125326,-100,4,1,1,70,0,1
125812,-100,4,1,2,40,0,1
125893,-100,4,1,1,70,0,1
126056,-100,4,1,2,40,0,1
126137,-100,4,1,1,70,0,1
126299,-100,4,1,2,40,0,1
126380,-100,4,1,1,70,0,1
126542,-100,4,1,2,40,0,1
126623,-100,4,1,1,70,0,1
127110,-100,4,1,2,40,0,1
127191,-100,4,1,1,70,0,1
127353,-100,4,1,2,40,0,1
127434,-100,4,1,1,70,0,1
127596,-100,4,1,2,40,0,1
127677,-100,4,1,1,70,0,1
127839,-100,4,1,2,40,0,1
127920,-100,4,1,1,70,0,1
128569,-100,4,1,1,10,0,1
128650,-100,4,1,1,70,0,1
128812,-100,4,1,1,10,0,1
128893,-100,4,1,1,70,0,1
129056,-100,4,1,1,10,0,1
129137,-100,4,1,1,70,0,1
129299,-100,4,1,1,10,0,1
129380,-100,4,1,1,70,0,1
129461,-100,4,1,1,10,0,1
129542,-100,4,1,1,70,0,1
129623,-100,4,1,1,10,0,1
129704,-100,4,1,1,75,0,1
129866,-100,4,1,1,10,0,1
129947,-100,4,1,1,75,0,1
132299,-100,4,1,1,80,0,1
132461,-100,4,1,1,10,0,1
132542,-100,4,1,1,80,0,1
133596,-100,4,1,1,85,0,1
133758,-100,4,1,1,10,0,1
133839,-100,4,1,1,85,0,1
134488,-100,4,1,1,10,0,1
134569,-100,4,1,1,85,0,1
134893,-100,4,1,1,85,0,1
135056,-100,4,1,1,10,0,1
135137,-100,4,1,1,85,0,1
135299,-100,4,1,1,10,0,1
135380,-100,4,1,1,85,0,1
135542,-100,4,1,1,10,0,1
135623,-100,4,1,1,85,0,1
135785,-100,4,1,1,10,0,1
135866,-100,4,1,1,85,0,1
135947,-100,4,1,1,10,0,1
136029,-100,4,1,1,85,0,1
136110,-100,4,1,1,10,0,1
136191,-100,4,1,1,85,0,1
136353,-100,4,1,1,10,0,1
136434,-100,4,1,1,85,0,1
136596,-100,4,1,1,10,0,1
136677,-100,4,1,1,85,0,1
136839,-100,4,1,1,10,0,1
136920,-100,4,1,1,85,0,1
137083,-100,4,1,1,10,0,1
137164,-100,4,1,1,85,0,1
137245,-100,4,1,1,10,0,1
137326,-100,4,1,1,85,0,1
137407,-100,4,1,1,10,0,1
137488,-83.3333333333333,4,1,1,85,0,1
138785,-100,4,1,1,85,0,1
140002,-100,4,1,1,10,0,0
140083,-100,4,1,1,85,0,1
140245,-100,4,1,1,85,0,0
141380,-100,4,2,1,10,0,0
142029,-100,4,2,1,12,0,0
142677,-100,4,2,1,14,0,0
143326,-100,4,2,1,16,0,0
143974,-100,4,2,1,18,0,0
145353,-100,4,2,1,16,0,0
145434,-100,4,2,1,14,0,0
145515,-100,4,2,1,12,0,0
145596,-100,4,2,1,10,0,0
145920,-100,4,2,1,8,0,0
146245,-100,4,2,66,5,0,0

[Colours]
Combo1 : 250,28,20
Combo2 : 253,175,92
Combo3 : 130,121,104
Combo4 : 101,55,57

[HitObjects]
333,287,5163,6,0,L|337:81,1,200,4|4,0:0|0:0,0:0:0:0:
175,86,5812,1,2,0:0:0:0:
454,90,6461,1,2,0:0:0:0:
175,86,7109,1,2,0:0:0:0:
454,90,7758,6,0,L|256:158,1,200,2|8,0:0|0:0,0:0:0:0:
104,198,8407,1,2,0:0:0:0:
389,297,9055,2,0,P|329:266|481:95,1,400,2|2,0:0|0:0,0:0:0:0:
418,73,9785,1,0,0:0:0:0:
369,83,9866,1,0,0:0:0:0:
329,114,9947,1,0,0:0:0:0:
301,155,10028,1,8,0:0:0:0:
295,204,10109,1,0,0:0:0:0:
319,249,10191,1,0,0:0:0:0:
367,287,10272,1,0,0:0:0:0:
165,280,10353,6,0,L|156:64,1,200,4|0,0:0|0:0,0:0:0:0:
307,70,10920,1,0,0:0:0:0:
329,114,11001,1,2,0:0:0:0:
315,162,11082,1,0,0:0:0:0:
271,187,11163,1,0,0:0:0:0:
180,181,11326,1,8,0:0:0:0:
346,318,11650,6,0,L|358:114,1,200,2|0,0:0|0:0,0:0:0:0:
197,109,12299,2,0,L|131:66,2,66.6666666666667,2|0|0,0:0|0:0|0:0,0:0:0:0:
141,72,12623,2,0,L|65:104,2,66.6666666666667,8|0|0,0:0|0:0|0:0,0:0:0:0:
196,97,12947,6,0,L|208:310,1,200,2|8,0:0|0:0,0:0:0:0:
371,99,13596,2,0,L|383:317,1,200,2|0,0:0|0:0,0:0:0:0:
471,295,14082,1,0,0:0:0:0:
229,210,14245,6,0,L|152:204,2,66.6666666666667,0|0|0,3:0|0:0|0:0,0:0:0:0:
120,129,14569,2,0,L|38:124,2,66.6666666666667,0|0|0,3:0|0:0|0:0,0:0:0:0:
307,76,14893,1,0,3:0:0:0:
400,89,15001,1,0,3:0:0:0:
307,76,15109,1,0,3:0:0:0:
104,45,15218,1,0,3:0:0:0:
197,59,15326,1,0,3:0:0:0:
104,45,15434,1,0,3:0:0:0:
318,300,15542,6,0,P|410:299|485:149,1,250,4|0,0:0|0:0,0:0:0:0:
250,190,16028,1,4,0:0:0:0:
452,223,18136,5,4,0:0:0:0:
33,132,18623,1,4,0:0:0:0:
452,223,18947,1,4,0:0:0:0:
128,160,19434,6,0,L|120:83,1,59.9999981689454,0|0,3:0|3:0,0:0:0:0:
207,93,19596,2,0,L|199:16,1,59.9999981689454,0|0,3:0|3:0,0:0:0:0:
284,233,19758,2,0,L|276:156,1,59.9999981689454,0|0,3:0|3:0,0:0:0:0:
363,166,19920,2,0,L|355:89,1,59.9999981689454,0|0,3:0|3:0,0:0:0:0:
444,280,20082,2,0,L|437:206,1,59.9999981689454,0|0,3:0|3:0,0:0:0:0:
316,349,20245,2,0,L|310:280,1,59.9999981689454,0|0,3:0|0:0,0:0:0:0:
468,70,20407,2,0,L|399:64,1,59.9999981689454,0|0,3:0|0:0,0:0:0:0:
218,62,20569,2,0,L|151:55,1,59.9999981689454,0|0,3:0|0:0,0:0:0:0:
368,213,20731,6,0,L|428:205,1,50,4|0,0:0|0:0,0:0:0:0:
471,180,20893,2,0,L|473:114,1,50,0|0,0:0|0:0,0:0:0:0:
422,96,21055,2,0,L|354:72,1,50,0|0,0:0|0:0,0:0:0:0:
204,228,21218,6,0,L|135:230,1,50,4|0,0:0|0:0,0:0:0:0:
204,228,21380,2,0,L|266:228,1,50,0|0,0:0|0:0,0:0:0:0:
69,99,21542,6,0,L|59:167,1,50,4|0,0:0|0:0,0:0:0:0:
148,116,21704,2,0,L|156:181,1,50,0|0,0:0|0:0,0:0:0:0:
59,209,21866,2,0,L|118:219,1,50,0|0,0:0|0:0,0:0:0:0:
290,122,22028,6,0,L|300:186,1,50,4|0,0:0|0:0,0:0:0:0:
103,317,22191,6,0,L|42:314,1,50,4|0,0:0|0:0,0:0:0:0:
53,314,22353,2,0,L|109:317,1,50,0|0,0:0|0:0,0:0:0:0:
309,206,22515,6,0,L|296:278,1,50,4|0,0:0|0:0,0:0:0:0:
214,232,22677,2,0,L|271:243,1,50,0|0,0:0|0:0,0:0:0:0:
480,119,22839,6,0,L|419:110,1,50,4|0,0:0|0:0,0:0:0:0:
340,92,23001,2,0,L|331:154,1,50,0|0,0:0|0:0,0:0:0:0:
425,238,23163,2,0,L|438:172,1,50,0|0,0:0|0:0,0:0:0:0:
251,197,23326,6,0,L|239:135,1,50,4|0,3:0|3:0,0:0:0:0:
426,90,23488,2,0,L|413:18,1,50,0|0,3:0|3:0,0:0:0:0:
252,41,23650,1,0,3:0:0:0:
182,51,23731,1,0,3:0:0:0:
25,227,23812,2,0,L|90:216,1,50,0|0,3:0|3:0,0:0:0:0:
255,206,23974,6,0,L|323:194,1,50,4|0,3:0|3:0,0:0:0:0:
118,88,24136,2,0,L|131:146,1,50,0|0,3:0|3:0,0:0:0:0:
316,55,24299,2,0,L|328:127,1,50,0|0,3:0|3:0,0:0:0:0:
149,293,24461,2,0,L|87:304,1,50,0|0,3:0|3:0,0:0:0:0:
316,258,24623,6,0,L|376:248,1,50,4|0,0:0|0:0,0:0:0:0:
278,220,24785,2,0,L|217:192,1,50,0|0,0:0|0:0,0:0:0:0:
404,124,24947,2,0,L|423:181,1,50,0|0,0:0|0:0,0:0:0:0:
210,98,25109,2,0,L|194:46,1,50,0|0,0:0|0:0,0:0:0:0:
436,313,25272,6,0,P|467:264|433:200,1,100,4|0,0:0|0:0,0:0:0:0:
171,158,25514,2,0,L|95:153,2,50,4|0|0,0:0|0:0|0:0,0:0:0:0:
383,121,25757,2,0,L|435:117,1,50,4|0,0:0|0:0,0:0:0:0:
120,278,25920,6,0,L|274:258,1,150,6|0,0:0|0:0,0:0:0:0:
120,278,26245,2,0,P|75:241|135:177,1,150,8|0,0:0|0:0,0:0:0:0:
218,171,26569,2,0,L|272:167,1,50,0|0,0:0|0:0,0:0:0:0:
267,167,26731,2,0,L|207:173,1,50,2|0,0:0|0:0,0:0:0:0:
97,52,26893,2,0,L|86:107,1,50,8|0,0:0|0:0,0:0:0:0:
143,126,27055,2,0,L|204:130,1,50,0|0,0:0|0:0,0:0:0:0:
365,316,27218,6,0,L|358:256,1,50,2|0,0:0|0:0,0:0:0:0:
276,266,27380,2,0,L|269:212,1,50,0|0,0:0|0:0,0:0:0:0:
429,165,27542,2,0,L|421:96,1,50,8|0,0:0|0:0,0:0:0:0:
248,126,27704,2,0,L|241:63,1,50,0|0,0:0|0:0,0:0:0:0:
429,246,27866,2,0,L|481:246,1,50,0|0,0:0|0:0,0:0:0:0:
479,246,28028,2,0,L|424:246,1,50,2|0,0:0|0:0,0:0:0:0:
207,170,28191,2,0,L|271:166,1,50,8|0,0:0|0:0,0:0:0:0:
306,164,28353,2,0,L|383:159,1,50,0|0,0:0|0:0,0:0:0:0:
144,292,28515,6,0,P|87:261|120:182,1,150,6|0,0:0|0:0,0:0:0:0:
155,184,28839,1,8,0:0:0:0:
48,63,28920,2,0,L|37:131,1,50,0|0,0:0|0:0,0:0:0:0:
89,119,29082,1,2,0:0:0:0:
243,85,29163,6,0,L|312:79,1,50,0|0,0:0|0:0,0:0:0:0:
206,134,29326,2,0,L|192:203,1,50,2|0,0:0|0:0,0:0:0:0:
340,203,29488,2,0,L|400:196,1,50,8|0,0:0|0:0,0:0:0:0:
294,240,29650,2,0,L|280:309,1,50,0|0,0:0|0:0,0:0:0:0:
485,278,29812,6,0,L|492:167,1,100,2|0,0:0|0:0,0:0:0:0:
442,175,30055,1,0,0:0:0:0:
349,166,30136,2,0,L|290:161,1,50,8|0,0:0|0:0,0:0:0:0:
392,112,30299,2,0,L|456:117,1,50,0|0,0:0|0:0,0:0:0:0:
344,60,30461,2,0,L|286:54,1,50,0|0,0:0|0:0,0:0:0:0:
385,15,30623,2,0,L|450:19,1,50,2|0,0:0|0:0,0:0:0:0:
230,222,30785,2,0,L|64:207,1,150,12|0,0:0|0:0,0:0:0:0:
317,216,31109,6,0,P|369:185|310:139,1,150,6|0,0:0|0:0,0:0:0:0:
147,81,31434,2,0,L|218:84,1,50,8|0,0:0|0:0,0:0:0:0:
197,83,31596,2,0,L|139:78,1,50,0|0,0:0|0:0,0:0:0:0:
56,120,31758,2,0,L|65:186,1,50,0|0,0:0|0:0,0:0:0:0:
152,170,31920,2,0,L|161:228,1,50,2|0,0:0|0:0,0:0:0:0:
76,236,32082,1,8,0:0:0:0:
268,281,32163,2,0,L|276:214,1,50,0|0,0:0|0:0,0:0:0:0:
214,222,32326,1,0,0:0:0:0:
403,194,32407,6,0,P|452:166|394:121,1,150,2|0,0:0|0:0,0:0:0:0:
237,48,32731,2,0,L|246:118,1,50,8|0,0:0|0:0,0:0:0:0:
337,89,32893,2,0,L|348:154,1,50,0|0,0:0|0:0,0:0:0:0:
189,196,33055,2,0,L|179:270,1,50,0|0,0:0|0:0,0:0:0:0:
276,254,33218,2,0,L|268:316,1,50,2|0,0:0|0:0,0:0:0:0:
103,178,33380,2,0,L|111:115,1,50,8|0,0:0|0:0,0:0:0:0:
306,170,33542,2,0,L|318:98,1,50,0|0,0:0|0:0,0:0:0:0:
77,306,33704,6,0,L|12:303,1,50,6|0,0:0|0:0,0:0:0:0:
28,303,33866,2,0,L|91:306,1,50,0|0,0:0|0:0,0:0:0:0:
257,232,34028,2,0,L|325:236,1,50,8|0,0:0|0:0,0:0:0:0:
257,232,34191,2,0,L|190:229,1,50,0|0,0:0|0:0,0:0:0:0:
381,133,34353,2,0,L|444:130,1,50,0|0,0:0|0:0,0:0:0:0:
481,126,34515,2,0,L|431:130,1,50,2|0,0:0|0:0,0:0:0:0:
256,97,34677,2,0,L|193:94,1,50,8|0,0:0|0:0,0:0:0:0:
156,90,34839,2,0,L|206:94,1,50,0|0,0:0|0:0,0:0:0:0:
422,57,35001,5,4,0:0:0:0:
320,55,35163,1,4,0:0:0:0:
97,52,35326,1,8,0:0:0:0:
320,55,35488,1,4,0:0:0:0:
97,52,35812,1,4,0:0:0:0:
320,55,35974,1,8,0:0:0:0:
97,52,36136,1,4,0:0:0:0:
97,52,36623,6,0,L|70:79,6,25,2|0|0|0|0|0|0,0:0|0:0|0:0|0:0|0:0|0:0|0:0,0:0:0:0:
313,239,36947,6,0,L|195:230,1,100,6|0,0:0|0:0,0:0:0:0:
163,230,37191,1,0,0:0:0:0:
354,187,37272,2,0,P|410:153|352:93,1,150,8|0,0:0|0:0,0:0:0:0:
184,85,37596,6,0,L|120:89,1,50,2|0,0:0|0:0,0:0:0:0:
135,88,37758,2,0,L|201:85,1,50,0|0,0:0|0:0,0:0:0:0:
380,190,37920,2,0,L|351:258,1,50,8|0,0:0|0:0,0:0:0:0:
180,197,38082,2,0,L|210:256,1,50,0|2,0:0|0:0,0:0:0:0:
380,190,38245,2,0,L|351:258,1,50,0|0,0:0|0:0,0:0:0:0:
180,197,38407,2,0,L|210:256,1,50,2|0,0:0|0:0,0:0:0:0:
401,65,38569,2,0,L|340:217,1,150,8|0,0:0|0:0,0:0:0:0:
148,143,38893,6,0,P|84:113|129:48,1,150,6|0,0:0|0:0,0:0:0:0:
206,59,39218,2,0,L|259:53,1,50,8|0,0:0|0:0,0:0:0:0:
351,104,39380,2,0,L|292:112,1,50,0|0,0:0|0:0,0:0:0:0:
134,304,39542,2,0,L|70:302,1,50,0|0,0:0|0:0,0:0:0:0:
85,302,39704,2,0,L|142:305,1,50,2|0,0:0|0:0,0:0:0:0:
322,162,39866,2,0,L|307:234,1,50,8|0,0:0|0:0,0:0:0:0:
213,229,40028,2,0,L|282:241,1,50,0|0,0:0|0:0,0:0:0:0:
468,89,40191,6,0,L|486:194,1,100,2|0,0:0|0:0,0:0:0:0:
436,190,40434,1,0,0:0:0:0:
241,96,40515,2,0,L|248:169,1,50,8|0,0:0|0:0,0:0:0:0:
339,129,40677,2,0,L|347:190,1,50,0|0,0:0|0:0,0:0:0:0:
160,223,40839,2,0,L|165:294,1,50,0|0,0:0|0:0,0:0:0:0:
355,246,41001,2,0,L|364:308,1,50,2|0,0:0|0:0,0:0:0:0:
150,158,41163,2,0,P|85:145|56:40,1,150,12|0,0:0|0:0,0:0:0:0:
288,93,41488,6,0,L|117:80,1,150,6|0,0:0|0:0,0:0:0:0:
315,206,41812,2,0,L|380:207,1,50,8|0,0:0|0:0,0:0:0:0:
365,206,41974,2,0,L|307:205,1,50,0|2,0:0|0:0,0:0:0:0:
213,146,42136,2,0,L|266:145,1,50,0|0,0:0|0:0,0:0:0:0:
314,142,42299,2,0,L|384:139,1,50,2|0,0:0|0:0,0:0:0:0:
196,63,42461,2,0,L|139:67,1,50,8|0,0:0|0:0,0:0:0:0:
327,26,42623,2,0,L|267:34,1,50,0|0,0:0|0:0,0:0:0:0:
86,185,42785,6,0,L|75:222,1,25,6|0,0:0|0:0,0:0:0:0:
200,216,42947,2,0,L|211:258,1,25,0|0,0:0|0:0,0:0:0:0:
327,224,43109,2,0,L|351:244,1,25,8|0,0:0|0:0,0:0:0:0:
469,177,43272,2,0,L|509:180,1,25,0|0,0:0|0:0,0:0:0:0:
310,122,43434,6,0,L|298:154,1,25,0|0,0:0|0:0,0:0:0:0:
95,102,43596,2,0,L|55:110,1,25,2|0,0:0|0:0,0:0:0:0:
296,22,43758,2,0,L|316:52,1,25,8|0,0:0|0:0,0:0:0:0:
59,23,43920,2,0,L|35:57,1,25,0|0,0:0|0:0,0:0:0:0:
331,301,44082,6,0,P|420:277|409:205,1,150,6|0,0:0|0:0,0:0:0:0:
327,210,44407,2,0,L|266:212,1,50,8|0,0:0|0:0,0:0:0:0:
278,211,44569,2,0,L|340:209,1,50,0|0,0:0|0:0,0:0:0:0:
151,131,44731,2,0,L|94:134,1,50,0|0,0:0|0:0,0:0:0:0:
102,133,44893,2,0,L|162:130,1,50,2|0,0:0|0:0,0:0:0:0:
336,67,45055,2,0,L|323:131,1,50,8|0,0:0|0:0,0:0:0:0:
227,104,45218,2,0,L|211:160,1,50,0|0,0:0|0:0,0:0:0:0:
398,227,45380,6,0,L|419:293,1,50,6|0,0:0|0:0,0:0:0:0:
256,253,45542,1,0,0:0:0:0:
181,265,45623,1,0,0:0:0:0:
16,217,45704,2,0,L|22:166,1,50,8|0,0:0|0:0,0:0:0:0:
55,129,45866,2,0,L|101:106,1,50,0|0,0:0|0:0,0:0:0:0:
254,93,46028,1,0,0:0:0:0:
330,98,46109,1,0,0:0:0:0:
492,51,46191,2,0,L|432:45,1,50,2|0,0:0|0:0,0:0:0:0:
251,34,46353,2,0,L|190:31,1,50,8|0,0:0|0:0,0:0:0:0:
383,220,46515,2,0,L|323:213,1,50,0|0,0:0|0:0,0:0:0:0:
108,218,46677,5,4,0:0:0:0:
408,202,47163,1,4,0:0:0:0:
108,218,47488,1,4,0:0:0:0:
408,202,47650,1,4,0:0:0:0:
108,218,48136,1,4,0:0:0:0:
408,202,48623,6,0,L|123:210,2,262.500002503395,4|4|4,0:0|0:0|0:0,0:0:0:0:
103,214,49596,1,4,0:0:0:0:
318,202,49839,1,0,0:0:0:0:
332,187,49880,1,0,0:0:0:0:
335,156,49920,1,4,0:0:0:0:
103,214,50163,1,4,0:0:0:0:
439,188,50407,5,4,0:0:0:0:
228,177,50731,2,0,L|231:111,1,50,0|0,3:0|0:0,0:0:0:0:
439,188,50893,1,4,3:0:0:0:
225,176,51218,1,0,0:3:0:0:
377,164,51380,1,4,0:3:0:0:
132,102,51542,1,0,0:3:0:0:
380,68,51704,1,4,0:3:0:0:
124,258,52191,5,4,0:0:0:0:
422,236,52515,1,4,0:0:0:0:
124,258,52839,1,0,0:3:0:0:
136,215,52920,1,0,0:3:0:0:
173,191,53001,1,4,0:3:0:0:
441,109,53163,5,4,0:0:0:0:
230,105,53407,1,4,0:0:0:0:
18,99,53650,1,4,0:0:0:0:
230,105,53893,1,4,0:0:0:0:
18,99,54136,1,4,0:0:0:0:
257,105,54299,1,4,0:0:0:0:
18,99,54461,5,4,0:0:0:0:
215,102,54704,1,4,0:0:0:0:
18,99,54947,1,4,0:0:0:0:
365,188,55191,1,4,0:0:0:0:
177,189,55434,1,4,0:0:0:0:
408,189,55596,1,4,0:0:0:0:
185,106,55758,5,4,0:0:0:0:
53,98,55920,1,4,0:0:0:0:
286,61,56082,1,4,0:0:0:0:
416,41,56245,1,4,0:0:0:0:
187,209,56407,2,0,L|202:273,1,50,4|0,3:0|3:0,0:0:0:0:
282,285,56569,2,0,L|335:295,1,50,4|0,3:0|3:0,0:0:0:0:
150,92,56731,2,0,L|131:164,1,50,4|0,3:0|3:0,0:0:0:0:
346,122,56893,2,0,L|364:58,1,50,4|0,3:0|3:0,0:0:0:0:
115,317,57055,6,0,P|65:296|127:190,1,200,4|0,0:0|0:0,0:0:0:0:
209,187,57542,2,0,L|277:190,1,50,0|0,0:0|0:0,0:0:0:0:
378,200,57704,2,0,L|388:83,1,100,8|0,0:0|0:0,0:0:0:0:
226,86,58028,2,0,L|110:81,1,100,0|0,0:0|0:0,0:0:0:0:
202,85,58272,1,0,0:0:0:0:
277,90,58353,6,0,L|285:-23,1,100,2|0,0:0|0:0,0:0:0:0:
446,287,58677,2,0,L|435:178,1,100,0|0,0:0|0:0,0:0:0:0:
355,187,58920,1,0,0:0:0:0:
275,179,59001,2,0,L|166:174,1,100,8|0,0:0|0:0,0:0:0:0:
257,137,59245,1,0,0:0:0:0:
341,123,59326,2,0,L|458:116,1,100,0|0,0:0|0:0,0:0:0:0:
366,121,59569,1,0,0:0:0:0:
160,307,59650,6,0,L|152:187,1,100,2|0,0:0|0:0,0:0:0:0:
314,212,59974,2,0,L|325:89,1,100,0|0,0:0|0:0,0:0:0:0:
273,108,60218,1,0,0:0:0:0:
121,119,60299,2,0,L|113:15,1,100,8|0,0:0|0:0,0:0:0:0:
369,33,60623,2,0,L|474:24,1,100,0|0,0:0|0:0,0:0:0:0:
392,32,60866,1,0,0:0:0:0:
186,295,60947,6,0,P|131:276|199:189,1,200,2|0,0:0|0:0,0:0:0:0:
347,192,61434,2,0,L|352:134,1,50,0|0,0:0|0:0,0:0:0:0:
184,137,61596,2,0,L|174:25,1,100,8|0,0:0|0:0,0:0:0:0:
335,33,61920,1,0,0:0:0:0:
176,37,62082,2,0,L|178:92,1,50,0|0,0:0|0:0,0:0:0:0:
364,281,62245,6,0,L|372:171,1,100,0|0,0:0|0:0,0:0:0:0:
211,209,62569,2,0,L|200:107,1,100,0|0,0:0|0:0,0:0:0:0:
119,114,62812,1,0,0:0:0:0:
38,114,62893,2,0,L|47:231,1,100,8|0,0:0|0:0,0:0:0:0:
131,215,63136,1,0,0:0:0:0:
214,207,63218,2,0,L|103:213,1,100,0|0,0:0|0:0,0:0:0:0:
165,210,63461,1,0,0:0:0:0:
345,277,63542,6,0,L|348:166,1,100,2|0,0:0|0:0,0:0:0:0:
188,168,63866,2,0,L|176:50,1,100,0|0,0:0|0:0,0:0:0:0:
264,57,64109,1,0,0:0:0:0:
360,55,64191,1,8,0:0:0:0:
425,82,64272,1,0,0:0:0:0:
413,150,64353,1,0,0:0:0:0:
355,188,64434,1,0,0:0:0:0:
251,189,64515,2,0,L|242:250,1,50,0|0,0:0|0:0,0:0:0:0:
426,287,64677,2,0,L|491:296,1,50,0|0,0:0|0:0,0:0:0:0:
287,314,64839,6,0,P|209:279|284:198,1,200,2|0,0:0|0:0,0:0:0:0:
178,139,65272,1,0,0:0:0:0:
248,85,65380,1,0,0:0:0:0:
70,296,65488,2,0,P|23:245|118:164,1,200,8|0,0:0|0:0,0:0:0:0:
169,132,65920,1,0,0:0:0:0:
97,73,66028,1,0,0:0:0:0:
312,281,66136,6,0,P|376:268|367:61,1,300,2|0,0:0|0:0,0:0:0:0:
116,165,66785,2,0,L|446:146,1,300,0|0,3:0|0:0,0:0:0:0:
116,165,67434,1,4,0:0:0:0:
256,192,67596,12,0,68569,0:0:0:0:
256,192,68731,12,0,69866,0:0:0:0:
256,192,70028,12,0,72461,0:0:0:0:
123,223,72623,6,0,L|139:156,1,50,0|0,3:0|3:0,0:0:0:0:
225,166,72785,2,0,L|238:103,1,50,0|0,3:0|3:0,0:0:0:0:
325,113,72947,2,0,L|338:48,1,50,0|0,3:0|3:0,0:0:0:0:
425,82,73109,2,0,L|436:16,1,50,0|0,3:0|3:0,0:0:0:0:
342,198,73272,2,0,L|334:247,1,50,0|0,3:0|3:0,0:0:0:0:
243,227,73434,2,0,L|234:276,1,50,0|0,3:0|3:0,0:0:0:0:
144,268,73596,2,0,L|134:316,1,50,0|0,3:0|0:0,0:0:0:0:
39,304,73758,2,0,L|28:352,1,50,0|0,3:0|0:0,0:0:0:0:
368,224,73920,5,2,0:0:0:0:
256,192,74082,12,0,76515,0:0:0:0:
161,273,77812,6,0,P|101:249|186:172,1,200,6|8,0:0|0:0,0:0:0:0:
313,174,78299,2,0,L|322:121,1,50,0|0,0:0|0:0,0:0:0:0:
148,70,78461,2,0,L|83:73,1,50,0|0,0:0|0:0,0:0:0:0:
148,70,78623,2,0,L|208:67,1,50,2|0,0:0|0:0,0:0:0:0:
293,54,78785,2,0,L|313:110,1,50,8|0,0:0|0:0,0:0:0:0:
141,152,78947,2,0,L|129:211,1,50,0|0,0:0|0:0,0:0:0:0:
349,296,79109,6,0,P|409:268|326:199,1,200,2|8,0:0|0:0,0:0:0:0:
109,67,79596,2,0,L|98:134,1,50,0|0,0:0|0:0,0:0:0:0:
280,125,79758,2,0,L|393:113,1,100,0|0,0:0|0:0,0:0:0:0:
147,292,80082,2,0,L|37:272,1,100,8|0,0:0|0:0,0:0:0:0:
345,278,80407,6,0,P|410:245|328:194,1,200,2|0,0:0|0:0,0:0:0:0:
176,131,80893,2,0,L|168:190,1,50,0|0,0:0|0:0,0:0:0:0:
352,62,81055,2,0,L|345:132,1,50,0|0,0:0|0:0,0:0:0:0:
266,94,81218,2,0,L|259:168,1,50,2|0,0:0|0:0,0:0:0:0:
416,247,81380,2,0,L|350:243,1,50,8|0,0:0|0:0,0:0:0:0:
186,239,81542,2,0,L|124:237,1,50,0|0,0:0|0:0,0:0:0:0:
352,225,81704,6,0,L|374:105,1,100,2|0,0:0|0:0,0:0:0:0:
198,94,81947,1,0,0:0:0:0:
134,90,82028,1,8,0:0:0:0:
198,94,82109,1,0,0:0:0:0:
367,66,82191,1,0,0:0:0:0:
431,62,82272,1,0,0:0:0:0:
367,66,82353,1,0,0:0:0:0:
198,94,82434,1,0,0:0:0:0:
134,90,82515,1,2,0:0:0:0:
198,94,82596,1,0,0:0:0:0:
355,215,82677,2,0,L|371:164,1,50,8|0,0:0|0:0,0:0:0:0:
186,227,82839,2,0,L|172:289,1,50,0|0,0:0|0:0,0:0:0:0:
387,86,83001,6,0,L|440:78,1,50,2|0,0:0|0:0,0:0:0:0:
358,133,83163,2,0,L|298:141,1,50,0|0,0:0|0:0,0:0:0:0:
474,192,83326,2,0,L|485:270,1,50,10|0,0:0|0:0,0:0:0:0:
264,225,83488,2,0,L|256:151,1,50,0|0,0:0|0:0,0:0:0:0:
413,128,83650,6,0,L|477:121,1,50,0|0,0:0|0:0,0:0:0:0:
413,128,83812,2,0,L|354:132,1,50,2|0,0:0|0:0,0:0:0:0:
179,55,83974,2,0,L|184:114,1,50,10|0,0:0|0:0,0:0:0:0:
371,290,84136,2,0,L|364:217,1,50,0|0,0:0|0:0,0:0:0:0:
198,224,84299,6,0,L|129:227,1,50,2|0,0:0|0:0,0:0:0:0:
226,170,84461,2,0,L|286:167,1,50,0|0,0:0|0:0,0:0:0:0:
96,54,84623,2,0,L|100:121,1,50,10|0,0:0|0:0,0:0:0:0:
288,59,84785,2,0,L|294:128,1,50,0|0,0:0|0:0,0:0:0:0:
114,294,84947,6,0,L|57:299,1,50,0|0,0:0|0:0,0:0:0:0:
114,294,85109,2,0,L|186:288,1,50,2|0,0:0|0:0,0:0:0:0:
322,199,85272,2,0,L|295:257,1,50,8|0,0:0|0:0,0:0:0:0:
111,186,85434,2,0,L|86:248,1,50,0|0,0:0|0:0,0:0:0:0:
255,57,85596,6,0,L|265:116,1,50,2|0,0:0|0:0,0:0:0:0:
204,112,85758,2,0,L|196:174,1,50,0|0,0:0|0:0,0:0:0:0:
279,161,85920,2,0,L|292:219,1,50,8|0,0:0|0:0,0:0:0:0:
192,220,86082,2,0,L|181:286,1,50,0|2,0:0|0:0,0:0:0:0:
347,242,86245,2,0,L|368:313,1,50
176,250,86407,2,0,L|158:323,1,50,2|0,0:0|0:0,0:0:0:0:
367,137,86569,2,0,L|382:204,1,50,8|0,0:0|0:0,0:0:0:0:
160,144,86731,2,0,L|149:88,1,50,0|0,0:0|0:0,0:0:0:0:
388,26,86893,6,0,L|397:87,1,50,2|0,0:0|0:0,0:0:0:0:
311,84,87055,2,0,L|298:148,1,50,0|0,0:0|0:0,0:0:0:0:
453,203,87218,2,0,L|512:207,1,50,8|0,0:0|0:0,0:0:0:0:
503,206,87380,2,0,L|440:204,1,50,0|0,0:0|0:0,0:0:0:0:
296,275,87542,2,0,L|244:272,1,50,0|0,0:0|0:0,0:0:0:0:
247,272,87704,2,0,L|310:274,1,50,2|0,0:0|0:0,0:0:0:0:
407,239,87866,2,0,L|415:301,1,50,8|0,0:0|0:0,0:0:0:0:
212,177,88028,2,0,L|150:182,1,50,0|0,0:0|0:0,0:0:0:0:
399,160,88191,6,0,P|455:129|381:62,1,200,6|0,0:0|0:0,0:0:0:0:
216,39,88677,2,0,L|206:100,1,50,0|0,0:0|0:0,0:0:0:0:
381,259,88839,2,0,L|446:253,1,50,0|0,0:0|0:0,0:0:0:0:
431,254,89001,2,0,L|379:260,1,50,2|0,0:0|0:0,0:0:0:0:
218,235,89163,2,0,L|206:178,1,50,8|0,0:0|0:0,0:0:0:0:
387,151,89326,2,0,L|396:93,1,50,0|0,0:0|0:0,0:0:0:0:
181,114,89488,6,0,P|134:91|226:42,1,200,2|8,0:0|0:0,0:0:0:0:
435,38,89974,2,0,L|446:103,1,50,0|2,0:0|0:0,0:0:0:0:
270,249,90136,2,0,L|153:235,1,100,0|2,0:0|0:0,0:0:0:0:
440,153,90461,2,0,L|336:142,1,100,8|0,0:0|0:0,0:0:0:0:
47,171,90785,6,0,L|259:162,1,200,2|8,0:0|0:0,0:0:0:0:
408,55,91272,2,0,L|413:116,1,50,0|0,0:0|0:0,0:0:0:0:
240,229,91434,2,0,L|242:286,1,50,0|0,0:0|0:0,0:0:0:0:
335,264,91596,2,0,L|343:337,1,50,2|0,0:0|0:0,0:0:0:0:
161,115,91758,2,0,L|164:182,1,50,8|0,0:0|0:0,0:0:0:0:
360,124,91920,2,0,L|422:122,1,50,0|0,0:0|0:0,0:0:0:0:
189,251,92082,5,2,0:0:0:0:
125,250,92163,1,0,0:0:0:0:
104,185,92245,1,0,0:0:0:0:
285,176,92326,1,0,0:0:0:0:
349,175,92407,1,8,0:0:0:0:
370,110,92487,1,0,0:0:0:0:
190,120,92568,1,0,0:0:0:0:
126,119,92650,1,0,0:0:0:0:
105,54,92730,1,0,0:0:0:0:
279,286,92811,1,0,0:0:0:0:
343,285,92892,1,2,0:0:0:0:
364,220,92973,1,0,0:0:0:0:
190,212,93055,2,0,L|181:150,1,50,8|0,0:0|0:0,0:0:0:0:
368,140,93217,2,0,L|356:74,1,50,0|0,0:0|0:0,0:0:0:0:
155,44,93380,6,0,L|169:105,1,50,2|0,0:0|0:0,0:0:0:0:
253,77,93542,2,0,L|270:139,1,50,0|0,0:0|0:0,0:0:0:0:
102,278,93704,2,0,L|179:280,1,50,10|0,0:0|0:0,0:0:0:0:
361,235,93866,2,0,L|291:216,1,50,0|0,0:0|0:0,0:0:0:0:
137,177,94028,6,0,L|71:181,1,50,0|0,0:0|0:0,0:0:0:0:
88,180,94191,2,0,L|161:174,1,50,2|0,0:0|0:0,0:0:0:0:
305,102,94353,2,0,L|316:176,1,50,10|0,0:0|0:0,0:0:0:0:
97,57,94515,2,0,L|155:56,1,50,0|0,0:0|0:0,0:0:0:0:
353,231,94677,2,0,L|411:227,1,50,2|0,0:0|0:0,0:0:0:0:
353,231,94839,2,0,L|288:233,1,50,0|0,0:0|0:0,0:0:0:0:
102,131,95001,2,0,L|176:130,1,50,10|0,0:0|0:0,0:0:0:0:
325,51,95163,2,0,L|331:112,1,50,0|2,0:0|0:0,0:0:0:0:
147,301,95326,6,0,L|156:240,1,50,0|0,0:0|0:0,0:0:0:0:
245,195,95488,2,0,L|311:199,1,50,2|0,0:0|0:0,0:0:0:0:
120,83,95650,2,0,L|178:86,1,50,8|0,0:0|0:0,0:0:0:0:
353,93,95812,2,0,L|412:97,1,50,0|0,0:0|0:0,0:0:0:0:
209,298,95974,6,0,L|195:242,1,50,6|0,0:0|0:0,0:0:0:0:
266,239,96136,2,0,L|278:183,1,50,0|0,0:0|0:0,0:0:0:0:
196,163,96299,2,0,L|163:113,1,50,8|0,0:0|0:0,0:0:0:0:
256,104,96461,2,0,L|308:84,1,50,0|0,0:0|0:0,0:0:0:0:
125,177,96623,2,0,L|138:236,1,50,0|0,0:0|0:0,0:0:0:0:
307,203,96785,2,0,L|323:259,1,50,2|0,0:0|0:0,0:0:0:0:
108,146,96947,2,0,L|97:83,1,50,8|0,0:0|0:0,0:0:0:0:
311,118,97109,2,0,L|324:178,1,50,0|0,0:0|0:0,0:0:0:0:
68,35,97272,6,0,L|136:26,1,50,6|0,0:0|0:0,0:0:0:0:
198,66,97434,2,0,L|271:71,1,50,0|0,0:0|0:0,0:0:0:0:
75,238,97596,2,0,L|140:243,1,50,8|0,0:0|0:0,0:0:0:0:
198,213,97758,2,0,L|258:228,1,50,0|0,0:0|0:0,0:0:0:0:
87,76,97920,2,0,L|95:148,1,50,0|0,0:0|0:0,0:0:0:0:
251,122,98082,1,2,0:0:0:0:
325,113,98163,1,0,0:0:0:0:
493,57,98245,2,0,L|423:54,1,50,8|0,0:0|0:0,0:0:0:0:
220,32,98407,2,0,L|219:88,1,50,0|0,0:0|0:0,0:0:0:0:
436,276,98569,6,0,P|483:243|312:103,1,400,6|8,0:0|0:0,0:0:0:0:
112,137,99704,2,0,P|54:151|141:246,1,250,2|2,0:0|0:0,0:0:0:0:
250,231,100353,1,2,0:0:0:0:
419,219,100515,2,0,L|426:112,1,100,8|0,0:0|0:0,0:0:0:0:
273,69,100839,1,0,0:0:0:0:
425,118,101001,1,0,0:0:0:0:
172,308,101163,6,0,P|109:292|186:146,1,300,2|0,0:0|0:0,0:0:0:0:
235,151,101731,1,0,0:0:0:0:
393,235,101812,2,0,P|461:211|373:95,1,250,8|0,0:0|0:0,0:0:0:0:
351,84,102299,1,2,0:0:0:0:
302,85,102380,1,2,0:0:0:0:
106,248,102461,6,0,L|272:201,2,150,2|0|0,0:0|0:0|0:0,0:0:0:0:
277,142,103109,1,8,0:0:0:0:
323,120,103191,1,0,0:0:0:0:
341,73,103272,1,0,0:0:0:0:
317,29,103353,1,0,0:0:0:0:
270,14,103434,2,0,L|389:12,1,100,2|0,0:0|0:0,0:0:0:0:
131,312,103758,6,0,P|81:285|222:87,1,400,2|8,0:0|0:0,0:0:0:0:
259,90,104488,1,0,0:0:0:0:
210,80,104569,1,0,0:0:0:0:
50,106,104731,2,0,L|66:222,1,100,0|0,0:0|0:0,0:0:0:0:
94,201,104934,1,2,0:0:0:0:
124,199,104974,1,2,0:0:0:0:
276,255,105055,6,0,L|443:244,1,150,2|2,0:0|0:0,0:0:0:0:
368,202,105380,1,0,0:0:0:0:
381,142,105461,1,0,0:0:0:0:
432,111,105542,1,2,0:0:0:0:
257,89,105704,2,0,L|245:203,1,100,8|0,0:0|0:0,0:0:0:0:
140,32,106028,2,0,L|249:38,1,100,2|0,0:0|0:0,0:0:0:0:
471,295,106353,6,0,P|489:241|270:16,1,400,2|8,0:0|0:0,0:0:0:0:
446,21,107326,1,0,0:0:0:0:
397,19,107407,1,2,0:0:0:0:
348,20,107488,1,0,0:0:0:0:
299,24,107569,1,2,0:0:0:0:
134,244,107650,6,0,L|114:192,1,50,0|0,0:0|0:0,0:0:0:0:
220,186,107893,2,0,L|273:180,1,50,2|0,0:0|0:0,0:0:0:0:
295,124,108055,2,0,L|282:62,1,50,0|0,0:0|0:0,0:0:0:0:
236,61,108218,1,0,0:0:0:0:
388,255,108299,2,0,L|456:251,1,50,8|0,3:0|3:0,0:0:0:0:
438,252,108461,2,0,L|379:256,1,50,0|0,3:0|0:0,0:0:0:0:
222,170,108623,2,0,L|165:175,1,50,0|0,3:0|3:0,0:0:0:0:
340,94,108785,2,0,L|403:86,1,50,0|0,3:0|0:0,0:0:0:0:
138,264,108947,6,0,P|81:252|195:80,1,400,4|2,0:0|0:0,0:0:0:0:
379,98,109920,1,0,0:0:0:0:
82,294,110245,6,0,L|69:88,1,200,2|0,0:0|0:0,0:0:0:0:
170,87,110731,1,0,0:0:0:0:
69,93,110893,2,0,L|187:88,1,100,2|0,0:0|0:0,0:0:0:0:
23,35,111218,1,8,0:0:0:0:
163,23,111380,1,8,0:0:0:0:
407,293,111542,6,0,P|450:261|323:123,1,300,2|0,0:0|0:0,0:0:0:0:
176,190,112191,2,0,P|107:164|218:57,1,300,2|0,0:0|0:0,0:0:0:0:
442,211,112839,5,2,0:0:0:0:
38,217,113488,1,2,0:0:0:0:
481,160,114136,2,0,P|285:70|441:303,1,700,6|0,0:0|0:0,0:0:0:0:
151,276,115434,6,0,P|88:238|193:96,1,300,2|0,0:0|0:0,0:0:0:0:
414,70,116082,2,0,L|183:55,1,200,2|8,0:0|0:0,0:0:0:0:
320,48,116569,1,8,0:0:0:0:
78,274,116731,6,0,L|381:206,2,300,6|2|2,0:0|0:0|0:0,0:0:0:0:
482,202,118028,1,6,0:0:0:0:
256,192,118191,12,0,119163,0:0:0:0:
163,273,119326,6,0,L|146:156,1,100,6|0,0:0|0:0,0:0:0:0:
316,150,119569,2,0,L|380:152,2,50,0|0|0,0:0|0:0|0:0,0:0:0:0:
146,58,119812,2,0,L|92:54,2,50,0|0|2,0:0|0:0|0:0,0:0:0:0:
318,283,120055,1,0,0:0:0:0:
269,281,120136,1,2,0:0:0:0:
219,278,120218,1,0,0:0:0:0:
373,208,120299,2,0,L|354:153,1,50,8|0,0:0|0:0,0:0:0:0:
168,158,120461,2,0,L|143:99,1,50,0|0,0:0|0:0,0:0:0:0:
352,70,120623,6,0,L|426:65,1,50,2|0,0:0|0:0,0:0:0:0:
402,66,120785,2,0,L|341:70,1,50,0|0,0:0|0:0,0:0:0:0:
157,262,120947,2,0,L|103:265,1,50,8|0,0:0|0:0,0:0:0:0:
108,264,121109,2,0,L|168:259,1,50,0|0,0:0|0:0,0:0:0:0:
249,190,121272,2,0,L|310:186,1,50,2|0,0:0|0:0,0:0:0:0:
299,186,121434,2,0,L|241:190,1,50,2|0,0:0|0:0,0:0:0:0:
168,169,121596,2,0,L|163:116,1,50,8|0,0:0|0:0,0:0:0:0:
334,67,121758,2,0,L|389:64,1,50,0|0,0:0|0:0,0:0:0:0:
187,263,121920,6,0,L|77:255,1,100,2|0,0:0|0:0,0:0:0:0:
265,160,122163,1,0,0:0:0:0:
316,154,122245,1,8,0:0:0:0:
366,146,122326,1,0,0:0:0:0:
183,105,122407,1,0,0:0:0:0:
132,99,122487,1,0,0:0:0:0:
82,91,122568,1,2,0:0:0:0:
266,49,122649,2,0,L|331:50,2,50,0|2|0,0:0|0:0|0:0,0:0:0:0:
107,223,122892,2,0,L|120:277,1,50,8|0,0:0|0:0,0:0:0:0:
196,252,123055,2,0,L|206:303,1,50,0|0,0:0|0:0,0:0:0:0:
31,144,123218,6,0,L|247:123,1,200,2|8,0:0|0:0,0:0:0:0:
79,62,123704,2,0,L|146:54,1,50,0|0,0:0|0:0,0:0:0:0:
297,185,123866,2,0,L|287:241,1,50,2|0,0:0|0:0,0:0:0:0:
196,220,124028,2,0,L|186:283,1,50,2|0,0:0|0:0,0:0:0:0:
352,93,124191,2,0,L|394:90,2,25,8|0|0,0:0|0:0|0:0,0:0:0:0:
191,98,124353,1,8,0:0:0:0:
157,101,124393,1,0,0:0:0:0:
122,103,124434,1,0,0:0:0:0:
340,240,124515,5,2,0:0:0:0:
410,224,124596,1,0,0:0:0:0:
340,240,124677,1,0,0:0:0:0:
172,174,124758,1,2,0:0:0:0:
237,168,124839,1,8,0:0:0:0:
302,160,124920,1,0,0:0:0:0:
129,90,125001,1,2,0:0:0:0:
59,74,125082,1,0,0:0:0:0:
129,90,125163,1,2,0:0:0:0:
306,76,125245,1,2,0:0:0:0:
376,60,125326,1,2,0:0:0:0:
306,76,125407,1,0,0:0:0:0:
161,208,125488,2,0,L|150:270,1,50,8|0,0:0|0:0,0:0:0:0:
331,201,125650,2,0,L|340:149,1,50,0|0,0:0|0:0,0:0:0:0:
142,126,125812,5,2,0:0:0:0:
73,132,125893,1,0,0:0:0:0:
142,126,125974,1,0,0:0:0:0:
304,65,126055,1,2,0:0:0:0:
240,59,126136,1,8,0:0:0:0:
175,52,126218,1,0,0:0:0:0:
354,272,126299,1,2,0:0:0:0:
409,264,126380,1,0,0:0:0:0:
434,210,126461,1,2,0:0:0:0:
243,230,126542,1,2,0:0:0:0:
188,222,126623,1,2,0:0:0:0:
163,168,126704,1,0,0:0:0:0:
331,83,126785,2,0,L|343:144,1,50,8|0,0:0|0:0,0:0:0:0:
133,79,126947,2,0,L|77:87,1,50,0|0,0:0|0:0,0:0:0:0:
307,277,127109,5,2,0:0:0:0:
363,271,127191,1,0,0:0:0:0:
418,265,127272,1,0,0:0:0:0:
237,198,127353,1,2,0:0:0:0:
181,192,127433,1,8,0:0:0:0:
126,186,127514,1,0,0:0:0:0:
303,58,127595,2,0,L|296:118,1,50,2|0,0:0|0:0,0:0:0:0:
238,107,127757,1,2,0:0:0:0:
406,135,127838,1,2,0:0:0:0:
471,128,127919,1,2,0:0:0:0:
406,135,128001,1,0,0:0:0:0:
173,61,128082,2,0,L|131:58,2,25,8|0|0,0:0|0:0|0:0,0:0:0:0:
405,57,128244,1,8,0:0:0:0:
439,60,128284,1,0,0:0:0:0:
474,62,128325,1,0,0:0:0:0:
267,274,128407,6,0,L|153:262,1,100,4|0,0:0|0:0,0:0:0:0:
366,193,128650,2,0,L|476:184,1,100,4|0,0:0|0:0,0:0:0:0:
266,151,128893,2,0,L|246:41,1,100,4|0,0:0|0:0,0:0:0:0:
454,111,129136,2,0,L|475:6,1,100,4|0,0:0|0:0,0:0:0:0:
261,20,129380,1,4,0:0:0:0:
480,16,129542,1,4,0:0:0:0:
180,284,129704,6,0,L|395:273,1,200,6|8,0:0|0:0,0:0:0:0:
125,116,130191,2,0,L|135:185,1,50,0|0,0:0|0:0,0:0:0:0:
324,187,130353,2,0,L|339:85,1,100,2|2,0:0|0:0,0:0:0:0:
166,50,130596,2,0,L|113:51,2,50,0|0|0,0:0|0:0|0:0,0:0:0:0:
330,31,130839,2,0,L|334:82,1,50,0|0,0:0|0:0,0:0:0:0:
152,295,131001,6,0,L|50:282,1,100,2|0,0:0|0:0,0:0:0:0:
240,195,131245,2,0,L|295:191,2,50,0|0|0,0:0|0:0|0:0,0:0:0:0:
60,107,131488,2,0,L|120:105,1,50,0|0,0:0|0:0,0:0:0:0:
300,96,131650,2,0,L|414:92,1,100,2|2,0:0|0:0,0:0:0:0:
220,42,131893,2,0,L|165:45,2,50,0|0|0,0:0|0:0|0:0,0:0:0:0:
393,30,132136,2,0,L|400:92,1,50,0|0,0:0|0:0,0:0:0:0:
174,290,132299,6,0,P|130:253|235:170,1,200,6|0,0:0|0:0,0:0:0:0:
346,102,132785,2,0,L|353:160,1,50,0|0,0:0|0:0,0:0:0:0:
178,82,132947,2,0,L|76:77,1,100,2|2,0:0|0:0,0:0:0:0:
129,77,133191,1,0,0:0:0:0:
292,197,133272,2,0,L|273:258,1,50,8|0,0:0|0:0,0:0:0:0:
82,210,133434,2,0,L|157:223,1,50,0|0,0:0|0:0,0:0:0:0:
325,117,133596,6,0,L|439:108,1,100,6|0,0:0|0:0,0:0:0:0:
241,67,133839,1,0,0:0:0:0:
187,63,133920,1,8,0:0:0:0:
133,58,134001,1,0,0:0:0:0:
314,188,134082,2,0,L|382:184,1,50,0|0,0:0|0:0,0:0:0:0:
158,291,134245,2,0,L|152:184,1,100,2|0,0:0|0:0,0:0:0:0:
389,98,134569,2,0,L|435:95,2,25,8|0|0,0:0|0:0|0:0,0:0:0:0:
175,94,134731,1,8,0:0:0:0:
138,91,134772,1,0,0:0:0:0:
102,90,134812,1,0,0:0:0:0:
280,264,134893,5,4,0:0:0:0:
84,224,135136,1,4,0:0:0:0:
280,264,135380,1,4,0:0:0:0:
84,224,135623,1,4,0:0:0:0:
280,264,135866,1,4,0:0:0:0:
47,219,136028,1,4,0:0:0:0:
286,128,136191,5,4,0:0:0:0:
496,100,136434,1,4,0:0:0:0:
286,128,136677,1,4,0:0:0:0:
78,99,136920,1,4,0:0:0:0:
286,128,137163,1,4,0:0:0:0:
16,92,137326,1,4,0:0:0:0:
406,282,137488,6,0,L|418:222,1,59.9999981689454,6|0,3:0|3:0,0:0:0:0:
259,215,137650,2,0,L|189:209,1,59.9999981689454,0|0,3:0|0:0,0:0:0:0:
37,114,137812,2,0,L|102:116,1,59.9999981689454,8|0,3:0|0:0,0:0:0:0:
264,101,137974,2,0,L|339:100,1,59.9999981689454,4|0,3:0|3:0,0:0:0:0:
490,37,138136,2,0,L|431:39,1,59.9999981689454,6|0,3:0|3:0,0:0:0:0:
230,37,138299,2,0,L|164:38,1,59.9999981689454,0|0,3:0|0:0,0:0:0:0:
381,201,138461,2,0,L|454:198,1,59.9999981689454,8|0,3:0|0:0,0:0:0:0:
178,163,138623,2,0,L|112:166,1,59.9999981689454,4|0,3:0|0:0,0:0:0:0:
401,282,138785,5,4,0:0:0:0:
256,192,138947,12,4,140082,0:0:0:0:
