osu file format v14

[General]
AudioFilename: audio.mp3
AudioLeadIn: 0
PreviewTime: 77990
Countdown: 0
SampleSet: None
StackLeniency: 0.2
Mode: 0
LetterboxInBreaks: 0
WidescreenStoryboard: 0

[Editor]
Bookmarks: 15720,20909,26098,31287,36477,41666,46855,52044,57233,62423,67612,72801,77990,88369,98747,109125,119504,129882,140260
DistanceSpacing: 0.8
BeatDivisor: 4
GridSize: 16
TimelineZoom: 2.599999

[Metadata]
Title:ouroVoros
TitleUnicode:ouroVoros
Artist:Negentropy (a.k.a. Team Grimoire)
ArtistUnicode:Negentropy (a.k.a. Team Grimoire)
Creator:QuiescentRabbit
Version:Draconic Infinity
Source:
Tags:Turquoise-
BeatmapID:1846085
BeatmapSetID:883042

[Difficulty]
HPDrainRate:5
CircleSize:3.8
OverallDifficulty:9
ApproachRate:9.7
SliderMultiplier:2
SliderTickRate:1

[Events]
//Background and Video events
0,0,"ac4ecac1f1bcafc302fb8803abd5c12e.png",0,0
//Break Periods
//Storyboard Layer 0 (Background)
//Storyboard Layer 1 (Fail)
//Storyboard Layer 2 (Pass)
//Storyboard Layer 3 (Foreground)
//Storyboard Sound Samples

[TimingPoints]
5342,324.324324324324,4,2,0,50,1,0
16206,-66.6666666666667,4,2,0,50,0,0
16369,-133.333333333333,4,2,0,50,0,0
18801,-80,4,2,0,50,0,0
19125,-66.6666666666667,4,2,0,50,0,0
19287,-133.333333333333,4,2,0,50,0,0
19612,-66.6666666666667,4,2,0,50,0,0
20909,-76.9230769230769,4,2,0,55,0,0
21396,-66.6666666666667,4,2,0,60,0,0
23504,-66.6666666666667,4,2,0,65,0,0
24801,-66.6666666666667,4,2,0,70,0,0
25450,-66.6666666666667,4,2,0,75,0,0
26098,-40,4,2,0,80,0,1
26423,-50,4,2,0,80,0,1
26747,-80,4,2,0,80,0,1
27071,-100,4,2,0,80,0,1
27396,-66.6666666666667,4,2,0,80,0,1
27720,-80,4,2,0,80,0,1
28693,-40,4,2,0,80,0,1
29341,-66.6666666666667,4,2,0,80,0,1
30963,-200,4,2,0,80,0,1
31287,-40,4,2,0,80,0,1
31612,-55.5555555555556,4,2,0,80,0,1
33882,-43.4782608695652,4,2,0,80,0,1
34206,-66.6666666666667,4,2,0,80,0,1
35504,-33.3333333333333,4,2,0,80,0,1
35666,-66.6666666666667,4,2,0,80,0,1
35990,-33.3333333333333,4,2,0,80,0,1
36152,-66.6666666666667,4,2,0,80,0,1
36314,-133.333333333333,4,2,0,80,0,1
36801,-100,4,2,0,80,0,1
37125,-50,4,2,0,80,0,1
37450,-66.6666666666667,4,2,0,80,0,1
37774,-80,4,2,0,80,0,1
38747,-200,4,2,0,80,0,1
39071,-50,4,2,0,80,0,1
39396,-80,4,2,0,80,0,1
40044,-200,4,2,0,80,0,1
40369,-66.6666666666667,4,2,0,80,0,1
41341,-400,4,2,0,80,0,1
41666,-33.3333333333333,4,2,0,80,0,1
41909,-50,4,2,0,80,0,1
42639,-55.5555555555556,4,2,0,80,0,1
42801,-43.4782608695652,4,2,0,80,0,1
42963,-50,4,2,0,80,0,1
44260,-50,4,2,0,80,0,1
46855,-50,4,2,0,70,0,1
49774,-33.3333333333333,4,2,0,70,0,1
50017,-40,4,2,0,70,0,1
52044,-100,4,2,0,70,0,1
52369,-33.3333333333333,4,2,0,70,0,1
53341,-33.3333333333333,4,2,0,70,0,1
54639,-28.5714285714286,4,2,0,70,0,1
57233,-133.333333333333,4,2,0,60,0,0
61125,-100,4,2,0,65,0,0
62098,-133.333333333333,4,2,0,60,0,0
65017,-500,4,2,0,60,0,0
66314,-142.857142857143,4,2,0,60,0,0
67612,-400,4,2,0,50,0,0
72720,-400,4,2,0,5,0,0
72801,-100,4,2,0,50,0,0
77990,-50,4,2,0,80,0,1
78233,-50,4,2,0,5,0,1
78314,-50,4,2,0,80,0,1
79531,-50,4,2,0,5,0,1
79612,-50,4,2,0,80,0,1
80260,-200,4,2,0,80,0,1
80585,-50,4,2,0,80,0,1
87233,-66.6666666666667,4,2,0,80,0,1
87720,-100,4,2,0,80,0,1
87882,-66.6666666666667,4,2,0,80,0,1
88044,-50,4,2,0,80,0,1
88369,-142.857142857143,4,2,0,80,0,1
92260,-50,4,2,0,80,0,1
98747,-200,4,2,0,60,0,0
111396,-142.857142857143,4,2,0,60,0,0
111720,-166.666666666667,4,2,0,60,0,0
112369,-117.647058823529,4,2,0,60,0,0
114314,-100,4,2,0,60,0,0
119504,-50,4,2,0,80,0,1
124409,-40.650406504065,4,2,0,40,0,1
124450,-40.650406504065,4,2,0,80,0,1
124490,-40.650406504065,4,2,0,40,0,1
124531,-32.5732899022801,4,2,0,80,0,1
124571,-40.650406504065,4,2,0,40,0,1
124612,-25,4,2,0,80,0,1
124652,-40.650406504065,4,2,0,40,0,1
124693,-44.4444444444445,4,2,0,80,0,1
126963,-66.6666666666667,4,2,0,80,0,1
127125,-50,4,2,0,80,0,1
127287,-44.4444444444445,4,2,0,80,0,1
127531,-40,4,2,0,80,0,1
127774,-33.3333333333333,4,2,0,80,0,1
128017,-28.5714285714286,4,2,0,80,0,1
129882,-50,4,2,0,80,0,1
130206,-55.5555555555556,4,2,0,80,0,1
135071,-45.4545454545455,4,2,0,80,0,1
136369,-33.3333333333333,4,2,0,80,0,1
140260,-100,4,2,0,60,0,0

[HitObjects]
125,67,5341,6,0,L|110:232,1,150,0|0,0:0|0:0,0:0:0:0:
189,239,5666,2,0,P|183:173|130:138,1,100
38,194,5990,1,0,0:0:0:0:
266,261,6639,5,0,0:0:0:0:
494,328,7287,1,0,0:0:0:0:
266,261,7936,5,0,0:0:0:0:
38,194,8584,1,0,0:0:0:0:
266,261,9233,5,0,0:0:0:0:
494,328,9882,1,0,0:0:0:0:
430,57,10206,6,0,L|423:126,3,50
439,49,10531,2,0,P|383:44|332:111,1,100
232,186,10855,2,0,P|288:181|339:248,1,100
495,328,11179,5,0,0:0:0:0:
268,259,11504,2,0,L|273:318,1,50
495,328,11828,5,0,0:0:0:0:
424,106,12152,5,0,0:0:0:0:
424,106,12314,1,0,0:0:0:0:
268,259,12477,1,0,0:0:0:0:
123,60,12801,6,0,L|117:125,3,50
131,54,13125,2,0,P|192:54|235:100,1,100
294,185,13450,2,0,P|233:185|190:231,1,100
38,194,13774,5,0,0:0:0:0:
267,259,14423,5,0,0:0:0:0:
304,270,14531,1,0,0:0:0:0:
342,281,14639,1,0,0:0:0:0:
380,293,14747,5,0,0:0:0:0:
418,304,14855,1,0,0:0:0:0:
456,315,14963,1,0,0:0:0:0:
494,327,15071,5,0,0:0:0:0:
486,262,15179,1,0,0:0:0:0:
434,224,15287,1,0,0:0:0:0:
370,235,15395,5,0,0:0:0:0:
335,290,15503,1,0,0:0:0:0:
351,352,15611,1,0,0:0:0:0:
407,384,15719,5,0,0:0:0:0:
200,124,16206,6,0,L|192:211,1,75.0000028610231
263,296,16369,6,0,L|266:252,2,37.5000014305115
390,229,16693,2,0,L|393:185,2,37.5000014305115
276,140,17017,2,0,L|279:96,2,37.5000014305115
403,73,17341,2,0,L|406:29,1,37.5000014305115
396,154,17504,2,0,L|392:191,1,37.5000014305115
276,140,17666,2,0,L|279:96,1,37.5000014305115
269,221,17829,2,0,L|265:258,1,37.5000014305115
149,207,17990,1,0,0:0:0:0:
150,188,18071,1,0,0:0:0:0:
152,169,18152,5,0,0:0:0:0:
95,173,18233,1,0,0:0:0:0:
39,178,18314,5,0,0:0:0:0:
260,320,18801,6,0,L|266:248,1,62.5
269,65,19125,6,0,L|275:139,1,75.0000028610231
389,228,19287,6,0,L|392:184,3,37.5000014305115
265,257,19612,5,0,0:0:0:0:
264,276,19693,1,0,0:0:0:0:
262,295,19774,1,0,0:0:0:0:
261,314,19855,1,0,0:0:0:0:
180,321,19936,5,0,0:0:0:0:
181,302,20017,1,0,0:0:0:0:
183,283,20098,1,0,0:0:0:0:
184,264,20179,1,0,0:0:0:0:
103,271,20261,5,0,0:0:0:0:
102,290,20342,1,0,0:0:0:0:
100,309,20423,1,0,0:0:0:0:
99,328,20504,1,0,0:0:0:0:
18,335,20585,5,0,0:0:0:0:
22,278,20666,1,0,0:0:0:0:
27,222,20747,1,0,0:0:0:0:
32,166,20828,1,0,0:0:0:0:
37,110,20909,6,0,L|45:10,3,64.9999970245363
216,186,21233,1,0,0:0:0:0:
216,186,21314,1,0,0:0:0:0:
216,186,21396,2,0,P|172:263|218:371,1,150.000005722046
323,169,21639,1,0,0:0:0:0:
323,169,21720,2,0,P|271:92|250:88,1,75.0000028610231
274,264,21882,1,0,0:0:0:0:
327,278,21963,1,0,0:0:0:0:
380,262,22044,1,0,0:0:0:0:
416,220,22125,1,0,0:0:0:0:
424,165,22206,6,0,L|412:34,1,75.0000028610231
274,264,22369,2,0,L|262:394,1,75.0000028610231
147,127,22531,1,0,0:0:0:0:
147,127,22612,1,0,0:0:0:0:
147,127,22693,2,0,L|135:-3,1,75.0000028610231
46,261,22855,1,0,0:0:0:0:
46,261,22936,1,0,0:0:0:0:
46,261,23017,2,0,L|52:186,1,75.0000028610231
156,384,23179,1,0,0:0:0:0:
152,346,23260,1,0,0:0:0:0:
149,309,23341,1,0,0:0:0:0:
146,271,23422,1,0,0:0:0:0:
142,234,23504,6,0,P|207:288|210:297,1,75.0000028610231
320,118,23666,2,0,P|255:171|252:180,1,75.0000028610231
339,342,23828,2,0,P|324:259|318:252,1,75.0000028610231
260,159,23990,1,0,0:0:0:0:
260,159,24071,1,0,0:0:0:0:
259,159,24152,6,0,L|264:234,1,75.0000028610231
160,64,24314,2,0,L|155:138,1,75.0000028610231
254,166,24477,2,0,L|258:240,1,75.0000028610231
153,69,24639,2,0,L|148:143,1,75.0000028610231
270,323,24801,5,0,0:0:0:0:
305,313,24882,1,0,0:0:0:0:
334,288,24963,1,0,0:0:0:0:
348,254,25044,1,0,0:0:0:0:
347,217,25126,5,0,0:0:0:0:
346,180,25207,1,0,0:0:0:0:
360,146,25288,1,0,0:0:0:0:
389,121,25369,1,0,0:0:0:0:
424,111,25450,6,0,P|451:124|468:153,5,37.5000014305115
448,216,25693,2,0,P|464:240|465:274,5,37.5000014305115
416,318,25936,2,0,P|417:346|401:376,2,37.5000014305115
340,224,26098,6,0,B|384:176|400:104|368:40|368:40|268:16|196:128,1,375
268,172,26423,6,0,P|292:68|132:84,1,300
120,148,26747,2,0,B|116:180|116:180|120:220,1,62.5
220,324,26909,2,0,B|223:293|223:293|219:261,1,62.5
20,324,27071,2,0,B|4:280|12:244|24:252|36:204|4:156,1,150
21,77,27396,6,0,B|72:40|122:37|122:37|187:59|225:119,1,225.000008583069
308,216,27720,2,0,P|276:201|254:167,1,62.5
404,140,27882,1,0,0:0:0:0:
404,140,27963,2,0,P|369:143|333:125,1,62.5
449,26,28125,1,0,0:0:0:0:
449,26,28206,2,0,P|421:45|380:48,1,62.5
208,24,28369,5,0,0:0:0:0:
141,61,28450,1,0,0:0:0:0:
159,145,28531,5,0,0:0:0:0:
119,210,28612,1,0,0:0:0:0:
137,294,28693,6,0,B|259:319|259:319|371:269|371:269|504:296,1,375
452,192,29017,5,0,0:0:0:0:
448,164,29098,1,0,0:0:0:0:
436,80,29179,5,0,0:0:0:0:
436,80,29260,1,0,0:0:0:0:
370,133,29341,6,0,B|332:140|332:140|276:132,1,75.0000028610231
132,68,29504,1,0,0:0:0:0:
132,68,29585,1,0,0:0:0:0:
79,134,29666,2,0,P|197:122|204:25,1,225.000008583069
132,68,29990,5,0,0:0:0:0:
76,268,30152,1,0,0:0:0:0:
121,236,30233,1,0,0:0:0:0:
176,239,30314,1,0,0:0:0:0:
217,276,30395,1,0,0:0:0:0:
227,330,30477,6,0,L|132:322,1,75.0000028610231
316,275,30638,1,0,0:0:0:0:
365,300,30719,1,0,0:0:0:0:
388,350,30801,2,0,L|293:358,1,75.0000028610231
146,147,30963,6,0,L|220:153,1,75.0000028610231
422,0,31287,6,0,B|493:205|330:285|199:138|313:37|388:66,1,375
27,74,31612,2,0,B|93:79|93:79|148:65|148:65|211:71,1,179.999994506836
159,197,31855,5,0,0:0:0:0:
142,173,31936,1,0,0:0:0:0:
146,147,32017,1,0,0:0:0:0:
70,203,32098,5,0,0:0:0:0:
65,238,32179,1,0,0:0:0:0:
119,306,32260,5,0,0:0:0:0:
126,358,32341,2,0,P|204:313|211:284,1,89.9999972534181
321,279,32504,1,0,0:0:0:0:
321,279,32585,6,0,P|289:247|283:366,1,269.999991760254
274,360,32909,6,0,L|282:257,1,89.9999972534181
363,122,33071,1,0,0:0:0:0:
366,166,33152,1,0,0:0:0:0:
370,211,33233,1,0,0:0:0:0:
370,211,33396,1,0,0:0:0:0:
355,41,33558,2,0,P|441:95|440:130,1,89.9999972534181
277,192,33720,2,0,P|202:247|203:282,1,89.9999972534181
386,384,33882,6,0,L|352:9,1,345.000006580353
274,0,34206,5,0,0:0:0:0:
274,51,34287,1,0,0:0:0:0:
244,93,34368,1,0,0:0:0:0:
197,113,34449,1,0,0:0:0:0:
147,102,34531,2,0,P|96:45|96:22,1,75.0000028610231
0,201,34693,2,0,P|74:185|94:196,1,75.0000028610231
107,206,34855,5,0,0:0:0:0:
131,244,34936,1,0,0:0:0:0:
135,288,35017,1,0,0:0:0:0:
119,329,35098,1,0,0:0:0:0:
86,359,35179,2,0,L|56:269,1,75.0000028610231
219,291,35341,2,0,L|249:200,1,75.0000028610231
21,222,35504,2,0,L|75:385,1,150.000005722046
232,300,35666,6,0,L|262:209,1,75.0000028610231
268,237,35990,2,0,L|217:386,1,150.000005722046
86,359,36152,2,0,L|56:269,1,75.0000028610231
255,316,36314,2,0,L|285:225,1,75.0000028610231
465,141,36801,6,0,L|468:180,1,25
427,137,36882,2,0,L|430:176,1,25
390,134,36963,2,0,L|393:173,1,25
352,131,37044,2,0,L|355:170,1,25
315,127,37125,6,0,B|265:122|265:122|208:181,1,100
40,200,37287,2,0,B|90:205|90:205|147:146,1,100
160,0,37450,6,0,B|156:40|156:40|168:88,1,75.0000028610231
216,288,37612,2,0,B|195:285|195:285|176:291,3,37.5000014305115
308,320,37774,6,0,L|347:316,6,31.25
432,292,38098,5,0,0:0:0:0:
423,198,38179,1,0,0:0:0:0:
350,137,38260,1,0,0:0:0:0:
341,42,38341,5,0,0:0:0:0:
414,103,38423,1,0,0:0:0:0:
423,198,38504,1,0,0:0:0:0:
362,271,38585,5,0,0:0:0:0:
289,210,38666,1,0,0:0:0:0:
227,282,38747,6,0,P|200:312|152:300,1,75
80,264,39071,6,0,P|34:152|200:90,1,300
265,122,39396,1,0,0:0:0:0:
311,117,39477,1,0,0:0:0:0:
358,113,39558,1,0,0:0:0:0:
405,109,39639,1,0,0:0:0:0:
451,105,39720,2,0,L|379:98,1,62.5
227,282,39882,1,0,0:0:0:0:
458,96,40044,6,0,L|362:87,1,75
322,20,40369,5,0,0:0:0:0:
378,220,40531,1,0,0:0:0:0:
333,188,40612,1,0,0:0:0:0:
278,191,40693,1,0,0:0:0:0:
237,228,40774,1,0,0:0:0:0:
227,282,40856,5,0,0:0:0:0:
245,280,40937,1,0,0:0:0:0:
264,278,41017,5,0,0:0:0:0:
253,331,41098,1,0,0:0:0:0:
212,368,41179,2,0,L|132:361,1,75.0000028610231
146,147,41341,6,0,L|189:150,1,37.5
311,117,41666,6,0,L|-14:145,1,300.000011444092
204,69,41909,5,0,0:0:0:0:
204,69,41990,2,0,P|254:188|196:231,1,200
397,188,42233,5,0,0:0:0:0:
397,188,42314,2,0,P|268:171|260:100,1,200
256,121,42558,1,0,0:0:0:0:
256,121,42639,2,0,L|245:236,1,89.9999972534181
337,126,42801,2,0,L|319:-69,1,115.000002193451
138,219,42963,6,0,P|261:296|273:289,1,100
199,296,43125,2,0,P|86:318|83:340,1,100
15,317,43287,5,0,0:0:0:0:
22,294,43369,1,0,0:0:0:0:
59,223,43450,5,0,0:0:0:0:
52,200,43531,1,0,0:0:0:0:
15,129,43611,5,0,0:0:0:0:
22,106,43693,1,0,0:0:0:0:
59,35,43773,5,0,0:0:0:0:
52,12,43855,1,0,0:0:0:0:
108,101,43936,6,0,P|226:87|237:60,1,100
268,52,44098,5,0,0:0:0:0:
312,31,44179,1,0,0:0:0:0:
382,100,44260,6,0,B|421:145|390:196|390:196|432:243|432:243|380:323|482:391,1,300
512,304,44585,5,0,0:0:0:0:
481,283,44666,1,0,0:0:0:0:
447,276,44747,1,0,0:0:0:0:
413,283,44828,1,0,0:0:0:0:
382,302,44909,5,0,0:0:0:0:
341,329,44990,1,0,0:0:0:0:
297,338,45071,1,0,0:0:0:0:
253,329,45152,1,0,0:0:0:0:
213,304,45233,5,0,0:0:0:0:
167,275,45315,1,0,0:0:0:0:
116,265,45396,1,0,0:0:0:0:
66,275,45477,1,0,0:0:0:0:
20,306,45558,5,0,0:0:0:0:
58,324,45639,1,0,0:0:0:0:
116,265,45720,5,0,0:0:0:0:
154,247,45801,1,0,0:0:0:0:
213,304,45882,5,0,0:0:0:0:
250,324,45963,1,0,0:0:0:0:
309,267,46044,5,0,0:0:0:0:
346,247,46125,1,0,0:0:0:0:
405,304,46206,5,0,0:0:0:0:
442,324,46287,1,0,0:0:0:0:
475,227,46369,5,0,0:0:0:0:
489,182,46450,1,0,0:0:0:0:
503,137,46531,2,0,L|431:119,6,50
194,129,46855,6,0,L|277:121,4,50
299,180,47341,2,0,L|348:184,2,50
404,129,47666,2,0,L|453:124,2,50
348,73,47828,2,0,L|298:68,2,50
189,178,48355,6,0,L|193:128,2,50
183,252,48477,1,0,0:0:0:0:
348,184,48801,2,0,P|320:177|271:185,4,50
364,99,49044,2,0,P|386:111|404:129,4,50
479,109,49287,2,0,P|470:81|439:43,2,50
431,260,49774,6,0,B|319:244|319:244|211:272|211:272|79:252,1,337.500012874604
39,172,50017,2,0,L|45:100,1,62.5
47,164,50098,6,0,L|114:158,2,62.5
199,120,50341,2,0,L|261:125,2,62.5
356,103,50585,2,0,L|416:119,2,62.5
211,48,50909,5,0,0:0:0:0:
199,120,50990,1,0,0:0:0:0:
186,191,51071,1,0,0:0:0:0:
431,260,51396,6,0,L|424:188,2,62.5
315,256,51558,2,0,L|309:318,2,62.5
199,260,51720,2,0,L|193:197,2,62.5
83,256,51882,2,0,L|77:318,2,62.5
504,141,52369,6,0,L|337:97,1,150.000005722046
338,11,52693,2,0,L|171:54,1,150.000005722046
26,103,53017,5,0,0:0:0:0:
99,122,53098,1,0,0:0:0:0:
172,141,53179,1,0,0:0:0:0:
300,204,53341,6,0,L|208:227,4,75.0000028610231
236,301,53585,2,0,L|144:275,4,75.0000028610231,0|0|0|0|0,0:0|0:0|0:0|0:0|0:0,0:0:0:0:
132,352,53828,2,0,L|65:284,4,75.0000028610231
18,345,54071,2,0,L|-5:253,4,75.0000028610231
163,280,54314,2,0,L|320:325,1,150.000005722046
444,162,54477,2,0,L|299:203,1,150.000005722046
406,262,54639,6,0,L|416:377,4,87.500000834465
299,203,54882,2,0,L|309:87,4,87.500000834465
414,266,55125,2,0,L|426:401,4,87.500000834465
290,198,55369,2,0,L|301:63,4,87.500000834465
288,105,55612,2,0,L|64:85,1,175.00000166893
14,164,55774,2,0,L|188:179,1,175.00000166893
121,0,55936,2,0,L|101:223,1,175.00000166893
180,274,56098,2,0,L|195:99,1,175.00000166893
288,105,56260,2,0,L|64:85,1,175.00000166893
14,164,56422,2,0,L|188:179,1,175.00000166893
121,0,56585,5,0,0:0:0:0:
117,44,56666,1,0,0:0:0:0:
113,89,56747,1,0,0:0:0:0:
109,131,56828,1,0,0:0:0:0:
106,174,56909,1,0,0:0:0:0:
102,218,56990,1,0,0:0:0:0:
98,263,57071,1,0,0:0:0:0:
94,305,57152,1,0,0:0:0:0:
89,344,57233,6,0,P|147:360|199:336,1,112.500004291535
244,239,57558,2,0,P|245:265|261:293,2,50.0000019073487
200,161,57882,6,0,P|260:157|312:181,1,112.500004291535
371,310,58206,2,0,P|395:322|427:322,2,50.0000019073487
455,249,58531,6,0,L|461:171,1,75.0000028610231
358,91,58855,2,0,L|364:13,1,75.0000028610231
125,74,59179,2,0,L|202:67,1,75.0000028610231
178,176,59504,2,0,P|149:174|119:181,2,50.0000019073487
156,284,59828,6,0,P|212:305|268:297,1,112.500004291535
341,261,60152,2,0,P|365:249|397:249,2,50.0000019073487
269,213,60477,6,0,L|277:117,1,75.0000028610231
189,128,60801,2,0,P|187:154|171:182,2,50.0000019073487
68,140,61125,6,0,P|128:24|288:52,1,300
278,41,61693,1,0,0:0:0:0:
278,41,61774,1,0,0:0:0:0:
177,175,62098,2,0,P|206:173|236:180,2,50.0000019073487
130,249,62423,2,0,P|89:200|94:136,1,112.500004291535
96,145,62747,1,0,0:0:0:0:
104,136,62909,1,0,0:0:0:0:
221,252,63071,2,0,P|199:312|141:339,1,112.500004291535
92,374,63396,6,0,L|186:382,1,75.0000028610231
221,252,63720,2,0,L|295:245,1,75.0000028610231
350,374,64044,2,0,L|424:380,1,75.0000028610231
376,228,64369,5,0,0:0:0:0:
364,202,64450,1,0,0:0:0:0:
345,181,64531,1,0,0:0:0:0:
321,168,64612,1,0,0:0:0:0:
293,164,64693,1,0,0:0:0:0:
308,130,64774,1,0,0:0:0:0:
333,102,64855,1,0,0:0:0:0:
364,86,64936,1,0,0:0:0:0:
400,80,65017,2,0,P|458:82|518:140,1,140
206,335,66314,6,0,B|178:291|227:241|227:241|296:269|286:340,1,209.999993591309
333,21,66963,6,0,B|361:65|312:115|312:115|235:92|253:16,1,209.999993591309
177,175,67612,6,0,B|225:149|284:173|255:183|309:205|368:175,2,200
256,192,70287,12,0,72720,0:0:0:0:
220,222,72801,5,0,0:0:0:0:
211,206,72882,1,0,0:0:0:0:
210,188,72963,1,0,0:0:0:0:
215,171,73044,1,0,0:0:0:0:
226,157,73125,5,0,0:0:0:0:
242,149,73206,1,0,0:0:0:0:
260,147,73287,1,0,0:0:0:0:
277,152,73368,1,0,0:0:0:0:
291,163,73449,5,0,0:0:0:0:
299,179,73530,1,0,0:0:0:0:
301,197,73611,1,0,0:0:0:0:
296,214,73692,1,0,0:0:0:0:
285,228,73773,5,0,0:0:0:0:
270,237,73855,1,0,0:0:0:0:
252,239,73936,1,0,0:0:0:0:
234,234,74017,1,0,0:0:0:0:
220,222,74098,5,0,0:0:0:0:
256,192,74179,12,0,76612,0:0:0:0:
256,0,76693,5,0,0:0:0:0:
256,192,77017,12,0,77909,0:0:0:0:
440,68,77990,6,0,B|343:93|343:93|261:157|261:157|160:184,1,300
100,88,78314,2,0,L|215:56,1,100
484,172,78477,1,0,0:0:0:0:
435,184,78558,1,0,0:0:0:0:
387,197,78639,5,0,0:0:0:0:
333,246,78720,1,0,0:0:0:0:
336,318,78801,1,0,0:0:0:0:
393,363,78882,1,0,0:0:0:0:
464,346,78963,5,0,0:0:0:0:
486,277,79044,1,0,0:0:0:0:
438,224,79125,1,0,0:0:0:0:
459,155,79206,1,0,0:0:0:0:
411,102,79287,6,0,B|314:127|314:127|232:191|232:191|131:218,1,300
71,122,79612,2,0,L|186:90,1,100
224,308,79774,1,0,0:0:0:0:
176,321,79855,1,0,0:0:0:0:
128,334,79936,1,0,0:0:0:0:
64,128,80098,1,0,0:0:0:0:
270,64,80260,6,0,P|300:84|308:120,1,75
216,196,80585,6,0,P|288:88|412:172,1,300
208,188,80909,2,0,P|216:136|256:84,1,100
416,168,81071,1,0,0:0:0:0:
382,259,81152,1,0,0:0:0:0:
348,350,81233,5,0,0:0:0:0:
324,354,81314,1,0,0:0:0:0:
256,304,81396,5,0,0:0:0:0:
232,300,81477,1,0,0:0:0:0:
164,348,81558,5,0,0:0:0:0:
94,321,81639,1,0,0:0:0:0:
52,261,81720,1,0,0:0:0:0:
52,187,81801,1,0,0:0:0:0:
93,125,81882,6,0,P|140:88|160:40,1,100
336,249,82044,1,0,0:0:0:0:
336,249,82125,2,0,P|281:273|249:314,1,100
164,60,82287,1,0,0:0:0:0:
164,60,82368,2,0,P|223:50|264:18,1,100
264,312,82531,1,0,0:0:0:0:
264,312,82612,2,0,P|204:306|156:325,1,100
264,36,82774,1,0,0:0:0:0:
264,36,82855,2,0,P|320:57|371:50,1,100
160,328,83017,2,0,P|111:293|59:286,1,100
368,48,83179,6,0,P|427:42|475:61,1,100
488,212,83341,1,0,0:0:0:0:
479,230,83423,1,0,0:0:0:0:
428,282,83504,5,0,0:0:0:0:
341,312,83585,1,0,0:0:0:0:
237,288,83666,1,0,0:0:0:0:
153,169,83747,1,0,0:0:0:0:
166,61,83828,5,0,0:0:0:0:
196,16,83909,1,0,0:0:0:0:
209,7,83990,1,0,0:0:0:0:
226,2,84071,1,0,0:0:0:0:
252,0,84152,1,0,0:0:0:0:
326,12,84233,5,0,0:0:0:0:
412,83,84314,1,0,0:0:0:0:
437,202,84396,1,0,0:0:0:0:
364,323,84477,6,0,P|304:328|256:309,1,100
220,120,84639,2,0,P|279:114|327:133,1,100
117,347,84801,5,0,0:0:0:0:
77,256,84882,1,0,0:0:0:0:
88,157,84963,1,0,0:0:0:0:
147,78,85044,1,0,0:0:0:0:
237,38,85125,5,0,0:0:0:0:
244,68,85206,1,0,0:0:0:0:
147,78,85287,5,0,0:0:0:0:
166,100,85368,1,0,0:0:0:0:
88,157,85450,5,0,0:0:0:0:
115,166,85531,1,0,0:0:0:0:
77,256,85612,5,0,0:0:0:0:
104,250,85693,1,0,0:0:0:0:
117,347,85774,5,0,0:0:0:0:
140,354,85855,1,0,0:0:0:0:
165,355,85936,1,0,0:0:0:0:
190,352,86017,1,0,0:0:0:0:
228,280,86098,5,0,0:0:0:0:
256,270,86179,1,0,0:0:0:0:
288,268,86260,1,0,0:0:0:0:
319,272,86341,1,0,0:0:0:0:
367,364,86423,5,0,0:0:0:0:
415,354,86504,1,0,0:0:0:0:
455,324,86585,1,0,0:0:0:0:
477,280,86666,1,0,0:0:0:0:
428,192,86747,5,0,0:0:0:0:
328,183,86828,1,0,0:0:0:0:
228,174,86909,1,0,0:0:0:0:
129,165,86990,1,0,0:0:0:0:
29,157,87071,6,0,L|140:147,1,100
312,84,87233,2,0,L|232:77,1,75.0000028610231
336,192,87396,1,0,0:0:0:0:
373,188,87477,1,0,0:0:0:0:
410,185,87558,1,0,0:0:0:0:
448,182,87639,1,0,0:0:0:0:
485,178,87720,6,0,L|479:114,1,50
336,272,87882,2,0,L|343:184,1,75.0000028610231
187,374,88044,1,0,0:0:0:0:
182,324,88125,1,0,0:0:0:0:
178,274,88206,1,0,0:0:0:0:
173,224,88287,1,0,0:0:0:0:
169,174,88369,6,0,L|158:59,1,104.999996795654
153,61,88693,1,0,0:0:0:0:
89,231,88855,5,0,0:0:0:0:
89,231,88936,1,0,0:0:0:0:
89,231,89017,1,0,0:0:0:0:
127,265,89098,1,0,0:0:0:0:
178,274,89179,1,0,0:0:0:0:
226,254,89260,1,0,0:0:0:0:
255,211,89341,1,0,0:0:0:0:
284,168,89423,1,0,0:0:0:0:
332,148,89504,1,0,0:0:0:0:
383,157,89585,1,0,0:0:0:0:
421,190,89666,6,0,L|411:294,1,104.999996795654
341,227,89990,1,0,0:0:0:0:
405,365,90152,1,0,0:0:0:0:
408,330,90233,1,0,0:0:0:0:
411,295,90314,1,0,0:0:0:0:
284,168,90477,1,0,0:0:0:0:
405,365,90639,2,0,P|332:333|286:348,1,104.999996795654
158,277,90963,6,0,L|262:267,1,104.999996795654
99,346,91287,1,0,0:0:0:0:
284,168,91450,5,0,0:0:0:0:
248,166,91531,1,0,0:0:0:0:
357,134,91612,5,0,0:0:0:0:
333,108,91693,1,0,0:0:0:0:
433,164,91774,5,0,0:0:0:0:
434,128,91855,1,0,0:0:0:0:
463,237,91936,5,0,0:0:0:0:
490,214,92017,1,0,0:0:0:0:
425,307,92098,5,0,0:0:0:0:
459,311,92179,1,0,0:0:0:0:
497,315,92260,2,0,L|393:341,1,100
187,259,92423,5,0,0:0:0:0:
165,242,92504,2,0,L|269:268,1,100
475,186,92666,5,0,0:0:0:0:
497,169,92747,2,0,L|393:195,1,100
187,113,92909,5,0,0:0:0:0:
165,96,92990,2,0,L|269:122,1,100
475,40,93152,5,0,0:0:0:0:
497,23,93233,1,0,0:0:0:0:
458,32,93314,1,0,0:0:0:0:
419,42,93395,1,0,0:0:0:0:
380,52,93476,1,0,0:0:0:0:
341,61,93558,5,0,0:0:0:0:
352,93,93639,1,0,0:0:0:0:
352,126,93720,1,0,0:0:0:0:
341,157,93801,1,0,0:0:0:0:
320,182,93881,5,0,0:0:0:0:
299,216,93962,1,0,0:0:0:0:
290,265,94043,1,0,0:0:0:0:
318,318,94125,1,0,0:0:0:0:
382,345,94207,5,0,0:0:0:0:
424,330,94288,1,0,0:0:0:0:
455,297,94369,1,0,0:0:0:0:
467,253,94450,1,0,0:0:0:0:
457,209,94531,5,0,0:0:0:0:
419,222,94612,1,0,0:0:0:0:
372,240,94693,1,0,0:0:0:0:
315,260,94774,1,0,0:0:0:0:
249,283,94855,5,0,0:0:0:0:
217,293,94936,1,0,0:0:0:0:
184,293,95017,1,0,0:0:0:0:
153,282,95098,1,0,0:0:0:0:
128,261,95178,5,0,0:0:0:0:
108,214,95260,1,0,0:0:0:0:
121,155,95341,1,0,0:0:0:0:
176,110,95423,1,0,0:0:0:0:
254,124,95504,5,0,0:0:0:0:
299,132,95585,1,0,0:0:0:0:
366,80,95666,5,0,0:0:0:0:
381,122,95747,1,0,0:0:0:0:
460,154,95828,5,0,0:0:0:0:
431,188,95909,1,0,0:0:0:0:
442,272,95990,5,0,0:0:0:0:
398,264,96071,1,0,0:0:0:0:
342,325,96152,5,0,0:0:0:0:
312,339,96233,1,0,0:0:0:0:
279,344,96314,1,0,0:0:0:0:
246,339,96396,1,0,0:0:0:0:
217,323,96476,1,0,0:0:0:0:
184,306,96557,1,0,0:0:0:0:
148,301,96638,1,0,0:0:0:0:
112,307,96720,1,0,0:0:0:0:
80,324,96801,5,0,0:0:0:0:
137,334,96882,1,0,0:0:0:0:
204,316,96963,1,0,0:0:0:0:
256,256,97044,1,0,0:0:0:0:
260,171,97125,1,0,0:0:0:0:
205,99,97206,1,0,0:0:0:0:
110,82,97287,1,0,0:0:0:0:
26,138,97369,1,0,0:0:0:0:
11,242,97450,5,0,0:0:0:0:
44,250,97531,1,0,0:0:0:0:
73,224,97612,1,0,0:0:0:0:
106,232,97693,1,0,0:0:0:0:
135,206,97774,1,0,0:0:0:0:
168,214,97855,1,0,0:0:0:0:
197,188,97936,1,0,0:0:0:0:
230,196,98017,1,0,0:0:0:0:
259,170,98098,6,0,L|317:188,1,50
321,152,98179,2,0,L|379:170,1,50
383,134,98260,2,0,L|441:152,1,50
445,116,98341,2,0,L|503:134,1,50
397,10,98423,5,0,0:0:0:0:
331,66,98504,1,0,0:0:0:0:
321,152,98585,1,0,0:0:0:0:
368,224,98666,1,0,0:0:0:0:
452,246,98747,5,0,0:0:0:0:
20,248,99396,1,0,0:0:0:0:
120,88,99882,1,0,0:0:0:0:
165,172,100206,1,0,0:0:0:0:
165,172,100287,2,0,L|159:235,1,50
205,305,100531,1,0,0:0:0:0:
351,123,100693,5,0,0:0:0:0:
360,132,101017,1,0,0:0:0:0:
444,252,101179,1,0,0:0:0:0:
324,336,101341,5,0,0:0:0:0:
17,31,101828,1,0,0:0:0:0:
17,31,101909,1,0,0:0:0:0:
17,31,101990,2,0,L|26:134,1,100
32,140,102396,1,0,0:0:0:0:
46,141,102477,1,0,0:0:0:0:
61,142,102558,1,0,0:0:0:0:
76,143,102639,6,0,L|70:206,1,50
116,276,102882,2,0,L|110:339,1,50
166,195,103125,1,0,0:0:0:0:
250,0,103287,5,0,0:0:0:0:
216,92,103612,1,0,0:0:0:0:
436,260,103936,6,0,B|392:280|348:260|364:252|316:232|260:264,1,175
316,332,104585,1,0,0:0:0:0:
400,184,105071,2,0,L|397:161,3,12.5
340,116,105233,2,0,L|290:120,1,50
281,126,105477,1,0,0:0:0:0:
280,140,105558,1,0,0:0:0:0:
279,154,105639,1,0,0:0:0:0:
280,168,105720,1,0,0:0:0:0:
24,24,105882,5,0,0:0:0:0:
32,32,106206,1,0,0:0:0:0:
124,142,106368,1,0,0:0:0:0:
12,237,106530,5,0,0:0:0:0:
408,0,107179,1,0,0:0:0:0:
276,120,107504,1,0,0:0:0:0:
277,138,107585,1,0,0:0:0:0:
279,157,107666,1,0,0:0:0:0:
280,176,107747,6,0,L|282:207,1,25
128,248,107909,1,0,0:0:0:0:
127,266,107990,1,0,0:0:0:0:
125,285,108071,1,0,0:0:0:0:
124,304,108152,2,0,L|121:328,3,25
12,237,108477,5,0,0:0:0:0:
10,224,108558,1,0,0:0:0:0:
10,199,108639,1,0,0:0:0:0:
16,162,108720,1,0,0:0:0:0:
35,116,108801,1,0,0:0:0:0:
75,68,108883,1,0,0:0:0:0:
140,32,108963,1,0,0:0:0:0:
227,26,109044,1,0,0:0:0:0:
332,108,109125,5,0,0:0:0:0:
256,192,109206,12,0,110017,0:0:0:0:
419,308,110098,6,0,P|435:264|428:212,1,100
356,137,110747,5,0,0:0:0:0:
341,157,110909,2,0,P|333:206|350:252,1,100
428,212,111396,2,0,L|317:202,1,104.999996795654
267,261,111720,2,0,L|45:280,1,209.999993591309
55,288,112369,2,0,P|107:256|-4:233,1,255.000004863739
185,200,113017,6,0,P|141:129|-22:122,1,255.000004863739
60,178,113666,6,0,P|182:189|262:97,1,255.000004863739
324,27,114314,6,0,P|488:234|262:96,1,750
319,139,115612,6,0,P|441:184|360:84,1,350
386,146,116260,2,0,B|274:172|274:172|166:163|166:163|55:189,1,300
0,128,116909,2,0,L|196:80,1,200
438,209,117396,2,0,L|243:256,1,200
249,15,117882,6,0,P|276:72|257:135,1,100
162,229,118206,6,0,P|160:278|184:321,1,100
256,192,118450,12,0,119423,0:0:0:0:
332,107,119504,6,0,P|324:188|217:249,1,200
84,188,119747,1,0,0:0:0:0:
165,118,119828,2,0,L|155:229,1,100
148,352,119990,1,0,0:0:0:0:
148,352,120071,1,0,0:0:0:0:
255,383,120152,1,0,0:0:0:0:
325,302,120233,2,0,L|315:190,1,100
296,0,120396,1,0,0:0:0:0:
312,108,120477,6,0,L|303:8,1,100
76,196,120639,2,0,L|67:295,1,100
468,152,120801,5,0,0:0:0:0:
368,160,120882,1,0,0:0:0:0:
268,169,120963,1,0,0:0:0:0:
169,178,121044,1,0,0:0:0:0:
69,186,121126,5,0,0:0:0:0:
143,192,121207,1,0,0:0:0:0:
218,199,121288,1,0,0:0:0:0:
293,205,121369,1,0,0:0:0:0:
367,212,121450,5,0,0:0:0:0:
317,216,121531,1,0,0:0:0:0:
267,220,121612,1,0,0:0:0:0:
217,225,121693,1,0,0:0:0:0:
167,229,121774,5,0,0:0:0:0:
191,231,121855,1,0,0:0:0:0:
216,233,121936,1,0,0:0:0:0:
241,235,122017,1,0,0:0:0:0:
266,237,122098,6,0,B|232:328|232:328|128:368,1,200
109,285,122341,1,0,0:0:0:0:
84,204,122423,2,0,L|56:95,1,100
312,16,122585,2,0,L|284:125,1,100
34,26,122746,1,0,0:0:0:0:
116,44,122828,2,0,L|224:74,1,100,0|0,0:0|0:0,0:0:0:0:
512,156,122990,1,0,0:0:0:0:
512,156,123071,5,0,0:0:0:0:
487,158,123152,1,0,0:0:0:0:
437,162,123233,1,0,0:0:0:0:
362,169,123314,1,0,0:0:0:0:
262,177,123396,6,0,P|184:244|236:340,2,200
460,252,123882,1,0,0:0:0:0:
417,313,123963,1,0,0:0:0:0:
343,325,124044,6,0,L|283:330,2,50
336,236,124206,2,0,L|385:240,2,50
343,147,124369,6,0,L|293:151,1,50
328,100,124450,2,0,L|256:175,1,61.5000009384155
296,60,124531,2,0,L|268:171,1,76.7499955790522
228,32,124612,2,0,L|275:142,1,100
151,48,124693,6,0,P|101:71|72:125,1,112.500004291535
64,252,124855,1,0,0:0:0:0:
116,312,124936,2,0,P|164:339|224:332,1,112.500004291535
333,267,125098,1,0,0:0:0:0:
352,190,125179,2,0,P|346:134|306:89,1,112.500004291535
340,276,125341,1,0,0:0:0:0:
416,253,125422,2,0,P|461:220|480:163,1,112.500004291535
348,284,125585,1,0,0:0:0:0:
405,338,125666,2,0,L|532:326,1,112.500004291535
432,96,125828,1,0,0:0:0:0:
375,91,125909,1,0,0:0:0:0:
320,86,125990,6,0,L|184:74,1,112.500004291535
80,124,126152,1,0,0:0:0:0:
128,188,126233,2,0,L|263:176,1,112.500004291535
368,226,126396,1,0,0:0:0:0:
320,290,126477,2,0,L|184:278,1,112.500004291535
433,275,126639,1,0,0:0:0:0:
368,226,126720,2,0,L|379:90,1,112.500004291535
384,340,126882,1,0,0:0:0:0:
433,275,126963,6,0,P|452:232|440:192,1,75.0000028610231
280,64,127125,2,0,P|264:108|276:160,1,100
127,275,127287,6,0,P|144:200|36:240,1,225.000008583069
29,202,127531,2,0,P|135:175|136:284,1,250
144,292,127774,2,0,P|156:176|12:240,1,300.000011444092
3,195,128017,2,0,P|146:148|152:300,1,350.00000333786
160,308,128260,6,0,L|255:316,1,87.500000834465
247,300,128341,2,0,L|337:332,1,87.500000834465
334,292,128423,2,0,L|412:347,1,87.500000834465
421,285,128504,2,0,L|482:358,1,87.500000834465
508,277,128584,5,0,0:0:0:0:
3,106,128828,5,0,0:0:0:0:
508,277,129071,5,0,0:0:0:0:
3,106,129315,5,0,0:0:0:0:
508,106,129558,5,0,0:0:0:0:
3,277,129720,1,0,0:0:0:0:
221,10,129882,6,0,B|210:124|210:124|170:179|170:179|157:341,1,300
78,348,130206,2,0,L|89:221,1,89.9999972534181
136,217,130369,1,0,0:0:0:0:
200,225,130450,1,0,0:0:0:0:
241,275,130531,2,0,P|336:313|358:307,1,89.9999972534181
394,176,130693,1,0,0:0:0:0:
394,176,130774,1,0,0:0:0:0:
394,176,130855,2,0,P|314:239|308:261,1,89.9999972534181
404,357,131017,2,0,P|389:256|373:240,1,89.9999972534181
470,127,131179,6,0,P|482:169|475:213,1,89.9999972534181
404,66,131341,1,0,0:0:0:0:
404,66,131423,1,0,0:0:0:0:
404,66,131504,2,0,P|495:45|509:53,1,89.9999972534181
235,88,131666,2,0,P|272:112|317:112,1,89.9999972534181
66,65,131828,6,0,P|103:40|147:41,1,89.9999972534181
201,197,131990,1,0,0:0:0:0:
201,197,132071,1,0,0:0:0:0:
201,197,132152,2,0,P|179:159|140:139,1,89.9999972534181
37,294,132314,2,0,P|58:255|98:235,1,89.9999972534181
313,211,132477,2,0,P|291:249|84:202,1,269.999991760254
243,0,132801,6,0,L|234:97,1,89.9999972534181
342,117,132963,1,0,0:0:0:0:
385,110,133044,1,0,0:0:0:0:
427,105,133125,6,0,L|435:202,1,89.9999972534181
203,286,133287,1,0,0:0:0:0:
254,294,133368,1,0,0:0:0:0:
305,300,133449,6,0,L|314:182,1,89.9999972534181
65,122,133612,1,0,0:0:0:0:
125,112,133693,1,0,0:0:0:0:
183,105,133774,6,0,L|191:209,1,89.9999972534181
107,384,133936,5,0,0:0:0:0:
110,311,134017,1,0,0:0:0:0:
116,240,134098,6,0,L|-34:252,1,89.9999972534181
300,384,134260,6,0,L|210:376,1,89.9999972534181
411,284,134423,6,0,L|428:81,1,179.999994506836
220,4,134747,5,0,0:0:0:0:
283,53,134828,1,0,0:0:0:0:
229,113,134909,1,0,0:0:0:0:
293,162,134990,1,0,0:0:0:0:
255,231,135071,2,0,P|130:262|52:159,1,220.000006713867,0|0,0:0|0:0,0:0:0:0:
102,129,135314,2,0,P|133:253|30:331,1,220.000006713867
0,282,135558,2,0,P|124:250|202:353,1,220.000006713867
153,384,135801,2,0,P|121:259|224:181,1,220.000006713867
102,129,136044,6,0,L|92:19,1,110.000003356934
0,281,136206,6,0,L|9:172,1,110.000003356934
331,14,136369,6,0,B|392:80|347:155|347:155|258:160|233:56,1,300.000011444092
230,133,136612,6,0,B|312:94|369:161|369:161|346:246|239:238,1,300.000011444092
312,265,136855,6,0,B|300:174|381:141|381:141|456:189|415:288,1,300.000011444092
463,227,137098,6,0,B|373:209|366:122|366:122|435:66|517:135,1,300.000011444092
382,0,137341,6,0,L|364:195,1,150.000005722046
171,360,137504,6,0,L|153:164,1,150.000005722046
261,130,137666,5,0,0:0:0:0:
223,187,137747,1,0,0:0:0:0:
157,210,137828,1,0,0:0:0:0:
92,187,137909,1,0,0:0:0:0:
54,130,137990,1,0,0:0:0:0:
60,61,138071,1,0,0:0:0:0:
106,10,138152,1,0,0:0:0:0:
174,0,138233,1,0,0:0:0:0:
235,31,138315,1,0,0:0:0:0:
281,82,138396,1,0,0:0:0:0:
349,92,138477,1,0,0:0:0:0:
410,61,138558,1,0,0:0:0:0:
451,0,138639,5,0,0:0:0:0:
350,11,138720,1,0,0:0:0:0:
281,82,138801,1,0,0:0:0:0:
265,182,138882,1,0,0:0:0:0:
316,270,138963,1,0,0:0:0:0:
256,192,139044,12,0,140260,0:0:0:0:
