osu file format v14

[General]
AudioFilename: audio.mp3
AudioLeadIn: 0
PreviewTime: 87302
Countdown: 0
SampleSet: Soft
StackLeniency: 0.7
Mode: 0
LetterboxInBreaks: 0
WidescreenStoryboard: 1

[Editor]
Bookmarks: 17484,52393,87302,157120,246029
DistanceSpacing: 1.3
BeatDivisor: 4
GridSize: 8
TimelineZoom: 1.7

[Metadata]
Title:Start Again
TitleUnicode:Start Again
Artist:NegaRen
ArtistUnicode:NegaRen
Creator:Hpocks
Version:Insane
Source:
Tags:Renard Lapfox Trax Reggae Electronic English Happy Hardcore Emma Essex Instrumental Kundi halley labs breezesphere mk.6
BeatmapID:2841097
BeatmapSetID:1374327

[Difficulty]
HPDrainRate:4.5
CircleSize:3.4
OverallDifficulty:7
ApproachRate:9
SliderMultiplier:1.4
SliderTickRate:1

[Events]
//Background and Video events
0,0,"negaren_start_again.jpg",0,0
//Break Periods
2,22048,25611
2,157250,173975
//Storyboard Layer 0 (Background)
//Storyboard Layer 1 (Fail)
//Storyboard Layer 2 (Pass)
//Storyboard Layer 3 (Foreground)
//Storyboard Layer 4 (Overlay)
//Storyboard Sound Samples

[TimingPoints]
30,545.454545454546,4,2,1,40,1,0
17484,-80,4,2,1,60,0,0
18030,-80,4,2,1,40,0,0
26211,-66.6666666666667,4,2,1,40,0,0
34939,272.727272727273,4,2,1,60,1,0
69848,545.454545454546,4,2,1,60,1,0
69848,-66.6666666666667,4,2,1,60,0,0
78575,-66.6666666666667,4,2,1,60,0,0
87302,272.727272727273,4,2,1,80,1,1
87302,-90.9090909090909,4,2,1,80,0,1
96029,-83.3333333333333,4,2,1,80,0,1
104756,-90.9090909090909,4,2,1,80,0,1
121665,-200,4,2,1,80,0,1
122211,-100,4,2,1,80,0,0
139666,545.454545454546,4,2,1,60,1,0
139666,-66.6666666666667,4,2,1,60,0,0
174575,272.727272727273,4,2,1,80,1,0
194211,-90.9090909090909,4,2,1,80,0,1
202938,-83.3333333333333,4,2,1,80,0,1
211665,-83.3333333333333,4,2,1,90,0,1
228575,-200,4,2,1,80,0,1
228984,-200,4,2,1,20,0,1
229120,545.454545454546,4,2,1,80,1,0

[Colours]
Combo1 : 32,223,32
Combo2 : 231,135,88

[HitObjects]
414,303,17484,5,4,0:2:0:0:
50,208,18030,2,0,P|37:166|42:123,1,87.5,2|2,0:2|0:2,0:0:0:0:
133,46,18575,2,0,B|229:46|213:94|299:93,1,175,2|2,0:2|0:2,0:0:0:0:
387,176,19393,1,0,0:0:0:0:
387,176,19666,1,0,0:0:0:0:
256,251,19939,5,2,0:2:0:0:
225,167,20211,1,2,0:2:0:0:
293,338,20484,1,2,0:2:0:0:
293,338,20620,1,2,0:2:0:0:
293,338,20757,2,0,P|350:306|414:303,1,131.25,2|0,0:2|0:0,0:0:0:0:
377,155,21302,2,0,P|320:187|256:190,1,131.25,2|0,0:2|0:0,0:0:0:0:
286,58,21848,5,2,0:2:0:0:
439,305,26211,6,0,P|421:328|415:356,2,52.5000020027161,2|0|0,0:0|0:0|0:0,0:0:0:0:
334,199,26757,2,0,P|288:224|237:226,1,105.000004005432,10|2,0:2|0:2,0:0:0:0:
140,350,27302,2,0,P|128:250|37:207,1,210.000008010865,2|10,0:2|0:2,0:0:0:0:
42,69,28120,1,2,0:0:0:0:
42,69,28393,2,0,L|115:64,1,52.5000020027161,2|0,0:0|0:0,0:0:0:0:
323,164,28666,5,2,0:2:0:0:
221,52,28939,1,10,0:2:0:0:
385,33,29211,1,2,0:2:0:0:
385,33,29348,1,2,0:2:0:0:
385,33,29484,2,0,B|398:110|443:86|456:170,1,157.500006008148,2|0,0:2|0:0,0:0:0:0:
379,330,30030,2,0,B|366:252|321:276|308:192,1,157.500006008148,10|0,0:2|0:0,0:0:0:0:
286,47,30575,1,2,0:2:0:0:
256,192,30711,12,8,34393,0:2:0:0:
310,47,34939,6,0,P|273:105|276:174,1,140,6|0,1:2|1:2,0:0:0:0:
494,116,35348,2,0,P|461:55|400:22,1,140,2|0,0:2|0:0,0:0:0:0:
341,244,35757,2,0,P|409:247|468:210,1,140,2|0,1:2|1:2,0:0:0:0:
310,47,36166,2,0,P|273:105|276:174,1,140,2|0,0:2|0:0,0:0:0:0:
362,308,36575,2,0,P|357:273|340:243,1,70,10|0,1:2|0:0,0:0:0:0:
179,252,36848,2,0,P|211:265|245:265,1,70,2|0,1:2|0:0,0:0:0:0:
275,173,37120,1,0,1:2:0:0:
78,352,37393,6,0,B|104:330|104:330|113:224,1,140,2|8,1:2|1:2,0:0:0:0:
73,18,37802,2,0,B|46:39|46:39|37:145,1,140,2|0,0:2|0:0,0:0:0:0:
226,191,38211,2,0,P|294:195|352:158,1,140,2|0,1:2|1:2,0:0:0:0:
263,89,38620,2,0,P|195:85|137:122,1,140,2|0,0:2|0:0,0:0:0:0:
292,300,39029,1,0,1:2:0:0:
489,185,39302,6,0,L|501:324,1,140,2|0,1:2|1:2,0:0:0:0:
352,158,39711,2,0,L|364:18,1,140,2|0,0:2|0:0,0:0:0:0:
226,191,40120,2,0,L|238:330,1,140,2|0,1:2|1:2,0:0:0:0:
89,164,40529,2,0,L|101:24,1,140,2|0,0:2|0:0,0:0:0:0:
264,134,40939,2,0,P|250:165|226:189,1,70,10|0,1:2|0:0,0:0:0:0:
106,301,41211,2,0,P|119:269|143:245,1,70,2|0,1:2|0:0,0:0:0:0:
234,287,41484,1,0,1:2:0:0:
482,353,41757,6,0,B|460:327|460:327|354:318,1,140,2|8,1:2|1:2,0:0:0:0:
224,190,42166,2,0,B|246:164|246:164|352:155,1,140,2|0,0:2|0:0,0:0:0:0:
466,3,42575,2,0,P|400:23|334:1,1,140,2|0,1:2|1:2,0:0:0:0:
229,44,42984,2,0,P|163:23|97:45,1,140,2|0,0:2|0:0,0:0:0:0:
32,131,43393,2,0,L|38:208,1,70,0|0,1:2|0:0,0:0:0:0:
203,342,43666,6,0,P|249:291|316:275,1,140,2|0,1:2|1:2,0:0:0:0:
119,158,44075,2,0,P|138:223|119:289,1,140,2|0,0:2|0:0,0:0:0:0:
322,173,44484,2,0,P|253:158|206:106,1,140,2|0,1:2|1:2,0:0:0:0:
203,342,44893,2,0,P|249:291|316:275,1,140,2|0,0:2|0:0,0:0:0:0:
509,287,45302,2,0,P|488:259|479:226,1,70,10|0,1:2|0:0,0:0:0:0:
322,173,45575,2,0,P|356:177|389:168,1,70,2|0,1:2|0:0,0:0:0:0:
480,119,45848,1,0,1:2:0:0:
262,29,46120,6,0,P|201:61|169:122,1,140,2|8,1:2|1:2,0:0:0:0:
69,320,46529,2,0,P|129:287|161:226,1,140,2|0,0:2|0:0,0:0:0:0:
56,37,46939,2,0,B|34:63|34:63|43:169,1,140,2|0,1:2|1:2,0:0:0:0:
161,226,47348,2,0,B|182:199|182:199|173:93,1,140,2|0,0:2|0:0,0:0:0:0:
326,11,47757,1,0,1:2:0:0:
492,157,48029,6,0,L|352:145,1,140,2|0,1:2|1:2,0:0:0:0:
279,325,48439,2,0,L|419:313,1,140,2|0,0:2|0:0,0:0:0:0:
236,189,48848,2,0,L|96:177,1,140,2|0,1:2|1:2,0:0:0:0:
23,357,49258,2,0,L|163:345,1,140,2|0,0:2|0:0,0:0:0:0:
236,189,49666,2,0,P|240:154|231:121,1,70,10|0,1:2|0:0,0:0:0:0:
96,177,49939,2,0,P|88:210|94:244,1,70,2|0,1:2|0:0,0:0:0:0:
187,266,50211,1,0,1:2:0:0:
140,90,50484,6,0,P|89:43|20:34,1,140,2|8,1:2|1:2,0:0:0:0:
234,142,50893,2,0,P|284:188|353:197,1,140,2|0,0:2|0:0,0:0:0:0:
459,12,51302,2,0,B|468:118|468:118|446:144,1,140,2|0,1:2|1:2,0:0:0:0:
353,197,51711,1,2,0:2:0:0:
444,254,51848,1,8,1:2:0:0:
266,38,52393,6,0,B|202:38|202:86|136:85,1,140,4|0,1:2|1:2,0:0:0:0:
44,163,52802,1,2,0:2:0:0:
44,163,52939,2,0,L|50:233,1,70,10|0,1:2|0:0,0:0:0:0:
166,284,53211,2,0,L|160:214,1,70,2|0,1:2|0:0,0:0:0:0:
58,359,53484,6,0,P|123:338|165:283,1,140,2|0,1:2|1:2,0:0:0:0:
264,211,53893,1,0,0:0:0:0:
264,211,54029,2,0,L|334:205,1,70,10|0,1:2|0:0,0:0:0:0:
435,317,54302,2,0,L|365:311,1,70,2|0,1:2|0:0,0:0:0:0:
333,205,54575,1,0,1:2:0:0:
440,35,54848,6,0,P|405:28|371:34,1,70,2|0,1:2|0:0,0:0:0:0:
291,102,55120,2,0,P|256:108|222:101,1,70,10|2,1:2|0:2,0:0:0:0:
96,44,55393,1,2,1:2:0:0:
96,44,55529,1,2,0:2:0:0:
96,44,55666,2,0,P|122:140|50:209,1,210,2|0,1:2|0:0,0:0:0:0:
106,323,56211,2,0,B|199:276|214:369|307:323,1,210,10|0,1:2|0:0,0:0:0:0:
408,241,56757,6,0,B|427:173|427:173|495:154,1,140,2|0,1:2|1:2,0:0:0:0:
292,100,57166,2,0,B|340:150|340:150|323:219,1,140,2|0,2:2|0:0,0:0:0:0:
476,73,57575,2,0,B|408:89|408:89|357:40,1,140,0|0,1:2|1:2,0:0:0:0:
408,241,57984,2,0,B|427:173|427:173|495:154,1,140,2|0,0:2|0:0,0:0:0:0:
357,40,58393,2,0,L|287:34,1,70,8|0,1:2|0:0,0:0:0:0:
203,106,58666,2,0,L|133:112,1,70,0|0,1:2|0:0,0:0:0:0:
45,45,58939,1,0,1:2:0:0:
180,240,59211,6,0,B|180:176|132:176|133:110,1,140,0|8,1:2|1:2,0:0:0:0:
326,211,59620,2,0,B|326:275|278:275|279:341,1,140,2|0,0:2|0:0,0:0:0:0:
457,198,60029,2,0,B|351:189|351:189|325:211,1,140,0|0,1:2|1:2,0:0:0:0:
239,143,60439,2,0,B|213:165|213:165|107:156,1,140,2|0,0:2|0:0,0:0:0:0:
22,61,60848,2,0,P|49:39|82:31,1,70,0|0,1:2|0:0,0:0:0:0:
239,143,61120,6,0,B|303:143|303:191|369:190,1,140,0|0,1:2|1:2,0:0:0:0:
466,262,61529,1,2,0:2:0:0:
466,262,61666,2,0,L|460:332,1,70,10|0,1:2|0:0,0:0:0:0:
344,383,61938,2,0,L|350:313,1,70,2|0,1:2|0:0,0:0:0:0:
475,166,62211,6,0,P|449:102|391:64,1,140,2|0,1:2|1:2,0:0:0:0:
294,138,62620,1,0,0:0:0:0:
294,138,62756,2,0,L|224:144,1,70,10|0,1:2|0:0,0:0:0:0:
123,32,63029,2,0,L|193:38,1,70,0|0,1:2|0:0,0:0:0:0:
225,144,63302,1,0,1:2:0:0:
52,345,63575,6,0,P|87:352|121:346,1,70,2|0,1:2|0:0,0:0:0:0:
209,283,63847,2,0,P|244:277|278:284,1,70,10|2,1:2|0:2,0:0:0:0:
381,351,64120,1,2,1:2:0:0:
381,351,64256,1,2,0:2:0:0:
381,351,64393,2,0,P|478:328|504:231,1,210,2|2,1:2|0:2,0:0:0:0:
353,69,64939,2,0,P|324:164|394:235,1,210,10|0,1:2|0:0,0:0:0:0:
353,69,65484,6,0,B|285:85|285:85|234:36,1,140,2|0,1:2|1:2,0:0:0:0:
61,115,65893,2,0,B|129:99|129:99|180:148,1,140,2|0,0:2|0:0,0:0:0:0:
353,69,66302,2,0,B|285:85|285:85|234:36,1,140,0|0,1:2|1:2,0:0:0:0:
61,115,66711,2,0,B|129:99|129:99|180:148,1,140,2|0,0:2|0:0,0:0:0:0:
107,336,67120,2,0,L|37:330,1,70,8|0,1:2|0:0,0:0:0:0:
212,253,67393,2,0,L|282:247,1,70,0|0,1:2|0:0,0:0:0:0:
395,327,67666,1,0,1:2:0:0:
423,92,67939,6,0,B|423:156|471:156|470:222,1,140,0|8,1:2|1:2,0:0:0:0:
263,147,68348,2,0,B|263:83|311:83|310:17,1,140,2|0,0:2|0:0,0:0:0:0:
87,56,68757,2,0,B|96:161|96:161|122:183,1,140,0|0,1:2|1:2,0:0:0:0:
210,230,69166,1,2,0:2:0:0:
263,147,69302,1,8,1:2:0:0:
42,232,69848,5,6,1:2:0:0:
42,232,70393,2,0,L|46:284,1,52.5000020027161,10|2,1:2|0:2,0:0:0:0:
54,371,70666,1,2,0:2:0:0:
123,252,70938,6,0,L|118:199,1,52.5000020027161,2|2,1:2|0:2,0:0:0:0:
111,109,71211,1,2,0:2:0:0:
200,213,71484,6,0,L|204:265,1,52.5000020027161,10|2,1:2|0:2,0:0:0:0:
213,357,71757,1,2,1:2:0:0:
111,109,72029,1,0,1:2:0:0:
302,95,72575,6,0,L|250:91,1,52.5000020027161,10|2,1:2|0:2,0:0:0:0:
163,83,72848,1,2,0:2:0:0:
371,151,73120,6,0,L|400:107,1,52.5000020027161,2|2,1:2|0:2,0:0:0:0:
450,36,73393,1,2,0:2:0:0:
290,183,73666,6,0,L|312:230,1,52.5000020027161,10|2,1:2|0:2,0:0:0:0:
350,308,73939,1,2,1:2:0:0:
450,36,74211,1,0,1:2:0:0:
243,280,74757,6,0,P|194:272|174:263,1,52.5000020027161,10|2,1:2|0:2,0:0:0:0:
121,220,75029,1,2,0:2:0:0:
380,291,75302,6,0,P|429:299|449:308,1,52.5000020027161,2|2,1:2|0:2,0:0:0:0:
502,351,75574,1,2,0:2:0:0:
243,280,75848,6,0,P|194:272|174:263,1,52.5000020027161,10|2,1:2|0:2,0:0:0:0:
121,220,76120,1,2,1:2:0:0:
502,351,76393,1,0,1:2:0:0:
195,170,76938,6,0,P|187:219|178:239,1,52.5000020027161,10|2,1:2|0:2,0:0:0:0:
135,292,77210,1,2,0:2:0:0:
144,90,77484,6,0,P|167:78|192:71,1,52.5000020027161,2|2,1:2|0:2,0:0:0:0:
279,81,77756,1,2,0:2:0:0:
99,181,78029,6,0,P|77:166|58:147,1,52.5000020027161,10|2,1:2|0:2,0:0:0:0:
24,69,78301,1,2,1:2:0:0:
51,328,78575,6,0,B|51:246|99:262|99:182,1,157.500006008148,2|0,1:2|0:0,0:0:0:0:
67,72,79120,1,8,1:2:0:0:
146,322,79393,2,0,L|250:312,1,105.000004005432,2|2,0:2|1:2,0:0:0:0:
447,85,80211,2,0,L|395:80,1,52.5000020027161,10|0,1:2|0:0,0:0:0:0:
310,68,80484,1,2,1:2:0:0:
146,322,81029,2,0,L|273:310,1,105.000004005432,2|10,0:2|1:2,0:0:0:0:
447,83,81848,6,0,L|394:78,1,52.5000020027161,2|2,1:2|0:2,0:0:0:0:
301,66,82120,1,2,0:2:0:0:
220,154,82393,6,0,L|167:159,1,52.5000020027161,10|2,1:2|0:2,0:0:0:0:
74,171,82665,1,2,1:2:0:0:
180,274,82938,6,0,B|262:274|246:322|326:322,1,157.500006008148,2|0,1:2|0:0,0:0:0:0:
436,290,83483,1,8,1:2:0:0:
282,11,83757,2,0,L|292:115,1,105.000004005432,2|2,0:2|1:2,0:0:0:0:
435,289,84575,2,0,L|440:237,1,52.5000020027161,10|0,1:2|0:0,0:0:0:0:
449,151,84848,1,2,1:2:0:0:
282,11,85393,2,0,L|292:115,1,105.000004005432,2|10,0:2|1:2,0:0:0:0:
436,290,86211,2,0,L|432:342,2,52.5000020027161,2|0|2,1:2|0:0|0:2,0:0:0:0:
292,115,86757,1,8,1:2:0:0:
169,209,87302,6,0,P|126:270|144:342,1,154.000004699707,6|2,1:2|1:2,0:0:0:0:
215,285,87711,2,0,P|254:282|291:278,1,77.0000023498536,2|8,0:2|1:2,0:0:0:0:
87,167,87983,2,0,P|48:164|10:160,1,77.0000023498536,2|0,0:2|1:2,0:0:0:0:
215,285,88256,2,0,P|254:282|291:278,1,77.0000023498536,2|0,0:2|1:2,0:0:0:0:
94,365,88529,1,2,0:2:0:0:
94,365,88597,1,2,0:2:0:0:
94,365,88665,2,0,P|73:332|66:296,1,77.0000023498536,0|0,1:2|0:0,0:0:0:0:
188,177,88938,6,0,B|228:181|251:163|251:163|268:177|268:177|290:159|330:163,1,154.000004699707,10|2,1:2|1:2,0:0:0:0:
442,204,89347,2,0,P|456:240|457:276,1,77.0000023498536,2|0,0:2|1:2,0:0:0:0:
421,85,89620,2,0,P|406:48|405:12,1,77.0000023498536,2|0,0:2|1:2,0:0:0:0:
330,163,89892,2,0,P|291:167|253:169,1,77.0000023498536,2|8,0:2|1:2,0:0:0:0:
159,49,90165,2,0,P|197:53|235:55,1,77.0000023498536,2|0,0:2|1:2,0:0:0:0:
442,204,90438,6,0,P|456:240|457:276,1,77.0000023498536,2|0,0:2|1:2,0:0:0:0:
421,85,90711,2,0,P|406:48|405:12,1,77.0000023498536,2|0,0:2|1:2,0:0:0:0:
330,163,90983,2,0,P|291:167|253:169,1,77.0000023498536,2|8,0:2|1:2,0:0:0:0:
150,306,91256,1,2,0:2:0:0:
150,306,91392,2,0,P|183:288|209:260,1,77.0000023498536,2|2,1:2|0:2,0:0:0:0:
253,168,91665,1,0,1:2:0:0:
38,73,91938,5,2,1:2:0:0:
127,30,92074,2,0,P|128:68|133:106,1,77.0000023498536,2|8,0:2|1:2,0:0:0:0:
247,245,92347,2,0,P|251:207|253:169,1,77.0000023498536,2|0,0:2|1:2,0:0:0:0:
127,30,92620,2,0,P|128:68|133:106,1,77.0000023498536,2|0,0:2|1:2,0:0:0:0:
60,251,92892,1,2,0:2:0:0:
60,251,92960,1,2,0:2:0:0:
60,251,93028,2,0,P|39:218|32:182,1,77.0000023498536,2|0,1:2|0:0,0:0:0:0:
127,30,93302,6,0,B|167:26|190:44|190:44|207:30|207:30|229:48|269:44,1,154.000004699707,10|2,1:2|1:2,0:0:0:0:
395,91,93711,2,0,P|409:127|410:163,1,77.0000023498536,2|0,0:2|1:2,0:0:0:0:
280,243,93983,2,0,P|280:204|294:169,1,77.0000023498536,2|0,0:2|1:2,0:0:0:0:
404,277,94256,2,0,P|443:281|481:283,1,77.0000023498536,2|8,0:2|1:2,0:0:0:0:
300,358,94529,2,0,P|261:362|223:364,1,77.0000023498536,2|0,0:2|1:2,0:0:0:0:
395,91,94802,6,0,P|409:127|410:163,1,77.0000023498536,2|0,0:2|1:2,0:0:0:0:
280,243,95074,2,0,P|280:204|294:169,1,77.0000023498536,2|0,0:2|1:2,0:0:0:0:
404,277,95347,2,0,P|443:281|481:283,1,77.0000023498536,2|8,0:2|1:2,0:0:0:0:
300,358,95620,1,2,0:2:0:0:
300,358,95756,2,0,P|262:355|227:341,1,77.0000023498536,2|2,1:2|0:2,0:0:0:0:
166,261,96029,1,0,1:2:0:0:
391,88,96302,5,2,1:2:0:0:
285,48,96438,2,0,P|289:89|291:130,1,83.9999974365235,2|8,0:2|1:2,0:0:0:0:
165,259,96711,2,0,P|160:217|158:176,1,83.9999974365235,2|0,0:2|1:2,0:0:0:0:
285,48,96984,2,0,P|289:89|291:130,1,83.9999974365235,2|0,0:2|1:2,0:0:0:0:
371,277,97256,1,2,0:2:0:0:
371,277,97324,1,2,0:2:0:0:
371,277,97392,2,0,P|402:248|419:212,1,83.9999974365235,2|0,1:2|0:0,0:0:0:0:
285,47,97665,6,0,B|241:43|216:63|216:63|197:47|197:47|173:67|130:63,1,167.999994873047,10|2,1:2|1:2,0:0:0:0:
14,192,98074,2,0,P|49:169|90:161,1,83.9999974365235,2|0,0:2|1:2,0:0:0:0:
274,190,98347,2,0,P|238:167|197:159,1,83.9999974365235,2|0,0:2|1:2,0:0:0:0:
131,292,98620,2,0,P|89:296|48:298,1,83.9999974365235,2|8,0:2|1:2,0:0:0:0:
258,349,98892,2,0,P|299:346|341:342,1,83.9999974365235,2|0,0:2|1:2,0:0:0:0:
14,191,99165,6,0,P|49:168|90:160,1,83.9999974365235,2|0,0:2|1:2,0:0:0:0:
274,190,99438,2,0,P|238:167|197:159,1,83.9999974365235,2|0,0:2|1:2,0:0:0:0:
129,293,99711,2,0,P|87:297|46:299,1,83.9999974365235,2|8,0:2|1:2,0:0:0:0:
258,349,99983,1,2,0:2:0:0:
258,349,100119,2,0,P|297:334|330:310,1,83.9999974365235,2|2,1:2|0:2,0:0:0:0:
386,212,100392,1,0,1:2:0:0:
134,29,100665,5,2,1:2:0:0:
215,96,100802,2,0,P|256:93|298:89,1,83.9999974365235,2|8,0:2|1:2,0:0:0:0:
469,218,101074,2,0,P|427:214|385:211,1,83.9999974365235,2|0,0:2|1:2,0:0:0:0:
215,96,101347,2,0,P|256:93|298:89,1,83.9999974365235,2|0,0:2|1:2,0:0:0:0:
310,295,101620,1,2,0:2:0:0:
310,295,101688,1,2,0:2:0:0:
310,295,101756,2,0,P|281:326|245:343,1,83.9999974365235,2|0,1:2|0:0,0:0:0:0:
87,309,102029,6,0,B|71:267|84:238|84:238|64:223|64:223|77:195|62:155,1,167.999994873047,10|2,1:2|1:2,0:0:0:0:
112,42,102438,2,0,P|150:25|192:24,1,83.9999974365235,2|0,0:2|1:2,0:0:0:0:
365,110,102711,2,0,P|326:126|284:127,1,83.9999974365235,2|0,0:2|1:2,0:0:0:0:
145,201,102983,2,0,P|141:243|139:284,1,83.9999974365235,2|8,0:2|1:2,0:0:0:0:
296,355,103256,2,0,P|300:313|302:272,1,83.9999974365235,2|0,0:2|1:2,0:0:0:0:
112,42,103529,6,0,P|150:25|192:24,1,83.9999974365235,2|0,0:2|1:2,0:0:0:0:
365,110,103802,2,0,P|326:126|284:127,1,83.9999974365235,2|0,0:2|1:2,0:0:0:0:
145,201,104074,1,2,0:2:0:0:
145,201,104211,2,0,P|141:243|139:284,1,83.9999974365235,8|2,1:2|1:2,0:0:0:0:
296,360,104483,1,2,1:2:0:0:
296,360,104620,1,2,1:2:0:0:
347,198,104756,6,0,P|296:144|298:69,1,154.000004699707,4|2,1:2|1:2,0:0:0:0:
108,19,105165,2,0,P|159:73|157:148,1,154.000004699707,2|2,0:2|0:2,0:0:0:0:
39,211,105574,2,0,P|30:172|38:134,1,77.0000023498536,0|0,1:2|0:0,0:0:0:0:
123,327,105847,2,0,P|207:335|289:339,1,154.000004699707,2|0,1:2|1:2,0:0:0:0:
432,158,106256,2,0,P|355:162|278:169,1,154.000004699707,2|0,0:2|0:0,0:0:0:0:
377,272,106665,5,2,1:2:0:0:
432,158,106802,1,2,0:0:0:0:
348,59,106938,2,0,B|258:51|285:13|205:7,1,154.000004699707,0|2,1:2|1:2,0:0:0:0:
46,168,107347,2,0,B|136:160|109:122|188:116,1,154.000004699707,2|0,0:2|0:0,0:0:0:0:
339,244,107756,2,0,P|310:218|273:207,1,77.0000023498536,2|0,1:2|0:0,0:0:0:0:
123,330,108029,6,0,P|118:291|116:253,1,77.0000023498536,2|0,1:2|0:0,0:0:0:0:
281,130,108302,2,0,P|278:168|274:206,1,77.0000023498536,2|0,1:2|0:0,0:0:0:0:
68,40,108574,2,0,P|106:35|144:33,1,77.0000023498536,10|0,1:2|0:0,0:0:0:0:
281,130,108847,2,0,P|319:134|357:136,1,77.0000023498536,2|0,1:2|0:0,0:0:0:0:
494,19,109120,1,0,1:2:0:0:
487,323,109392,5,2,1:2:0:0:
382,242,109529,2,0,P|306:246|261:304,1,154.000004699707,2|2,0:2|0:2,0:0:0:0:
129,365,109938,2,0,P|95:343|73:311,1,77.0000023498536,0|0,1:2|0:0,0:0:0:0:
249,150,110211,2,0,P|257:234|261:316,1,154.000004699707,2|0,1:2|1:2,0:0:0:0:
80,202,110620,2,0,P|84:125|91:48,1,154.000004699707,2|0,0:2|0:0,0:0:0:0:
249,150,111029,5,2,1:2:0:0:
335,41,111165,1,2,0:0:0:0:
451,125,111302,2,0,B|445:205|407:178|399:268,1,154.000004699707,0|2,1:2|1:2,0:0:0:0:
262,377,111711,2,0,B|256:297|218:324|210:234,1,154.000004699707,2|0,0:2|0:0,0:0:0:0:
258,63,112120,2,0,P|275:96|277:134,1,77.0000023498536,2|0,1:2|0:0,0:0:0:0:
117,71,112392,6,0,P|73:74|25:89,2,77.0000023498536,2|0|0,1:2|0:0|1:2,0:0:0:0:
200,131,112802,2,0,P|239:136|277:135,2,77.0000023498536,2|8|2,0:2|1:2|0:2,0:0:0:0:
116,238,113211,2,0,P|117:275|123:312,1,77.0000023498536,0|2,1:2|0:2,0:0:0:0:
372,359,113483,6,0,P|435:317|445:244,1,154.000004699707,4|2,1:2|1:2,0:0:0:0:
419,61,113892,2,0,P|344:58|289:109,1,154.000004699707,2|2,0:2|0:2,0:0:0:0:
327,264,114302,2,0,P|344:231|346:193,1,77.0000023498536,0|0,1:2|0:0,0:0:0:0:
203,55,114574,6,0,P|126:62|49:66,1,154.000004699707,2|0,1:2|1:2,0:0:0:0:
99,228,114983,2,0,P|175:220|252:216,1,154.000004699707,2|0,0:2|0:0,0:0:0:0:
171,335,115392,1,2,1:2:0:0:
99,228,115529,1,2,0:0:0:0:
176,120,115665,6,0,B|256:114|229:76|319:68,1,154.000004699707,0|2,1:2|1:2,0:0:0:0:
488,242,116074,2,0,B|408:236|435:198|345:190,1,154.000004699707,2|0,0:2|0:0,0:0:0:0:
230,298,116483,2,0,P|192:289|161:265,1,77.0000023498536,2|0,1:2|0:0,0:0:0:0:
59,47,116756,6,0,P|98:42|136:40,1,77.0000023498536,2|0,1:2|0:0,0:0:0:0:
269,183,117029,2,0,P|308:188|346:190,1,77.0000023498536,2|0,1:2|0:0,0:0:0:0:
474,61,117302,2,0,P|479:100|481:138,1,77.0000023498536,10|0,1:2|0:0,0:0:0:0:
352,266,117574,2,0,P|347:227|345:189,1,77.0000023498536,2|0,1:2|0:0,0:0:0:0:
487,335,117847,1,0,1:2:0:0:
231,154,118120,5,2,1:2:0:0:
247,260,118256,2,0,P|180:295|158:367,1,154.000004699707,2|2,0:2|0:2,0:0:0:0:
28,300,118665,2,0,P|32:261|20:224,1,77.0000023498536,0|0,1:2|0:0,0:0:0:0:
89,67,118938,6,0,B|169:66|145:106|235:106,1,154.000004699707,2|0,1:2|1:2,0:0:0:0:
442,85,119347,1,2,0:2:0:0:
337,53,119483,2,0,P|339:91|343:129,1,77.0000023498536,10|0,1:2|0:0,0:0:0:0:
442,328,119756,1,2,1:2:0:0:
439,198,119892,1,2,0:0:0:0:
319,262,120029,6,0,B|239:261|263:301|173:301,1,154.000004699707,0|2,1:2|1:2,0:0:0:0:
34,126,120438,2,0,B|114:125|90:165|180:165,1,154.000004699707,2|0,0:2|0:0,0:0:0:0:
310,93,120847,2,0,P|304:55|283:22,1,77.0000023498536,2|0,1:2|0:0,0:0:0:0:
180,165,121120,6,0,P|195:199|223:225,1,77.0000023498536,2|0,1:2|0:0,0:0:0:0:
274,326,121392,2,0,P|312:330|348:318,1,77.0000023498536,0|0,1:2|0:0,0:0:0:0:
460,325,121665,2,0,B|490:281|490:281|483:220,1,105,8|0,1:2|0:0,0:0:0:0:
431,168,122211,6,0,L|291:177,1,140,6|0,1:2|1:2,0:0:0:0:
202,79,122620,1,2,0:2:0:0:
202,79,122756,2,0,P|177:103|163:135,1,70,10|0,1:2|0:0,0:0:0:0:
229,287,123029,2,0,P|220:253|199:225,1,70,0|0,1:2|0:0,0:0:0:0:
51,264,123302,6,0,P|81:325|144:352,1,140,2|0,1:2|1:2,0:0:0:0:
229,287,123711,1,0,0:0:0:0:
316,340,123847,2,0,P|349:349|384:348,1,70,10|0,1:2|0:0,0:0:0:0:
440,237,124120,2,0,P|470:219|494:194,1,70,0|0,1:2|0:0,0:0:0:0:
430,73,124392,6,0,L|360:68,1,70,2|0,1:2|0:0,0:0:0:0:
252,176,124665,2,0,L|322:171,1,70,0|0,1:2|0:0,0:0:0:0:
237,29,124938,1,10,1:2:0:0:
237,29,125074,1,2,0:2:0:0:
152,84,125211,2,0,L|82:79,1,70,0|0,1:2|0:0,0:0:0:0:
1,178,125483,6,0,P|19:243|77:280,1,140,2|0,1:2|1:2,0:0:0:0:
176,352,125892,2,0,P|210:352|243:341,1,70,2|10,0:2|1:2,0:0:0:0:
316,248,126165,1,0,0:0:0:0:
428,283,126302,2,0,B|428:317|428:317|418:351,1,70,0|0,1:2|0:0,0:0:0:0:
492,150,126574,6,0,L|352:159,1,140,2|0,1:2|1:2,0:0:0:0:
240,101,126983,1,2,0:2:0:0:
240,101,127119,2,0,B|219:128|219:128|210:162,1,70,10|0,1:2|0:0,0:0:0:0:
103,191,127392,2,0,P|83:162|54:142,1,70,2|0,1:2|0:0,0:0:0:0:
76,361,127665,6,0,P|139:335|169:273,1,140,2|0,1:2|1:2,0:0:0:0:
103,191,128074,1,0,0:0:0:0:
137,91,128211,2,0,P|158:64|188:45,1,70,10|0,1:2|0:0,0:0:0:0:
323,20,128483,2,0,P|356:25|388:41,1,70,2|0,1:2|0:0,0:0:0:0:
455,169,128756,6,0,L|450:239,1,70,2|0,1:2|0:0,0:0:0:0:
305,346,129029,1,2,1:2:0:0:
305,346,129165,1,2,0:2:0:0:
212,281,129302,2,0,L|142:289,1,70,10|2,1:2|0:2,0:0:0:0:
308,155,129574,1,2,1:2:0:0:
308,155,129711,1,2,0:2:0:0:
246,74,129847,6,0,P|183:46|118:69,1,140,2|0,1:2|1:2,0:0:0:0:
39,192,130256,1,2,0:2:0:0:
39,192,130392,2,0,P|32:226|35:261,1,70,10|0,1:2|0:0,0:0:0:0:
172,366,130665,2,0,P|178:331|175:296,1,70,0|0,1:2|0:0,0:0:0:0:
289,196,130938,6,0,L|429:205,1,140,2|0,1:2|1:2,0:0:0:0:
482,54,131347,1,2,0:2:0:0:
482,54,131483,2,0,P|451:70|429:97,1,70,10|0,1:2|0:0,0:0:0:0:
316,89,131756,2,0,P|299:58|272:36,1,70,2|0,1:2|0:0,0:0:0:0:
136,34,132029,6,0,P|77:69|58:136,1,140,2|0,1:2|1:2,0:0:0:0:
118,221,132438,1,0,0:0:0:0:
212,175,132574,2,0,P|193:145|166:124,1,70,10|0,1:2|0:0,0:0:0:0:
33,256,132847,2,0,P|51:285|78:306,1,70,2|0,1:2|0:0,0:0:0:0:
220,354,133120,6,0,B|283:348|279:300|343:295,1,140,2|2,1:2|1:2,0:0:0:0:
436,216,133529,1,0,0:0:0:0:
436,216,133665,2,0,P|426:182|430:148,1,70,10|2,1:2|0:2,0:0:0:0:
349,15,133938,2,0,P|355:48|348:83,1,70,0|0,1:2|0:0,0:0:0:0:
278,173,134211,6,0,P|210:181|153:143,1,140,2|0,1:2|1:2,0:0:0:0:
15,37,134620,2,0,P|41:60|58:91,1,70,2|10,0:2|1:2,0:0:0:0:
23,194,134892,1,0,0:0:0:0:
98,318,135029,2,0,B|109:285|109:285|108:249,1,70,0|0,1:2|0:0,0:0:0:0:
243,323,135302,6,0,L|383:314,1,140,2|0,1:2|1:2,0:0:0:0:
498,167,135711,1,2,0:2:0:0:
498,167,135847,2,0,B|468:186|468:186|449:214,1,70,10|0,1:2|0:0,0:0:0:0:
332,198,136120,2,0,P|320:164|297:137,1,70,2|0,1:2|0:0,0:0:0:0:
179,217,136392,6,0,P|113:196|78:137,1,140,2|0,1:2|1:2,0:0:0:0:
118,37,136802,1,0,0:0:0:0:
212,88,136938,2,0,P|247:91|281:81,1,70,10|0,1:2|0:0,0:0:0:0:
367,23,137211,2,0,P|402:19|436:29,1,70,2|0,1:2|0:0,0:0:0:0:
479,141,137483,6,0,L|474:211,1,70,2|0,1:2|0:0,0:0:0:0:
335,360,137756,1,2,1:2:0:0:
335,360,137892,1,2,0:2:0:0:
408,297,138029,2,0,L|478:302,1,70,10|2,1:2|0:2,0:0:0:0:
294,176,138302,1,2,1:2:0:0:
294,176,138438,1,2,0:2:0:0:
221,242,138574,6,0,P|153:250|96:212,1,140,2|0,1:2|1:2,0:0:0:0:
49,125,138983,1,2,0:2:0:0:
111,49,139120,2,0,L|181:44,1,70,10|0,1:2|0:0,0:0:0:0:
259,97,139392,2,0,L|329:92,1,70
463,171,139666,6,0,P|392:199|369:271,1,157.500006008148,4|2,1:2|0:2,0:0:0:0:
437,347,140211,2,0,L|489:350,2,52.5000020027161,10|0|2,1:2|0:0|0:2,0:0:0:0:
280,264,140756,2,0,B|208:272|224:320|136:328,1,157.500006008148,2|0,1:2|0:0,0:0:0:0:
53,276,141302,2,0,P|43:251|41:225,1,52.5000020027161,10|0,1:2|0:0,0:0:0:0:
96,144,141575,1,2,0:2:0:0:
264,53,142120,5,2,0:2:0:0:
152,44,142393,1,10,1:2:0:0:
286,146,142666,1,2,0:2:0:0:
286,146,142802,1,2,0:2:0:0:
286,146,142938,2,0,B|351:131|361:69|361:69|384:66|403:73,1,157.500006008148,2|2,1:2|0:2,0:0:0:0:
377,298,143484,2,0,B|331:249|272:271|272:271|258:253|255:233,1,157.500006008148,10|0,1:2|0:0,0:0:0:0:
463,143,144029,6,0,B|443:206|492:246|492:246|483:267|467:280,2,157.500006008148,2|2|2,1:2|0:2|0:2,0:0:0:0:
266,50,145256,1,2,0:2:0:0:
73,182,145666,2,0,L|70:130,1,52.5000020027161,10|0,1:2|0:0,0:0:0:0:
172,206,145938,2,0,L|175:258,1,52.5000020027161,2|0,0:2|0:0,0:0:0:0:
86,330,146211,5,0,1:2:0:0:
304,272,146484,2,0,B|345:283|345:283|369:347|434:337,1,157.500006008148,2|2,0:2|0:2,0:0:0:0:
194,164,147302,2,0,B|153:175|153:175|129:239|63:229,1,157.500006008148,2|2,1:2|0:2,0:0:0:0:
73,140,147847,2,0,L|70:88,1,52.5000020027161,8|0,1:2|0:0,0:0:0:0:
152,33,148120,2,0,L|155:85,1,52.5000020027161
289,183,148393,5,2,1:2:0:0:
289,183,148529,1,0,0:0:0:0:
289,183,148666,1,0,0:0:0:0:
455,107,148938,2,0,P|405:94|353:100,1,105.000004005432,10|2,1:2|0:2,0:0:0:0:
352,323,149484,2,0,B|344:251|296:267|288:179,1,157.500006008148,2|0,1:2|0:0,0:0:0:0:
237,96,150030,2,0,P|212:86|186:84,1,52.5000020027161,10|0,1:2|0:0,0:0:0:0:
101,113,150303,1,2,0:2:0:0:
299,21,150575,1,0,1:2:0:0:
163,215,150847,5,2,0:2:0:0:
59,200,151120,1,10,1:2:0:0:
275,245,151393,1,2,0:2:0:0:
275,245,151529,1,2,0:2:0:0:
275,245,151665,2,0,B|210:260|200:322|200:322|177:325|158:318,1,157.500006008148,2|2,1:2|0:2,0:0:0:0:
184,93,152211,2,0,B|230:142|289:120|289:120|303:138|306:158,1,157.500006008148,10|0,1:2|0:0,0:0:0:0:
98,248,152756,6,0,B|118:185|69:145|69:145|78:124|94:111,2,157.500006008148,2|2|2,1:2|0:2|0:2,0:0:0:0:
299,345,153984,1,2,0:2:0:0:
406,140,154393,2,0,L|409:88,1,52.5000020027161,10|0,1:2|0:0,0:0:0:0:
307,164,154665,2,0,L|304:216,1,52.5000020027161,2|0,0:2|0:0,0:0:0:0:
452,324,154938,5,0,1:2:0:0:
309,69,155211,2,0,B|267:79|267:79|215:36|163:77,2,157.500006008148,2|2|2,0:2|0:2|1:2,0:0:0:0:
451,324,156438,1,2,0:2:0:0:
476,228,156575,5,8,1:2:0:0:
496,215,174575,6,0,P|482:147|432:100,1,140,4|10,1:2|0:2,0:0:0:0:
312,300,174984,2,0,P|378:320|444:301,1,140,2|2,1:2|0:2,0:0:0:0:
496,215,175393,1,8,0:2:0:0:
345,106,175665,6,0,L|205:118,1,140,2|8,1:2|0:2,0:0:0:0:
103,23,176075,2,0,L|115:162,1,140,0|0,1:2|1:2,0:0:0:0:
205,223,176484,1,10,0:2:0:0:
206,118,176620,1,0,1:2:0:0:
46,207,176756,6,0,P|76:302|174:322,2,210,0|0|10,1:2|1:2|0:2,0:0:0:0:
235,50,177847,6,0,L|304:56,1,70,2|0,1:2|0:0,0:0:0:0:
431,118,178120,2,0,L|361:124,1,70,10|0,0:2|1:2,0:0:0:0:
235,50,178393,2,0,L|304:56,1,70,2|0,0:2|1:2,0:0:0:0:
362,124,178665,1,10,0:2:0:0:
362,124,178802,1,0,1:2:0:0:
304,201,178938,1,0,1:2:0:0:
453,293,179211,5,10,0:2:0:0:
453,293,179347,2,0,B|381:293|389:333|317:341,1,140,2|2,1:2|0:2,0:0:0:0:
238,301,179756,1,8,0:2:0:0:
60,141,180029,2,0,P|122:166|144:231,1,140,2|8,1:2|0:2,0:0:0:0:
238,301,180438,2,0,P|263:238|328:216,1,140,0|0,1:2|1:2,0:0:0:0:
446,231,180847,1,10,0:2:0:0:
377,314,180984,1,0,1:2:0:0:
399,153,181120,6,0,B|399:81|439:89|446:23,1,140,0|10,1:2|0:2,0:0:0:0:
317,48,181529,2,0,B|245:48|253:88|187:95,1,140,0|0,1:2|0:0,0:0:0:0:
90,53,181938,1,10,0:2:0:0:
144,232,182211,6,0,P|81:257|59:322,1,140,2|8,1:2|0:2,0:0:0:0:
163,358,182620,2,0,L|232:351,1,70,0|0,1:2|0:0,0:0:0:0:
321,247,182893,2,0,L|251:240,1,70,0|8,1:2|0:2,0:0:0:0:
348,351,183165,1,0,1:2:0:0:
427,262,183302,1,0,1:2:0:0:
446,109,183575,5,10,0:2:0:0:
446,109,183711,2,0,P|404:55|336:50,1,140,2|2,1:2|0:2,0:0:0:0:
256,103,184120,1,8,0:2:0:0:
45,74,184393,2,0,L|32:213,1,140,2|8,1:2|0:2,0:0:0:0:
116,358,184802,2,0,L|128:218,1,140,0|0,1:2|1:2,0:0:0:0:
201,128,185211,1,10,0:2:0:0:
262,223,185347,1,0,1:2:0:0:
116,358,185484,6,0,B|138:332|138:332|244:323,1,140,0|10,1:2|0:2,0:0:0:0:
469,321,185893,2,0,B|447:347|447:347|341:356,1,140,0|0,1:2|0:0,0:0:0:0:
254,219,186302,1,10,0:2:0:0:
42,37,186575,6,0,L|111:43,1,70,2|0,1:2|0:0,0:0:0:0:
319,77,186848,2,0,L|249:83,1,70,10|0,0:2|1:2,0:0:0:0:
42,37,187121,2,0,L|111:43,1,70,2|0,0:2|1:2,0:0:0:0:
153,133,187393,1,10,0:2:0:0:
153,133,187530,1,0,1:2:0:0:
83,197,187666,1,0,1:2:0:0:
287,327,187938,5,10,0:2:0:0:
287,327,188075,2,0,P|354:334|404:288,1,140,2|2,1:2|0:2,0:0:0:0:
423,194,188484,1,8,0:2:0:0:
196,123,188756,6,0,B|261:115|253:75|325:75,1,140,2|8,1:2|0:2,0:0:0:0:
423,149,189165,1,0,1:2:0:0:
345,227,189302,2,0,L|275:233,1,70,2|0,0:2|1:2,0:0:0:0:
184,345,189575,1,10,0:2:0:0:
133,214,189711,1,0,1:2:0:0:
292,340,189847,6,0,P|359:347|409:301,1,140,0|10,1:2|0:2,0:0:0:0:
354,125,190256,2,0,P|286:117|236:163,1,140,0|0,1:2|0:0,0:0:0:0:
324,240,190665,1,10,0:2:0:0:
202,35,190938,5,2,1:2:0:0:
121,128,191211,2,0,L|51:118,1,70,8|0,0:2|1:2,0:0:0:0:
255,249,191484,2,0,L|324:239,1,70,2|0,2:0|1:2,0:0:0:0:
87,368,191756,2,0,L|17:358,1,70,8|0,0:2|1:2,0:0:0:0:
325,239,192029,1,4,0:2:0:0:
315,135,194211,6,0,B|315:207|358:207|358:280,1,154.000004699707,6|2,1:2|1:2,0:0:0:0:
266,271,194620,2,0,P|227:268|190:264,1,77.0000023498536,2|8,0:2|1:2,0:0:0:0:
402,147,194893,2,0,P|441:150|478:154,1,77.0000023498536,2|0,0:2|1:2,0:0:0:0:
266,271,195165,2,0,P|227:268|190:264,1,77.0000023498536,2|0,0:2|1:2,0:0:0:0:
408,372,195438,1,2,0:2:0:0:
408,372,195506,1,2,0:2:0:0:
408,372,195574,2,0,P|434:343|447:308,1,77.0000023498536,0|0,1:2|0:0,0:0:0:0:
403,147,195847,6,0,B|363:143|341:161|341:161|324:147|324:147|301:165|261:161,1,154.000004699707,10|2,1:2|1:2,0:0:0:0:
152,110,196256,2,0,P|121:85|103:55,1,77.0000023498536,2|0,0:2|1:2,0:0:0:0:
170,216,196529,2,0,P|164:254|146:285,1,77.0000023498536,2|0,0:2|1:2,0:0:0:0:
0,230,196802,2,0,P|38:225|76:222,1,77.0000023498536,2|8,0:2|1:2,0:0:0:0:
234,331,197075,2,0,P|272:335|310:338,1,77.0000023498536,2|0,0:2|1:2,0:0:0:0:
152,110,197347,6,0,P|121:85|103:55,1,77.0000023498536,2|0,0:2|1:2,0:0:0:0:
170,216,197620,2,0,P|164:254|146:285,1,77.0000023498536,2|0,0:2|1:2,0:0:0:0:
0,230,197893,2,0,P|38:225|76:222,1,77.0000023498536,2|8,0:2|1:2,0:0:0:0:
234,331,198165,1,2,0:2:0:0:
234,331,198302,2,0,P|267:349|305:355,1,77.0000023498536,2|2,1:2|0:2,0:0:0:0:
417,315,198574,1,0,1:2:0:0:
318,88,198847,5,2,1:2:0:0:
218,40,198984,2,0,P|214:78|209:116,1,77.0000023498536,2|8,0:2|1:2,0:0:0:0:
50,219,199256,2,0,P|44:180|41:142,1,77.0000023498536,2|0,0:2|1:2,0:0:0:0:
218,40,199529,2,0,P|214:78|209:116,1,77.0000023498536,2|0,0:2|1:2,0:0:0:0:
196,289,199802,1,2,0:2:0:0:
196,289,199870,1,2,0:2:0:0:
196,289,199938,2,0,P|159:303|123:304,1,77.0000023498536,2|0,1:2|0:0,0:0:0:0:
41,142,200211,6,0,B|81:146|103:128|103:128|120:142|120:142|143:124|183:128,1,154.000004699707,10|2,1:2|1:2,0:0:0:0:
279,59,200620,2,0,P|315:44|351:43,1,77.0000023498536,2|0,0:2|1:2,0:0:0:0:
382,180,200893,2,0,P|345:194|309:195,1,77.0000023498536,2|0,0:2|1:2,0:0:0:0:
192,309,201165,2,0,P|230:314|268:317,1,77.0000023498536,2|8,0:2|1:2,0:0:0:0:
414,363,201438,2,0,P|419:325|422:287,1,77.0000023498536,2|0,0:2|1:2,0:0:0:0:
279,59,201711,6,0,P|315:44|351:43,1,77.0000023498536,2|0,0:2|1:2,0:0:0:0:
381,180,201984,2,0,P|344:194|308:195,1,77.0000023498536,2|0,0:2|1:2,0:0:0:0:
192,309,202256,2,0,P|230:314|268:317,1,77.0000023498536,2|8,0:2|1:2,0:0:0:0:
414,363,202529,1,2,0:2:0:0:
414,363,202666,2,0,P|425:327|425:288,1,77.0000023498536,2|2,1:2|0:2,0:0:0:0:
382,180,202938,1,0,1:2:0:0:
126,286,203211,5,2,1:2:0:0:
208,341,203347,2,0,P|250:337|291:333,1,83.9999974365235,2|8,0:2|1:2,0:0:0:0:
121,182,203620,2,0,P|78:185|37:189,1,83.9999974365235,2|0,0:2|1:2,0:0:0:0:
208,341,203893,2,0,P|250:337|291:333,1,83.9999974365235,2|0,0:2|1:2,0:0:0:0:
388,183,204165,1,2,0:2:0:0:
388,183,204233,1,2,0:2:0:0:
388,183,204302,2,0,P|373:141|349:110,1,83.9999974365235,2|0,1:2|0:0,0:0:0:0:
138,54,204575,6,0,B|182:58|207:38|207:38|226:54|226:54|250:34|293:38,1,167.999994873047,10|2,1:2|1:2,0:0:0:0:
264,165,204984,2,0,P|222:158|182:169,1,83.9999974365235,2|0,0:2|1:2,0:0:0:0:
59,309,205256,2,0,P|67:266|90:232,1,83.9999974365235,2|0,0:2|1:2,0:0:0:0:
218,322,205529,2,0,P|260:326|301:328,1,83.9999974365235,2|8,0:2|1:2,0:0:0:0:
405,257,205802,2,0,P|446:253|488:250,1,83.9999974365235,2|0,0:2|1:2,0:0:0:0:
264,165,206075,6,0,P|222:158|182:169,1,83.9999974365235,2|0,0:2|1:2,0:0:0:0:
59,309,206348,2,0,P|67:266|90:232,1,83.9999974365235,2|0,0:2|1:2,0:0:0:0:
218,322,206620,2,0,P|260:326|301:328,1,83.9999974365235,2|8,0:2|1:2,0:0:0:0:
405,257,206893,1,2,0:2:0:0:
405,257,207029,2,0,P|411:215|407:175,1,83.9999974365235,2|2,1:2|0:2,0:0:0:0:
350,77,207302,1,0,1:2:0:0:
110,115,207575,5,2,1:2:0:0:
180,48,207711,2,0,P|222:52|263:56,1,83.9999974365235,2|8,0:2|1:2,0:0:0:0:
107,208,207984,2,0,P|65:204|24:200,1,83.9999974365235,2|0,0:2|1:2,0:0:0:0:
180,48,208256,2,0,P|222:52|263:56,1,83.9999974365235,2|0,0:2|1:2,0:0:0:0:
343,199,208529,1,2,0:2:0:0:
343,199,208597,1,2,0:2:0:0:
343,199,208665,2,0,P|328:241|291:277,1,83.9999974365235,2|0,1:2|0:0,0:0:0:0:
150,347,208938,6,0,B|165:307|152:279|152:279|172:264|172:264|159:235|175:193,1,167.999994873047,10|2,1:2|1:2,0:0:0:0:
188,25,209347,2,0,P|148:39|118:69,1,83.9999974365235,2|0,0:2|1:2,0:0:0:0:
320,184,209620,2,0,P|327:142|316:102,1,83.9999974365235,2|0,0:2|1:2,0:0:0:0:
175,192,209893,2,0,P|133:196|92:198,1,83.9999974365235,2|8,0:2|1:2,0:0:0:0:
5,319,210165,2,0,P|46:321|88:325,1,83.9999974365235,2|0,0:2|1:2,0:0:0:0:
188,25,210438,6,0,P|148:39|118:69,1,83.9999974365235,2|0,0:2|1:2,0:0:0:0:
320,184,210711,2,0,P|327:142|316:102,1,83.9999974365235,2|0,0:2|1:2,0:0:0:0:
175,192,210984,1,2,0:2:0:0:
175,192,211120,2,0,P|133:196|92:198,1,83.9999974365235,8|2,1:2|1:2,0:0:0:0:
278,337,211393,1,2,1:2:0:0:
278,337,211529,1,2,1:2:0:0:
319,182,211665,6,0,P|379:128|456:152,1,167.999994873047,4|2,1:2|1:2,0:0:0:0:
278,337,212075,2,0,P|258:258|182:234,1,167.999994873047,2|2,0:2|0:2,0:0:0:0:
43,305,212484,2,0,P|81:322|123:322,1,83.9999974365235,0|0,1:2|0:0,0:0:0:0:
197,135,212756,6,0,P|113:148|29:149,1,167.999994873047,2|0,1:2|1:2,0:0:0:0:
139,18,213165,2,0,P|228:23|306:32,1,167.999994873047,2|0,0:2|0:0,0:0:0:0:
411,164,213575,1,2,1:2:0:0:
464,26,213711,1,2,0:0:0:0:
306,133,213847,6,0,B|314:232|268:210|276:297,1,167.999994873047,0|2,1:2|1:2,0:0:0:0:
123,362,214256,2,0,B|131:262|85:284|93:197,1,167.999994873047,2|0,0:2|0:0,0:0:0:0:
228,57,214665,2,0,P|270:52|306:31,1,83.9999974365235,2|0,1:2|0:0,0:0:0:0:
97,104,214938,6,0,P|55:98|14:90,1,83.9999974365235,2|0,1:2|0:0,0:0:0:0:
274,188,215211,2,0,P|315:182|356:174,1,83.9999974365235,2|0,1:2|0:0,0:0:0:0:
130,361,215484,1,10,1:2:0:0:
130,361,215620,1,0,0:0:0:0:
40,270,215756,2,0,P|45:228|53:187,1,83.9999974365235,2|0,1:2|0:0,0:0:0:0:
156,132,216029,1,0,1:2:0:0:
422,36,216302,5,2,1:2:0:0:
478,152,216438,2,0,B|460:249|421:216|406:302,1,167.999994873047,2|2,0:2|0:2,0:0:0:0:
282,185,216847,2,0,P|318:164|359:159,1,83.9999974365235,0|0,1:2|0:0,0:0:0:0:
187,339,217120,6,0,P|182:255|174:171,1,167.999994873047,2|0,1:2|1:2,0:0:0:0:
48,93,217529,2,0,P|39:176|35:260,1,167.999994873047,2|0,0:2|0:0,0:0:0:0:
143,355,217938,1,2,1:2:0:0:
240,239,218075,1,2,0:0:0:0:
332,345,218211,6,0,B|373:350|396:303|396:303|446:283|478:329,1,167.999994873047,0|2,1:2|1:2,0:0:0:0:
375,157,218620,1,2,0:2:0:0:
255,232,218756,2,0,P|234:268|229:309,1,83.9999974365235,10|0,1:2|0:0,0:0:0:0:
375,157,219029,2,0,P|370:115|349:79,1,83.9999974365235,2|0,1:2|0:0,0:0:0:0:
137,33,219302,6,0,P|96:35|54:33,2,83.9999974365235,2|2|0,1:2|0:2|1:2,0:0:0:0:
200,140,219711,2,0,P|241:138|283:140,2,83.9999974365235,2|8|2,0:2|1:2|0:2,0:0:0:0:
49,254,220120,2,0,P|50:295|56:337,1,83.9999974365235,0|0,1:2|0:0,0:0:0:0:
390,357,220393,6,0,P|383:276|315:231,1,167.999994873047,4|2,1:2|1:2,0:0:0:0:
200,140,220802,2,0,P|280:133|325:65,1,167.999994873047,2|2,0:2|0:2,0:0:0:0:
468,26,221211,2,0,P|444:60|435:101,1,83.9999974365235,0|0,1:2|0:0,0:0:0:0:
490,278,221484,6,0,B|393:260|426:221|340:206,1,167.999994873047,2|0,1:2|1:2,0:0:0:0:
232,72,221893,2,0,B|135:90|168:129|82:144,1,167.999994873047,2|0,0:2|0:0,0:0:0:0:
35,341,222302,1,2,1:2:0:0:
180,213,222438,1,2,0:0:0:0:
3,251,222575,6,0,P|84:257|131:323,1,167.999994873047,0|2,1:2|1:2,0:0:0:0:
308,140,222984,2,0,P|226:146|179:212,1,167.999994873047,2|0,0:2|0:0,0:0:0:0:
296,329,223393,2,0,P|298:287|284:248,1,83.9999974365235,2|0,1:2|0:0,0:0:0:0:
332,54,223665,6,0,P|374:48|415:40,1,83.9999974365235,2|0,1:2|0:0,0:0:0:0:
186,169,223938,2,0,P|144:163|103:155,1,83.9999974365235,2|0,1:2|0:0,0:0:0:0:
397,177,224211,1,10,1:2:0:0:
397,177,224347,1,0,0:0:0:0:
311,271,224484,2,0,P|316:312|324:353,1,83.9999974365235,2|0,1:2|0:0,0:0:0:0:
446,376,224756,1,0,1:2:0:0:
318,52,225029,5,2,1:2:0:0:
397,177,225165,2,0,P|313:173|229:163,1,167.999994873047,2|2,0:2|0:2,0:0:0:0:
107,29,225575,2,0,P|138:55|157:93,1,83.9999974365235,0|0,1:2|0:0,0:0:0:0:
98,336,225847,6,0,P|75:258|122:192,1,167.999994873047,2|0,1:2|1:2,0:0:0:0:
240,282,226256,1,2,0:2:0:0:
313,171,226393,2,0,P|326:131|322:89,1,83.9999974365235,10|0,1:2|0:0,0:0:0:0:
212,45,226665,1,2,1:2:0:0:
313,171,226802,1,2,0:0:0:0:
478,49,226938,6,0,P|394:52|310:62,1,167.999994873047,0|2,1:2|1:2,0:0:0:0:
172,265,227347,2,0,P|255:274|339:278,1,167.999994873047,2|0,0:2|0:0,0:0:0:0:
489,267,227756,2,0,P|480:225|456:191,1,83.9999974365235,2|0,1:2|0:0,0:0:0:0:
331,189,228029,5,2,1:2:0:0:
331,189,228165,1,0,0:0:0:0:
240,269,228302,1,0,1:2:0:0:
240,269,228438,1,0,0:0:0:0:
198,161,228575,2,0,B|192:110|192:110|222:66,1,105,8|0,1:2|0:0,0:0:0:0:
312,27,229120,5,4,1:2:0:0:
