osu file format v14

[General]
AudioFilename: audio.mp3
AudioLeadIn: 0
PreviewTime: 107524
Countdown: 0
SampleSet: Normal
StackLeniency: 0.7
Mode: 0
LetterboxInBreaks: 0
WidescreenStoryboard: 1

[Editor]
DistanceSpacing: 1
BeatDivisor: 4
GridSize: 4
TimelineZoom: 1.6

[Metadata]
Title:A Bunch Of Samples Played Consecutively
TitleUnicode:A Bunch Of Samples Played Consecutively
Artist:NegaRen
ArtistUnicode:NegaRen
Creator:Mao
Version:Hard
Source:
Tags:LAPFOX TRAX Breaking Boundaries Dave Remmler Renard Desperate-kun vipto
BeatmapID:1025870
BeatmapSetID:480553

[Difficulty]
HPDrainRate:5
CircleSize:4
OverallDifficulty:6.5
ApproachRate:7.5
SliderMultiplier:1.5
SliderTickRate:1

[Events]
//Background and Video events
0,0,"bg.jpg",0,0
//Break Periods
2,54212,62117
2,125654,133559
//Storyboard Layer 0 (Background)
//Storyboard Layer 1 (Fail)
//Storyboard Layer 2 (Pass)
//Storyboard Layer 3 (Foreground)
//Storyboard Sound Samples

[TimingPoints]
431,279.06976744186,4,1,0,80,1,0
18291,-111.111111111111,4,2,0,60,0,0
35593,-90.9090909090909,4,2,0,60,0,0
36151,-83.3333333333333,4,1,0,100,0,0
62942,-95.2380952380952,4,1,0,80,0,0
69361,-76.9230769230769,4,1,0,80,0,0
69640,-95.2380952380952,4,1,0,80,0,0
71314,-83.3333333333333,4,1,0,80,0,0
71872,-83.3333333333333,4,1,0,100,0,0
89175,-74.0740740740741,4,1,0,100,0,0
89733,-111.111111111111,4,2,0,60,0,0
98524,-111.111111111111,4,2,0,50,0,0
98663,-100,4,2,0,70,0,0
107593,-90.9090909090909,4,1,0,80,0,0
143314,-83.3333333333333,4,1,0,100,0,0
152244,-76.9230769230769,4,1,0,100,0,0
160896,-100,4,1,0,100,0,0
161175,-100,4,1,0,80,0,0
170244,-100,4,2,0,5,0,0

[Colours]
Combo1 : 245,221,50
Combo2 : 116,244,0
Combo3 : 247,68,9
Combo4 : 219,36,215
SliderBorder : 253,126,0
SliderTrackOverride : 71,14,13

[HitObjects]
103,239,9361,6,0,P|144:275|142:369,1,150,6|8,0:2|0:0,0:0:0:0:
75,319,9779,2,0,P|34:283|36:189,1,150,2|0,0:0|0:0,0:0:0:0:
108,157,10198,1,10,0:0:0:0:
256,229,10477,1,2,0:0:0:0:
391,323,10756,2,0,L|476:340,1,75,8|0,0:0|0:0,0:0:0:0:
508,267,11035,2,0,L|480:184,1,75,2|0,0:0|0:0,0:0:0:0:
401,194,11314,2,0,L|343:259,1,75,10|0,0:0|0:0,0:0:0:0:
272,225,11593,6,0,L|376:110,1,150,6|8,0:2|0:0,0:0:0:0:
425,50,12012,2,0,P|385:83|286:75,1,150,2|0,0:0|0:0,0:0:0:0:
223,32,12430,1,10,0:0:0:0:
181,192,12710,1,2,0:0:0:0:
139,350,12989,2,0,P|102:357|67:344,1,75,8|0,0:0|0:0,0:0:0:0:
59,262,13268,2,0,P|71:227|99:203,1,75,2|0,0:0|0:0,0:0:0:0:
176,237,13547,2,0,P|200:265|206:301,1,75,10|0,0:0|0:0,0:0:0:0:
276,345,13826,6,0,P|285:292|248:197,1,150,6|8,0:2|0:0,0:0:0:0:
187,154,14244,2,0,P|154:115|199:27,1,150,2|0,0:0|0:0,0:0:0:0:
265,4,14663,1,10,0:0:0:0:
332,154,14942,1,2,0:0:0:0:
485,92,15221,2,0,L|509:16,1,75,8|0,0:0|0:0,0:0:0:0:
424,22,15500,2,0,L|346:39,1,75,2|0,0:0|0:0,0:0:0:0:
393,109,15779,2,0,L|446:167,1,75,10|0,0:0|0:0,0:0:0:0:
414,241,16058,6,0,L|306:126,1,150,6|8,0:2|0:0,0:0:0:0:
231,154,16477,2,0,L|333:263,1,150,2|0,0:0|0:0,0:0:0:0:
391,322,16896,1,10,0:0:0:0:
233,370,17175,1,2,0:0:0:0:
131,245,17454,2,0,P|139:208|165:182,1,75,8|0,0:0|0:0,0:0:0:0:
95,137,17733,2,0,P|59:147|23:138,1,75,2|0,0:0|0:0,0:0:0:0:
19,222,18012,2,0,P|45:247|55:283,1,75,8|0,0:0|0:0,0:0:0:0:
120,321,18291,6,0,P|145:354|250:362,1,134.999995880127,4|0,0:0|0:0,0:0:0:0:
302,342,18710,1,0,0:0:0:0:
367,307,18849,2,0,L|414:168,1,134.999995880127,2|0,0:0|0:0,0:0:0:0:
256,48,19407,2,0,L|256:196,1,134.999995880127,2|0,0:0|0:0,0:0:0:0:
145,307,19965,2,0,B|145:305|121:236,2,67.4999979400635,2|0|0,0:0|0:0|0:0,0:0:0:0:
208,345,20384,1,0,0:0:0:0:
256,288,20524,5,2,0:0:0:0:
397,331,20803,1,0,0:0:0:0:
460,368,20942,1,0,0:0:0:0:
505,309,21082,1,2,0:0:0:0:
413,192,21361,1,0,0:0:0:0:
507,78,21640,2,0,P|478:57|444:47,1,67.4999979400635,2|0,0:0|0:0,0:0:0:0:
374,47,21919,2,0,P|341:60|314:83,1,67.4999979400635,0|0,0:0|0:0,0:0:0:0:
283,146,22198,2,0,P|256:167|225:179,1,67.4999979400635,2|0,0:0|0:0,0:0:0:0:
151,179,22477,2,0,P|119:168|92:148,1,67.4999979400635,0|0,0:0|0:0,0:0:0:0:
38,96,22756,6,0,L|25:19,2,67.4999979400635,2|0|0,0:0|0:0|0:0,0:0:0:0:
20,168,23175,1,0,0:0:0:0:
5,240,23314,2,0,P|33:312|77:349,1,134.999995880127,2|0,0:0|0:0,0:0:0:0:
251,341,23872,2,0,P|223:269|179:232,1,134.999995880127,2|0,0:0|0:0,0:0:0:0:
268,80,24430,2,0,L|348:92,1,67.4999979400635,2|0,0:0|0:0,0:0:0:0:
390,139,24710,2,0,L|470:151,1,67.4999979400635,0|0,0:0|0:0,0:0:0:0:
489,215,24989,6,0,P|467:273|398:295,1,134.999995880127,2|0,0:0|0:0,0:0:0:0:
330,277,25407,1,0,0:0:0:0:
276,328,25547,2,0,L|204:340,1,67.4999979400635,2|0,0:0|0:0,0:0:0:0:
139,311,25826,2,0,L|67:323,1,67.4999979400635,0|0,0:0|0:0,0:0:0:0:
12,263,26105,2,2,P|0:208|102:121,1,202.499993820191,2|0,0:0|0:0,0:0:0:0:
168,175,26663,2,2,B|199:199|236:186|236:186|264:211|264:211|302:170|345:174,1,202.499993820191,2|0,0:0|0:0,0:0:0:0:
413,120,27221,6,0,P|476:140|499:201,1,134.999995880127,4|0,0:0|0:0,0:0:0:0:
481,283,27640,1,0,0:0:0:0:
416,339,27779,2,0,L|281:317,1,134.999995880127,2|0,0:0|0:0,0:0:0:0:
128,192,28337,2,0,L|276:192,1,134.999995880127,2|0,0:0|0:0,0:0:0:0:
416,45,28896,2,0,L|347:56,2,67.4999979400635,2|0|0,0:0|0:0|0:0,0:0:0:0:
488,30,29314,1,0,0:0:0:0:
465,100,29454,5,2,0:0:0:0:
412,239,29733,1,0,0:0:0:0:
485,231,29872,1,0,0:0:0:0:
439,172,30012,1,2,0:0:0:0:
384,309,30291,1,0,0:0:0:0:
242,355,30570,2,0,L|170:346,1,67.4999979400635,2|0,0:0|0:0,0:0:0:0:
120,295,30849,2,0,L|48:286,1,67.4999979400635,0|0,0:0|0:0,0:0:0:0:
68,213,31128,2,0,L|140:222,1,67.4999979400635,2|0,0:0|0:0,0:0:0:0:
190,273,31407,2,0,L|262:282,1,67.4999979400635,0|0,0:0|0:0,0:0:0:0:
314,328,31686,6,0,P|346:326|383:295,2,67.4999979400635,2|0|0,0:0|0:0|0:0,0:0:0:0:
326,254,32105,1,0,0:0:0:0:
267,208,32244,2,0,P|240:156|279:77,1,134.999995880127,2|0,0:0|0:0,0:0:0:0:
81,36,32803,2,0,P|108:88|69:167,1,134.999995880127,2|0,0:0|0:0,0:0:0:0:
57,333,33361,2,0,P|88:344|121:340,1,67.4999979400635,2|0,0:0|0:0,0:0:0:0:
175,289,33640,2,0,P|208:284|239:296,1,67.4999979400635,0|0,0:0|0:0,0:0:0:0:
283,356,33919,6,0,P|327:370|400:314,1,134.999995880127,2|0,0:0|0:0,0:0:0:0:
382,251,34337,1,0,0:0:0:0:
424,189,34477,2,0,L|447:120,1,67.4999979400635,2|0,0:0|0:0,0:0:0:0:
371,117,34756,2,0,L|348:48,1,67.4999979400635,0|0,0:0|0:0,0:0:0:0:
288,95,35035,2,2,P|234:77|138:169,1,202.499993820191,2|0,0:0|0:0,0:0:0:0:
149,250,35593,6,2,B|167:337|167:337|253:363,1,165.000005035401,2|8,0:1|0:0,0:0:0:0:
305,323,36012,1,8,0:0:0:0:
386,360,36151,6,0,P|429:370|471:354,1,89.9999972534181,4|0,1:0|0:0,0:0:0:0:
422,277,36430,2,0,P|464:230|448:117,1,179.999994506836,10|2,1:0|0:0,0:0:0:0:
364,147,36849,1,2,0:0:0:0:
311,73,36989,1,10,0:0:0:0:
256,144,37128,2,0,L|256:324,2,179.999994506836,2|2|0,0:0|0:0|0:0,0:0:0:0:
200,72,37826,2,0,P|160:43|114:44,1,89.9999972534181,2|2,0:0|0:0,0:0:0:0:
132,131,38105,2,0,P|91:160|45:159,1,89.9999972534181,10|0,0:0|0:0,0:0:0:0:
10,241,38384,6,0,L|2:334,1,89.9999972534181,4|0,1:0|0:0,0:0:0:0:
84,368,38663,2,0,B|88:278|88:278|167:224,1,179.999994506836,10|2,0:0|0:0,0:0:0:0:
249,250,39082,1,2,0:0:0:0:
335,272,39221,1,10,0:0:0:0:
422,295,39361,2,0,P|465:284|489:161,2,179.999994506836,2|2|0,0:0|0:0|0:0,0:0:0:0:
399,208,40058,2,0,L|394:108,1,89.9999972534181,2|2,0:0|0:0,0:0:0:0:
316,163,40337,2,0,L|311:63,1,89.9999972534181,2|0,0:0|0:0,0:0:0:0:
232,122,40617,6,0,L|237:222,1,89.9999972534181,4|0,0:0|0:0,0:0:0:0:
236,302,40896,2,0,P|173:355|81:331,1,179.999994506836,10|2,0:0|0:0,0:0:0:0:
38,256,41314,1,2,0:0:0:0:
90,182,41454,1,10,0:0:0:0:
30,114,41593,2,0,B|82:38|82:38|174:46,2,179.999994506836,2|2|0,0:0|0:0|0:0,0:0:0:0:
90,182,42291,2,0,L|180:190,1,89.9999972534181,2|2,0:0|0:0,0:0:0:0:
230,115,42570,2,0,L|320:123,1,89.9999972534181,10|0,0:0|0:0,0:0:0:0:
396,75,42849,6,0,P|412:121|397:169,1,89.9999972534181,4|0,0:0|0:0,0:0:0:0:
492,151,43128,2,0,P|484:205|372:245,1,179.999994506836,10|2,0:0|0:0,0:0:0:0:
299,203,43547,1,2,0:0:0:0:
256,282,43686,1,10,0:0:0:0:
213,203,43826,6,0,P|163:191|77:271,2,179.999994506836,2|2|0,0:0|0:0|0:0,0:0:0:0:
169,282,44524,1,8,0:0:0:0:
209,362,44663,1,8,0:0:0:0:
303,362,44803,1,8,0:0:0:0:
343,282,44942,1,8,0:0:0:0:
299,203,45082,6,0,P|349:191|393:207,1,89.9999972534181,4|0,0:0|0:0,0:0:0:0:
456,256,45361,2,0,P|473:206|400:113,1,179.999994506836,10|2,0:0|0:0,0:0:0:0:
313,97,45779,1,2,0:0:0:0:
232,137,45919,1,10,0:0:0:0:
151,177,46058,2,0,P|85:120|96:34,2,179.999994506836,2|2|0,0:0|0:0|0:0,0:0:0:0:
225,227,46756,2,0,P|188:263|142:267,1,89.9999972534181,2|2,0:0|0:0,0:0:0:0:
75,317,47035,2,0,P|112:353|158:357,1,89.9999972534181,10|0,0:0|0:0,0:0:0:0:
236,340,47314,5,4,0:0:0:0:
317,379,47454,1,0,0:0:0:0:
400,346,47593,2,0,P|438:312|379:205,1,179.999994506836,10|2,0:0|0:0,0:0:0:0:
305,221,48012,1,2,0:0:0:0:
340,138,48151,1,10,0:0:0:0:
254,110,48291,2,0,L|77:62,2,179.999994506836,2|2|0,0:0|0:0|0:0,0:0:0:0:
340,138,48989,2,0,P|312:180|266:197,1,89.9999972534181,2|2,0:0|0:0,0:0:0:0:
187,210,49268,2,0,P|147:229|124:267,1,89.9999972534181,10|0,0:0|0:0,0:0:0:0:
159,350,49547,6,0,L|261:369,1,89.9999972534181,4|0,0:0|0:0,0:0:0:0:
301,293,49826,2,0,B|342:315|342:372|342:372|396:381|428:344,1,179.999994506836,10|2,0:0|0:0,0:0:0:0:
396,264,50244,1,2,0:0:0:0:
461,201,50384,1,10,0:0:0:0:
488,114,50524,2,0,P|480:65|366:25,2,179.999994506836,2|2|0,0:0|0:0|0:0,0:0:0:0:
416,167,51221,2,0,L|326:140,1,89.9999972534181,2|2,0:0|0:0,0:0:0:0:
243,169,51500,2,0,L|153:142,1,89.9999972534181,10|0,0:0|0:0,0:0:0:0:
98,73,51779,6,0,P|39:70|2:99,1,89.9999972534181,4|0,0:0|0:0,0:0:0:0:
67,158,52058,2,0,B|79:202|79:202|65:287|65:287|81:340,1,179.999994506836,10|2,0:0|0:0,0:0:0:0:
168,345,52477,1,2,0:0:0:0:
237,287,52617,1,10,0:0:0:0:
304,227,52756,2,0,P|369:234|416:330,2,179.999994506836,2|2|0,0:0|0:0|0:0,0:0:0:0:
217,198,53454,2,0,P|214:176|213:154,3,44.999998626709,6|4|6|4,0:3|0:3|0:3|0:3,0:0:0:0:
182,121,53733,2,0,P|195:103|210:86,3,44.999998626709,6|4|4|4,0:3|0:3|0:3|0:3,0:0:0:0:
211,41,54012,1,4,0:0:0:0:
482,351,62942,6,0,B|412:313|412:313|336:340,1,157.499995193482,4|0,0:0|0:0,0:0:0:0:
263,362,63361,1,0,0:0:0:0:
225,293,63500,2,0,L|237:215,2,78.7499975967408,8|8|8,0:0|0:0|0:0,0:0:0:0:
183,360,63919,1,2,0:3:0:0:
151,287,64058,1,2,0:3:0:0:
108,353,64198,1,2,0:3:0:0:
75,281,64337,2,0,P|44:248|11:241,1,78.7499975967408,4|4,0:3|0:3,0:0:0:0:
24,162,64617,2,0,B|54:163|54:163|69:157|69:157|104:160,1,78.7499975967408,2|2,0:0|0:3,0:0:0:0:
163,208,64896,2,0,B|193:209|193:209|208:203|208:203|243:206,1,78.7499975967408,2|2,0:0|0:3,0:0:0:0:
308,165,65175,6,0,B|329:206|310:241|310:241|343:314,1,157.499995193482,6|0,0:0|0:0,0:0:0:0:
404,359,65593,1,8,0:0:0:0:
453,297,65733,2,0,B|432:260|432:260|448:212,1,78.7499975967408,8|8,0:0|0:0,0:0:0:0:
488,160,66012,2,0,B|467:123|467:123|483:75,1,78.7499975967408,2|2,0:3|0:3,0:0:0:0:
408,52,66291,2,0,P|376:79|324:83,1,78.7499975967408,2|2,0:3|0:0,0:0:0:0:
270,64,66570,1,2,0:0:0:0:
215,116,66710,1,0,0:0:0:0:
164,56,66849,2,0,B|136:39|136:39|119:38|119:38|93:24,1,78.7499975967408,0|0,0:0|0:0,0:0:0:0:
60,95,67128,2,0,B|87:111|87:111|104:112|104:112|130:126,1,78.7499975967408,2|2,0:2|0:2,0:0:0:0:
178,189,67407,5,4,0:2:0:0:
281,70,67686,2,0,P|312:46|351:44,1,78.7499975967408,2|2,0:2|0:2,0:0:0:0:
334,121,67965,2,0,P|364:144|403:146,1,78.7499975967408,2|0,0:2|0:0,0:0:0:0:
476,117,68244,1,0,0:0:0:0:
478,195,68384,2,0,B|465:233|487:260|487:260|472:278|472:278|492:313|478:352,1,157.499995193482,4|0,0:2|0:0,0:0:0:0:
400,367,68803,2,0,L|308:355,1,78.7499975967408,4|0,0:2|0:0,0:0:0:0:
305,279,69082,2,0,L|213:267,1,78.7499975967408,0|2,0:0|0:2,0:0:0:0:
188,340,69361,6,0,L|89:327,1,97.4999955368044,2|0,0:0|0:0,0:0:0:0:
24,285,69640,6,0,P|10:238|82:164,1,157.499995193482,4|0,0:2|0:0,0:0:0:0:
147,198,70058,1,2,0:0:0:0:
174,124,70198,2,0,L|159:41,1,78.7499975967408,2|0,0:2|0:0,0:0:0:0:
231,13,70477,1,0,0:0:0:0:
231,13,70617,1,0,0:0:0:0:
291,63,70756,5,0,0:0:0:0:
367,41,70896,1,2,0:0:0:0:
422,95,71035,2,0,L|481:165,1,78.7499975967408,2|0,0:0|0:0,0:0:0:0:
437,236,71314,6,0,L|378:166,2,89.9999972534181,0|8|4,0:0|0:0|0:0,0:0:0:0:
258,363,71872,6,0,B|203:372|178:333|178:333|195:244,1,179.999994506836,4|10,0:0|0:0,0:0:0:0:
174,157,72291,1,0,0:0:0:0:
95,113,72430,2,0,L|4:128,2,89.9999972534181,8|8|8,0:0|0:0|0:0,0:0:0:0:
172,67,72849,1,2,3:0:0:0:
251,109,72989,1,6,3:0:0:0:
251,109,73128,1,2,3:0:0:0:
328,62,73268,1,8,0:0:0:0:
328,62,73407,1,0,0:0:0:0:
404,110,73547,2,0,B|438:117|438:117|457:112|457:112|490:118,1,89.9999972534181,2|2,3:0|3:0,0:0:0:0:
438,193,73826,2,0,B|464:217|464:217|483:222|483:222|508:244,1,89.9999972534181,8|0,0:0|0:0,0:0:0:0:
411,278,74105,6,0,P|413:322|286:359,1,179.999994506836,6|8,0:0|0:0,0:0:0:0:
256,296,74524,1,0,0:0:0:0:
272,207,74663,2,0,L|292:117,1,89.9999972534181,2|2,0:0|0:0,0:0:0:0:
201,128,74942,2,0,L|181:38,1,89.9999972534181,8|0,0:0|0:0,0:0:0:0:
111,101,75221,2,0,P|61:96|16:198,1,179.999994506836,2|8,0:0|0:0,0:0:0:0:
43,285,75640,1,0,0:0:0:0:
132,278,75779,2,0,B|139:243|139:243|134:224|134:224|140:191,1,89.9999972534181,0|0,0:0|0:3,0:0:0:0:
229,208,76058,2,0,B|221:242|221:242|226:261|226:261|220:294,1,89.9999972534181,10|2,0:0|3:0,0:0:0:0:
159,362,76337,6,0,P|215:385|307:313,1,179.999994506836,4|8,0:0|0:0,0:0:0:0:
315,231,76756,1,0,0:0:0:0:
400,259,76896,2,0,B|442:271|442:271|495:254,1,89.9999972534181,2|0,0:0|0:0,0:0:0:0:
479,166,77175,2,0,B|434:180|434:180|392:168,1,89.9999972534181,10|0,0:0|0:0,0:0:0:0:
434,88,77454,2,0,P|388:66|335:81,1,89.9999972534181,0|0,0:0|0:0,0:0:0:0:
280,138,77733,1,8,0:0:0:0:
256,43,77872,1,0,0:0:0:0:
177,102,78012,2,2,B|142:131|142:131|59:100|59:100|23:132,1,179.999994506836,2|10,0:0|0:0,0:0:0:0:
89,192,78431,1,0,0:0:0:0:
24,253,78570,2,2,B|59:284|59:284|142:253|142:253|177:282,1,179.999994506836,2|14,0:0|0:0,0:0:0:0:
227,355,78989,5,0,0:0:0:0:
298,301,79128,2,0,L|310:207,1,89.9999972534181,2|0,0:0|0:0,0:0:0:0:
271,129,79407,1,10,0:0:0:0:
319,52,79547,2,0,P|359:32|471:99,1,179.999994506836,2|2,0:0|0:0,0:0:0:0:
489,177,79965,2,0,L|503:273,1,89.9999972534181,8|0,0:0|0:0,0:0:0:0:
411,264,80244,2,0,L|425:360,2,89.9999972534181,2|2|8,3:0|3:0|3:1,0:0:0:0:
217,210,80803,6,2,B|259:226|259:226|268:311|268:311|224:338,1,179.999994506836,4|8,1:0|0:0,0:0:0:0:
137,348,81221,1,0,0:0:0:0:
69,288,81361,2,0,L|44:374,2,89.9999972534181,8|8|8,0:0|0:0|0:0,0:0:0:0:
98,203,81779,1,2,3:0:0:0:
38,135,81919,1,6,3:0:0:0:
38,135,82058,1,2,3:0:0:0:
68,50,82198,1,8,0:0:0:0:
68,50,82337,1,0,0:0:0:0:
128,116,82477,2,0,B|162:109|162:109|181:114|181:114|214:108,1,89.9999972534181,2|2,3:0|3:0,0:0:0:0:
241,20,82756,2,0,B|269:39|269:39|279:56|279:56|307:75,1,89.9999972534181,8|2,0:0|3:0,0:0:0:0:
389,35,83035,6,2,P|398:84|301:165,1,179.999994506836,6|8,0:0|0:0,0:0:0:0:
228,200,83454,1,2,0:0:0:0:
301,251,83593,2,0,L|320:358,1,89.9999972534181,2|0,0:0|0:0,0:0:0:0:
223,291,83872,2,0,L|204:398,1,89.9999972534181,8|0,0:0|0:0,0:0:0:0:
132,319,84151,2,2,B|124:242|76:286|70:211|70:211|67:183|42:172,1,179.999994506836,2|10,0:0|0:0,0:0:0:0:
34,82,84570,1,0,0:0:0:0:
120,109,84710,2,0,B|163:118|163:118|204:88,1,89.9999972534181,0|0,0:0|0:0,0:0:0:0:
277,43,84989,2,0,B|314:70|314:70|357:61,1,89.9999972534181,10|2,0:0|0:0,0:0:0:0:
446,45,85268,6,0,B|449:106|405:136|405:136|456:199,1,179.999994506836,6|8,0:0|0:0,0:0:0:0:
507,264,85686,1,0,0:0:0:0:
467,345,85826,2,0,B|431:351|431:351|412:346|412:346|378:353,1,89.9999972534181,2|0,0:0|0:0,0:0:0:0:
290,371,86105,1,10,0:0:0:0:
320,286,86244,2,0,B|337:241|337:241|306:211|306:211|334:178|315:120,1,179.999994506836,4|4,0:2|0:2,0:0:0:0:
273,47,86663,2,0,P|237:77|231:133,1,89.9999972534181,8|0,0:0|0:0,0:0:0:0:
181,195,86942,1,0,0:0:0:0:
181,195,87082,1,0,0:0:0:0:
119,129,87221,2,0,P|99:86|46:66,1,89.9999972534181,2|0,0:0|0:0,0:0:0:0:
35,153,87500,6,0,B|16:242|16:242|78:310,1,179.999994506836,0|0,0:0|0:0,0:0:0:0:
142,368,87919,1,2,0:0:0:0:
191,293,88058,2,0,B|184:257|184:257|189:238|189:238|182:204,1,89.9999972534181,0|2,0:0|0:0,0:0:0:0:
272,209,88337,2,0,B|279:243|279:243|274:262|274:262|280:297,1,89.9999972534181,2|0,0:0|0:0,0:0:0:0:
349,356,88617,1,2,0:0:0:0:
435,332,88756,1,0,0:0:0:0:
478,252,88896,2,0,L|456:161,1,89.9999972534181,2|0,0:0|0:0,0:0:0:0:
359,144,89175,6,0,L|383:43,2,101.250000386238,0|8|4,0:0|0:0|1:0,0:0:0:0:
313,364,89733,6,0,P|289:337|186:330,1,134.999995880127,4|0,0:0|0:0,0:0:0:0:
134,367,90151,1,0,0:0:0:0:
112,295,90291,2,0,L|90:150,1,134.999995880127,2|0,0:0|0:0,0:0:0:0:
256,64,90849,2,0,L|256:212,1,134.999995880127,2|0,0:0|0:0,0:0:0:0:
400,295,91407,2,0,L|411:222,2,67.4999979400635,2|0|0,0:0|0:0|0:0,0:0:0:0:
352,352,91826,1,0,0:0:0:0:
282,327,91965,5,2,0:0:0:0:
143,272,92244,1,0,0:0:0:0:
92,326,92384,1,0,0:0:0:0:
23,296,92524,1,2,0:0:0:0:
9,148,92803,1,0,0:0:0:0:
113,42,93082,2,0,P|134:67|138:109,1,67.4999979400635,2|0,0:0|0:0,0:0:0:0:
213,94,93361,2,0,P|210:126|183:159,1,67.4999979400635,0|0,0:0|0:0,0:0:0:0:
118,175,93640,2,0,P|97:200|93:242,1,67.4999979400635,2|0,0:0|0:0,0:0:0:0:
18,227,93919,2,0,P|20:259|47:292,1,67.4999979400635,0|0,0:0|0:0,0:0:0:0:
112,307,94198,6,0,L|128:373,2,67.4999979400635,2|0|0,0:0|0:0|0:0,0:0:0:0:
161,251,94617,1,0,0:0:0:0:
200,313,94756,2,0,P|249:349|320:338,1,134.999995880127,2|0,0:0|0:0,0:0:0:0:
465,214,95314,2,0,P|410:252|345:240,1,134.999995880127,2|0,0:0|0:0,0:0:0:0:
241,96,95872,2,0,L|255:174,1,67.4999979400635,2|0,0:0|0:0,0:0:0:0:
202,217,96151,2,0,L|216:295,1,67.4999979400635,0|0,0:0|0:0,0:0:0:0:
186,352,96430,6,0,P|118:362|65:314,1,134.999995880127,2|0,0:0|0:0,0:0:0:0:
100,255,96849,1,0,0:0:0:0:
45,204,96989,2,0,L|22:135,1,67.4999979400635,2|0,0:0|0:0,0:0:0:0:
96,124,97268,2,0,L|119:55,1,67.4999979400635,0|0,0:0|0:0,0:0:0:0:
184,92,97547,2,2,P|200:140|337:151,1,202.499993820191,2|0,0:0|0:0,0:0:0:0:
378,96,98105,2,2,B|411:122|407:157|407:157|439:203|489:165|522:212,1,202.499993820191,2|6,0:0|0:0,0:0:0:0:
460,267,98663,6,0,P|449:307|348:338,1,150,4|8,0:0|0:0,0:0:0:0:
292,287,99082,1,0,0:0:0:0:
229,233,99221,2,0,P|157:242|124:306,1,150,2|8,0:0|0:0,0:0:0:0:
53,173,99779,2,0,P|81:106|42:45,1,150,0|10,0:0|0:0,0:0:0:0:
190,59,100337,2,0,P|204:94|234:115,1,75,0|0,0:0|0:0,0:0:0:0:
310,114,100617,2,0,P|333:91|344:44,1,75,10|0,0:0|0:0,0:0:0:0:
269,43,100896,5,0,0:0:0:0:
275,192,101175,1,10,0:0:0:0:
331,240,101314,1,0,0:0:0:0:
403,220,101454,1,0,0:0:0:0:
472,87,101733,1,10,0:0:0:0:
481,236,102012,2,0,P|462:274|430:292,1,75,0|0,0:0|0:0,0:0:0:0:
363,312,102291,2,0,P|332:332|317:366,1,75,10|0,0:0|0:0,0:0:0:0:
242,374,102570,2,0,P|226:340|196:319,1,75,0|0,0:0|0:0,0:0:0:0:
124,298,102849,2,0,P|93:277|78:243,1,75,10|0,0:0|0:0,0:0:0:0:
150,221,103128,6,0,L|163:139,1,75,0|0,0:0|0:0,0:0:0:0:
86,146,103407,2,0,L|73:64,1,75,10|0,0:0|0:0,0:0:0:0:
133,25,103686,2,0,P|166:63|278:62,1,150,0|10,0:0|0:0,0:0:0:0:
325,32,104105,1,0,0:0:0:0:
327,106,104244,2,0,P|360:144|472:143,1,150,0|10,0:0|0:0,0:0:0:0:
313,288,104803,2,0,L|284:358,2,75,0|0|10,0:0|0:0|0:0,0:0:0:0:
284,219,105221,1,0,0:0:0:0:
224,265,105361,6,0,P|191:303|79:302,1,150,0|10,0:0|0:0,0:0:0:0:
45,256,105779,1,0,0:0:0:0:
24,183,105919,2,0,L|1:97,1,75,0|0,0:0|0:0,0:0:0:0:
79,115,106198,2,0,L|102:29,1,75,10|0,0:0|0:0,0:0:0:0:
173,41,106477,2,2,L|128:205,2,150,2|0|2,0:0|0:0|0:0,0:0:0:0:
256,165,107314,1,8,0:0:0:0:
339,41,107593,6,0,L|384:205,1,165.000005035401,6|2,0:0|0:0,0:0:0:0:
411,277,108012,1,0,1:0:0:0:
488,249,108151,2,0,P|486:308|392:357,1,165.000005035401,10|0,0:0|1:0,0:0:0:0:
334,310,108570,1,2,0:0:0:0:
281,246,108710,2,0,P|208:277|195:355,1,165.000005035401,4|2,0:3|0:0,0:0:0:0:
116,377,109128,1,0,1:0:0:0:
60,315,109268,2,0,L|35:227,1,82.5000025177003,10|0,0:0|0:0,0:0:0:0:
84,167,109547,2,0,L|59:79,1,82.5000025177003,0|0,1:0|0:0,0:0:0:0:
119,28,109826,6,0,B|142:106|142:106|212:154,1,165.000005035401,4|2,1:0|0:0,0:0:0:0:
256,84,110244,1,0,1:0:0:0:
300,153,110384,2,0,B|370:106|370:106|393:28,1,165.000005035401,10|0,0:0|1:0,0:0:0:0:
496,156,110942,2,0,P|510:202|501:240,1,82.5000025177003,4|0,0:3|0:0,0:0:0:0:
428,269,111221,2,0,P|405:311|372:331,1,82.5000025177003,2|0,0:0|1:0,0:0:0:0:
300,300,111500,2,0,P|254:314|216:305,1,82.5000025177003,10|0,0:0|0:0,0:0:0:0:
187,231,111779,2,0,P|144:208|124:175,1,82.5000025177003,2|0,1:2|0:0,0:0:0:0:
202,148,112058,6,0,L|288:140,2,82.5000025177003,4|0|2,1:0|0:0|0:0,0:0:0:0:
135,98,112477,1,0,1:0:0:0:
59,132,112617,2,0,P|52:199|110:281,1,165.000005035401,10|0,0:0|1:0,0:0:0:0:
145,348,113035,1,2,0:0:0:0:
203,288,113175,2,0,P|264:236|279:156,1,165.000005035401,4|2,0:3|0:0,0:0:0:0:
178,25,113733,2,0,L|270:42,1,82.5000025177003,10|0,0:0|0:0,0:0:0:0:
326,87,114012,2,0,L|418:104,1,82.5000025177003,0|0,1:0|0:0,0:0:0:0:
451,32,114291,6,0,P|483:68|448:175,1,165.000005035401,4|2,1:0|0:0,0:0:0:0:
382,212,114710,1,0,1:0:0:0:
343,284,114849,2,0,L|362:376,1,82.5000025177003,10|2,0:0|0:0,0:0:0:0:
278,347,115128,2,0,L|261:266,1,82.5000025177003,0|2,1:0|0:0,0:0:0:0:
304,195,115407,2,2,P|309:132|168:43,1,247.500007553101,4|0,0:3|1:0,0:0:0:0:
119,107,115965,2,0,L|138:202,1,82.5000025177003,14|0,0:0|0:0,0:0:0:0:
56,214,116244,2,0,L|37:309,1,82.5000025177003,4|0,1:2|0:0,0:0:0:0:
92,359,116524,6,0,P|141:365|204:277,1,165.000005035401,4|2,1:0|0:0,0:0:0:0:
256,217,116942,1,0,1:0:0:0:
307,281,117082,2,0,P|341:352|420:359,1,165.000005035401,10|0,0:0|1:0,0:0:0:0:
474,297,117500,1,2,0:0:0:0:
415,238,117640,2,0,P|391:162|444:104,1,165.000005035401,4|2,0:3|0:0,0:0:0:0:
485,33,118058,1,0,1:0:0:0:
402,33,118198,2,0,L|310:39,1,82.5000025177003,10|0,0:0|0:0,0:0:0:0:
263,99,118477,2,0,L|171:105,1,82.5000025177003,0|0,1:0|0:0,0:0:0:0:
105,69,118756,6,0,P|96:116|179:187,1,165.000005035401,4|2,1:0|0:0,0:0:0:0:
256,192,119175,1,0,1:0:0:0:
336,196,119314,2,0,P|405:236|407:315,1,165.000005035401,10|0,0:0|1:0,0:0:0:0:
251,371,119872,2,0,L|165:375,1,82.5000025177003,4|0,0:3|0:0,0:0:0:0:
116,310,120151,2,0,L|30:314,1,82.5000025177003,2|0,0:0|1:0,0:0:0:0:
59,235,120430,2,0,L|145:231,1,82.5000025177003,10|0,0:0|0:0,0:0:0:0:
194,296,120709,2,0,L|280:292,1,82.5000025177003,0|0,1:0|0:0,0:0:0:0:
346,247,120989,6,0,P|358:295|341:337,2,82.5000025177003,4|0|2,1:0|0:0|0:0,0:0:0:0:
271,212,121407,1,0,1:0:0:0:
247,132,121547,2,0,P|239:81|333:29,1,165.000005035401,10|0,0:0|1:0,0:0:0:0:
405,14,121965,1,2,0:0:0:0:
459,76,122105,2,0,P|491:147|438:205,1,165.000005035401,4|2,0:3|0:0,0:0:0:0:
279,159,122663,2,0,B|264:202|264:202|281:246,1,82.5000025177003,10|0,0:0|0:0,0:0:0:0:
200,266,122942,2,0,B|215:309|215:309|198:353,1,82.5000025177003,0|0,1:0|0:0,0:0:0:0:
123,369,123221,6,0,P|52:356|28:264,1,165.000005035401,4|2,1:0|0:0,0:0:0:0:
86,221,123640,1,0,1:0:0:0:
68,140,123779,2,0,L|49:47,1,82.5000025177003,10|2,0:0|0:0,0:0:0:0:
137,87,124058,2,0,L|189:7,1,82.5000025177003,0|2,1:0|0:0,0:0:0:0:
213,122,124337,2,2,P|253:91|420:240,1,330.000010070801,4|10,0:3|0:0,0:0:0:0:
256,371,125175,1,2,0:0:0:0:
91,234,125454,1,4,1:0:0:0:
353,298,134384,6,0,P|420:313|493:244,1,165.000005035401,4|8,0:2|0:0,0:0:0:0:
404,222,134803,2,0,P|337:207|264:276,1,165.000005035401,2|0,0:0|0:0,0:0:0:0:
280,354,135221,1,10,0:0:0:0:
99,372,135500,1,2,0:0:0:0:
63,194,135779,2,0,L|79:288,1,82.5000025177003,8|0,0:0|0:0,0:0:0:0:
148,219,136058,2,0,L|221:158,1,82.5000025177003,2|0,0:0|0:0,0:0:0:0:
127,132,136337,2,0,L|37:98,1,82.5000025177003,10|0,0:0|0:0,0:0:0:0:
112,36,136617,6,0,L|270:96,1,165.000005035401,4|8,0:2|0:0,0:0:0:0:
332,33,137035,2,0,P|353:83|290:180,1,165.000005035401,2|0,0:0|0:0,0:0:0:0:
213,166,137454,1,10,0:0:0:0:
118,321,137733,1,2,0:0:0:0:
297,344,138012,2,0,P|339:320|373:323,1,82.5000025177003,8|0,0:0|0:0,0:0:0:0:
454,283,138291,2,0,P|412:258|397:227,1,82.5000025177003,2|0,0:0|0:0,0:0:0:0:
322,177,138570,2,0,P|321:225|302:253,1,82.5000025177003,10|0,0:0|0:0,0:0:0:0:
237,189,138849,6,0,P|246:135|348:96,1,165.000005035401,4|8,0:2|0:0,0:0:0:0:
422,56,139268,2,0,L|256:29,1,165.000005035401,2|0,0:0|0:0,0:0:0:0:
170,14,139686,1,10,0:0:0:0:
97,180,139965,1,2,0:0:0:0:
244,286,140244,2,0,B|278:308|278:308|326:300,1,82.5000025177003,8|0,0:0|0:0,0:0:0:0:
291,213,140524,2,0,B|293:172|293:172|262:134,1,82.5000025177003,2|0,0:0|0:0,0:0:0:0:
204,208,140803,2,0,B|167:226|167:226|150:272,1,82.5000025177003,10|0,0:0|0:0,0:0:0:0:
146,356,141082,6,0,P|95:333|69:234,1,165.000005035401,4|8,0:2|0:0,0:0:0:0:
118,158,141500,2,0,P|169:135|195:36,1,165.000005035401,2|0,0:0|0:0,0:0:0:0:
108,63,141919,1,10,0:0:0:0:
256,167,142198,1,2,0:0:0:0:
404,63,142477,2,0,L|490:71,1,82.5000025177003,8|0,0:0|0:0,0:0:0:0:
432,144,142756,2,0,L|346:136,2,82.5000025177003,2|0|8,0:0|0:0|0:0,0:0:0:0:
288,355,143314,6,0,P|247:369|204:356,1,89.9999972534181,0|0,0:0|0:0,0:0:0:0:
248,277,143593,2,0,P|248:227|135:192,1,179.999994506836,8|2,0:0|0:0,0:0:0:0:
75,249,144012,1,2,0:0:0:0:
23,175,144151,1,10,0:0:0:0:
88,112,144291,2,0,P|143:88|258:108,2,179.999994506836,2|2|0,0:0|0:0|0:0,0:0:0:0:
23,175,144989,2,0,L|8:272,1,89.9999972534181,2|2,0:0|0:0,0:0:0:0:
99,258,145268,2,0,L|114:355,1,89.9999972534181,10|0,0:0|0:0,0:0:0:0:
199,372,145547,6,0,P|243:366|279:317,1,89.9999972534181,4|0,0:0|0:0,0:0:0:0:
230,254,145826,2,0,P|227:202|321:127,1,179.999994506836,8|2,0:0|0:0,0:0:0:0:
374,196,146244,1,2,0:0:0:0:
453,153,146384,1,10,0:0:0:0:
504,227,146524,2,0,B|483:318|483:318|404:357,2,179.999994506836,2|2|0,0:0|0:0|0:0,0:0:0:0:
453,153,147221,2,0,P|450:106|474:66,1,89.9999972534181,2|2,0:0|0:0,0:0:0:0:
396,17,147500,2,0,P|356:43|310:42,1,89.9999972534181,10|0,0:0|0:0,0:0:0:0:
303,133,147779,6,0,L|375:186,1,89.9999972534181,4|0,0:0|0:0,0:0:0:0:
358,275,148058,2,0,L|208:161,1,179.999994506836,8|2,0:0|0:0,0:0:0:0:
185,80,148477,1,2,0:0:0:0:
99,51,148617,1,10,0:0:0:0:
28,105,148756,2,0,B|15:194|80:189|65:282,2,179.999994506836,2|2|0,0:0|0:0|0:0,0:0:0:0:
99,51,149454,2,0,L|197:32,1,89.9999972534181,2|2,0:0|0:0,0:0:0:0:
231,112,149733,2,0,L|329:131,1,89.9999972534181,10|0,0:0|0:0,0:0:0:0:
379,61,150012,6,0,P|406:112|400:151,1,89.9999972534181,4|0,0:0|0:0,0:0:0:0:
493,134,150291,2,0,P|483:189|357:220,1,179.999994506836,8|2,0:0|0:0,0:0:0:0:
289,209,150710,1,2,0:0:0:0:
309,296,150849,1,10,0:0:0:0:
221,274,150989,2,0,P|136:289|105:369,2,179.999994506836,2|2|0,0:0|0:0|0:0,0:0:0:0:
289,209,151686,1,10,0:0:0:0:
281,118,151826,1,10,0:0:0:0:
225,47,151965,1,10,0:0:0:0:
134,49,152105,1,8,0:0:0:0:
56,114,152244,6,0,B|39:161|39:161|50:254|50:254|32:304,1,194.999991073609,6|10,0:0|0:0,0:0:0:0:
109,363,152663,2,0,P|137:309|264:305,1,194.999991073609,2|2,0:0|0:0,0:0:0:0:
336,360,153082,2,0,B|383:362|383:362|433:331,1,97.4999955368044,10|2,0:0|0:0,0:0:0:0:
475,251,153361,2,0,B|423:226|377:252|377:252|331:233|331:171,1,194.999991073609,0|10,0:0|0:0,0:0:0:0:
418,135,153779,1,2,0:0:0:0:
369,49,153919,2,0,P|309:12|212:73,1,194.999991073609,2|8,0:0|0:0,0:0:0:0:
214,168,154337,1,2,0:0:0:0:
216,265,154477,6,0,P|144:324|59:287,1,194.999991073609,6|10,0:0|0:0,0:0:0:0:
13,200,154896,2,0,B|5:103|5:103|74:26,1,194.999991073609,2|2,0:0|0:0,0:0:0:0:
152,81,155314,2,0,P|167:127|215:156,1,97.4999955368044,10|0,0:0|0:0,0:0:0:0:
305,153,155593,2,0,B|358:135|361:80|361:80|408:108|453:63,1,194.999991073609,2|10,0:0|0:0,0:0:0:0:
504,147,156012,1,2,0:0:0:0:
414,183,156151,2,0,P|408:248|505:325,1,194.999991073609,2|10,0:0|0:0,0:0:0:0:
415,374,156570,1,0,0:0:0:0:
340,311,156710,6,0,B|290:308|290:308|204:346|204:346|151:343,1,194.999991073609,6|10,0:0|0:0,0:0:0:0:
136,247,157128,2,0,B|185:249|185:249|271:211|271:211|324:214,1,194.999991073609,2|2,0:0|0:0,0:0:0:0:
303,118,157547,2,0,B|252:115|252:115|206:135,1,97.4999955368044,10|0,0:0|0:0,0:0:0:0:
142,62,157826,2,0,B|229:23|229:23|332:29,1,194.999991073609,2|10,0:0|0:0,0:0:0:0:
386,106,158244,1,2,0:0:0:0:
471,58,158384,2,0,P|482:120|394:205,1,194.999991073609,2|8,0:0|0:0,0:0:0:0:
308,158,158803,1,0,0:0:0:0:
232,218,158942,6,0,P|221:280|309:365,1,194.999991073609,6|10,0:0|0:0,0:0:0:0:
315,267,159361,2,0,L|122:349,1,194.999991073609,2|2,0:0|0:0,0:0:0:0:
50,296,159779,2,0,P|29:247|39:194,1,97.4999955368044,10|0,0:0|0:0,0:0:0:0:
125,241,160058,2,0,P|133:188|31:104,1,194.999991073609,2|10,0:0|0:0,0:0:0:0:
106,36,160477,1,0,0:0:0:0:
201,58,160617,2,0,L|303:77,2,97.4999955368044,2|2|2,0:2|0:2|0:0,0:0:0:0:
478,44,161175,6,0,P|496:88|431:165,1,150,4|8,0:2|0:0,0:0:0:0:
416,92,161593,2,0,L|401:252,1,150,2|0,0:0|0:0,0:0:0:0:
396,316,162012,1,10,0:0:0:0:
256,371,162291,1,2,0:0:0:0:
169,248,162570,2,0,L|180:171,1,75,8|0,0:0|0:0,0:0:0:0:
115,134,162849,2,0,L|42:162,1,75,2|0,0:0|0:0,0:0:0:0:
43,237,163128,2,0,L|104:285,1,75,10|0,0:0|0:0,0:0:0:0:
163,326,163407,6,0,B|234:305|236:368|309:345,1,150,4|8,0:2|0:0,0:0:0:0:
373,380,163826,2,0,P|345:305|372:245,1,150,2|0,0:0|0:0,0:0:0:0:
438,209,164244,1,10,0:0:0:0:
492,68,164524,1,2,0:0:0:0:
345,99,164803,2,0,P|302:103|274:85,1,75,8|0,0:0|0:0,0:0:0:0:
209,121,165082,2,0,P|233:156|232:189,1,75,2|0,0:0|0:0,0:0:0:0:
296,227,165361,2,0,P|314:187|343:172,1,75,10|0,0:0|0:0,0:0:0:0:
367,243,165640,6,0,P|340:288|251:284,1,150,4|8,0:2|0:0,0:0:0:0:
185,248,166058,2,0,P|114:234|69:289,1,150,2|0,0:0|0:0,0:0:0:0:
62,364,166477,1,10,0:0:0:0:
211,350,166756,1,2,0:0:0:0:
360,336,167035,2,0,B|398:339|398:339|422:367,1,75,8|0,0:0|0:0,0:0:0:0:
484,324,167314,2,0,B|467:289|467:289|479:254,1,75,2|0,0:0|0:0,0:0:0:0:
411,222,167593,2,0,B|389:253|389:253|353:260,1,75,10|0,0:0|0:0,0:0:0:0:
284,229,167872,6,0,B|299:193|343:185|343:185|366:149|404:146,1,150,4|8,0:2|0:0,0:0:0:0:
474,166,168291,2,0,P|469:116|382:74,1,150,2|0,0:0|0:0,0:0:0:0:
317,99,168710,1,10,0:0:0:0:
211,206,168989,1,2,0:0:0:0:
105,99,169268,2,0,L|116:20,1,75,8|0,0:0|0:0,0:0:0:0:
41,37,169547,2,0,L|30:116,2,75,2|0|10,0:0|0:0|0:0,0:0:0:0:
91,223,170105,1,4,0:0:0:0:
256,192,170244,12,0,171779,0:0:0:0:
