osu file format v14

[General]
AudioFilename: audio.mp3
AudioLeadIn: 0
PreviewTime: 107524
Countdown: 0
SampleSet: Soft
StackLeniency: 0.7
Mode: 0
LetterboxInBreaks: 0
WidescreenStoryboard: 1

[Editor]
Bookmarks: 9361,18291,45082,54012,80803,125454,134384
DistanceSpacing: 1
BeatDivisor: 2
GridSize: 8
TimelineZoom: 1.6

[Metadata]
Title:A Bunch Of Samples Played Consecutively
TitleUnicode:A Bunch Of Samples Played Consecutively
Artist:NegaRen
ArtistUnicode:NegaRen
Creator:Mao
Version:Easy
Source:
Tags:LAPFOX TRAX Breaking Boundaries Dave Remmler Renard Desperate-kun vipto
BeatmapID:1026678
BeatmapSetID:480553

[Difficulty]
HPDrainRate:1
CircleSize:2
OverallDifficulty:1
ApproachRate:1.5
SliderMultiplier:0.7
SliderTickRate:1

[Events]
//Background and Video events
0,0,"bg.jpg",0,0
//Break Periods
2,54211,61322
2,125654,132764
//Storyboard Layer 0 (Background)
//Storyboard Layer 1 (Fail)
//Storyboard Layer 2 (Pass)
//Storyboard Layer 3 (Foreground)
//Storyboard Sound Samples

[TimingPoints]
431,279.06976744186,4,1,0,80,1,0
18291,-100,4,2,0,60,0,0
35593,-100,4,2,0,60,0,0
36151,-100,4,1,0,100,0,0
62942,-100,4,1,0,80,0,0
71872,-100,4,1,0,100,0,0
89733,-100,4,2,0,60,0,0
98663,-100,4,2,0,70,0,0
107593,-100,4,1,0,80,0,0
143314,-100,4,1,0,100,0,0
152244,-100,4,1,0,100,0,0
160896,-100,4,1,0,100,0,0
161175,-100,4,1,0,80,0,0
170244,-100,4,2,0,5,0,0

[Colours]
Combo1 : 245,221,50
Combo2 : 116,244,0
Combo3 : 247,68,9
Combo4 : 219,36,215
SliderBorder : 253,126,0
SliderTrackOverride : 71,14,13

[HitObjects]
44,201,9361,6,0,P|49:274|157:343,1,210,6|10,0:2|0:0,0:0:0:0:
218,312,10477,1,2,0:0:0:0:
286,324,10756,2,0,L|361:333,1,70,8|2,0:0|0:0,0:0:0:0:
494,346,11593,6,0,B|513:279|513:279|476:218|476:218|492:134,1,210,6|10,0:2|0:0,0:0:0:0:
491,80,12710,1,2,0:0:0:0:
433,39,12989,2,0,P|400:26|365:21,1,70,8|2,0:0|0:0,0:0:0:0:
289,138,13826,6,0,P|226:165|123:84,1,210,6|10,0:2|0:0,0:0:0:0:
60,57,14942,1,2,0:0:0:0:
34,122,15221,2,0,L|50:210,1,70,8|2,0:0|0:0,0:0:0:0:
84,325,16058,6,0,B|151:344|151:344|212:307|212:307|296:323,1,210,6|10,0:2|0:0,0:0:0:0:
345,343,17175,1,2,0:0:0:0:
372,279,17454,2,0,P|374:244|365:210,1,70,8|2,0:0|0:0,0:0:0:0:
453,102,18291,6,0,P|408:76|256:120,1,210,4|0,0:0|0:0,0:0:0:0:
236,176,19407,1,2,0:0:0:0:
189,308,19965,2,0,P|142:329|56:288,1,140,2|2,0:0|0:0,0:0:0:0:
34,166,21082,6,0,L|47:88,1,70,2|0,0:0|0:0,0:0:0:0:
94,47,21640,2,0,B|197:40|263:161|168:213|234:333|339:328,1,420,2|2,0:0|0:0,0:0:0:0:
457,252,23872,6,0,L|465:172,1,70,2|0,0:0|0:0,0:0:0:0:
474,113,24430,2,0,P|425:74|346:81,1,140,2|2,0:0|0:0,0:0:0:0:
308,134,25268,2,0,B|287:337|287:337|209:379|154:304,1,350,0|2,0:0|0:0,0:0:0:0:
29,359,27221,6,0,P|20:301|107:186,1,210,4|0,0:0|0:0,0:0:0:0:
174,174,28337,1,2,0:0:0:0:
288,255,28896,2,0,L|404:346,1,140,2|2,0:0|0:0,0:0:0:0:
462,217,30012,6,0,P|450:184|448:149,1,70,2|0,0:0|0:0,0:0:0:0:
475,85,30570,2,0,P|419:44|162:198,1,420,2|2,0:0|0:0,0:0:0:0:
187,332,32803,6,0,L|267:353,1,70,2|0,0:0|0:0,0:0:0:0:
325,364,33361,2,0,P|393:352|443:298,1,140,2|2,0:0|0:0,0:0:0:0:
454,234,34198,2,0,B|480:25|480:25|418:82|347:61,1,350,0|2,0:0|0:1,0:0:0:0:
216,32,36151,6,0,B|152:56|152:56|144:128|144:128|112:144|112:144|103:191|64:208,1,245,4|2,1:0|0:0,0:0:0:0:
15,235,37407,2,0,P|13:280|42:331,1,105,2|2,0:0|0:0,0:0:0:0:
180,349,38384,6,0,B|249:357|249:357|277:291|277:291|380:308,1,245,4|2,1:0|0:0,0:0:0:0:
448,322,39640,2,0,P|482:274|484:219,1,105,2|2,0:0|0:0,0:0:0:0:
466,90,40617,6,0,B|397:70|397:70|355:120|298:114|298:114|257:70,1,245,4|2,0:0|0:0,0:0:0:0:
216,12,41872,2,0,L|111:39,1,105,2|2,0:0|0:0,0:0:0:0:
47,161,42849,6,0,B|121:145|121:145|175:217|127:303,1,245,4|2,0:0|0:0,0:0:0:0:
177,352,44105,2,0,L|284:356,1,105,0|8,0:0|0:0,0:0:0:0:
351,362,44803,1,8,0:0:0:0:
384,303,45082,6,0,B|336:217|390:145|390:145|465:161,1,245,4|2,0:0|0:0,0:0:0:0:
507,105,46337,2,0,P|501:62|443:30,1,105,2|2,0:0|0:0,0:0:0:0:
322,83,47314,6,0,P|288:139|296:328,1,245,4|2,0:0|0:0,0:0:0:0:
240,363,48570,2,0,L|124:341,1,105,2|2,0:0|0:0,0:0:0:0:
28,254,49547,6,0,B|78:252|100:208|100:208|40:144|87:55,1,245,4|2,0:0|0:0,0:0:0:0:
147,40,50803,2,0,L|262:52,1,105,2|2,0:0|0:0,0:0:0:0:
389,30,51779,6,0,B|397:105|344:158|344:158|363:209|363:209|344:256,1,245,0|2,0:0|0:0,0:0:0:0:
300,310,53035,2,0,B|197:345|197:345|145:306|145:306|146:232,1,245,2|4,0:0|0:0,0:0:0:0:
35,259,62942,6,0,B|104:242|104:242|233:296,1,210,4|8,0:0|0:0,0:0:0:0:
293,328,64058,2,0,P|353:349|478:288,1,210,2|0,0:3|0:0,0:0:0:0:
491,219,65175,5,6,0:0:0:0:
426,102,65733,2,0,P|393:90|358:89,1,70,0|2,0:0|0:3,0:0:0:0:
306,136,66291,2,0,B|247:236|247:236|200:212|146:233,1,210,2|0,0:3|0:0,0:0:0:0:
106,278,67407,5,4,0:2:0:0:
225,351,67965,2,0,P|276:355|319:319,1,105,0|4,0:0|0:2,0:0:0:0:
355,264,68663,2,0,B|442:257|442:257|473:163,1,175,0|2,0:0|0:0,0:0:0:0:
486,105,69640,6,0,B|422:75|422:75|328:128|241:52|241:52|265:151|221:196,1,420,4|0,0:2|0:0,0:0:0:0:
110,109,71872,6,0,B|71:168|71:168|79:234|79:234|136:279,1,210,4|8,0:0|0:0,0:0:0:0:
182,332,72989,2,0,L|273:338,2,70,6|8|2,3:0|0:0|3:0,0:0:0:0:
245,207,74105,6,0,B|295:196|344:230|344:230|369:178|437:165,1,210,6|8,0:0|0:0,0:0:0:0:
490,191,75221,1,2,0:0:0:0:
415,308,75779,2,0,P|389:332|355:340,1,70,0|10,0:0|0:0,0:0:0:0:
290,313,76337,5,4,0:0:0:0:
220,302,76617,2,0,B|137:324|137:324|84:316|84:316|30:363,1,210,8|0,0:0|0:0,0:0:0:0:
14,223,78012,2,0,L|72:175,1,70,2|10,0:0|0:0,0:0:0:0:
122,134,78570,5,2,0:0:0:0:
254,178,79128,2,0,P|292:186|358:147,1,105,2|2,0:0|0:0,0:0:0:0:
395,105,79826,2,0,P|439:78|490:85,1,105,0|2,0:0|3:0,0:0:0:0:
462,222,80803,6,0,B|493:283|493:283|450:343|450:343|384:329,1,210,4|8,1:0|0:0,0:0:0:0:
316,317,81919,2,0,L|236:337,2,70,6|8|2,3:0|0:0|3:0,0:0:0:0:
349,181,83035,6,0,B|312:82|312:82|210:55,1,210,6|8,0:0|0:0,0:0:0:0:
141,48,84151,1,2,0:0:0:0:
54,158,84710,2,0,P|39:189|30:223,1,70,0|10,0:0|0:0,0:0:0:0:
49,291,85268,5,6,0:0:0:0:
96,342,85547,2,0,B|166:351|166:351|225:311|225:311|304:323,1,210,8|0,0:0|0:0,0:0:0:0:
473,215,87221,1,2,0:0:0:0:
462,145,87500,6,0,B|453:61|453:61|334:22|334:22|353:239,1,420,0|0,0:0|0:0,0:0:0:0:
287,355,89733,6,0,P|193:366|96:310,1,210,4|0,0:0|0:0,0:0:0:0:
52,255,90849,1,2,0:0:0:0:
135,142,91407,2,0,L|276:195,1,140,2|2,0:0|0:0,0:0:0:0:
356,298,92524,6,0,L|426:325,1,70,2|0,0:0|0:0,0:0:0:0:
465,268,93082,2,0,P|485:189|223:40,1,420,2|2,0:0|0:0,0:0:0:0:
213,162,95314,6,0,L|206:255,1,70,2|0,0:0|0:0,0:0:0:0:
180,296,95872,2,0,P|119:338|45:319,1,140,2|2,0:0|0:0,0:0:0:0:
16,270,96710,2,0,P|15:129|190:58,1,350,0|2,0:0|0:0,0:0:0:0:
229,191,98663,6,0,P|274:268|393:302,1,210,4|0,0:0|0:0,0:0:0:0:
452,288,99779,1,0,0:0:0:0:
452,148,100337,2,0,P|425:106|315:72,1,140,0|0,0:0|0:0,0:0:0:0:
287,110,101175,5,2,0:0:0:0:
219,90,101454,2,0,L|148:69,1,70,0|2,0:0|0:0,0:0:0:0:
83,56,102012,2,0,B|70:161|185:235|244:144|360:219|346:321,1,420,0|0,0:0|0:0,0:0:0:0:
481,358,104244,6,0,P|484:306|475:261,1,70,0|2,0:0|0:0,0:0:0:0:
452,224,104803,2,0,P|434:162|462:78,1,140,0|0,0:0|0:0,0:0:0:0:
482,27,105640,2,0,B|274:61|274:61|247:206,1,350,2|2,0:0|0:0,0:0:0:0:
244,337,107593,6,0,P|170:361|59:270,1,210,6|0,0:0|0:0,0:0:0:0:
39,227,108710,1,4,0:3:0:0:
79,93,109268,2,0,B|148:85|148:85|209:139,1,140,10|4,0:0|1:0,0:0:0:0:
235,192,110105,5,2,0:0:0:0:
272,251,110384,2,0,L|271:345,1,70,10|0,0:0|1:0,0:0:0:0:
332,354,110942,2,0,P|407:357|350:138,1,420,4|10,0:3|0:0,0:0:0:0:
262,244,113175,6,0,P|196:285|122:267,1,140,4|10,0:3|0:0,0:0:0:0:
85,228,114012,1,0,1:0:0:0:
56,162,114291,2,0,B|52:27|52:27|175:23|175:23|181:185,1,420,4|14,1:0|0:0,0:0:0:0:
194,324,116524,6,0,P|265:370|394:342,1,210,4|0,1:0|0:0,0:0:0:0:
424,293,117640,1,4,0:3:0:0:
342,179,118198,2,0,P|282:167|200:205,1,140,10|4,0:0|1:0,0:0:0:0:
172,253,119035,5,2,0:0:0:0:
131,310,119314,2,0,L|43:293,1,70,10|0,0:0|1:0,0:0:0:0:
58,223,119872,2,0,P|86:164|409:97,1,420,4|10,0:3|0:0,0:0:0:0:
479,205,122105,6,0,L|452:362,1,140,4|10,0:3|0:0,0:0:0:0:
392,362,122942,1,0,1:0:0:0:
333,324,123221,2,0,B|288:264|309:185|309:185|185:239|185:239|189:156|135:115,1,420,4|10,1:0|0:0,0:0:0:0:
43,223,125454,5,4,1:0:0:0:
491,257,134384,6,0,P|471:332|351:372,1,210,4|10,0:2|0:0,0:0:0:0:
320,312,135500,1,2,0:0:0:0:
331,243,135779,2,0,L|345:156,1,70,8|2,0:0|0:0,0:0:0:0:
255,65,136617,6,0,P|168:43|62:118,1,210,4|10,0:2|0:0,0:0:0:0:
44,167,137733,1,2,0:0:0:0:
31,235,138012,2,0,L|17:327,1,70,8|2,0:0|0:0,0:0:0:0:
145,371,138849,6,0,B|251:364|251:364|307:270,1,210,4|10,0:2|0:0,0:0:0:0:
333,211,139965,1,2,0:0:0:0:
401,226,140244,2,0,B|439:232|452:230|488:213,1,70,8|2,0:0|0:0,0:0:0:0:
507,85,141082,6,0,P|464:53|326:114,1,210,4|10,0:2|0:0,0:0:0:0:
304,167,142198,1,2,0:0:0:0:
291,235,142477,2,0,L|298:321,1,70,8|2,0:0|0:0,0:0:0:0:
169,363,143314,6,0,B|89:346|89:346|64:279|64:279|91:182,1,245,0|2,0:0|0:0,0:0:0:0:
132,135,144570,2,0,P|166:132|226:189,1,105,2|2,0:0|0:0,0:0:0:0:
272,302,145547,6,0,P|309:332|474:258,1,245,4|2,0:0|0:0,0:0:0:0:
474,197,146803,2,0,L|457:77,1,105,2|2,0:0|0:0,0:0:0:0:
332,34,147779,6,0,B|357:173|357:173|291:268,1,245,4|2,0:0|0:0,0:0:0:0:
247,307,149035,2,0,P|182:311|142:338,1,105,2|2,0:0|0:0,0:0:0:0:
12,298,150012,6,0,B|26:233|82:208|82:208|103:148|66:77,1,245,4|2,0:0|0:0,0:0:0:0:
126,43,151268,2,0,L|209:113,1,105,0|10,0:0|0:0,0:0:0:0:
256,158,151965,1,10,0:0:0:0:
305,110,152244,6,0,B|387:39|387:39|414:46|414:46|448:190,1,280,6|0,0:0|0:0,0:0:0:0:
459,324,153919,2,0,P|432:347|399:358,1,70,2|8,0:0|0:0,0:0:0:0:
330,348,154477,6,0,B|257:335|257:335|155:250|155:250|75:237,1,280,6|0,0:0|0:0,0:0:0:0:
17,114,156151,1,2,0:0:0:0:
76,76,156430,1,10,0:0:0:0:
137,42,156710,6,0,P|210:48|307:219,1,280,6|0,0:0|0:0,0:0:0:0:
282,347,158384,2,0,P|329:351|361:331,1,70,2|8,0:0|0:0,0:0:0:0:
406,302,158942,6,0,P|433:225|387:35,1,280,6|0,0:0|0:0,0:0:0:0:
256,84,160617,1,2,0:2:0:0:
123,37,161175,6,0,P|75:167|84:246,1,210,4|10,0:2|0:0,0:0:0:0:
103,303,162291,1,2,0:0:0:0:
161,340,162570,2,0,L|244:353,1,70,8|2,0:0|0:0,0:0:0:0:
339,263,163407,6,0,B|237:247|237:247|207:142,1,210,4|10,0:2|0:0,0:0:0:0:
233,78,164524,1,2,0:0:0:0:
295,47,164803,2,0,P|325:51|368:75,1,70,8|2,0:0|0:0,0:0:0:0:
481,138,165640,6,0,P|498:224|438:341,1,210,4|10,0:2|0:0,0:0:0:0:
383,358,166756,1,2,0:0:0:0:
325,318,167035,2,0,P|311:286|308:251,1,70,8|2,0:0|0:0,0:0:0:0:
341,115,167872,6,0,P|322:79|168:61,1,210,4|10,0:2|0:0,0:0:0:0:
111,96,168989,1,2,0:0:0:0:
87,162,169268,2,0,L|77:241,1,70,8|2,0:0|0:0,0:0:0:0:
256,192,170105,12,0,171779,0:0:0:0:
