osu file format v14

[General]
AudioFilename: audio.mp3
AudioLeadIn: 0
PreviewTime: 107524
Countdown: 0
SampleSet: Normal
StackLeniency: 0.7
Mode: 0
LetterboxInBreaks: 0
WidescreenStoryboard: 1

[Editor]
Bookmarks: 18291,54012,125454,134384
DistanceSpacing: 0.9
BeatDivisor: 4
GridSize: 4
TimelineZoom: 1.6

[Metadata]
Title:A Bunch Of Samples Played Consecutively
TitleUnicode:A Bunch Of Samples Played Consecutively
Artist:NegaRen
ArtistUnicode:NegaRen
Creator:Mao
Version:Advanced
Source:
Tags:LAPFOX TRAX Breaking Boundaries Dave Remmler Renard Desperate-kun vipto
BeatmapID:1026094
BeatmapSetID:480553

[Difficulty]
HPDrainRate:4
CircleSize:3.7
OverallDifficulty:4.5
ApproachRate:6
SliderMultiplier:1.2
SliderTickRate:1

[Events]
//Background and Video events
0,0,"bg.jpg",0,0
//Break Periods
2,54212,61817
2,125654,133259
//Storyboard Layer 0 (Background)
//Storyboard Layer 1 (Fail)
//Storyboard Layer 2 (Pass)
//Storyboard Layer 3 (Foreground)
//Storyboard Sound Samples

[TimingPoints]
431,279.06976744186,4,1,0,80,1,0
18291,-111.111111111111,4,2,0,60,0,0
35593,-100,4,2,0,60,0,0
36151,-86.9565217391304,4,1,0,100,0,0
62942,-100,4,1,0,80,0,0
71872,-86.9565217391304,4,1,0,100,0,0
89733,-111.111111111111,4,2,0,60,0,0
98663,-105.263157894737,4,2,0,70,0,0
107593,-100,4,1,0,80,0,0
143314,-86.9565217391304,4,1,0,100,0,0
152244,-83.3333333333333,4,1,0,100,0,0
160896,-100,4,1,0,100,0,0
161175,-100,4,1,0,80,0,0
170244,-100,4,2,0,5,0,0

[Colours]
Combo1 : 245,221,50
Combo2 : 116,244,0
Combo3 : 247,68,9
Combo4 : 219,36,215
SliderBorder : 253,126,0
SliderTrackOverride : 71,14,13

[HitObjects]
27,320,9361,6,0,P|57:298|146:314,1,120,6|8,0:2|0:0,0:0:0:0:
172,345,9779,2,0,P|229:358|280:330,1,120,2|0,0:0|0:0,0:0:0:0:
297,279,10198,1,10,0:0:0:0:
395,322,10477,1,2,0:0:0:0:
455,232,10756,2,0,L|516:237,2,60,8|0|2,0:0|0:0|0:0,0:0:0:0:
357,185,11314,1,10,0:0:0:0:
445,123,11593,6,0,P|442:69|369:31,1,120,6|8,0:2|0:0,0:0:0:0:
338,37,12012,2,0,L|220:79,1,120,2|0,0:0|0:0,0:0:0:0:
176,101,12430,1,10,0:0:0:0:
76,59,12709,1,2,0:0:0:0:
29,156,12988,2,0,L|0:213,2,60,8|0|2,0:0|0:0|0:0,0:0:0:0:
124,206,13547,1,10,0:0:0:0:
65,296,13826,6,0,B|101:344|101:344|160:353,1,120,6|8,0:2|0:0,0:0:0:0:
199,316,14244,2,0,B|235:268|235:268|294:258,1,120,2|0,0:0|0:0,0:0:0:0:
348,253,14663,1,10,0:0:0:0:
332,146,14942,1,2,0:0:0:0:
316,39,15221,2,0,L|243:29,2,60,8|0|2,0:0|0:0|0:0,0:0:0:0:
423,28,15779,1,10,0:0:0:0:
496,107,16058,6,0,L|513:230,1,120,6|8,0:2|0:0,0:0:0:0:
503,279,16477,2,0,P|450:337|398:337,1,120,2|0,0:0|0:0,0:0:0:0:
364,314,16896,1,10,0:0:0:0:
313,218,17175,1,2,0:0:0:0:
256,310,17454,2,0,L|255:379,2,60,8|0|2,0:0|0:0|0:0,0:0:0:0:
199,218,18012,1,8,0:0:0:0:
148,314,18291,6,0,P|103:328|33:289,1,107.999996704102,4|0,0:0|0:0,0:0:0:0:
24,264,18710,1,0,0:0:0:0:
34,216,18849,2,0,L|13:92,1,107.999996704102,2|0,0:0|0:0,0:0:0:0:
91,48,19407,2,0,L|111:166,1,107.999996704102,2|0,0:0|0:0,0:0:0:0:
198,192,19965,2,0,L|186:123,2,53.9999983520508,2|0|0,0:0|0:0|0:0,0:0:0:0:
241,214,20384,1,0,0:0:0:0:
281,186,20524,6,0,P|342:160|395:172,1,107.999996704102,2|0,0:0|0:0,0:0:0:0:
416,199,20942,1,0,0:0:0:0:
428,246,21082,2,0,L|405:366,1,107.999996704102,2|0,0:0|0:0,0:0:0:0:
302,358,21640,2,0,L|277:298,1,53.9999983520508,2|0,0:0|0:0,0:0:0:0:
261,263,21919,2,0,L|236:203,1,53.9999983520508,0|0,0:0|0:0,0:0:0:0:
196,192,22198,2,0,L|175:241,1,53.9999983520508,2|0,0:0|0:0,0:0:0:0:
155,287,22477,2,0,L|134:336,1,53.9999983520508,0|0,0:0|0:0,0:0:0:0:
113,379,22756,6,0,P|60:380|27:340,1,107.999996704102,2|0,0:0|0:0,0:0:0:0:
44,294,23175,1,0,0:0:0:0:
18,251,23314,2,0,P|71:252|104:212,1,107.999996704102,2|0,0:0|0:0,0:0:0:0:
158,130,23872,2,0,P|193:172|197:245,1,107.999996704102,2|0,0:0|0:0,0:0:0:0:
263,298,24430,2,0,L|253:369,2,53.9999983520508,2|0|0,0:0|0:0|0:0,0:0:0:0:
297,263,24849,1,0,0:0:0:0:
328,298,24989,6,0,P|371:331|424:339,1,107.999996704102,2|0,0:0|0:0,0:0:0:0:
465,313,25407,1,0,0:0:0:0:
485,268,25547,2,0,L|468:161,1,107.999996704102,2|0,0:0|0:0,0:0:0:0:
450,65,26105,2,2,P|446:108|302:183,1,215.999993408203
94,52,27221,6,0,L|108:174,1,107.999996704102,4|0,0:0|0:0,0:0:0:0:
145,188,27640,1,0,0:0:0:0:
185,214,27779,2,0,L|171:336,1,107.999996704102,2|0,0:0|0:0,0:0:0:0:
258,366,28337,2,0,L|272:244,1,107.999996704102,2|0,0:0|0:0,0:0:0:0:
362,227,28896,2,0,L|355:280,2,53.9999983520508,2|0|0,0:0|0:0|0:0,0:0:0:0:
394,190,29314,1,0,0:0:0:0:
442,197,29454,6,0,P|484:167|494:95,1,107.999996704102,2|0,0:0|0:0,0:0:0:0:
475,71,29872,1,0,0:0:0:0:
441,35,30012,2,0,L|317:55,1,107.999996704102,2|0,0:0|0:0,0:0:0:0:
237,62,30570,2,0,P|214:86|202:118,1,53.9999983520508,2|0,0:0|0:0,0:0:0:0:
196,152,30849,2,0,P|202:190|216:217,1,53.9999983520508,0|0,0:0|0:0,0:0:0:0:
247,232,31128,2,0,P|256:257|259:284,1,53.9999983520508,2|0,0:0|0:0,0:0:0:0:
250,332,31407,2,0,P|237:355|218:374,1,53.9999983520508,0|0,0:0|0:0,0:0:0:0:
170,366,31686,6,0,L|59:341,1,107.999996704102,2|0,0:0|0:0,0:0:0:0:
27,310,32105,1,0,0:0:0:0:
16,262,32244,2,0,P|28:221|89:182,1,107.999996704102,2|0,0:0|0:0,0:0:0:0:
171,213,32803,2,0,P|171:160|136:108,1,107.999996704102,2|0,0:0|0:0,0:0:0:0:
48,91,33361,2,0,L|-10:100,2,53.9999983520508,2|0|0,0:0|0:0|0:0,0:0:0:0:
81,56,33779,1,0,0:0:0:0:
123,32,33919,6,0,P|174:37|221:80,1,107.999996704102,2|0,0:0|0:0,0:0:0:0:
240,113,34337,1,0,0:0:0:0:
286,98,34477,2,0,P|338:89|386:111,1,107.999996704102,2|0,0:0|0:0,0:0:0:0:
452,183,35035,2,2,B|503:261|449:324|449:324|366:309,1,215.999993408203,2|2,0:0|0:1,0:0:0:0:
287,272,35872,1,8,0:0:0:0:
216,357,36151,6,0,P|158:364|99:310,1,138.000002632141,4|10,1:0|1:0,0:0:0:0:
130,208,36710,2,0,L|205:216,2,69.0000013160706,2|2|10,0:0|0:0|0:0,0:0:0:0:
77,224,37128,2,0,P|33:204|31:115,1,138.000002632141,2|2,0:0|0:0,0:0:0:0:
77,102,37547,1,0,0:0:0:0:
183,129,37826,2,0,L|254:139,2,69.0000013160706,2|2|10,0:0|0:0|0:0,0:0:0:0:
234,31,38384,6,0,B|303:40|303:40|371:15,1,138.000002632141,4|10,1:0|0:0,0:0:0:0:
469,58,38942,2,0,P|486:95|486:136,2,69.0000013160706,2|2|10,0:0|0:0|0:0,0:0:0:0:
421,86,39361,2,0,P|404:125|462:206,1,138.000002632141,2|2,0:0|0:0,0:0:0:0:
501,215,39779,1,0,0:0:0:0:
447,311,40058,2,0,L|469:376,2,69.0000013160706,2|2|2,0:0|0:0|0:0,0:0:0:0:
341,278,40617,6,0,B|275:265|275:265|212:309,1,138.000002632141,4|10,0:0|0:0,0:0:0:0:
128,371,41175,2,0,L|55:349,1,69.0000013160706,2|2,0:0|0:0,0:0:0:0:
27,307,41454,1,10,0:0:0:0:
72,275,41593,2,0,P|98:242|66:147,1,138.000002632141,2|2,0:0|0:0,0:0:0:0:
25,134,42012,1,0,0:0:0:0:
88,43,42291,2,0,P|56:26|14:24,2,69.0000013160706,2|2|10,0:0|0:0|0:0,0:0:0:0:
172,114,42849,6,0,B|201:176|201:176|280:196,1,138.000002632141,4|10,0:0|0:0,0:0:0:0:
375,219,43407,2,0,L|390:290,2,69.0000013160706,2|2|10,0:0|0:0|0:0,0:0:0:0:
408,174,43826,2,0,B|461:129|461:129|460:60,1,138.000002632141,2|2,0:0|0:0,0:0:0:0:
460,5,44244,1,0,0:0:0:0:
365,83,44524,2,0,L|284:69,1,69.0000013160706,8|8,0:0|0:0,0:0:0:0:
242,59,44803,1,8,0:0:0:0:
202,97,44942,1,8,0:0:0:0:
149,80,45082,6,0,B|83:59|83:59|24:118,1,138.000002632141,4|10,0:0|0:0,0:0:0:0:
55,215,45640,2,0,L|66:294,1,69.0000013160706,2|2,0:0|0:0,0:0:0:0:
76,337,45919,1,10,0:0:0:0:
123,365,46058,2,0,P|165:372|229:307,1,138.000002632141,2|2,0:0|0:0,0:0:0:0:
233,255,46477,1,0,0:0:0:0:
333,300,46756,2,0,P|329:342|315:371,2,69.0000013160706,2|2|10,0:0|0:0|0:0,0:0:0:0:
441,279,47314,6,0,P|454:232|408:146,1,138.000002632141,4|10,0:0|0:0,0:0:0:0:
376,51,47872,2,0,P|416:40|447:44,2,69.0000013160706,2|2|10,0:0|0:0|0:0,0:0:0:0:
336,89,48291,2,0,L|182:73,1,138.000002632141,2|2,0:0|0:0,0:0:0:0:
144,69,48710,1,0,0:0:0:0:
188,169,48989,2,0,L|259:176,2,69.0000013160706,2|2|10,0:0|0:0|0:0,0:0:0:0:
80,194,49547,6,0,B|115:254|115:254|185:264,1,138.000002632141,4|10,0:0|0:0,0:0:0:0:
177,359,50105,2,0,L|106:350,2,69.0000013160706,2|2|10,0:0|0:0|0:0,0:0:0:0:
231,366,50524,2,0,P|292:366|338:311,1,138.000002632141,2|2,0:0|0:0,0:0:0:0:
329,255,50942,1,0,0:0:0:0:
437,275,51221,2,0,L|507:290,2,69.0000013160706,2|2|10,0:0|0:0|0:0,0:0:0:0:
390,175,51779,6,0,B|454:151|454:151|484:84,1,138.000002632141,4|10,0:0|0:0,0:0:0:0:
372,73,52337,2,0,L|302:58,1,69.0000013160706,2|2,0:0|0:0,0:0:0:0:
263,96,52617,1,10,0:0:0:0:
224,134,52756,2,0,P|220:213|268:262,1,138.000002632141,2|2,0:0|0:0,0:0:0:0:
301,286,53175,1,0,0:0:0:0:
221,362,53454,2,0,L|146:351,1,69.0000013160706,6|6,0:3|0:3,0:0:0:0:
131,300,53733,2,0,L|85:239,1,69.0000013160706,6|4,0:3|0:3,0:0:0:0:
111,192,54012,1,4,0:0:0:0:
32,307,62942,6,0,B|84:343|84:343|157:335,1,120,4|0,0:0|0:0,0:0:0:0:
194,330,63361,1,0,0:0:0:0:
245,344,63500,2,0,L|322:354,2,60,8|8|8,0:0|0:0|0:0,0:0:0:0:
316,263,64058,2,0,B|376:269|376:269|425:313,1,120,2|4,0:3|0:3,0:0:0:0:
474,316,64477,1,4,0:3:0:0:
491,264,64617,2,0,L|507:198,1,60,2|2,0:0|0:3,0:0:0:0:
462,172,64896,2,0,L|446:106,1,60,2|2,0:0|0:3,0:0:0:0:
475,67,65175,6,0,B|416:77|416:77|362:45,1,120,6|0,0:0|0:0,0:0:0:0:
317,19,65593,1,8,0:0:0:0:
289,65,65733,2,0,L|298:202,1,120,8|2,0:0|0:3,0:0:0:0:
254,283,66291,2,0,L|258:359,2,60,2|2|2,0:3|0:0|0:0,0:0:0:0:
212,247,66710,1,0,0:0:0:0:
159,259,66849,2,0,L|124:326,2,60,0|0|2,0:0|0:0|0:2,0:0:0:0:
138,208,67268,1,2,0:2:0:0:
88,190,67407,6,0,P|32:177|13:117,1,120,4|2,0:2|0:2,0:0:0:0:
78,37,67965,2,0,P|134:50|153:110,1,120,2|0,0:2|0:0,0:0:0:0:
193,140,68384,2,0,B|234:126|234:126|267:135|267:135|312:119,1,120,4|0,0:2|0:0,0:0:0:0:
357,104,68803,2,0,P|377:50|434:37,1,120,4|0,0:2|0:0,0:0:0:0:
496,124,69361,1,2,0:0:0:0:
437,214,69640,6,0,L|309:200,1,120,4|0,0:2|0:0,0:0:0:0:
259,291,70198,2,0,L|329:299,2,60,2|0|0,0:2|0:0|0:0,0:0:0:0:
217,326,70617,1,0,0:0:0:0:
177,362,70756,2,0,L|107:354,2,60,0|2|2,0:0|0:0|0:0,0:0:0:0:
159,255,71314,2,0,L|115:199,2,60,0|8|4,0:0|0:0|0:0,0:0:0:0:
221,166,71872,6,0,L|237:26,1,138.000002632141,4|10,0:0|0:0,0:0:0:0:
325,95,72430,2,0,L|312:172,2,69.0000013160706,8|8|8,0:0|0:0|0:0,0:0:0:0:
373,69,72849,1,2,3:0:0:0:
423,47,72989,2,0,B|469:98|469:98|479:177,1,138.000002632141,6|8,3:0|0:0,0:0:0:0:
389,233,73547,2,0,B|327:263|327:263|324:331|324:331|261:362,1,207.000003948212,2|0,3:0|0:0,0:0:0:0:
224,321,74105,6,0,P|184:280|102:294,1,138.000002632141,6|8,0:0|0:0,0:0:0:0:
71,329,74524,1,0,0:0:0:0:
34,287,74663,2,0,B|5:223|5:223|26:155,1,138.000002632141,2|8,0:0|0:0,0:0:0:0:
51,51,75221,2,0,B|124:46|101:110|179:102,1,138.000002632141,2|8,0:0|0:0,0:0:0:0:
220,75,75640,1,0,0:0:0:0:
255,116,75779,2,0,L|255:185,2,69.0000013160706,0|0|10,0:0|0:3|0:0,0:0:0:0:
328,33,76337,6,0,P|370:23|452:75,1,138.000002632141,4|8,0:0|0:0,0:0:0:0:
445,123,76756,1,0,0:0:0:0:
413,168,76896,2,0,L|450:303,1,138.000002632141,2|10,0:0|0:0,0:0:0:0:
421,348,77314,1,0,0:0:0:0:
368,365,77454,2,0,P|312:361|274:289,1,138.000002632141,0|8,0:0|0:0,0:0:0:0:
296,187,78012,2,2,B|313:119|313:119|251:92,1,138.000002632141,2|10,0:0|0:0,0:0:0:0:
147,129,78570,2,2,B|85:102|85:102|102:34,2,138.000002632141,2|14|2,0:0|0:0|0:0,0:0:0:0:
184,232,79407,5,10,0:0:0:0:
238,219,79547,2,0,L|384:189,1,138.000002632141,2|2,0:0|0:0,0:0:0:0:
426,178,79965,1,8,0:0:0:0:
393,283,80244,2,0,L|318:300,2,69.0000013160706,2|2|8,3:0|3:0|3:1,0:0:0:0:
489,227,80803,6,0,P|507:178|454:102,1,138.000002632141,4|8,1:0|0:0,0:0:0:0:
358,86,81361,2,0,L|288:79,2,69.0000013160706,8|8|8,0:0|0:0|0:0,0:0:0:0:
384,134,81779,1,2,3:0:0:0:
406,184,81919,2,0,L|385:347,1,138.000002632141,6|8,3:0|0:0,0:0:0:0:
285,361,82477,2,0,B|216:346|216:346|197:280|197:280|129:266,1,207.000003948212,2|2,3:0|3:0,0:0:0:0:
98,312,83035,6,0,P|30:296|4:231,1,138.000002632141,6|8,0:0|0:0,0:0:0:0:
35,192,83454,1,2,0:0:0:0:
73,152,83593,2,0,L|219:179,1,138.000002632141,2|8,0:0|0:0,0:0:0:0:
290,102,84151,2,0,B|351:140|295:179|363:218,1,138.000002632141,2|10,0:0|0:0,0:0:0:0:
413,220,84570,1,0,0:0:0:0:
417,274,84709,2,0,L|376:329,2,69.0000013160706,0|0|10,0:0|0:0|0:0,0:0:0:0:
489,171,85268,6,0,P|505:128|458:47,1,138.000002632141,6|8,0:0|0:0,0:0:0:0:
418,80,85686,1,0,0:0:0:0:
370,107,85826,2,0,L|231:77,1,138.000002632141,2|10,0:0|0:0,0:0:0:0:
202,33,86244,2,0,B|174:73|143:60|143:60|114:85|76:54,1,138.000002632141,4|4,0:2|0:2,0:0:0:0:
35,27,86663,1,8,0:0:0:0:
23,136,86942,2,0,L|15:212,1,69.0000013160706,0|0,0:0|0:0,0:0:0:0:
8,259,87221,1,2,0:0:0:0:
99,321,87500,6,0,B|160:350|160:350|222:313,1,138.000002632141,0|0,0:0|0:0,0:0:0:0:
217,258,87919,1,2,0:0:0:0:
208,203,88058,2,0,B|268:166|268:166|329:195,1,138.000002632141,0|2,0:0|0:0,0:0:0:0:
415,265,88617,2,0,L|408:336,2,69.0000013160706,2|0|2,0:0|0:0|0:0,0:0:0:0:
482,178,89175,2,0,L|489:107,2,69.0000013160706,0|8|4,0:0|0:0|1:0,0:0:0:0:
382,165,89733,6,0,L|394:42,1,107.999996704102,4|0,0:0|0:0,0:0:0:0:
357,24,90151,1,0,0:0:0:0:
308,16,90291,2,0,P|260:37|244:87,1,107.999996704102,2|0,0:0|0:0,0:0:0:0:
269,180,90849,2,0,P|253:230|205:251,1,107.999996704102,2|0,0:0|0:0,0:0:0:0:
121,201,91407,2,0,L|114:143,2,53.9999983520508,2|0|0,0:0|0:0|0:0,0:0:0:0:
101,245,91826,1,0,0:0:0:0:
119,289,91965,6,0,P|153:335|212:346,1,107.999996704102,2|0,0:0|0:0,0:0:0:0:
243,325,92384,1,0,0:0:0:0:
287,305,92524,2,0,P|337:320|368:363,1,107.999996704102,2|0,0:0|0:0,0:0:0:0:
440,298,93082,2,0,P|456:324|460:354,2,53.9999983520508,2|0|0,0:0|0:0|0:0,0:0:0:0:
404,265,93500,1,0,0:0:0:0:
419,218,93640,2,0,L|483:197,2,53.9999983520508,2|0|0,0:0|0:0|0:0,0:0:0:0:
378,191,94058,1,0,0:0:0:0:
394,145,94198,6,0,P|414:95|384:27,1,107.999996704102,2|0,0:0|0:0,0:0:0:0:
351,43,94617,1,0,0:0:0:0:
313,72,94756,2,0,P|261:85|212:66,1,107.999996704102,2|0,0:0|0:0,0:0:0:0:
127,17,95314,2,0,P|111:60|136:124,1,107.999996704102,2|0,0:0|0:0,0:0:0:0:
216,161,95872,2,0,L|279:172,2,53.9999983520508,2|0|0,0:0|0:0|0:0,0:0:0:0:
184,198,96291,1,0,0:0:0:0:
160,240,96430,6,0,P|144:283|169:347,1,107.999996704102,2|0,0:0|0:0,0:0:0:0:
207,359,96849,1,0,0:0:0:0:
254,371,96989,2,0,L|378:359,1,107.999996704102,2|0,0:0|0:0,0:0:0:0:
457,344,97547,2,2,P|410:337|370:192,1,215.999993408203
426,119,98384,1,0,0:0:0:0:
365,51,98663,6,0,P|328:33|234:46,1,113.999996955872,4|8,0:0|0:0,0:0:0:0:
234,75,99082,1,0,0:0:0:0:
194,98,99221,2,0,P|137:103|85:82,1,113.999996955872,2|8,0:0|0:0,0:0:0:0:
32,156,99779,2,0,P|64:201|72:257,1,113.999996955872,0|10,0:0|0:0,0:0:0:0:
163,266,100337,2,0,P|171:239|186:215,2,56.9999984779358,0|0|10,0:0|0:0|0:0,0:0:0:0:
185,306,100756,1,0,0:0:0:0:
206,346,100896,6,0,B|265:328|261:375|320:355,1,113.999996955872,0|10,0:0|0:0,0:0:0:0:
342,319,101314,1,0,0:0:0:0:
369,282,101454,2,0,B|428:300|424:253|483:273,1,113.999996955872,0|10,0:0|0:0,0:0:0:0:
491,181,102012,2,0,L|476:118,1,56.9999984779358,0|0,0:0|0:0,0:0:0:0:
433,113,102291,2,0,L|377:126,1,56.9999984779358,10|0,0:0|0:0,0:0:0:0:
335,108,102570,2,0,L|320:45,1,56.9999984779358,0|0,0:0|0:0,0:0:0:0:
277,40,102849,2,0,L|221:53,1,56.9999984779358,10|0,0:0|0:0,0:0:0:0:
177,40,103128,6,0,P|190:87|156:153,1,113.999996955872,0|10,0:0|0:0,0:0:0:0:
119,141,103547,1,0,0:0:0:0:
74,132,103686,2,0,P|61:179|95:245,1,113.999996955872,0|10,0:0|0:0,0:0:0:0:
28,307,104244,2,0,P|75:328|138:311,1,113.999996955872,0|10,0:0|0:0,0:0:0:0:
215,272,104803,2,0,L|237:335,2,56.9999984779358,0|0|10,0:0|0:0|0:0,0:0:0:0:
219,226,105221,1,0,0:0:0:0:
227,180,105361,6,0,P|281:165|332:186,1,113.999996955872,0|10,0:0|0:0,0:0:0:0:
345,230,105779,1,0,0:0:0:0:
350,275,105919,2,0,B|403:297|403:297|454:273,1,113.999996955872,0|10,0:0|0:0,0:0:0:0:
496,193,106477,2,2,P|492:124|360:57,1,227.999993911743
284,100,107314,1,8,0:0:0:0:
200,146,107593,6,0,L|130:137,2,60,6|0|2,0:0|0:0|0:0,0:0:0:0:
282,195,108151,1,10,0:0:0:0:
312,238,108291,2,0,L|457:256,1,120,0|2,0:0|0:0,0:0:0:0:
467,284,108710,2,0,P|440:346|374:353,1,120,4|2,0:3|0:0,0:0:0:0:
346,348,109128,1,0,1:0:0:0:
298,339,109268,2,0,L|153:321,1,120,10|0,0:0|1:0,0:0:0:0:
91,364,109826,6,0,P|83:320|124:254,1,120,4|2,1:0|0:0,0:0:0:0:
151,221,110244,1,0,1:0:0:0:
130,177,110384,2,0,P|122:133|163:67,1,120,10|0,0:0|1:0,0:0:0:0:
249,42,110942,2,0,P|278:50|308:46,1,60,4|0,0:3|0:0,0:0:0:0:
355,40,111221,2,0,P|384:44|413:36,1,60,2|0,0:0|1:0,0:0:0:0:
450,67,111500,2,0,P|428:87|418:115,1,60,10|0,0:0|0:0,0:0:0:0:
400,160,111779,2,0,P|381:183|373:211,1,60,2|0,1:2|0:0,0:0:0:0:
398,252,112058,6,0,L|473:272,2,60,4|0|2,1:0|0:0|0:0,0:0:0:0:
371,291,112477,1,0,1:0:0:0:
374,339,112617,2,0,P|326:362|257:325,1,120,10|0,0:0|1:0,0:0:0:0:
238,247,113175,2,0,L|263:124,1,120,4|2,0:3|0:0,0:0:0:0:
216,44,113733,2,0,P|162:20|109:43,1,120,10|0,0:0|1:0,0:0:0:0:
77,79,114151,1,0,0:0:0:0:
98,122,114291,6,0,B|120:179|120:179|91:245,1,120,4|2,1:0|0:0,0:0:0:0:
60,321,114849,2,0,P|34:305|17:280,2,60,10|2|0,0:0|0:0|1:0,0:0:0:0:
107,328,115268,1,2,0:0:0:0:
149,305,115407,2,2,P|209:272|350:348,1,240,4|14,0:3|0:0,0:0:0:0:
443,356,116244,1,4,1:2:0:0:
414,263,116524,6,0,P|402:204|439:142,1,120,4|2,1:0|0:0,0:0:0:0:
490,80,117082,1,10,0:0:0:0:
452,50,117221,2,0,L|324:37,1,120,0|2,0:0|0:0,0:0:0:0:
299,72,117640,2,0,P|270:109|194:115,1,120,4|2,0:3|0:0,0:0:0:0:
171,79,118058,1,0,1:0:0:0:
137,49,118198,2,0,P|78:51|38:94,1,120,10|0,0:0|1:0,0:0:0:0:
44,190,118756,6,0,L|79:313,1,120,4|2,1:0|0:0,0:0:0:0:
114,335,119175,1,0,1:0:0:0:
161,342,119314,2,0,L|193:226,1,120,10|0,0:0|1:0,0:0:0:0:
287,206,119872,2,0,L|268:271,1,60,4|0,0:3|0:0,0:0:0:0:
294,305,120151,2,0,L|349:343,1,60,2|0,0:0|1:0,0:0:0:0:
390,329,120430,2,0,L|443:287,1,60,10|0,0:0|0:0,0:0:0:0:
442,245,120710,2,0,L|419:181,1,60,0|0,1:0|0:0,0:0:0:0:
444,145,120989,6,0,P|461:110|417:39,1,120,4|2,1:0|0:0,0:0:0:0:
380,55,121407,1,0,1:0:0:0:
333,68,121547,2,0,B|309:121|360:130|339:187,1,120,10|0,0:0|1:0,0:0:0:0:
245,196,122105,2,0,B|264:142|213:133|237:80,1,120,4|2,0:3|0:0,0:0:0:0:
143,99,122663,2,0,B|119:152|170:161|150:214,1,120,10|0,0:0|1:0,0:0:0:0:
118,250,123082,1,0,0:0:0:0:
124,297,123221,6,0,P|158:347|219:357,1,120,4|2,1:0|0:0,0:0:0:0:
256,335,123640,1,0,1:0:0:0:
298,358,123779,2,0,P|355:345|388:297,1,120,10|0,0:0|1:0,0:0:0:0:
364,254,124198,1,2,0:0:0:0:
399,222,124337,2,2,P|435:150|313:94,1,240,4|10,0:3|0:0,0:0:0:0:
256,163,125175,1,2,0:0:0:0:
194,92,125454,1,4,1:0:0:0:
40,314,134384,6,0,B|93:344|93:344|171:331,1,120,4|8,0:2|0:0,0:0:0:0:
190,296,134803,2,0,B|248:286|248:286|301:316,1,120,2|0,0:0|0:0,0:0:0:0:
343,349,135221,1,10,0:0:0:0:
445,381,135500,1,2,0:0:0:0:
484,280,135779,2,0,L|513:222,2,60,8|0|2,0:0|0:0|0:0,0:0:0:0:
380,250,136337,1,10,0:0:0:0:
425,151,136617,6,0,P|434:116|389:50,1,120,4|8,0:2|0:0,0:0:0:0:
352,88,137035,2,0,P|295:121|239:107,1,120,2|0,0:0|0:0,0:0:0:0:
196,85,137454,1,10,0:0:0:0:
125,166,137733,1,2,0:0:0:0:
44,93,138012,2,0,L|32:31,2,60,8|0|2,0:0|0:0|0:0,0:0:0:0:
19,198,138570,1,10,0:0:0:0:
90,278,138849,6,0,P|119:312|203:333,1,120,4|8,0:2|0:0,0:0:0:0:
227,295,139268,2,0,B|252:236|252:236|233:181,1,120,2|0,0:0|0:0,0:0:0:0:
211,134,139686,1,10,0:0:0:0:
312,97,139965,1,2,0:0:0:0:
413,61,140244,2,0,L|484:72,2,60,8|0|2,0:0|0:0|0:0,0:0:0:0:
384,165,140803,1,10,0:0:0:0:
454,247,141082,6,0,P|447:304|399:337,1,120,4|8,0:2|0:0,0:0:0:0:
345,336,141500,2,0,L|222:322,1,120,2|0,0:0|0:0,0:0:0:0:
172,315,141919,1,10,0:0:0:0:
107,228,142198,1,2,0:0:0:0:
181,149,142477,2,0,L|248:156,2,60,8|0|2,0:0|0:0|0:0,0:0:0:0:
141,111,142896,1,0,0:0:0:0:
351,40,143314,6,0,P|386:38|463:99,1,138.000002632141,0|8,0:0|0:0,0:0:0:0:
481,207,143872,2,0,L|487:281,2,69.0000013160706,2|2|10,0:0|0:0|0:0,0:0:0:0:
428,189,144291,2,0,P|393:187|316:248,1,138.000002632141,2|2,0:0|0:0,0:0:0:0:
310,302,144710,1,0,0:0:0:0:
200,288,144989,2,0,L|208:362,2,69.0000013160706,2|2|10,0:0|0:0|0:0,0:0:0:0:
102,339,145547,6,0,L|87:199,1,138.000002632141,4|8,0:0|0:0,0:0:0:0:
78,91,146105,2,0,P|35:103|14:121,2,69.0000013160706,2|2|10,0:0|0:0|0:0,0:0:0:0:
128,113,146524,2,0,P|189:140|253:117,1,138.000002632141,2|2,0:0|0:0,0:0:0:0:
295,82,146942,1,0,0:0:0:0:
295,192,147221,2,0,P|258:216|218:221,2,69.0000013160706,2|2|10,0:0|0:0|0:0,0:0:0:0:
392,243,147779,6,0,L|413:315,2,69.0000013160706,4|0|8,0:0|0:0|0:0,0:0:0:0:
455,152,148337,2,0,L|517:193,2,69.0000013160706,2|2|10,0:0|0:0|0:0,0:0:0:0:
442,98,148756,2,0,P|400:52|319:52,1,138.000002632141,2|2,0:0|0:0,0:0:0:0:
289,87,149175,1,0,0:0:0:0:
184,56,149454,2,0,L|108:32,2,69.0000013160706,2|2|10,0:0|0:0|0:0,0:0:0:0:
200,164,150012,6,0,B|172:232|172:232|100:256,1,138.000002632141,4|8,0:0|0:0,0:0:0:0:
2,275,150570,2,0,P|2:230|17:201,2,69.0000013160706,2|2|10,0:0|0:0|0:0,0:0:0:0:
28,323,150989,2,0,P|72:355|153:348,1,138.000002632141,2|2,0:0|0:0,0:0:0:0:
191,309,151407,1,0,0:0:0:0:
298,331,151686,1,10,0:0:0:0:
352,342,151826,1,10,0:0:0:0:
405,327,151965,1,10,0:0:0:0:
437,281,152105,1,8,0:0:0:0:
439,226,152244,6,0,L|422:80,1,143.999995605469,6|10,0:0|0:0,0:0:0:0:
340,163,152803,2,0,L|350:235,2,71.9999978027344,0|2|10,0:0|0:0|0:0,0:0:0:0:
331,106,153221,2,0,P|311:69|210:54,1,143.999995605469,2|0,0:0|0:0,0:0:0:0:
181,94,153640,1,10,0:0:0:0:
128,70,153779,1,2,0:0:0:0:
89,112,153919,2,0,L|55:257,1,143.999995605469,2|8,0:0|0:0,0:0:0:0:
125,343,154477,6,0,P|162:353|236:287,1,143.999995605469,6|10,0:0|0:0,0:0:0:0:
250,234,154896,2,0,P|287:224|361:290,1,143.999995605469,2|2,0:0|0:0,0:0:0:0:
376,341,155314,1,10,0:0:0:0:
464,267,155593,1,2,0:0:0:0:
458,151,155872,2,0,L|481:79,2,71.9999978027344,10|2|2,0:0|0:0|0:0,0:0:0:0:
342,155,156430,1,10,0:0:0:0:
303,264,156710,6,0,B|277:332|277:332|201:355,1,143.999995605469,6|10,0:0|0:0,0:0:0:0:
150,360,157128,2,0,P|83:342|58:278,1,143.999995605469,2|2,0:0|0:0,0:0:0:0:
89,229,157547,2,0,P|103:187|90:141,1,71.9999978027344,10|0,0:0|0:0,0:0:0:0:
61,116,157826,1,2,0:0:0:0:
170,80,158105,2,0,L|184:6,2,71.9999978027344,10|2|2,0:0|0:0|0:0,0:0:0:0:
207,188,158663,1,8,0:0:0:0:
244,297,158942,6,0,P|268:330|372:339,1,143.999995605469,6|10,0:0|0:0,0:0:0:0:
354,286,159361,2,0,P|394:292|474:225,1,143.999995605469,2|2,0:0|0:0,0:0:0:0:
481,176,159779,2,0,L|466:91,1,71.9999978027344,10|0,0:0|0:0,0:0:0:0:
454,49,160058,1,2,0:0:0:0:
360,115,160337,1,10,0:0:0:0:
256,63,160617,2,0,L|184:27,2,71.9999978027344,2|2|2,0:2|0:2|0:0,0:0:0:0:
268,170,161175,6,0,L|276:308,1,120,4|8,0:2|0:0,0:0:0:0:
272,343,161593,2,0,P|209:372|151:353,1,120,2|0,0:0|0:0,0:0:0:0:
126,320,162012,1,10,0:0:0:0:
161,218,162291,1,2,0:0:0:0:
55,239,162570,2,0,P|28:272|22:302,2,60,8|0|2,0:0|0:0|0:0,0:0:0:0:
87,136,163128,1,10,0:0:0:0:
194,121,163407,6,0,P|241:112|289:53,1,120,4|8,0:2|0:0,0:0:0:0:
326,22,163826,2,0,L|370:139,1,120,2|0,0:0|0:0,0:0:0:0:
387,184,164244,1,10,0:0:0:0:
431,282,164524,1,2,0:0:0:0:
333,328,164803,2,0,L|263:355,2,60,8|0|2,0:0|0:0|0:0,0:0:0:0:
290,228,165361,1,10,0:0:0:0:
387,184,165640,6,0,P|416:144|410:56,1,120,4|8,0:2|0:0,0:0:0:0:
375,42,166058,2,0,L|243:49,1,120,2|0,0:0|0:0,0:0:0:0:
201,57,166477,1,10,0:0:0:0:
170,160,166756,1,2,0:0:0:0:
72,205,167035,2,0,L|4:198,2,60,8|0|2,0:0|0:0|0:0,0:0:0:0:
145,283,167593,1,10,0:0:0:0:
218,362,167872,6,0,P|268:356|306:301,1,120,4|8,0:2|0:0,0:0:0:0:
297,248,168291,2,0,L|271:126,1,120,2|0,0:0|0:0,0:0:0:0:
256,78,168710,1,10,0:0:0:0:
357,40,168989,1,2,0:0:0:0:
399,139,169268,2,0,L|413:213,1,60,8|0,0:0|0:0,0:0:0:0:
391,248,169547,2,0,B|432:255|432:255|453:284|453:284|495:291,1,120,2|10,0:0|0:0,0:0:0:0:
256,192,170105,12,0,171779,0:0:0:0:
