osu file format v14

[General]
AudioFilename: audio.mp3
AudioLeadIn: 0
PreviewTime: 107524
Countdown: 0
SampleSet: Normal
StackLeniency: 0.7
Mode: 0
LetterboxInBreaks: 0
WidescreenStoryboard: 1

[Editor]
Bookmarks: 9361,18291,54012,80803,125454,134384
DistanceSpacing: 0.9
BeatDivisor: 2
GridSize: 4
TimelineZoom: 1.6

[Metadata]
Title:A Bunch Of Samples Played Consecutively
TitleUnicode:A Bunch Of Samples Played Consecutively
Artist:NegaRen
ArtistUnicode:NegaRen
Creator:Mao
Version:Normal
Source:
Tags:LAPFOX TRAX Breaking Boundaries Dave Remmler Renard Desperate-kun vipto
BeatmapID:1026551
BeatmapSetID:480553

[Difficulty]
HPDrainRate:2
CircleSize:3
OverallDifficulty:2.5
ApproachRate:3.5
SliderMultiplier:1
SliderTickRate:1

[Events]
//Background and Video events
0,0,"bg.jpg",0,0
//Break Periods
2,54212,61562
2,125654,133004
//Storyboard Layer 0 (Background)
//Storyboard Layer 1 (Fail)
//Storyboard Layer 2 (Pass)
//Storyboard Layer 3 (Foreground)
//Storyboard Sound Samples

[TimingPoints]
431,279.06976744186,4,1,0,80,1,0
18291,-111.111111111111,4,2,0,60,0,0
35593,-100,4,2,0,60,0,0
36151,-86.9565217391304,4,1,0,100,0,0
62942,-100,4,1,0,80,0,0
71872,-86.9565217391304,4,1,0,100,0,0
89733,-111.111111111111,4,2,0,60,0,0
98663,-105.263157894737,4,2,0,70,0,0
107593,-100,4,1,0,80,0,0
143314,-86.9565217391304,4,1,0,100,0,0
152244,-83.3333333333333,4,1,0,100,0,0
160896,-100,4,1,0,100,0,0
161175,-100,4,1,0,80,0,0
170244,-100,4,2,0,5,0,0

[Colours]
Combo1 : 245,221,50
Combo2 : 116,244,0
Combo3 : 247,68,9
Combo4 : 219,36,215
SliderBorder : 253,126,0
SliderTrackOverride : 71,14,13

[HitObjects]
307,344,9361,6,0,P|363:340|426:256,2,150,6|2|10,0:2|0:0|0:0,0:0:0:0:
234,288,10477,1,2,0:0:0:0:
148,318,10756,2,0,L|141:375,2,50,8|0|2,0:0|0:0|0:0,0:0:0:0:
103,238,11314,1,10,0:0:0:0:
153,161,11593,6,0,P|102:144|14:213,2,150,6|2|10,0:2|0:0|0:0,0:0:0:0:
207,234,12710,1,2,0:0:0:0:
256,311,12989,2,0,L|256:365,2,50,8|0|2,0:0|0:0|0:0,0:0:0:0:
304,234,13547,1,10,0:0:0:0:
390,204,13826,6,0,L|443:359,2,150,6|2|10,0:2|0:0|0:0,0:0:0:0:
321,143,14942,1,2,0:0:0:0:
384,76,15221,2,0,L|444:66,2,50,8|0|2,0:0|0:0|0:0,0:0:0:0:
311,20,15779,1,10,0:0:0:0:
250,88,16058,6,0,P|190:103|118:48,2,150,6|2|10,0:2|0:0|0:0,0:0:0:0:
311,20,17175,1,2,0:0:0:0:
358,98,17454,2,0,L|349:163,2,50,8|0|2,0:0|0:0|0:0,0:0:0:0:
511,156,18291,6,0,P|504:219|403:300,1,179.999994506836,4|2,0:0|0:0,0:0:0:0:
343,266,19128,1,0,0:0:0:0:
293,332,19407,2,0,L|181:355,1,89.9999972534181,2|0,0:0|0:0,0:0:0:0:
122,354,19965,2,0,P|122:331|130:310,2,44.999998626709,2|0|0,0:0|0:0|0:0,0:0:0:0:
39,363,20524,6,0,P|39:320|53:274,1,89.9999972534181,2|0,0:0|0:0,0:0:0:0:
123,230,21082,2,0,P|136:187|137:141,1,89.9999972534181,2|0,0:0|0:0,0:0:0:0:
212,108,21640,2,0,P|221:144|221:167,2,44.999998626709,2|0|0,0:0|0:0|0:0,0:0:0:0:
292,92,22198,2,0,P|301:128|301:151,2,44.999998626709,2|0|0,0:0|0:0|0:0,0:0:0:0:
351,35,22756,6,0,P|414:111|398:197,1,179.999994506836,2|2,0:0|0:0,0:0:0:0:
353,254,23593,1,0,0:0:0:0:
271,241,23872,2,0,L|167:219,1,89.9999972534181,2|0,0:0|0:0,0:0:0:0:
186,305,24430,2,0,L|237:316,2,44.999998626709,2|0|0,0:0|0:0|0:0,0:0:0:0:
114,346,24989,5,2,0:0:0:0:
57,286,25268,2,0,P|28:251|14:208,1,89.9999972534181,0|2,0:0|0:0,0:0:0:0:
61,142,25826,1,0,0:0:0:0:
112,79,26105,2,0,L|292:106,2,179.999994506836,2|2|4,0:0|0:0|0:0,0:0:0:0:
118,160,27500,6,0,L|225:176,1,89.9999972534181,0|2,0:0|0:0,0:0:0:0:
251,243,28058,1,0,0:0:0:0:
291,314,28337,2,0,L|398:331,1,89.9999972534181,2|0,0:0|0:0,0:0:0:0:
457,298,28896,2,0,P|464:330|453:362,2,44.999998626709,2|0|0,0:0|0:0|0:0,0:0:0:0:
393,246,29454,6,0,P|372:200|384:143,1,89.9999972534181,2|0,0:0|0:0,0:0:0:0:
451,127,30012,2,0,P|418:89|364:80,1,89.9999972534181,2|0,0:0|0:0,0:0:0:0:
304,113,30570,2,0,P|298:92|298:69,2,44.999998626709,2|0|0,0:0|0:0|0:0,0:0:0:0:
259,181,31128,2,0,P|265:203|265:226,2,44.999998626709,2|0|0,0:0|0:0|0:0,0:0:0:0:
197,127,31686,6,0,P|139:92|39:155,1,179.999994506836,2|2,0:0|0:0,0:0:0:0:
54,223,32524,1,0,0:0:0:0:
100,290,32803,2,0,P|151:297|197:274,1,89.9999972534181,2|0,0:0|0:0,0:0:0:0:
254,328,33361,2,0,L|254:381,2,44.999998626709,2|0|0,0:0|0:0|0:0,0:0:0:0:
256,247,33919,5,2,0:0:0:0:
326,283,34198,2,0,P|368:297|412:290,1,89.9999972534181,0|2,0:0|0:0,0:0:0:0:
460,225,34756,1,0,0:0:0:0:
455,143,35035,2,0,B|423:56|423:56|338:34,1,179.999994506836,2|2,0:0|0:1,0:0:0:0:
253,80,35872,1,8,0:0:0:0:
169,33,36151,6,0,P|98:27|54:64,1,115.000002193451,4|10,1:0|1:0,0:0:0:0:
39,151,36710,2,0,B|35:210|35:210|69:255|69:255|65:324,1,172.500003290176,2|2,0:0|0:0,0:0:0:0:
167,292,37407,2,0,B|171:233|171:233|137:188|137:188|141:119,1,172.500003290176,2|2,0:0|0:0,0:0:0:0:
225,72,38105,1,10,0:0:0:0:
275,162,38384,6,0,L|268:285,1,115.000002193451,4|10,1:0|0:0,0:0:0:0:
334,356,38942,2,0,P|404:372|480:311,1,172.500003290176,2|2,0:0|0:0,0:0:0:0:
473,210,39640,2,0,L|449:40,1,172.500003290176,2|2,0:0|0:0,0:0:0:0:
346,21,40337,1,2,0:0:0:0:
340,124,40617,6,0,P|336:180|297:221,1,115.000002193451,4|10,0:0|0:0,0:0:0:0:
198,249,41175,2,0,B|140:240|140:240|94:273|94:273|32:262,1,172.500003290176,2|2,0:0|0:0,0:0:0:0:
10,163,41872,2,0,B|68:172|68:172|114:139|114:139|176:150,1,172.500003290176,2|2,0:0|0:0,0:0:0:0:
271,172,42570,1,10,0:0:0:0:
352,108,42849,6,0,L|381:226,1,115.000002193451,4|10,0:0|0:0,0:0:0:0:
470,169,43407,2,0,L|429:-2,2,172.500003290176,2|2|0,0:0|0:0|0:0,0:0:0:0:
469,272,44524,2,0,L|457:334,2,57.5000010967255,8|8|8,0:0|0:0|0:0,0:0:0:0:
379,219,45082,6,0,P|325:213|276:257,1,115.000002193451,4|10,0:0|0:0,0:0:0:0:
226,337,45640,2,0,P|160:363|78:307,1,172.500003290176,2|2,0:0|0:0,0:0:0:0:
36,217,46337,2,0,B|12:103|12:103|34:44,1,172.500003290176,2|2,0:0|0:0,0:0:0:0:
131,22,47035,1,10,0:0:0:0:
160,121,47314,6,0,L|185:235,1,115.000002193451,4|10,0:0|0:0,0:0:0:0:
229,326,47872,2,0,B|287:335|287:335|333:302|333:302|395:313,1,172.500003290176,2|2,0:0|0:0,0:0:0:0:
396,208,48570,2,0,B|443:173|443:173|452:117|452:117|504:81,1,172.500003290176,2|2,0:0|0:0,0:0:0:0:
408,35,49268,1,10,0:0:0:0:
342,114,49547,6,0,P|285:141|232:131,1,115.000002193451,4|10,0:0|0:0,0:0:0:0:
182,43,50105,2,0,P|141:89|164:209,1,172.500003290176,2|2,0:0|0:0,0:0:0:0:
243,241,50803,2,0,L|434:247,1,172.500003290176,2|2,0:0|0:0,0:0:0:0:
466,336,51500,1,10,0:0:0:0:
370,375,51779,6,0,P|317:337|252:343,1,115.000002193451,0|10,0:0|0:0,0:0:0:0:
168,360,52337,2,0,P|92:363|39:283,1,172.500003290176,2|2,0:0|0:0,0:0:0:0:
33,186,53035,2,0,B|59:73|59:73|133:34,1,172.500003290176,2|6,0:0|0:3,0:0:0:0:
205,85,53733,1,6,0:3:0:0:
300,123,54012,1,4,0:0:0:0:
36,356,62942,6,0,L|13:258,1,100,4|0,0:0|0:0,0:0:0:0:
92,215,63500,2,0,B|104:267|104:267|146:297,1,100,8|8,0:0|0:0,0:0:0:0:
217,245,64058,2,0,B|179:217|179:217|156:115|156:115|177:67,2,200,2|2|6,0:3|0:0|0:0,0:0:0:0:
293,292,65454,6,0,P|363:306|458:230,1,200,0|2,0:0|0:3,0:0:0:0:
458,140,66291,2,0,B|430:100|430:100|379:99|379:99|353:56|353:56|299:61,2,200,2|0|4,0:3|0:0|0:2,0:0:0:0:
473,228,67686,6,0,B|477:311|411:356|411:356|374:317|320:313,1,250,2|4,0:2|0:2,0:0:0:0:
244,358,68663,2,0,B|193:354|193:354|171:310|171:310|117:304|117:304|103:259|103:259|43:251,1,250,0|2,0:0|0:0,0:0:0:0:
15,169,69640,5,4,0:2:0:0:
65,94,69919,2,0,P|124:54|316:248,1,400,0|2,0:0|0:0,0:0:0:0:
257,298,71314,2,0,L|197:310,2,50,0|8|4,0:0|0:0|0:0,0:0:0:0:
359,314,71872,5,4,0:0:0:0:
447,368,72151,2,0,B|463:310|463:310|425:204|425:204|443:140,1,230.000004386902,10|8,0:0|0:0,0:0:0:0:
408,50,72989,2,0,P|353:21|295:31,1,115.000002193451,6|8,3:0|0:0,0:0:0:0:
234,105,73547,2,0,B|220:161|220:161|239:215,1,115.000002193451,2|0,3:0|0:0,0:0:0:0:
291,304,74105,5,6,0:0:0:0:
200,354,74384,2,0,P|105:345|52:231,1,230.000004386902,8|8,0:0|0:0,0:0:0:0:
134,167,75221,2,0,L|245:217,1,115.000002193451,2|8,0:0|0:0,0:0:0:0:
291,304,75779,1,0,0:0:0:0:
388,268,76058,1,10,0:0:0:0:
483,227,76337,6,0,P|499:168|475:106,1,115.000002193451,4|8,0:0|0:0,0:0:0:0:
403,51,76896,2,0,L|297:96,1,115.000002193451,2|10,0:0|0:0,0:0:0:0:
283,198,77454,2,0,B|177:243|177:243|99:160,1,230.000004386902,0|2,0:0|0:0,0:0:0:0:
29,236,78291,1,10,0:0:0:0:
103,308,78570,6,0,P|153:346|208:341,1,115.000002193451,2|14,0:0|0:0,0:0:0:0:
296,298,79128,2,0,B|399:252|399:252|458:269,2,172.500003290176,2|2|8,0:0|0:0|0:0,0:0:0:0:
293,194,80244,2,0,L|353:167,2,57.5000010967255,2|2|8,3:0|3:0|3:1,0:0:0:0:
208,254,80803,5,4,1:0:0:0:
124,314,81082,2,0,P|59:289|52:132,1,230.000004386902,8|8,0:0|0:0,0:0:0:0:
109,68,81919,2,0,L|228:88,1,115.000002193451,6|8,3:0|0:0,0:0:0:0:
322,59,82477,2,0,B|361:65|361:65|393:84|393:84|439:93,1,115.000002193451,2|0,3:0|0:0,0:0:0:0:
497,170,83035,5,6,0:0:0:0:
481,272,83314,2,0,P|419:311|312:225,1,230.000004386902,8|8,0:0|0:0,0:0:0:0:
224,169,84151,2,0,P|211:209|225:294,1,115.000002193451,2|10,0:0|0:0,0:0:0:0:
132,338,84710,1,0,0:0:0:0:
53,271,84989,1,10,0:0:0:0:
31,169,85268,6,0,B|38:131|38:131|56:99|56:99|63:60,1,115.000002193451,6|8,0:0|0:0,0:0:0:0:
163,32,85826,2,0,B|145:146|145:146|177:201,1,172.500003290176,2|4,0:0|0:2,0:0:0:0:
273,223,86524,2,0,P|322:182|326:66,1,172.500003290176,4|0,0:2|0:0,0:0:0:0:
427,39,87221,1,2,0:0:0:0:
466,134,87500,6,0,L|503:254,1,115.000002193451,0|0,0:0|0:0,0:0:0:0:
445,331,88058,1,0,0:0:0:0:
355,279,88337,1,2,0:0:0:0:
275,345,88617,2,0,P|217:354|171:325,1,115.000002193451,2|2,0:0|0:0,0:0:0:0:
100,250,89175,2,0,P|74:236|39:235,2,57.5000010967255,0|8|4,0:0|0:0|1:0,0:0:0:0:
186,238,89733,6,0,P|203:186|102:133,1,179.999994506836,4|2,0:0|0:0,0:0:0:0:
32,117,90570,1,0,0:0:0:0:
79,51,90849,2,0,P|129:39|184:51,1,89.9999972534181,2|0,0:0|0:0,0:0:0:0:
246,55,91407,2,0,L|265:0,2,44.999998626709,2|0|0,0:0|0:0|0:0,0:0:0:0:
313,100,91965,6,0,L|410:92,1,89.9999972534181,2|0,0:0|0:0,0:0:0:0:
421,171,92524,2,0,L|324:179,1,89.9999972534181,2|0,0:0|0:0,0:0:0:0:
356,255,93082,2,0,L|414:250,2,44.999998626709,2|0|0,0:0|0:0|0:0,0:0:0:0:
376,333,93640,2,0,L|434:328,2,44.999998626709,2|0|0,0:0|0:0|0:0,0:0:0:0:
303,368,94198,6,0,P|241:360|202:255,1,179.999994506836,2|2,0:0|0:0,0:0:0:0:
250,197,95035,1,0,0:0:0:0:
203,130,95314,2,0,L|100:118,1,89.9999972534181,2|0,0:0|0:0,0:0:0:0:
146,45,95872,2,0,L|198:51,2,44.999998626709,2|0|0,0:0|0:0|0:0,0:0:0:0:
65,53,96430,5,2,0:0:0:0:
30,126,96710,2,0,L|22:226,1,89.9999972534181,0|2,0:0|0:0,0:0:0:0:
15,296,97268,1,0,0:0:0:0:
72,353,97547,2,0,P|124:359|188:254,1,179.999994506836,2|2,0:0|0:0,0:0:0:0:
300,112,98663,6,0,L|316:312,1,189.999994926453,4|2,0:0|0:0,0:0:0:0:
389,343,99500,1,8,0:0:0:0:
462,298,99779,2,0,P|481:251|472:197,1,94.9999974632264,0|10,0:0|0:0,0:0:0:0:
446,127,100337,2,0,P|471:121|496:124,2,47.4999987316132,0|0|10,0:0|0:0|0:0,0:0:0:0:
389,190,100896,6,0,L|282:208,1,94.9999974632264,0|10,0:0|0:0,0:0:0:0:
232,263,101454,2,0,L|125:281,1,94.9999974632264,0|10,0:0|0:0,0:0:0:0:
57,250,102012,2,0,P|52:284|59:313,2,47.4999987316132,0|0|10,0:0|0:0|0:0,0:0:0:0:
120,192,102570,2,0,P|121:168|116:145,2,47.4999987316132,0|0|10,0:0|0:0|0:0,0:0:0:0:
37,169,103128,6,0,P|39:111|149:69,1,189.999994926453,0|0,0:0|0:0,0:0:0:0:
210,127,103965,1,10,0:0:0:0:
292,105,104244,2,0,L|396:79,1,94.9999974632264,0|10,0:0|0:0,0:0:0:0:
468,98,104803,2,0,B|469:76|469:76|462:42,2,47.4999987316132,0|0|10,0:0|0:0|0:0,0:0:0:0:
504,175,105361,5,0,0:0:0:0:
469,253,105640,2,0,B|471:302|471:302|450:350,1,94.9999974632264,10|0,0:0|0:0,0:0:0:0:
369,363,106198,1,10,0:0:0:0:
313,297,106477,2,0,P|286:245|343:131,1,189.999994926453,2|2,0:0|0:0,0:0:0:0:
164,38,107593,6,0,L|177:243,1,200,6|10,0:0|0:0,0:0:0:0:
111,299,108430,1,0,0:0:0:0:
180,356,108710,2,0,P|233:362|279:323,1,100,4|2,0:3|0:0,0:0:0:0:
359,329,109268,2,0,L|376:377,2,50,10|0|0,0:0|0:0|1:0,0:0:0:0:
429,273,109826,6,0,P|470:239|475:179,1,100,4|2,1:0|0:0,0:0:0:0:
454,109,110384,2,0,B|409:89|409:89|345:106,1,100,10|0,0:0|1:0,0:0:0:0:
305,173,110942,2,0,L|322:221,2,50,4|0|2,0:3|0:0|0:0,0:0:0:0:
232,119,111500,2,0,L|215:71,2,50,10|0|2,0:0|0:0|1:2,0:0:0:0:
181,193,112058,6,0,P|136:174|38:269,1,200,4|10,1:0|0:0,0:0:0:0:
93,334,112896,1,0,1:0:0:0:
181,351,113175,2,0,L|281:344,1,100,4|2,0:3|0:0,0:0:0:0:
337,274,113733,2,0,L|326:218,2,50,10|0|0,0:0|0:0|1:0,0:0:0:0:
398,340,114291,5,4,1:0:0:0:
466,281,114570,2,0,P|488:226|437:90,1,200,2|0,0:0|1:0,0:0:0:0:
368,144,115407,2,0,P|310:172|197:106,1,200,4|14,0:3|0:0,0:0:0:0:
148,38,116244,1,4,1:2:0:0:
70,84,116524,6,0,B|42:183|42:183|87:271,1,200,4|10,1:0|0:0,0:0:0:0:
135,344,117361,1,0,0:0:0:0:
211,296,117640,2,0,L|231:196,1,100,4|2,0:3|0:0,0:0:0:0:
230,107,118198,2,0,P|208:90|176:80,2,50,10|0|0,0:0|0:0|1:0,0:0:0:0:
308,151,118756,6,0,P|360:151|404:111,1,100,4|2,1:0|0:0,0:0:0:0:
485,107,119314,2,0,L|465:234,1,100,10|0,0:0|1:0,0:0:0:0:
468,295,119872,2,0,L|476:358,2,50,4|0|2,0:3|0:0|0:0,0:0:0:0:
382,321,120430,2,0,L|390:384,2,50,10|0|0,0:0|0:0|1:0,0:0:0:0:
299,285,120989,6,0,P|253:337|122:341,1,200,4|10,1:0|0:0,0:0:0:0:
68,277,121826,1,0,1:0:0:0:
143,227,122105,2,0,P|170:184|158:126,1,100,4|2,0:3|0:0,0:0:0:0:
106,67,122663,2,0,L|51:59,2,50,10|0|0,0:0|0:0|1:0,0:0:0:0:
188,32,123221,5,4,1:0:0:0:
250,97,123500,2,0,P|301:121|416:49,1,200,2|0,0:0|1:0,0:0:0:0:
500,28,124337,2,0,P|489:97|390:191,1,200,4|10,0:3|0:0,0:0:0:0:
313,210,125175,1,2,0:0:0:0:
226,234,125454,1,4,1:0:0:0:
335,328,134384,6,0,L|490:347,2,150,4|2|10,0:2|0:0|0:0,0:0:0:0:
277,258,135500,1,2,0:0:0:0:
364,235,135779,2,0,L|419:221,2,50,8|0|2,0:0|0:0|0:0,0:0:0:0:
301,169,136337,1,10,0:0:0:0:
327,82,136617,6,0,L|475:40,2,150,4|2|10,0:2|0:0|0:0,0:0:0:0:
256,25,137733,1,2,0:0:0:0:
185,82,138012,2,0,L|136:68,2,50,8|0|2,0:0|0:0|0:0,0:0:0:0:
256,136,138570,1,10,0:0:0:0:
325,193,138849,6,0,L|473:151,2,150,4|2|10,0:2|0:0|0:0,0:0:0:0:
277,269,139965,1,2,0:0:0:0:
342,331,140244,2,0,P|370:330|399:313,2,50,8|0|2,0:0|0:0|0:0,0:0:0:0:
256,361,140803,1,10,0:0:0:0:
190,299,141082,6,0,P|129:313|52:278,2,150,4|2|10,0:2|0:0|0:0,0:0:0:0:
205,210,142198,1,2,0:0:0:0:
226,122,142477,2,0,L|239:59,2,50,8|0|2,0:0|0:0|0:0,0:0:0:0:
369,271,143314,6,0,L|487:245,1,115.000002193451,0|8,0:0|0:0,0:0:0:0:
414,171,143872,2,0,B|302:195|302:195|273:248,1,172.500003290176,2|2,0:0|0:0,0:0:0:0:
216,332,144570,2,0,P|163:363|65:318,1,172.500003290176,2|2,0:0|0:0,0:0:0:0:
22,228,145268,1,10,0:0:0:0:
85,146,145547,6,0,L|67:23,1,115.000002193451,4|8,0:0|0:0,0:0:0:0:
166,64,146105,2,0,L|194:237,1,172.500003290176,2|2,0:0|0:0,0:0:0:0:
228,332,146803,2,0,P|280:358|405:327,1,172.500003290176,2|2,0:0|0:0,0:0:0:0:
470,274,147500,1,10,0:0:0:0:
441,174,147779,6,0,B|424:115|424:115|450:66,1,115.000002193451,4|8,0:0|0:0,0:0:0:0:
353,27,148337,2,0,B|319:106|319:106|341:190,1,172.500003290176,2|2,0:0|0:0,0:0:0:0:
269,264,149035,2,0,L|227:93,1,172.500003290176,2|2,0:0|0:0,0:0:0:0:
139,41,149733,1,10,0:0:0:0:
58,106,150012,6,0,P|33:166|48:217,1,115.000002193451,4|8,0:0|0:0,0:0:0:0:
105,296,150570,2,0,B|161:305|161:305|193:355|193:355|258:369,2,172.500003290176,2|2|0,0:0|0:0|0:0,0:0:0:0:
153,204,151686,2,0,L|221:216,2,57.5000010967255,10|10|10,0:0|0:0|0:0,0:0:0:0:
53,158,152244,6,0,P|38:102|67:51,1,119.999996337891,6|10,0:0|0:0,0:0:0:0:
174,34,152803,2,0,B|290:71|290:71|363:41,1,179.999994506836,0|2,0:0|0:0,0:0:0:0:
450,33,153500,2,0,B|413:149|413:149|443:222,1,179.999994506836,0|2,0:0|0:0,0:0:0:0:
494,293,154198,1,8,0:0:0:0:
408,358,154477,6,0,P|343:364|294:331,1,119.999996337891,6|10,0:0|0:0,0:0:0:0:
237,247,155035,2,0,B|241:191|241:191|271:138|271:138|275:74,1,179.999994506836,0|0,0:0|0:0,0:0:0:0:
170,45,155733,2,0,B|166:101|166:101|136:154|136:154|129:218,1,179.999994506836,0|2,0:0|0:0,0:0:0:0:
161,319,156430,1,10,0:0:0:0:
259,363,156710,6,0,P|316:338|339:280,1,119.999996337891,6|10,0:0|0:0,0:0:0:0:
295,188,157268,2,0,P|283:104|367:34,1,179.999994506836,0|0,0:0|0:0,0:0:0:0:
448,68,157965,2,0,L|476:251,1,179.999994506836,0|2,0:0|0:0,0:0:0:0:
420,339,158663,1,8,0:0:0:0:
317,304,158942,6,0,B|268:272|268:272|257:209,1,119.999996337891,6|10,0:0|0:0,0:0:0:0:
154,186,159500,2,0,L|180:375,2,179.999994506836,0|0|10,0:0|0:0|0:0,0:0:0:0:
59,238,160617,2,0,L|70:316,2,59.9999981689454,2|2|2,0:2|0:2|0:0,0:0:0:0:
72,149,161175,6,0,P|70:89|-4:32,2,150,4|2|10,0:2|0:0|0:0,0:0:0:0:
154,185,162291,1,2,0:0:0:0:
210,114,162570,2,0,L|211:57,2,50,8|0|2,0:0|0:0|0:0,0:0:0:0:
281,167,163128,1,10,0:0:0:0:
349,225,163407,2,0,B|343:327|343:327|310:365,2,150,4|2|10,0:2|0:0|0:0,0:0:0:0:
406,155,164524,5,2,0:0:0:0:
361,76,164803,2,0,L|366:6,2,50,8|0|2,0:0|0:0|0:0,0:0:0:0:
304,146,165361,1,10,0:0:0:0:
233,90,165640,6,0,P|179:65|82:77,2,150,4|2|10,0:2|0:0|0:0,0:0:0:0:
220,179,166756,1,2,0:0:0:0:
205,267,167035,2,0,L|196:320,2,50,8|0|2,0:0|0:0|0:0,0:0:0:0:
287,231,167593,1,10,0:0:0:0:
366,272,167872,6,0,L|504:355,2,150,4|2|10,0:2|0:0|0:0,0:0:0:0:
405,190,168989,1,2,0:0:0:0:
366,112,169268,2,0,L|408:86,2,50,8|0|2,0:0|0:0|0:0,0:0:0:0:
282,144,169826,1,10,0:0:0:0:
256,192,170105,12,0,171779,0:0:0:0:
