osu file format v14

[General]
AudioFilename: audio.mp3
AudioLeadIn: 0
PreviewTime: 107524
Countdown: 0
SampleSet: Soft
StackLeniency: 0.7
Mode: 0
LetterboxInBreaks: 0
WidescreenStoryboard: 0

[Editor]
DistanceSpacing: 1.1
BeatDivisor: 4
GridSize: 4
TimelineZoom: 1.6

[Metadata]
Title:A Bunch Of Samples Played Consecutively
TitleUnicode:A Bunch Of Samples Played Consecutively
Artist:NegaRen
ArtistUnicode:NegaRen
Creator:Mao
Version:Is It Halloween Yet?
Source:
Tags:LAPFOX TRAX Breaking Boundaries Dave Remmler Renard Desperate-kun vipto
BeatmapID:1025871
BeatmapSetID:480553

[Difficulty]
HPDrainRate:7
CircleSize:4.2
OverallDifficulty:8
ApproachRate:9
SliderMultiplier:2.02
SliderTickRate:1

[Events]
//Background and Video events
0,0,"bg.jpg",0,0
//Break Periods
2,54211,62342
2,125654,133784
//Storyboard Layer 0 (Background)
//Storyboard Layer 1 (Fail)
//Storyboard Layer 2 (Pass)
//Storyboard Layer 3 (Foreground)
//Storyboard Sound Samples

[TimingPoints]
431,279.06976744186,4,1,0,80,1,0
18291,-111.111111111111,4,2,0,60,0,0
35593,-90.9090909090909,4,2,0,60,0,0
36151,-74.0740740740741,4,1,0,100,0,0
62942,-86.9565217391304,4,1,0,80,0,0
69361,-66.6666666666667,4,1,0,80,0,0
69640,-86.9565217391304,4,1,0,80,0,0
71314,-66.6666666666667,4,1,0,80,0,0
71872,-74.0740740740741,4,1,0,100,0,0
89175,-66.6666666666667,4,1,0,100,0,0
89733,-111.111111111111,4,2,0,60,0,0
98524,-111.111111111111,4,2,0,50,0,0
98663,-100,4,2,0,70,0,0
107593,-90.9090909090909,4,1,0,80,0,0
143314,-74.0740740740741,4,1,0,100,0,0
152244,-74.0740740740741,4,1,0,100,0,0
160896,-100,4,1,0,100,0,0
161175,-100,4,1,0,80,0,0
170244,-100,4,2,0,5,0,0

[Colours]
Combo1 : 245,221,50
Combo2 : 116,244,0
Combo3 : 247,68,9
Combo4 : 219,36,215
SliderBorder : 253,126,0
SliderTrackOverride : 71,14,13

[HitObjects]
136,360,9361,6,0,L|145:259,1,101,6|0,0:2|0:0,0:0:0:0:
213,184,9640,1,8,0:0:0:0:
263,271,9779,2,0,P|324:317|437:284,1,202,2|0,0:0|0:0,0:0:0:0:
462,186,10198,1,10,0:0:0:0:
488,88,10337,1,0,0:0:0:0:
314,143,10477,6,0,P|259:117|240:80,1,101,2|0,0:0|0:0,0:0:0:0:
159,22,10756,1,8,0:0:0:0:
66,64,10896,1,0,0:0:0:0:
142,129,11035,2,0,L|159:238,1,101,2|0,0:0|0:0,0:0:0:0:
56,235,11314,2,0,L|39:344,1,101,10|0,0:0|0:0,0:0:0:0:
229,375,11593,6,0,P|266:352|290:297,1,101,6|0,0:2|0:0,0:0:0:0:
256,205,11872,1,8,0:0:0:0:
342,152,12012,2,0,L|380:360,1,202,2|0,0:0|0:0,0:0:0:0:
474,379,12430,1,10,0:0:0:0:
501,281,12570,1,0,0:0:0:0:
491,67,12710,6,0,B|452:99|452:99|401:95,1,101,2|0,0:0|0:0,0:0:0:0:
318,37,12989,1,8,0:0:0:0:
229,84,13128,1,0,0:0:0:0:
223,185,13268,2,0,L|241:293,1,101,2|0,0:0|0:0,0:0:0:0:
128,275,13547,2,0,L|110:383,1,101,10|0,0:0|0:0,0:0:0:0:
14,160,13826,6,0,P|66:159|102:118,1,101,6|0,0:2|0:0,0:0:0:0:
135,34,14105,1,8,0:0:0:0:
219,89,14244,2,0,B|308:136|308:136|406:83,1,202,2|0,0:0|0:0,0:0:0:0:
482,33,14663,1,10,0:0:0:0:
492,133,14803,1,0,0:0:0:0:
390,269,14942,6,0,L|371:373,1,101,2|0,0:0|0:0,0:0:0:0:
276,334,15221,1,8,0:0:0:0:
292,234,15361,1,0,0:0:0:0:
196,264,15500,2,0,B|186:213|186:213|203:167,1,101,2|0,0:0|0:0,0:0:0:0:
116,75,15779,2,0,B|126:126|126:126|108:171,1,101,10|0,0:0|0:0,0:0:0:0:
51,369,16058,6,0,P|103:336|149:350,1,101,6|0,0:2|0:0,0:0:0:0:
196,264,16337,1,8,0:0:0:0:
282,321,16477,2,0,P|343:348|450:282,1,202,2|0,0:0|0:0,0:0:0:0:
382,207,16896,1,10,0:0:0:0:
314,132,17035,1,0,0:0:0:0:
488,43,17175,6,0,L|472:149,1,101,2|0,0:0|0:0,0:0:0:0:
382,207,17454,1,8,0:0:0:0:
382,207,17593,1,0,0:0:0:0:
314,132,17733,2,0,B|244:145|244:145|209:193|209:193|138:206,1,202,2|8,0:0|0:0,0:0:0:0:
137,204,18291,6,0,P|186:230|178:364,1,181.799994451904,4|0,0:0|0:0,0:0:0:0:
95,367,18710,1,0,0:0:0:0:
29,286,18849,2,0,L|16:77,1,181.799994451904,2|0,0:0|0:0,0:0:0:0:
256,24,19407,2,0,L|256:236,1,181.799994451904,2|0,0:0|0:0,0:0:0:0:
483,286,19965,1,2,0:0:0:0:
509,198,20105,1,0,0:0:0:0:
433,146,20244,1,0,0:0:0:0:
360,202,20384,1,0,0:0:0:0:
390,288,20524,1,2,0:0:0:0:
218,348,20803,5,0,0:0:0:0:
142,297,20942,1,0,0:0:0:0:
223,256,21082,1,2,0:0:0:0:
219,241,21361,1,0,0:0:0:0:
213,224,21640,1,2,0:0:0:0:
184,127,21779,1,0,0:0:0:0:
281,98,21919,1,0,0:0:0:0:
310,195,22058,1,0,0:0:0:0:
349,309,22198,5,2,0:0:0:0:
453,358,22337,1,0,0:0:0:0:
503,253,22476,1,0,0:0:0:0:
399,203,22616,1,0,0:0:0:0:
336,321,22756,5,2,0:0:0:0:
240,355,22896,1,0,0:0:0:0:
144,322,23035,1,0,0:0:0:0:
97,231,23175,1,0,0:0:0:0:
121,133,23314,1,2,0:0:0:0:
140,139,23593,1,0,0:0:0:0:
267,237,23733,1,0,0:0:0:0:
291,230,23803,1,0,0:0:0:0:
316,223,23872,6,0,B|402:199|402:199|441:91,1,181.799994451904,2|0,0:0|0:0,0:0:0:0:
89,18,24430,1,2,0:0:0:0:
95,98,24569,1,0,0:0:0:0:
101,179,24709,1,0,0:0:0:0:
108,259,24848,1,0,0:0:0:0:
114,340,24989,6,0,P|150:354|258:269,1,181.799994451904,2|0,0:0|0:0,0:0:0:0:
250,181,25407,1,0,0:0:0:0:
305,97,25547,1,2,0:0:0:0:
412,88,25686,1,0,0:0:0:0:
495,142,25826,1,0,0:0:0:0:
501,241,25965,1,0,0:0:0:0:
495,260,26035,1,0,0:0:0:0:
488,279,26105,2,2,P|436:313|338:150,1,318.149990290833,2|0,0:0|0:0,0:0:0:0:
355,131,26663,2,2,B|283:135|240:91|240:91|240:120|240:120|187:71|128:94,1,272.699991677857,2|0,0:0|0:0,0:0:0:0:
37,136,27221,6,0,P|13:201|96:298,1,181.799994451904,4|0,0:0|0:0,0:0:0:0:
156,252,27640,1,0,0:0:0:0:
249,211,27779,2,0,P|319:276|300:371,1,181.799994451904,2|0,0:0|0:0,0:0:0:0:
503,82,28337,2,0,P|411:110|338:46,1,181.799994451904,2|0,0:0|0:0,0:0:0:0:
38,64,28896,1,2,0:0:0:0:
48,155,29036,1,0,0:0:0:0:
138,173,29175,1,0,0:0:0:0:
184,93,29315,1,0,0:0:0:0:
122,25,29455,1,2,0:0:0:0:
73,244,29733,5,0,0:0:0:0:
127,316,29872,1,0,0:0:0:0:
213,286,30012,1,2,0:0:0:0:
225,301,30291,1,0,0:0:0:0:
237,316,30570,1,2,0:0:0:0:
333,285,30710,1,0,0:0:0:0:
397,362,30849,1,0,0:0:0:0:
493,331,30989,1,0,0:0:0:0:
502,220,31128,5,2,0:0:0:0:
391,184,31268,1,0,0:0:0:0:
318,272,31407,1,0,0:0:0:0:
201,233,31547,1,0,0:0:0:0:
274,146,31686,5,2,0:0:0:0:
207,72,31825,1,0,0:0:0:0:
109,61,31965,1,0,0:0:0:0:
28,117,32104,1,0,0:0:0:0:
4,213,32244,1,2,0:0:0:0:
15,229,32524,1,0,0:0:0:0:
117,345,32663,1,0,0:0:0:0:
122,325,32733,1,0,0:0:0:0:
129,306,32803,6,0,B|213:269|213:269|283:331,1,181.799994451904,2|0,0:0|0:0,0:0:0:0:
501,189,33361,1,2,0:0:0:0:
429,244,33500,1,0,0:0:0:0:
342,215,33640,1,0,0:0:0:0:
310,129,33779,1,0,0:0:0:0:
352,48,33919,6,0,P|309:19|198:66,1,181.799994451904,2|0,0:0|0:0,0:0:0:0:
217,162,34337,1,0,0:0:0:0:
134,219,34477,1,2,0:0:0:0:
50,163,34617,1,0,0:0:0:0:
13,255,34756,1,0,0:0:0:0:
96,325,34896,1,0,0:0:0:0:
115,328,34965,1,0,0:0:0:0:
136,331,35035,2,2,P|244:345|285:170,1,318.149990290833,2|0,0:0|0:0,0:0:0:0:
276,193,35593,6,2,B|373:250|373:250|468:187,1,222.200006781006,2|8,0:1|0:0,0:1:0:0:
405,110,36012,1,8,0:0:0:0:
489,61,36151,6,0,P|439:23|359:27,1,136.350000520134,4|0,1:0|0:0,0:0:0:0:
278,108,36430,2,0,P|211:109|156:70,1,136.350000520134,10|0,1:0|0:0,0:0:0:0:
38,32,36710,1,2,0:0:0:0:
67,150,36849,1,2,0:0:0:0:
19,263,36989,1,10,0:0:0:0:
100,354,37128,6,0,P|153:358|190:183,1,272.700001040268,2|2,0:0|0:0,0:0:0:0:
163,56,37547,1,8,0:0:0:0:
182,60,37617,1,0,0:0:0:0:
201,64,37686,1,0,0:0:0:0:
220,68,37756,1,0,0:0:0:0:
239,72,37826,1,2,0:0:0:0:
358,97,37965,1,2,0:0:0:0:
457,24,38105,2,0,L|448:165,1,136.350000520134,10|0,0:0|0:0,0:0:0:0:
430,361,38384,6,0,P|385:304|324:298,1,136.350000520134,4|0,1:0|0:0,0:0:0:0:
216,355,38663,2,0,P|121:368|43:224,1,272.700001040268,10|2,0:0|0:0,0:0:0:0:
138,181,39082,1,2,0:0:0:0:
230,238,39221,1,10,0:0:0:0:
325,297,39361,6,0,P|420:310|498:166,1,272.700001040268,2|2,0:0|0:0,0:0:0:0:
413,108,39779,1,8,0:0:0:0:
392,112,39849,1,0,0:0:0:0:
371,116,39919,1,0,0:0:0:0:
351,108,39989,1,0,0:0:0:0:
332,101,40058,1,2,0:0:0:0:
180,101,40198,1,2,0:0:0:0:
256,24,40337,2,0,L|256:176,1,136.350000520134,2|0,0:0|0:0,0:0:0:0:
256,364,40617,5,4,0:0:0:0:
363,377,40756,1,0,0:0:0:0:
453,314,40896,2,0,P|485:251|464:189,1,136.350000520134,10|0,0:0|0:0,0:0:0:0:
360,219,41175,1,2,0:0:0:0:
255,247,41314,1,2,0:0:0:0:
149,275,41454,1,10,0:0:0:0:
44,303,41593,6,0,P|12:240|120:94,1,272.700001040268,2|2,0:0|0:0,0:0:0:0:
182,182,42012,1,8,0:0:0:0:
181,202,42082,1,0,0:0:0:0:
181,222,42151,1,0,0:0:0:0:
181,242,42221,1,0,0:0:0:0:
181,262,42291,1,2,0:0:0:0:
288,292,42430,1,2,0:0:0:0:
310,184,42570,2,0,B|308:117|308:117|254:64,1,136.350000520134,10|0,0:0|0:0,0:0:0:0:
464,35,42849,6,0,L|466:173,1,136.350000520134,4|0,0:0|0:0,0:0:0:0:
471,280,43128,2,0,P|434:352|288:288,1,272.700001040268,10|2,0:0|0:0,0:0:0:0:
309,184,43547,1,2,0:0:0:0:
203,200,43686,1,10,0:0:0:0:
223,91,43826,6,0,P|126:14|41:104,1,272.700001040268,2|2,0:0|0:0,0:0:0:0:
25,212,44244,1,0,0:0:0:0:
36,228,44314,1,0,0:0:0:0:
47,244,44384,1,0,0:0:0:0:
58,260,44454,1,0,0:0:0:0:
69,276,44524,1,8,0:0:0:0:
180,325,44663,1,8,0:0:0:0:
332,325,44803,1,8,0:0:0:0:
166,309,44942,1,8,0:0:0:0:
346,309,45082,5,4,0:0:0:0:
256,228,45221,1,0,0:0:0:0:
368,176,45361,2,0,P|420:200|496:172,1,136.350000520134,10|0,0:0|0:0,0:0:0:0:
496,52,45640,1,2,0:0:0:0:
372,52,45779,1,2,0:0:0:0:
256,96,45919,1,10,0:0:0:0:
140,45,46058,6,0,P|68:37|36:209,1,272.700001040268,2|2,0:0|0:0,0:0:0:0:
131,224,46477,1,8,0:0:0:0:
148,213,46546,1,0,0:0:0:0:
163,199,46616,1,0,0:0:0:0:
175,182,46686,1,0,0:0:0:0:
182,164,46756,1,2,0:0:0:0:
256,65,46896,1,2,0:0:0:0:
330,164,47035,2,0,P|370:218|446:236,1,136.350000520134,10|0,0:0|0:0,0:0:0:0:
457,0,47314,6,0,L|427:147,1,136.350000520134,4|0,0:0|0:0,0:0:0:0:
434,236,47593,1,10,0:0:0:0:
446,346,47733,1,0,0:0:0:0:
342,379,47872,1,2,0:0:0:0:
265,301,48012,1,2,0:0:0:0:
330,214,48151,1,10,0:0:0:0:
320,105,48291,6,0,P|259:32|101:69,1,272.700001040268,2|2,0:0|0:0,0:0:0:0:
30,150,48710,1,8,0:0:0:0:
27,170,48779,1,0,0:0:0:0:
24,190,48849,1,0,0:0:0:0:
22,210,48919,1,0,0:0:0:0:
20,230,48989,1,2,0:0:0:0:
67,327,49128,1,2,0:0:0:0:
173,299,49268,2,0,P|238:292|289:335,1,136.350000520134,10|0,0:0|0:0,0:0:0:0:
486,266,49547,6,0,P|420:273|369:230,1,136.350000520134,4|0,0:0|0:0,0:0:0:0:
407,127,49826,1,10,0:0:0:0:
329,51,49965,1,0,0:0:0:0:
221,71,50105,1,2,0:0:0:0:
201,177,50244,1,2,0:0:0:0:
182,284,50384,1,10,0:0:0:0:
79,321,50524,6,0,P|17:275|111:135,1,272.700001040268,2|2,0:0|0:0,0:0:0:0:
197,173,50942,1,8,0:0:0:0:
216,180,51012,1,0,0:0:0:0:
235,187,51082,1,0,0:0:0:0:
255,185,51151,1,0,0:0:0:0:
275,183,51221,1,2,0:0:0:0:
382,164,51361,1,2,0:0:0:0:
489,145,51500,2,0,B|503:76|503:76|470:15,1,136.350000520134,10|0,0:0|0:0,0:0:0:0:
391,181,51779,6,0,P|414:229|503:252,1,136.350000520134,4|0,0:0|0:0,0:0:0:0:
474,362,52058,2,0,P|350:313|292:191,1,272.700001040268,10|2,0:0|0:0,0:0:0:0:
333,93,52477,1,2,0:0:0:0:
256,14,52617,1,10,0:0:0:0:
179,93,52756,6,0,P|137:63|48:79,1,136.350000520134,2|0,0:0|0:0,0:0:0:0:
70,181,53035,1,2,0:0:0:0:
85,289,53175,1,8,0:0:0:0:
178,345,53314,1,0,0:0:0:0:
242,256,53454,1,6,0:3:0:0:
262,228,53523,1,4,0:3:0:0:
292,214,53593,1,6,0:3:0:0:
326,216,53663,1,4,0:3:0:0:
355,234,53733,1,6,0:3:0:0:
384,252,53802,1,4,0:3:0:0:
418,254,53872,1,4,0:3:0:0:
448,239,53942,1,4,0:3:0:0:
469,212,54011,1,4,0:0:0:0:
492,279,62942,6,0,B|454:311|405:298|405:298|381:336|381:336|335:311|283:317,1,232.300004430771,4|0,0:0|0:0,0:0:0:0:
192,356,63361,1,0,0:0:0:0:
93,322,63500,1,8,0:0:0:0:
49,226,63640,1,8,0:0:0:0:
83,127,63779,1,8,0:0:0:0:
226,175,63919,5,2,0:3:0:0:
101,144,64058,1,2,0:3:0:0:
201,181,64198,1,2,0:3:0:0:
263,97,64337,1,4,0:3:0:0:
363,134,64477,1,4,0:3:0:0:
471,46,64617,6,0,B|465:85|465:85|482:117|482:117|475:160,1,116.150002215385,2|2,0:0|0:3,0:0:0:0:
397,227,64896,2,0,B|403:266|403:266|386:298|386:298|393:341,1,116.150002215385,2|2,0:0|0:3,0:0:0:0:
254,377,65175,6,2,B|248:331|248:331|269:310|269:310|252:280|252:280|278:222|278:222|260:162,1,232.300004430771,6|0,0:0|0:0,0:0:0:0:
220,70,65593,1,8,0:0:0:0:
127,118,65733,1,8,0:0:0:0:
9,33,65872,1,8,0:0:0:0:
113,97,66012,5,2,0:3:0:0:
17,54,66151,1,2,0:3:0:0:
33,157,66291,1,2,0:3:0:0:
154,201,66430,6,0,P|196:170|207:100,1,116.150002215385,2|2,0:0|0:0,0:0:0:0:
292,45,66710,1,0,0:0:0:0:
292,45,66849,1,0,0:0:0:0:
303,149,66989,1,0,0:0:0:0:
390,206,67128,1,2,0:2:0:0:
485,163,67268,1,2,0:2:0:0:
510,62,67407,1,4,0:2:0:0:
288,263,67686,5,2,0:2:0:0:
296,284,67826,1,2,0:2:0:0:
304,305,67965,1,2,0:2:0:0:
220,368,68105,1,0,0:0:0:0:
134,307,68244,1,0,0:0:0:0:
48,245,68384,2,2,B|30:187|30:187|82:153|82:153|32:114|41:47,1,232.300004430771,4|0,0:2|0:0,0:1:0:0:
142,68,68803,5,4,0:2:0:0:
240,34,68942,1,0,0:0:0:0:
286,127,69082,1,0,0:0:0:0:
327,222,69221,1,2,0:2:0:0:
425,188,69361,6,2,P|436:124|373:77,1,151.500005779267,2|0,0:0|0:0,0:0:0:0:
286,127,69640,6,0,L|260:362,1,232.300004430771,4|0,0:2|0:0,0:0:0:0:
158,377,70058,1,2,0:0:0:0:
79,307,70198,1,2,0:2:0:0:
171,259,70337,1,0,0:0:0:0:
137,158,70477,1,0,0:0:0:0:
241,163,70616,1,0,0:0:0:0:
262,58,70756,1,0,0:0:0:0:
349,114,70896,1,2,0:0:0:0:
420,34,71035,2,0,P|452:82|447:148,1,116.150002215385,2|0,0:0|0:0,0:0:0:0:
377,209,71314,6,0,L|354:359,2,151.500005779267,0|8|4,0:0|0:0|0:0,0:0:0:0:
241,32,71872,6,0,P|196:84|124:82,1,136.350000520134,4|0,0:0|0:0,0:0:0:0:
32,40,72151,1,10,0:0:0:0:
32,40,72291,1,0,0:0:0:0:
52,183,72430,5,8,0:0:0:0:
44,62,72570,1,8,0:0:0:0:
65,207,72710,1,8,0:0:0:0:
225,189,72849,1,2,3:0:0:0:
64,235,72989,5,6,3:0:0:0:
238,209,73128,1,2,3:0:0:0:
135,143,73268,2,0,L|158:282,1,136.350000520134,8|0,0:0|0:0,0:0:0:0:
256,324,73547,1,2,3:0:0:0:
256,324,73686,1,2,3:0:0:0:
354,277,73826,2,0,L|377:143,1,136.350000520134,8|0,0:0|0:0,0:0:0:0:
442,286,74105,6,0,P|412:353|339:365,1,136.350000520134,6|0,0:0|0:0,0:0:0:0:
255,325,74384,1,8,0:0:0:0:
255,325,74524,1,0,0:0:0:0:
156,368,74663,1,2,0:0:0:0:
54,328,74803,1,2,0:0:0:0:
97,228,74942,1,8,0:0:0:0:
140,127,75082,1,0,0:0:0:0:
49,66,75221,6,2,B|59:100|59:100|52:133|52:133|60:206|150:247|209:185,1,272.700001040268,2|8,0:0|0:0,0:0:0:0:
269,99,75640,1,0,0:0:0:0:
362,154,75779,5,0,0:0:0:0:
357,44,75919,1,0,0:3:0:0:
456,206,76058,5,10,0:0:0:0:
451,96,76198,1,2,3:0:0:0:
371,248,76337,6,0,P|290:293|164:175,1,272.700001040268,4|8,0:0|0:0,0:0:0:0:
217,96,76756,1,0,0:0:0:0:
138,19,76896,2,0,B|87:26|87:26|57:58|57:58|17:62,1,136.350000520134,2|0,0:0|0:0,0:0:0:0:
74,154,77175,2,0,B|42:195|42:195|44:238|44:238|18:269,1,136.350000520134,10|0,0:0|0:0,0:0:0:0:
191,360,77454,6,0,B|222:318|222:318|220:275|220:275|246:244,1,136.350000520134
261,229,77663,1,0,0:0:0:0:
275,214,77733,1,8,0:0:0:0:
307,110,77872,1,0,0:0:0:0:
414,128,78012,2,2,B|469:173|469:173|441:230|441:230|376:252|376:252|341:314,1,272.700001040268,2|10,0:0|0:0,0:0:0:0:
256,379,78430,1,0,0:0:0:0:
170,312,78570,2,2,B|136:252|136:252|71:230|71:230|42:173|42:173|98:128,1,272.700001040268,2|14,0:0|0:0,0:0:0:0:
199,170,78989,5,0,0:0:0:0:
269,87,79128,1,2,0:0:0:0:
269,87,79268,1,0,0:0:0:0:
363,140,79407,1,10,0:0:0:0:
363,140,79547,1,2,0:0:0:0:
485,13,79686,6,0,P|507:78|474:133,1,136.350000520134,0|2,0:0|0:0,0:0:0:0:
363,140,79965,2,0,P|340:202|373:259,1,136.350000520134,8|0,0:0|0:0,0:0:0:0:
475,298,80244,5,2,3:0:0:0:
459,336,80384,1,2,3:0:0:0:
422,353,80524,1,8,3:1:0:0:
407,359,80803,6,0,L|257:359,1,136.350000520134,4|0,1:0|0:0,0:0:0:0:
161,361,81082,1,8,0:0:0:0:
161,361,81221,1,0,0:0:0:0:
214,212,81361,5,8,0:0:0:0:
150,339,81500,1,8,0:0:0:0:
199,187,81640,1,8,0:0:0:0:
30,224,81779,1,2,3:0:0:0:
204,156,81919,5,6,3:0:0:0:
11,200,82058,1,2,3:0:0:0:
125,257,82198,2,0,L|89:120,1,136.350000520134,8|0,0:0|0:0,0:0:0:0:
172,52,82477,1,2,3:0:0:0:
172,52,82617,1,2,3:0:0:0:
272,92,82756,1,8,0:0:0:0:
272,92,82896,1,2,3:0:0:0:
447,24,83035,6,0,P|395:65|399:139,1,136.350000520134,6|0,0:0|0:0,0:0:0:0:
482,195,83314,1,8,0:0:0:0:
482,195,83454,1,2,0:0:0:0:
462,301,83593,1,2,0:0:0:0:
365,353,83733,1,0,0:0:0:0:
264,311,83872,1,8,0:0:0:0:
229,207,84012,1,0,0:0:0:0:
333,235,84151,6,2,B|214:220|265:308|148:291|148:291|105:285|79:319,1,272.700001040268,2|10,0:0|0:0,0:0:0:0:
19,224,84570,1,0,0:0:0:0:
113,169,84710,5,0,0:0:0:0:
51,79,84849,1,0,0:0:0:0:
208,116,84989,5,10,0:0:0:0:
189,8,85128,1,2,0:0:0:0:
317,59,85268,6,2,P|308:144|466:214,1,272.700001040268,6|8,0:0|0:0,0:0:0:0:
502,316,85686,1,0,0:0:0:0:
392,319,85826,2,0,B|341:326|341:326|311:358|311:358|271:362,1,136.350000520134,2|0,0:0|0:0,0:0:0:0:
247,255,86105,2,0,B|196:262|196:262|166:294|166:294|126:298,1,136.350000520134,10|4,0:0|0:2,0:0:0:0:
11,117,86384,6,0,P|53:164|121:157,1,136.350000520134,0|4,0:0|0:2,0:0:0:0:
133,140,86593,1,0,0:0:0:0:
145,123,86663,1,8,0:0:0:0:
209,34,86803,1,0,0:0:0:0:
256,131,86942,1,0,0:0:0:0:
303,34,87082,1,0,0:0:0:0:
367,123,87221,2,2,B|425:86|425:86|488:113|488:113|507:180|507:180|461:235,1,272.700001040268,2|0,0:0|0:0,0:0:0:0:
393,313,87640,5,0,0:0:0:0:
308,244,87779,1,0,0:0:0:0:
256,339,87919,1,2,0:0:0:0:
204,244,88058,1,0,0:0:0:0:
119,313,88197,1,2,0:0:0:0:
48,229,88337,1,2,0:0:0:0:
133,160,88477,1,0,0:0:0:0:
23,33,88617,6,0,B|74:40|74:40|104:72|104:72|144:76,1,136.350000520134,2|0,0:0|0:0,0:0:0:0:
243,29,88896,2,0,B|294:36|294:36|324:68|324:68|364:72,1,136.350000520134,2|0,0:0|0:0,0:0:0:0:
468,23,89175,6,0,P|478:72|428:160,2,151.500005779267,0|8|4,0:0|0:0|1:0,0:0:0:0:
321,171,89733,6,0,P|340:227|457:266,1,181.799994451904,4|0,0:0|0:0,0:0:0:0:
498,354,90151,1,0,0:0:0:0:
398,363,90291,2,0,L|210:343,1,181.799994451904,2|0,0:0|0:0,0:0:0:0:
51,139,90849,2,0,L|239:159,1,181.799994451904,2|0,0:0|0:0,0:0:0:0:
454,57,91407,1,2,0:0:0:0:
465,147,91547,1,0,0:0:0:0:
382,187,91686,1,0,0:0:0:0:
319,120,91826,1,0,0:0:0:0:
362,40,91966,1,2,0:0:0:0:
469,277,92244,5,0,0:0:0:0:
411,359,92384,1,0,0:0:0:0:
323,309,92524,1,2,0:0:0:0:
312,294,92803,1,0,0:0:0:0:
301,276,93082,1,2,0:0:0:0:
218,242,93221,1,0,0:0:0:0:
135,273,93361,1,0,0:0:0:0:
93,351,93500,1,0,0:0:0:0:
211,362,93640,5,2,0:0:0:0:
213,272,93779,1,0,0:0:0:0:
171,193,93919,1,0,0:0:0:0:
94,145,94058,1,0,0:0:0:0:
93,17,94198,5,2,0:0:0:0:
163,86,94337,1,0,0:0:0:0:
256,121,94477,1,0,0:0:0:0:
349,86,94617,1,0,0:0:0:0:
419,17,94756,1,2,0:0:0:0:
427,32,95035,1,0,0:0:0:0:
493,163,95174,1,0,0:0:0:0:
490,181,95244,1,0,0:0:0:0:
487,199,95314,6,0,B|407:244|407:244|382:331,1,181.799994451904,2|0,0:0|0:0,0:0:0:0:
84,383,95872,1,2,0:0:0:0:
12,349,96011,1,0,0:0:0:0:
0,271,96151,1,0,0:0:0:0:
56,216,96290,1,0,0:0:0:0:
133,230,96430,6,0,P|153:257|290:247,1,181.799994451904
320,176,96850,1,2,0:0:0:0:
270,111,96989,1,2,0:0:0:0:
192,138,97129,1,0,0:0:0:0:
206,57,97268,1,0,0:0:0:0:
283,32,97407,1,0,0:0:0:0:
300,26,97477,1,0,0:0:0:0:
317,20,97547,2,2,P|380:21|436:231,1,318.149990290833,2|0,0:0|0:0,0:0:0:0:
430,238,98105,2,2,B|376:297|409:377|409:377|381:323|301:332,1,272.699991677857,2|4,0:0|0:0,0:0:0:0:
174,370,98663,6,0,P|114:372|72:341,1,101,4|0,0:0|0:0,0:0:0:0:
73,332,98872,1,0,0:0:0:0:
65,313,98942,1,8,0:0:0:0:
127,233,99082,1,0,0:0:0:0:
47,170,99221,2,0,P|15:119|21:67,1,101,2|0,0:0|0:0,0:0:0:0:
85,5,99500,2,0,P|117:56|111:108,1,101,8|0,0:0|0:0,0:0:0:0:
125,113,99710,1,0,0:0:0:0:
134,130,99779,6,0,L|235:143,1,101
325,97,100058,2,0,L|426:110,1,101,10|0,0:0|0:0,0:0:0:0:
510,228,100337,1,0,0:0:0:0:
480,324,100477,1,0,0:0:0:0:
386,362,100617,1,10,0:0:0:0:
289,335,100756,1,0,0:0:0:0:
252,240,100896,1,0,0:0:0:0:
31,75,101175,5,10,0:0:0:0:
14,175,101314,1,0,0:0:0:0:
112,145,101454,1,0,0:0:0:0:
128,133,101733,1,10,0:0:0:0:
144,121,102012,1,0,0:0:0:0:
229,68,102151,1,0,0:0:0:0:
313,123,102291,1,10,0:0:0:0:
398,70,102430,1,0,0:0:0:0:
471,171,102570,5,0,0:0:0:0:
466,279,102709,1,0,0:0:0:0:
390,356,102849,1,10,0:0:0:0:
282,362,102988,1,0,0:0:0:0:
323,270,103128,5,0,0:0:0:0:
276,179,103268,1,0,0:0:0:0:
175,175,103407,1,10,0:0:0:0:
106,250,103547,1,0,0:0:0:0:
133,346,103686,2,0,L|237:357,2,101,0|0|10,0:0|0:0|0:0,0:0:0:0:
9,249,104105,1,0,0:0:0:0:
11,228,104175,1,0,0:0:0:0:
13,206,104244,6,0,B|25:103|25:103|109:42,1,202,0|10,0:0|0:0,0:0:0:0:
204,1,104663,1,0,0:0:0:0:
211,19,104733,1,0,0:0:0:0:
218,37,104803,1,0,0:0:0:0:
300,94,104942,1,0,0:0:0:0:
218,153,105082,1,10,0:0:0:0:
300,210,105221,1,0,0:0:0:0:
213,262,105361,6,0,P|217:340|327:369,1,202,0|10,0:0|0:0,0:0:0:0:
411,324,105779,1,0,0:0:0:0:
430,330,105849,1,0,0:0:0:0:
448,337,105919,1,0,0:0:0:0:
467,238,106058,1,0,0:0:0:0:
487,138,106198,1,10,0:0:0:0:
503,38,106337,1,0,0:0:0:0:
484,32,106407,1,0,0:0:0:0:
465,26,106477,6,2,P|406:30|363:276,1,353.5,2|0,0:0|0:0,0:0:0:0:
366,276,107035,2,2,L|480:307,2,101,2|0|8,0:0|0:0|0:0,0:0:0:0:
137,344,107593,6,0,L|23:313,1,111.100003390503,6|0,0:0|0:0,0:0:0:0:
4,206,107872,1,2,0:0:0:0:
72,118,108012,1,0,1:0:0:0:
64,97,108082,1,0,0:0:0:0:
56,76,108151,1,10,0:0:0:0:
149,14,108291,2,0,L|184:121,1,111.100003390503,2|0,0:0|1:0,0:0:0:0:
294,122,108570,2,0,L|259:229,1,111.100003390503,2|4,0:0|0:3,0:0:0:0:
163,284,108849,5,0,0:0:0:0:
244,359,108989,1,2,0:0:0:0:
354,361,109128,1,0,1:0:0:0:
442,293,109268,1,10,0:0:0:0:
442,293,109407,2,0,L|481:177,2,111.100003390503,0|0|0,0:0|1:0|0:0,0:0:0:0:
354,361,109826,6,0,P|287:364|255:228,1,222.200006781006,4|2,1:0|0:0,0:0:0:0:
333,166,110244,1,0,1:0:0:0:
283,66,110384,1,10,0:0:0:0:
175,35,110524,2,0,L|53:38,2,111.100003390503,2|0|2,0:0|1:0|0:0,0:0:0:0:
199,143,110942,1,4,0:3:0:0:
226,251,111082,1,0,0:0:0:0:
118,278,111221,1,2,0:0:0:0:
91,170,111361,1,0,1:0:0:0:
216,155,111500,5,10,0:0:0:0:
340,186,111640,1,0,0:0:0:0:
371,62,111780,1,2,1:2:0:0:
246,31,111919,1,0,0:0:0:0:
201,167,112058,5,4,1:0:0:0:
222,274,112197,1,0,0:0:0:0:
303,347,112337,1,2,0:0:0:0:
412,360,112476,1,0,1:0:0:0:
507,306,112617,2,0,L|491:73,1,222.200006781006,10|0,0:0|1:0,0:0:0:0:
392,36,113035,1,2,0:0:0:0:
387,57,113105,1,0,0:0:0:0:
381,78,113175,6,0,P|344:125|290:135,1,111.100003390503,4|0,0:3|0:0,0:0:0:0:
193,92,113454,2,0,P|160:48|108:34,1,111.100003390503,2|0,0:0|1:0,0:0:0:0:
14,95,113733,1,10,0:0:0:0:
34,203,113872,1,0,0:0:0:0:
54,312,114012,1,0,1:0:0:0:
165,319,114152,1,0,0:0:0:0:
275,326,114291,6,0,L|392:331,1,111.100003390503,4|0,1:0|0:0,0:0:0:0:
364,221,114570,2,0,L|467:166,1,111.100003390503,2|0,0:0|1:0,0:0:0:0:
456,58,114849,1,10,0:0:0:0:
354,12,114989,1,2,0:0:0:0:
259,69,115128,1,0,1:0:0:0:
260,180,115268,1,2,0:0:0:0:
262,201,115337,1,0,0:0:0:0:
263,223,115407,6,2,P|238:304|29:293,1,333.300010171509,4|0,0:3|1:0,0:0:0:0:
28,181,115965,2,0,P|62:163|133:182,1,111.100003390503,14|0,0:0|0:0,0:0:0:0:
211,103,116244,2,0,P|187:53|137:32,1,111.100003390503,4|0,1:2|0:0,0:0:0:0:
374,32,116524,6,0,P|324:53|301:103,1,111.100003390503,4|0,1:0|0:0,0:0:0:0:
366,193,116803,1,2,0:0:0:0:
469,157,116942,1,0,1:0:0:0:
472,178,117012,1,0,0:0:0:0:
476,199,117082,1,10,0:0:0:0:
494,307,117221,2,0,P|444:340|396:330,1,111.100003390503,2|0,0:0|1:0,0:0:0:0:
293,352,117500,2,0,P|243:385|195:375,1,111.100003390503,2|4,0:0|0:3,0:0:0:0:
216,264,117779,5,0,0:0:0:0:
236,149,117919,1,2,0:0:0:0:
149,88,118058,1,0,1:0:0:0:
53,146,118198,1,10,0:0:0:0:
53,146,118337,2,0,L|32:264,2,111.100003390503,0|0|0,0:0|1:0|0:0,0:0:0:0:
148,87,118756,6,0,P|228:156|197:256,1,222.200006781006,4|2,1:0|0:0,0:0:0:0:
115,332,119175,1,0,1:0:0:0:
218,370,119314,1,10,0:0:0:0:
330,349,119454,2,0,L|439:367,2,111.100003390503,2|0|2,0:0|1:0|0:0,0:0:0:0:
258,264,119872,5,4,0:3:0:0:
231,159,120011,1,0,0:0:0:0:
294,73,120151,1,2,0:0:0:0:
402,67,120290,1,0,1:0:0:0:
360,170,120430,5,10,0:0:0:0:
289,85,120569,1,0,0:0:0:0:
184,58,120709,1,0,1:0:0:0:
83,100,120848,1,0,0:0:0:0:
25,211,120988,5,4,1:0:0:0:
85,304,121128,1,0,0:0:0:0:
190,269,121268,1,2,0:0:0:0:
253,359,121407,1,0,1:0:0:0:
359,326,121547,2,0,P|372:230|263:189,1,222.200006781006,10|0,0:0|1:0,0:0:0:0:
190,269,121965,1,2,0:0:0:0:
169,274,122035,1,0,0:0:0:0:
149,278,122105,6,0,L|59:351,1,111.100003390503,4|0,0:3|0:0,0:0:0:0:
66,226,122384,2,0,L|156:153,1,111.100003390503,2|0,0:0|1:0,0:0:0:0:
239,86,122663,1,10,0:0:0:0:
280,189,122803,1,0,0:0:0:0:
383,227,122942,1,0,1:0:0:0:
476,165,123082,1,0,0:0:0:0:
496,56,123221,6,0,L|501:291,1,222.200006781006,4|2,1:0|0:0,0:0:0:0:
421,356,123640,1,0,1:0:0:0:
312,375,123779,1,10,0:0:0:0:
256,278,123919,1,2,0:0:0:0:
200,375,124058,1,0,1:0:0:0:
91,356,124197,1,2,0:0:0:0:
80,335,124268,1,0,0:0:0:0:
70,315,124337,6,0,L|42:205,1,111.100003390503,4|0,0:3|0:0,0:0:0:0:
11,111,124617,1,2,0:0:0:0:
107,134,124756,1,0,1:0:0:0:
79,37,124896,1,10,0:0:0:0:
257,310,125175,1,2,0:0:0:0:
433,37,125454,1,4,1:0:0:0:
464,55,134384,6,0,L|450:175,1,111.100003390503,4|0,0:2|0:0,0:0:0:0:
449,187,134593,1,0,0:0:0:0:
447,209,134663,1,8,0:0:0:0:
432,319,134803,2,0,P|376:350|248:275,1,222.200006781006,2|0,0:0|0:0,0:0:0:0:
219,173,135221,1,10,0:0:0:0:
116,217,135361,1,0,0:0:0:0:
12,42,135500,6,0,P|45:93|108:105,1,111.100003390503,2|0,0:0|0:0,0:0:0:0:
192,60,135779,1,8,0:0:0:0:
288,97,135919,1,0,0:0:0:0:
377,32,136058,2,0,L|399:149,1,111.100003390503,2|0,0:0|0:0,0:0:0:0:
498,189,136337,2,0,L|476:306,1,111.100003390503,10|0,0:0|0:0,0:0:0:0:
296,380,136617,6,0,P|275:327|222:302,1,111.100003390503,4|0,0:2|0:0,0:0:0:0:
214,310,136826,1,0,0:0:0:0:
199,317,136896,1,8,0:0:0:0:
96,358,137035,2,0,P|38:332|45:189,1,222.200006781006,2|0,0:0|0:0,0:0:0:0:
149,220,137454,1,10,0:0:0:0:
184,115,137593,1,0,0:0:0:0:
359,41,137733,6,0,P|383:91|369:147,1,111.100003390503,2|0,0:0|0:0,0:0:0:0:
269,189,138012,1,8,0:0:0:0:
337,275,138151,1,0,0:0:0:0:
358,269,138221,1,0,0:0:0:0:
380,262,138291,2,0,L|493:226,1,111.100003390503,2|0,0:0|0:0,0:0:0:0:
444,336,138570,2,0,L|331:372,1,111.100003390503,10|0,0:0|0:0,0:0:0:0:
194,226,138849,6,0,P|193:162|231:119,1,111.100003390503,4|0,0:2|0:0,0:0:0:0:
239,115,139058,1,0,0:0:0:0:
258,104,139128,1,8,0:0:0:0:
185,19,139268,2,0,P|124:70|87:212,1,222.200006781006,2|0,0:0|0:0,0:0:0:0:
121,307,139686,1,10,0:0:0:0:
194,226,139826,1,0,0:0:0:0:
264,361,139965,6,0,P|327:371|368:349,1,111.100003390503,2|0,0:0|0:0,0:0:0:0:
434,260,140244,1,8,0:0:0:0:
361,174,140384,1,0,0:0:0:0:
369,159,140454,1,0,0:0:0:0:
378,145,140524,2,0,B|401:97|401:97|384:34,1,111.100003390503,2|0,0:0|0:0,0:0:0:0:
285,89,140803,2,0,B|262:137|262:137|279:200,1,111.100003390503,10|0,0:0|0:0,0:0:0:0:
148,374,141082,6,0,L|116:263,1,111.100003390503,4|0,0:2|0:0,0:0:0:0:
111,245,141291,1,0,0:0:0:0:
105,223,141361,1,8,0:0:0:0:
79,115,141500,2,0,P|97:58|246:34,1,222.200006781006,2|0,0:0|0:0,0:0:0:0:
330,94,141919,1,10,0:0:0:0:
424,36,142058,1,0,0:0:0:0:
484,221,142198,6,0,P|476:279|433:311,1,111.100003390503,2|0,0:0|0:0,0:0:0:0:
340,366,142477,1,8,0:0:0:0:
258,295,142617,1,0,0:0:0:0:
261,273,142686,1,0,0:0:0:0:
265,251,142756,2,0,L|284:131,2,111.100003390503,2|0|8,0:0|0:0|0:0,0:0:0:0:
52,374,143314,6,0,P|101:315|79:255,1,136.350000520134
18,160,143593,2,0,P|6:95|52:49,1,136.350000520134,8|0,0:0|0:0,0:0:0:0:
172,21,143872,1,2,0:0:0:0:
196,141,144012,1,2,0:0:0:0:
220,260,144151,1,10,0:0:0:0:
322,327,144291,6,0,P|393:331|486:177,1,272.700001040268,2|2,0:0|0:0,0:0:0:0:
419,73,144710,1,8,0:0:0:0:
401,82,144779,1,0,0:0:0:0:
383,92,144849,1,0,0:0:0:0:
365,102,144919,1,0,0:0:0:0:
347,112,144989,1,2,0:0:0:0:
165,112,145128,1,2,0:0:0:0:
256,32,145268,2,0,L|256:168,1,136.350000520134,10|0,0:0|0:0,0:0:0:0:
256,352,145547,5,4,0:0:0:0:
375,377,145686,1,0,0:0:0:0:
458,286,145826,2,0,B|488:225|488:225|469:153,1,136.350000520134,8|0,0:0|0:0,0:0:0:0:
433,41,146105,1,2,0:0:0:0:
311,29,146244,1,2,0:0:0:0:
238,128,146384,1,10,0:0:0:0:
307,229,146524,6,0,P|272:300|94:319,1,272.700001040268,2|2,0:0|0:0,0:0:0:0:
16,227,146942,1,8,0:0:0:0:
23,207,147012,1,0,0:0:0:0:
30,187,147082,1,0,0:0:0:0:
37,168,147151,1,0,0:0:0:0:
44,149,147221,1,2,0:0:0:0:
86,33,147361,1,2,0:0:0:0:
186,102,147500,2,0,L|137:232,1,136.350000520134,10|0,0:0|0:0,0:0:0:0:
257,380,147779,6,0,P|300:333|378:342,1,136.350000520134,4|0,0:0|0:0,0:0:0:0:
471,268,148058,2,0,P|482:112|395:66,1,272.700001040268,8|2,0:0|0:0,0:0:0:0:
304,149,148477,1,2,0:0:0:0:
208,235,148617,1,10,0:0:0:0:
117,318,148756,6,0,P|13:241|41:116,1,272.700001040268,2|2,0:0|0:0,0:0:0:0:
138,40,149175,1,8,0:0:0:0:
156,48,149244,1,0,0:0:0:0:
174,57,149314,1,0,0:0:0:0:
194,54,149384,1,0,0:0:0:0:
214,51,149454,1,2,0:0:0:0:
331,18,149593,1,2,0:0:0:0:
416,106,149733,2,0,P|351:151|289:133,1,136.350000520134,10|0,0:0|0:0,0:0:0:0:
80,25,150012,5,4,0:0:0:0:
132,135,150151,1,0,0:0:0:0:
52,228,150291,2,0,P|31:309|63:351,1,136.350000520134,8|0,0:0|0:0,0:0:0:0:
178,373,150570,1,2,0:0:0:0:
260,282,150710,1,2,0:0:0:0:
193,179,150849,1,10,0:0:0:0:
250,69,150989,6,0,P|307:25|455:117,1,272.700001040268,2|2,0:0|0:0,0:0:0:0:
401,226,151407,1,8,0:0:0:0:
385,238,151477,1,0,0:0:0:0:
369,250,151547,1,0,0:0:0:0:
353,263,151617,1,0,0:0:0:0:
337,276,151686,1,10,0:0:0:0:
175,276,151826,1,10,0:0:0:0:
360,304,151965,1,10,0:0:0:0:
152,304,152105,1,8,0:0:0:0:
256,370,152244,5,6,0:0:0:0:
256,248,152384,1,0,0:0:0:0:
356,180,152524,2,0,P|376:120|336:56,1,136.350000520134,10|2,0:0|0:0,0:0:0:0:
224,22,152803,1,0,0:0:0:0:
116,80,152942,1,2,0:0:0:0:
86,199,153082,1,10,0:0:0:0:
150,302,153221,1,2,0:0:0:0:
267,339,153361,6,0,B|362:324|362:324|411:261|411:261|507:247,1,272.700001040268,2|8,0:0|0:0,0:0:0:0:
503,123,153779,1,2,0:0:0:0:
488,108,153849,1,0,0:0:0:0:
473,93,153918,1,2,0:0:0:0:
475,72,153988,1,0,0:0:0:0:
478,51,154058,1,2,0:0:0:0:
365,101,154198,1,8,0:0:0:0:
277,22,154337,1,2,0:0:0:0:
210,205,154477,6,0,P|158:246|92:243,1,136.350000520134,6|0,0:0|0:0,0:0:0:0:
21,137,154756,1,10,0:0:0:0:
99,37,154896,1,2,0:0:0:0:
218,80,155035,1,0,0:0:0:0:
210,202,155175,1,2,0:0:0:0:
202,323,155314,1,10,0:0:0:0:
321,366,155453,1,0,0:0:0:0:
399,266,155593,6,0,L|407:127,1,136.350000520134,2|0,0:0|0:0,0:0:0:0:
476,28,155872,1,10,0:0:0:0:
352,26,156012,1,2,0:0:0:0:
336,39,156082,1,0,0:0:0:0:
320,51,156151,1,2,0:0:0:0:
304,64,156221,1,0,0:0:0:0:
288,77,156291,1,0,0:0:0:0:
171,113,156430,2,0,P|95:104|57:55,1,136.350000520134,10|0,0:0|0:0,0:0:0:0:
263,179,156710,6,0,P|339:170|377:121,1,136.350000520134,6|0,0:0|0:0,0:0:0:0:
481,64,156989,1,10,0:0:0:0:
511,182,157128,1,2,0:0:0:0:
478,300,157268,1,0,0:0:0:0:
367,352,157407,1,2,0:0:0:0:
256,297,157547,1,10,0:0:0:0:
145,352,157686,1,0,0:0:0:0:
34,300,157826,6,0,P|4:230|132:120,1,272.700001040268,2|10,0:0|0:0,0:0:0:0:
239,175,158244,1,2,0:0:0:0:
240,195,158314,1,0,0:0:0:0:
241,215,158384,1,2,0:0:0:0:
242,235,158454,1,0,0:0:0:0:
243,255,158524,1,0,0:0:0:0:
325,345,158663,1,8,0:0:0:0:
441,304,158803,1,0,0:0:0:0:
485,108,158942,6,0,P|445:166|375:174,1,136.350000520134,6|0,0:0|0:0,0:0:0:0:
309,77,159221,1,10,0:0:0:0:
205,143,159361,1,2,0:0:0:0:
139,39,159501,1,0,0:0:0:0:
35,105,159640,1,2,0:0:0:0:
101,209,159779,1,10,0:0:0:0:
10,292,159919,1,0,0:0:0:0:
110,361,160058,6,0,B|202:335|202:335|244:266|244:266|337:240,1,272.700001040268,2|10,0:0|0:0,0:0:0:0:
403,344,160477,1,0,0:0:0:0:
423,346,160547,1,0,0:0:0:0:
443,349,160617,5,2,0:2:0:0:
494,173,160756,1,2,0:2:0:0:
364,43,160896,2,2,L|410:196,1,151.5,2|0,0:0|2:0,0:0:0:0:
419,211,161175,6,0,P|422:277|305:333,1,202,4|8,0:2|0:0,0:0:0:0:
228,284,161593,2,0,L|254:77,1,202,2|0,0:0|0:0,0:0:0:0:
180,13,162012,1,10,0:0:0:0:
80,24,162151,1,0,0:0:0:0:
13,199,162291,6,0,P|8:243|53:286,1,101,2|0,0:0|0:0,0:0:0:0:
140,251,162570,1,8,0:0:0:0:
114,349,162710,1,0,0:0:0:0:
210,319,162849,2,0,L|311:339,1,101,2|0,0:0|0:0,0:0:0:0:
370,258,163128,2,0,L|471:238,1,101,10|0,0:0|0:0,0:0:0:0:
499,36,163407,6,0,P|470:89|421:104,1,101,4|0,0:2|0:0,0:0:0:0:
333,113,163686,1,8,0:0:0:0:
290,21,163826,2,0,B|221:38|221:38|189:89|189:89|119:107,1,202,2|0,0:0|0:0,0:0:0:0:
45,40,164244,1,10,0:0:0:0:
21,138,164384,1,0,0:0:0:0:
117,327,164524,6,0,P|162:290|207:295,1,101,2|0,0:0|0:0,0:0:0:0:
276,361,164803,1,8,0:0:0:0:
373,335,164942,1,0,0:0:0:0:
307,257,165082,2,0,L|292:153,1,101,2|0,0:0|0:0,0:0:0:0:
394,183,165361,2,0,L|409:79,1,101,10|0,0:0|0:0,0:0:0:0:
241,37,165640,6,0,P|196:60|179:106,1,101,4|0,0:2|0:0,0:0:0:0:
117,186,165919,1,8,0:0:0:0:
28,138,166058,2,0,P|20:219|110:288,1,202,2|0,0:0|0:0,0:0:0:0:
204,255,166477,1,10,0:0:0:0:
183,354,166617,1,0,0:0:0:0:
360,378,166756,6,0,P|412:374|450:337,1,101,2|0,0:0|0:0,0:0:0:0:
501,257,167035,1,8,0:0:0:0:
399,249,167175,1,0,0:0:0:0:
462,171,167314,2,0,L|490:67,1,101,2|0,0:0|0:0,0:0:0:0:
362,148,167593,2,0,L|334:44,1,101,10|0,0:0|0:0,0:0:0:0:
244,221,167872,6,0,L|272:325,1,101,4|0,0:2|0:0,0:0:0:0:
185,373,168151,1,8,0:0:0:0:
111,303,168291,2,0,L|48:102,1,202,2|0,0:0|0:0,0:0:0:0:
134,53,168710,1,10,0:0:0:0:
204,124,168849,1,0,0:0:0:0:
332,15,168989,6,0,L|306:122,1,101,2|0,0:0|0:0,0:0:0:0:
368,194,169268,1,8,0:0:0:0:
465,169,169407,1,0,0:0:0:0:
506,261,169547,2,0,P|508:312|477:355,1,101,2|0,0:0|0:0,0:0:0:0:
401,289,169826,2,0,P|366:326|273:312,1,151.5,10|0,0:0|2:0,2:0:0:0:
258,293,170105,1,4,0:0:0:0:
256,192,170244,12,0,171779,0:0:0:0:
