osu file format v14

[General]
AudioFilename: audio.mp3
AudioLeadIn: 0
PreviewTime: 107524
Countdown: 0
SampleSet: Soft
StackLeniency: 0.5
Mode: 0
LetterboxInBreaks: 0
WidescreenStoryboard: 1

[Editor]
Bookmarks: 125454,134384,152244,170105
DistanceSpacing: 0.9
BeatDivisor: 4
GridSize: 4
TimelineZoom: 2.256

[Metadata]
Title:A Bunch Of Samples Played Consecutively
TitleUnicode:A Bunch Of Samples Played Consecutively
Artist:NegaRen
ArtistUnicode:NegaRen
Creator:Mao
Version:Collab Insane
Source:
Tags:LAPFOX TRAX Breaking Boundaries Dave Remmler Renard Desperate-kun vipto
BeatmapID:1025869
BeatmapSetID:480553

[Difficulty]
HPDrainRate:6
CircleSize:4
OverallDifficulty:8
ApproachRate:9
SliderMultiplier:1.8
SliderTickRate:1

[Events]
//Background and Video events
0,0,"bg.jpg",0,0
//Break Periods
2,54212,62342
2,125654,133784
//Storyboard Layer 0 (Background)
//Storyboard Layer 1 (Fail)
//Storyboard Layer 2 (Pass)
//Storyboard Layer 3 (Foreground)
//Storyboard Sound Samples

[TimingPoints]
431,279.06976744186,4,1,0,80,1,0
18291,-111.111111111111,4,2,0,60,0,0
26593,-111.111111111111,4,2,0,30,0,0
26663,-111.111111111111,4,2,0,60,0,0
35524,-111.111111111111,4,2,0,30,0,0
35593,-90.9090909090909,4,2,0,60,0,0
36151,-74.0740740740741,4,1,0,100,0,0
62942,-86.9565217391304,4,1,0,80,0,0
64617,-133.333333333333,4,1,0,80,0,0
65175,-86.9565217391304,4,1,0,80,0,0
71314,-74.0740740740741,4,1,0,80,0,0
71872,-74.0740740740741,4,1,0,100,0,0
73547,-100,4,1,0,100,0,0
74105,-74.0740740740741,4,1,0,100,0,0
82477,-100,4,1,0,100,0,0
83035,-74.0740740740741,4,1,0,100,0,0
89733,-111.111111111111,4,2,0,60,0,0
98524,-111.111111111111,4,2,0,50,0,0
98663,-100,4,2,0,70,0,0
107593,-90.9090909090909,4,1,0,70,0,0
134384,-86.9565217391304,4,1,0,70,0,0
143314,-74.0740740740741,4,1,0,70,0,0
160617,-111.111111111111,4,1,0,70,0,0
161175,-100,4,2,0,70,0,0
170244,-100,4,2,0,5,0,0

[Colours]
Combo1 : 245,221,50
Combo2 : 116,244,0
Combo3 : 247,68,9
Combo4 : 219,36,215
SliderBorder : 253,126,0
SliderTrackOverride : 71,14,13

[HitObjects]
54,113,9361,6,0,P|116:51|202:62,1,180,6|8,0:2|0:0,0:0:0:0:
244,129,9779,2,0,L|220:308,1,180,2|0,0:0|0:0,0:0:0:0:
287,352,10198,2,0,P|336:352|375:327,1,90,10|0,0:0|0:0,0:0:0:0:
399,224,10477,2,0,L|375:45,1,180,2|8,0:0|0:0,0:0:0:0:
450,14,10896,1,0,0:0:0:0:
456,94,11035,2,0,B|451:138|395:157|380:113|324:132|318:177,1,180,2|10,0:0|0:0,0:0:0:0:
209,297,11593,5,6,0:2:0:0:
133,267,11733,1,0,0:0:0:0:
83,331,11872,1,8,0:0:0:0:
7,301,12012,2,0,P|-1:216|74:164,1,180,2|0,0:0|0:0,0:0:0:0:
147,146,12430,2,0,P|186:117|199:76,1,90,10|0,0:0|0:0,0:0:0:0:
306,37,12710,2,0,L|293:221,1,180,2|8,0:0|0:0,0:0:0:0:
373,204,13128,1,0,0:0:0:0:
345,280,13268,2,0,P|307:332|189:320,1,180,2|10,0:0|0:0,0:0:0:0:
57,223,13826,6,0,B|21:196|33:137|79:147|91:89|54:61,1,180,6|8,0:2|0:0,0:0:0:0:
123,19,14244,2,0,P|176:30|209:142,1,180,2|0,0:0|0:0,0:0:0:0:
164,205,14663,1,10,0:0:0:0:
244,213,14803,1,0,0:0:0:0:
291,146,14942,2,0,B|318:109|377:121|367:167|425:179|453:142,1,180,2|8,0:0|0:0,0:0:0:0:
495,75,15361,1,0,0:0:0:0:
416,65,15500,2,0,L|394:253,1,180,2|10,0:0|0:0,0:0:0:0:
262,336,16058,5,6,0:2:0:0:
185,307,16198,1,0,0:0:0:0:
126,362,16337,1,8,0:0:0:0:
51,328,16477,2,0,L|29:141,1,180,2|0,0:0|0:0,0:0:0:0:
45,69,16896,2,0,P|91:93|110:129,1,90,10|0,0:0|0:0,0:0:0:0:
134,237,17175,2,0,P|161:290|276:303,1,180,2|8,0:0|0:0,0:0:0:0:
322,243,17593,1,0,0:0:0:0:
402,233,17733,1,2,0:0:0:0:
457,292,17872,1,0,0:0:0:0:
448,372,18012,1,8,0:0:0:0:
220,159,18291,6,0,P|297:168|354:114,1,161.999995056153,4|0,0:0|0:0,0:0:0:0:
367,33,18710,1,0,0:0:0:0:
434,77,18849,2,0,L|441:248,1,161.999995056153,2|0,0:0|0:0,0:0:0:0:
321,348,19407,2,0,P|243:357|186:303,1,161.999995056153,2|0,0:0|0:0,0:0:0:0:
152,144,19965,1,2,0:0:0:0:
186,70,20105,1,0,0:0:0:0:
266,79,20244,1,0,0:0:0:0:
281,158,20384,1,0,0:0:0:0:
211,198,20523,1,2,0:0:0:0:
53,156,20803,6,0,L|39:75,2,80.9999975280763,0|0|2,0:0|0:0|0:0,0:0:0:0:
17,314,21361,1,0,0:0:0:0:
174,352,21640,2,0,P|213:346|245:321,1,80.9999975280763,2|0,0:0|0:0,0:0:0:0:
268,243,21919,2,0,P|299:218|339:212,1,80.9999975280763,0|0,0:0|0:0,0:0:0:0:
498,216,22198,2,0,P|458:221|426:246,1,80.9999975280763,2|0,0:0|0:0,0:0:0:0:
404,325,22477,2,0,P|372:349|332:355,1,80.9999975280763,0|0,0:0|0:0,0:0:0:0:
194,292,22756,5,2,0:0:0:0:
173,213,22896,1,0,0:0:0:0:
205,139,23035,1,0,0:0:0:0:
285,125,23175,1,0,0:0:0:0:
352,169,23314,2,0,P|419:178|478:114,1,161.999995056153,2|0,0:0|0:0,0:0:0:0:
392,49,23733,1,0,0:0:0:0:
394,66,23803,1,0,0:0:0:0:
396,83,23872,2,0,L|419:252,1,161.999995056153,2|0,0:0|0:0,0:0:0:0:
280,344,24430,1,2,0:0:0:0:
199,336,24570,1,0,0:0:0:0:
148,272,24710,1,0,0:0:0:0:
167,193,24849,1,0,0:0:0:0:
237,152,24989,6,0,P|232:96|143:40,1,161.999995056153,2|0,0:0|0:0,0:0:0:0:
81,81,25408,1,0,0:0:0:0:
62,160,25547,1,2,0:0:0:0:
109,225,25686,1,0,0:0:0:0:
90,304,25825,1,0,0:0:0:0:
20,345,25965,1,0,0:0:0:0:
15,329,26035,1,0,0:0:0:0:
10,313,26105,2,0,B|65:268|150:308|118:375|203:415|259:370,1,283.499991348267,2|0,0:0|0:0,0:0:0:0:
269,361,26663,2,0,L|244:119,1,242.999992584229,2|0,0:0|0:0,0:0:0:0:
347,52,27221,6,0,P|424:53|476:125,1,161.999995056153,4|0,0:0|0:0,0:0:0:0:
444,192,27640,1,0,0:0:0:0:
474,268,27779,2,0,P|425:330|347:332,1,161.999995056153,2|0,0:0|0:0,0:0:0:0:
202,258,28337,2,0,P|123:259|74:321,1,161.999995056153,2|0,0:0|0:0,0:0:0:0:
231,364,28896,1,2,0:0:0:0:
276,296,29035,1,0,0:0:0:0:
321,228,29175,1,0,0:0:0:0:
268,166,29314,1,0,0:0:0:0:
215,104,29454,1,2,0:0:0:0:
360,32,29733,6,0,P|407:26|442:42,2,80.9999975280763,0|0|2,0:0|0:0|0:0,0:0:0:0:
268,166,30291,1,0,0:0:0:0:
145,61,30570,2,0,P|98:67|68:91,1,80.9999975280763,2|0,0:0|0:0,0:0:0:0:
132,141,30849,2,0,P|94:169|81:206,1,80.9999975280763,0|0,0:0|0:0,0:0:0:0:
151,298,31128,2,0,P|197:291|227:267,1,80.9999975280763,2|0,0:0|0:0,0:0:0:0:
164,218,31407,2,0,P|201:189|214:152,1,80.9999975280763,0|0,0:0|0:0,0:0:0:0:
65,285,31686,5,2,0:0:0:0:
94,360,31826,1,0,0:0:0:0:
168,329,31965,1,0,0:0:0:0:
239,367,32105,1,0,0:0:0:0:
280,298,32244,2,0,P|337:263|423:294,1,161.999995056153,2|0,0:0|0:0,0:0:0:0:
452,373,32664,1,0,0:0:0:0:
464,362,32734,1,0,0:0:0:0:
476,351,32803,2,0,L|489:189,1,161.999995056153,2|0,0:0|0:0,0:0:0:0:
387,80,33361,1,2,0:0:0:0:
309,101,33500,1,0,0:0:0:0:
259,165,33640,1,0,0:0:0:0:
209,101,33779,1,0,0:0:0:0:
131,80,33919,6,0,P|65:88|35:181,1,161.999995056153,2|0,0:0|0:0,0:0:0:0:
82,233,34337,1,0,0:0:0:0:
160,254,34476,1,2,0:0:0:0:
218,196,34617,1,0,0:0:0:0:
295,220,34756,1,0,0:0:0:0:
327,142,34896,1,0,0:0:0:0:
340,152,34965,1,0,0:0:0:0:
353,162,35035,2,0,P|434:185|410:354,1,283.499991348267,2|0,0:0|0:0,0:0:0:0:
397,348,35593,2,0,B|342:342|342:342|261:373|261:373|204:367,1,198.000006042481,2|8,0:1|0:0,0:0:0:0:
92,354,36012,1,8,0:0:0:0:
30,258,36151,6,0,P|24:194|56:149,1,121.500000463486,4|0,1:0|0:0,0:0:0:0:
157,108,36430,2,0,B|173:184|173:184|135:260|135:260|155:347,1,243.000000926971,10|2,1:0|0:0,0:0:0:0:
254,296,36849,2,0,P|287:247|280:188,1,121.500000463486,2|10,0:0|0:0,0:0:0:0:
263,79,37128,2,0,L|386:57,1,121.500000463486,2|0,0:0|0:0,0:0:0:0:
388,167,37407,2,0,L|511:189,1,121.500000463486,2|8,0:0|0:0,0:0:0:0:
466,290,37686,1,0,0:0:0:0:
480,300,37756,1,0,0:0:0:0:
495,310,37826,1,2,0:0:0:0:
380,357,37965,1,2,0:0:0:0:
281,282,38105,2,0,P|193:280|140:350,1,182.250000695229,10|0,0:0|0:0,0:0:0:0:
126,365,38384,6,0,B|112:303|112:303|57:269,1,121.500000463486,4|0,1:0|0:0,0:0:0:0:
110,173,38663,2,0,B|60:142|60:142|46:80,1,121.500000463486,10|0,0:0|0:0,0:0:0:0:
144,30,38942,1,2,0:0:0:0:
248,62,39082,1,2,0:0:0:0:
276,167,39221,1,10,0:0:0:0:
227,265,39361,2,0,P|227:321|276:370,1,121.500000463486,2|0,0:0|0:0,0:0:0:0:
380,335,39640,2,0,P|394:278|366:226,1,121.500000463486,2|8,0:0|0:0,0:0:0:0:
276,167,39919,1,0,0:0:0:0:
271,149,39989,1,0,0:0:0:0:
266,131,40058,1,2,0:0:0:0:
333,44,40198,1,2,0:0:0:0:
428,96,40337,2,0,L|406:284,1,182.250000695229,2|0,0:0|0:0,0:0:0:0:
418,293,40617,6,0,B|356:285|356:285|315:329,1,121.500000463486,4|0,0:0|0:0,0:0:0:0:
225,266,40896,2,0,B|144:351|144:351|21:336,1,243.000000926971,10|2,0:0|0:0,0:0:0:0:
39,228,41314,2,0,B|101:236|101:236|142:192,1,121.500000463486,2|10,0:0|0:0,0:0:0:0:
164,85,41593,2,0,P|205:36|263:29,1,121.500000463486,2|0,0:0|0:0,0:0:0:0:
361,68,41872,2,0,P|397:120|389:178,1,121.500000463486,2|8,0:0|0:0,0:0:0:0:
325,262,42151,1,0,0:0:0:0:
314,277,42221,1,0,0:0:0:0:
304,292,42291,1,2,0:0:0:0:
380,369,42430,1,2,0:0:0:0:
433,273,42570,2,0,B|406:237|347:247|356:294|296:305|270:268,1,182.250000695229,10|0,0:0|0:0,0:0:0:0:
258,255,42849,6,0,P|198:263|161:308,1,121.500000463486,4|0,0:0|0:0,0:0:0:0:
44,363,43128,2,0,P|67:308|47:253,1,121.500000463486,10|0,0:0|0:0,0:0:0:0:
20,146,43407,1,2,0:0:0:0:
125,176,43547,1,2,0:0:0:0:
223,128,43686,1,10,0:0:0:0:
216,238,43826,2,0,P|205:297|238:347,1,121.500000463486,2|0,0:0|0:0,0:0:0:0:
347,359,44105,2,0,P|391:319|396:260,1,121.500000463486,2|0,0:0|0:0,0:0:0:0:
348,160,44384,1,0,0:0:0:0:
434,93,44524,1,8,0:0:0:0:
416,251,44663,1,8,0:0:0:0:
453,83,44803,1,8,0:0:0:0:
435,241,44942,1,8,0:0:0:0:
356,81,45082,6,0,P|297:74|242:110,1,121.500000463486,4|0,0:0|0:0,0:0:0:0:
205,206,45361,2,0,B|86:233|86:233|5:142,1,243.000000926971,10|2,0:0|0:0,0:0:0:0:
44,41,45779,2,0,P|95:70|117:132,1,121.500000463486,2|10,0:0|0:0,0:0:0:0:
87,232,46058,2,0,B|107:291|107:291|161:317,1,121.500000463486,2|0,0:0|0:0,0:0:0:0:
205,206,46337,2,0,B|263:228|263:228|317:203,1,121.500000463486,2|8,0:0|0:0,0:0:0:0:
260,98,46617,1,0,0:0:0:0:
255,80,46686,1,0,0:0:0:0:
250,62,46756,1,2,0:0:0:0:
350,18,46896,1,2,0:0:0:0:
383,120,47035,2,0,P|374:209|425:282,1,182.250000695229,10|0,0:0|0:0,0:0:0:0:
444,288,47314,6,0,L|330:331,1,121.500000463486,4|0,0:0|0:0,0:0:0:0:
226,297,47593,2,0,L|112:340,1,121.500000463486,10|0,0:0|0:0,0:0:0:0:
30,267,47872,1,2,0:0:0:0:
29,157,48012,1,2,0:0:0:0:
103,77,48151,1,10,0:0:0:0:
212,82,48291,2,0,P|251:128|249:195,1,121.500000463486,2|0,0:0|0:0,0:0:0:0:
292,291,48570,2,0,P|253:245|255:178,1,121.500000463486,2|8,0:0|0:0,0:0:0:0:
365,147,48849,1,0,0:0:0:0:
382,141,48919,1,0,0:0:0:0:
399,135,48989,1,2,0:0:0:0:
488,197,49128,1,2,0:0:0:0:
468,305,49268,2,0,B|408:313|408:313|366:359|366:359|302:369,1,182.250000695229,10|0,0:0|0:0,0:0:0:0:
289,369,49547,6,0,B|249:362|249:362|221:331|221:331|180:326,1,121.500000463486,4|0,0:0|0:0,0:0:0:0:
81,370,49826,2,0,P|-1:288|30:177,1,243.000000926971,10|2,0:0|0:0,0:0:0:0:
139,164,50244,2,0,B|170:140|170:140|179:99|179:99|211:74,1,121.500000463486,2|10,0:0|0:0,0:0:0:0:
320,62,50524,2,0,P|377:89|401:139,1,121.500000463486,2|0,0:0|0:0,0:0:0:0:
482,217,50803,2,0,P|425:190|401:140,1,121.500000463486,2|8,0:0|0:0,0:0:0:0:
490,36,51082,1,0,0:0:0:0:
489,55,51152,1,0,0:0:0:0:
488,73,51221,1,2,0:0:0:0:
400,139,51361,1,2,0:0:0:0:
312,205,51500,2,0,B|309:265|309:265|347:313|347:313|344:376,1,182.250000695229,10|0,0:0|0:0,0:0:0:0:
361,378,51779,6,0,P|418:361|450:309,1,121.500000463486,4|0,0:0|0:0,0:0:0:0:
406,209,52058,2,0,P|349:226|317:278,1,121.500000463486,10|0,0:0|0:0,0:0:0:0:
234,347,52337,1,2,0:0:0:0:
154,270,52477,1,2,0:0:0:0:
102,367,52617,1,10,0:0:0:0:
2,323,52756,2,0,L|27:202,1,121.500000463486,2|0,0:0|0:0,0:0:0:0:
128,164,53035,2,0,L|103:43,1,121.500000463486,2|8,0:0|0:0,0:0:0:0:
19,167,53314,1,0,0:0:0:0:
23,186,53384,1,0,0:0:0:0:
26,204,53454,2,0,L|39:267,3,60.7500002317429,6|4|6|4,0:3|0:3|0:3|0:3,0:0:0:0:
106,302,53733,1,6,0:3:0:0:
113,272,53802,1,4,0:3:0:0:
132,249,53872,1,4,0:3:0:0:
159,235,53942,1,4,0:3:0:0:
189,233,54012,5,4,0:0:0:0:
72,93,62942,6,0,B|139:75|139:75|205:103|205:103|270:85,1,207.000003948212,4|0,0:0|0:0,0:0:0:0:
339,24,63361,1,0,0:0:0:0:
357,114,63500,1,8,0:0:0:0:
443,77,63640,1,8,0:0:0:0:
432,169,63779,1,8,0:0:0:0:
319,257,63919,2,0,B|274:228|274:228|288:179,2,103.500001974106,2|2|2,0:3|0:3|0:3,0:0:0:0:
412,260,64337,2,0,B|456:288|456:288|442:337,1,103.500001974106,4|4,0:3|0:3,0:0:0:0:
271,336,64617,6,0,P|236:338|211:364,1,67.5000025749208,2|2,0:0|0:3,0:0:0:0:
129,337,64896,2,0,P|104:359|71:360,1,67.5000025749208,2|2,0:0|0:3,0:0:0:0:
36,232,65175,6,0,B|26:192|26:192|148:207|148:207|128:245,1,207.000003948212,6|0,0:0|0:0,0:0:0:0:
129,337,65593,1,8,0:0:0:0:
209,289,65733,1,8,0:0:0:0:
256,368,65872,1,8,0:0:0:0:
303,289,66012,1,2,0:3:0:0:
383,337,66152,1,2,0:3:0:0:
383,244,66291,1,2,0:3:0:0:
316,178,66430,2,0,B|302:129|302:129|350:104,1,103.500001974106,2|2,0:0|0:0,0:0:0:0:
196,178,66710,2,0,B|210:129|210:129|163:104,1,103.500001974106,0|0,0:0|0:0,0:0:0:0:
256,249,66989,2,0,B|250:276|250:276|263:328|263:328|256:351,2,103.500001974106,0|2|2,0:0|0:2|0:2,0:0:0:0:
256,56,67407,5,4,0:2:0:0:
40,158,67686,2,0,P|41:214|69:255,1,103.500001974106,2|2,0:2|0:2,0:0:0:0:
154,283,67965,2,0,L|147:335,2,51.7500009870529,2|0|0,0:2|0:0|0:0,0:0:0:0:
203,203,68244,1,0,0:0:0:0:
291,234,68384,2,0,B|330:270|317:326|317:326|352:278|413:288,1,207.000003948212,4|0,0:2|0:0,0:0:0:0:
488,338,68803,1,4,0:2:0:0:
494,245,68942,2,0,B|471:197|471:197|417:194,1,103.500001974106,0|0,0:0|0:0,0:0:0:0:
332,291,69221,1,2,0:2:0:0:
268,140,69361,2,0,B|319:125|319:125|357:164,1,103.500001974106,2|0,0:0|0:0,0:0:0:0:
332,291,69640,6,0,P|287:347|160:325,1,207.000003948212,4|0,0:2|0:0,0:0:0:0:
120,248,70058,2,0,P|68:246|25:273,2,103.500001974106,2|2|0,0:0|0:2|0:0,0:0:0:0:
194,192,70477,1,0,0:0:0:0:
120,135,70617,2,0,P|68:137|25:110,1,103.500001974106,0|0,0:0|0:0,0:0:0:0:
132,40,70896,1,2,0:0:0:0:
206,98,71035,1,2,0:0:0:0:
288,54,71175,1,0,0:0:0:0:
362,111,71314,2,0,L|347:235,2,121.500000463486,0|8|4,0:0|0:0|0:0,0:0:0:0:
491,209,71872,6,0,B|477:333|477:333|365:371,1,243.000000926971,4|10,0:0|0:0,0:0:0:0:
259,343,72291,1,0,0:0:0:0:
154,313,72430,2,0,B|116:322|116:322|83:352|83:352|43:362,2,121.500000463486,8|8|8,0:0|0:0|0:0,0:0:0:0:
232,236,72849,1,2,3:0:0:0:
97,217,72989,1,6,3:0:0:0:
214,144,73128,1,2,3:0:0:0:
79,125,73268,1,8,0:0:0:0:
157,48,73407,1,0,0:0:0:0:
266,48,73547,6,0,P|304:57|353:33,1,90,2|2,3:0|3:0,0:0:0:0:
457,135,73826,2,0,P|419:126|370:150,1,90,8|0,0:0|0:0,0:0:0:0:
296,223,74105,6,0,B|345:374|345:374|366:279,1,243.000000926971,6|8,0:0|0:0,0:0:0:0:
424,200,74524,1,0,0:0:0:0:
304,152,74663,2,0,P|255:165|226:227,1,121.500000463486,2|2,0:0|0:0,0:0:0:0:
230,243,74872,1,0,0:0:0:0:
234,260,74942,2,0,P|211:314|155:333,1,121.500000463486,8|0,0:0|0:0,0:0:0:0:
51,265,75221,2,0,P|28:247|-1:240,1,60.7500002317429,2|0,0:0|0:0,0:0:0:0:
123,245,75361,2,0,P|136:218|160:199,1,60.7500002317429,0|0,0:0|0:0,0:0:0:0:
70,187,75500,2,0,L|38:70,1,121.500000463486,8|0,0:0|0:0,0:0:0:0:
148,17,75779,1,0,0:0:0:0:
234,102,75919,1,0,0:3:0:0:
344,49,76058,1,10,0:0:0:0:
351,73,76128,2,0,L|383:190,1,121.500000463486,0|0,0:0|0:0,0:0:0:0:
416,192,76337,6,0,B|366:224|384:277|384:277|345:271|345:271|362:327|308:361,1,243.000000926971,4|8,0:0|0:0,0:0:0:0:
201,360,76756,1,0,0:0:0:0:
256,264,76896,1,2,0:0:0:0:
128,278,77035,2,0,P|73:261|38:199,1,121.500000463486,0|10,0:0|0:0,0:0:0:0:
58,101,77314,1,0,0:0:0:0:
61,83,77384,1,0,0:0:0:0:
64,65,77454,1,0,0:0:0:0:
162,19,77593,2,0,B|173:65|173:65|168:91|168:91|181:137,1,121.500000463486,0|8,0:0|0:0,0:0:0:0:
256,216,77872,1,0,0:0:0:0:
331,137,78012,2,0,B|344:91|344:91|339:65|339:65|350:19,1,121.500000463486,2|0,0:0|0:0,0:0:0:0:
448,65,78291,1,10,0:0:0:0:
451,83,78361,1,0,0:0:0:0:
454,101,78431,1,0,0:0:0:0:
472,209,78570,6,0,P|413:229|396:341,1,182.250000695229,2|0,0:0|0:0,0:0:0:0:
413,354,78849,2,0,P|338:271|245:332,1,243.000000926971,14|2,0:0|0:0,0:0:0:0:
138,358,79268,1,0,0:0:0:0:
63,278,79407,1,10,0:0:0:0:
169,252,79547,2,0,B|189:180|189:180|153:98|153:98|177:19,1,243.000000926971,2|2,0:0|0:0,0:0:0:0:
70,51,79965,2,0,B|54:109|54:109|84:171,1,121.500000463486,8|0,0:0|0:0,0:0:0:0:
274,223,80244,2,0,B|290:165|290:165|260:103,2,121.500000463486,2|2|8,3:0|3:0|3:1,0:0:0:0:
451,352,80803,6,0,B|420:286|420:286|467:119,1,243.000000926971,4|8,1:0|0:0,0:0:0:0:
497,17,81221,1,0,0:0:0:0:
391,45,81361,1,8,0:0:0:0:
466,122,81500,1,8,0:0:0:0:
344,142,81640,1,8,0:0:0:0:
434,226,81779,2,0,P|488:251|512:306,2,121.500000463486,2|6|2,3:0|3:0|3:0,0:0:0:0:
296,239,82198,2,0,P|243:213|219:159,1,121.500000463486,8|0,0:0|0:0,0:0:0:0:
374,317,82477,6,0,B|324:342|324:342|313:376,1,90,2|2,3:0|3:0,0:0:0:0:
198,321,82756,2,0,B|187:353|187:353|137:378,1,90,8|2,0:0|3:0,0:0:0:0:
49,284,83035,6,0,B|12:236|48:193|48:193|9:185|9:185|44:138|5:88,1,243.000000926971,6|8,0:0|0:0,0:0:0:0:
85,14,83454,1,2,0:0:0:0:
152,99,83593,2,0,B|178:133|178:133|167:221,1,121.500000463486,2|0,0:0|0:0,0:0:0:0:
179,225,83803,1,0,0:0:0:0:
189,239,83872,2,0,P|242:239|289:187,1,121.500000463486,8|0,0:0|0:0,0:0:0:0:
302,83,84151,6,0,P|312:54|335:34,1,60.7500002317429,2|0,0:0|0:0,0:0:0:0:
372,93,84291,2,0,P|401:87|429:96,1,60.7500002317429,0|0,0:0|0:0,0:0:0:0:
397,158,84430,2,0,P|439:197|442:265,1,121.500000463486,10|0,0:0|0:0,0:0:0:0:
338,355,84710,1,0,0:0:0:0:
476,326,84849,1,0,0:0:0:0:
344,281,84989,1,10,0:0:0:0:
322,273,85058,2,0,P|264:270|214:316,1,121.500000463486,0|0,0:0|0:0,0:0:0:0:
208,336,85268,6,0,P|137:350|34:217,1,243.000000926971,6|8,0:0|0:0,0:0:0:0:
57,128,85686,1,0,0:0:0:0:
157,170,85826,2,0,L|150:231,2,60.7500002317429,2|0|0,0:0|0:0|0:0,0:0:0:0:
176,50,86105,1,10,0:0:0:0:
296,36,86244,2,0,B|286:109|286:109|331:192|331:192|318:271,1,243.000000926971,4|4,0:2|0:2,0:0:0:0:
393,346,86663,1,8,0:0:0:0:
489,292,86803,2,0,P|486:233|446:189,1,121.500000463486,0|0,0:0|0:0,0:0:0:0:
335,148,87082,1,0,0:0:0:0:
397,52,87221,2,0,B|455:71|455:71|508:40,1,121.500000463486,2|0,0:0|0:0,0:0:0:0:
335,148,87500,6,0,B|262:158|262:158|179:113|179:113|100:126,1,243.000000926971,0|0,0:0|0:0,0:0:0:0:
11,68,87919,1,2,0:0:0:0:
118,50,88058,2,0,L|238:30,1,121.500000463486,0|2,0:0|0:0,0:0:0:0:
167,188,88337,2,0,L|47:208,1,121.500000463486,2|0,0:0|0:0,0:0:0:0:
274,170,88617,1,2,0:0:0:0:
235,271,88756,2,0,P|247:317|307:358,1,121.500000463486,0|2,0:0|0:0,0:0:0:0:
413,336,89035,1,0,0:0:0:0:
447,231,89175,2,0,L|428:106,2,121.500000463486,0|8|4,0:0|0:0|1:0,0:0:0:0:
262,99,89733,6,0,B|150:107|150:107|106:51,1,161.999995056153,4|0,0:0|0:0,0:0:0:0:
69,131,90151,1,0,0:0:0:0:
59,211,90291,2,0,P|114:279|196:280,1,161.999995056153,2|0,0:0|0:0,0:0:0:0:
328,284,90849,2,0,P|406:274|453:211,1,161.999995056153,2|0,0:0|0:0,0:0:0:0:
408,57,91407,1,2,0:0:0:0:
329,37,91547,1,0,0:0:0:0:
318,117,91686,1,0,0:0:0:0:
237,127,91826,1,0,0:0:0:0:
262,203,91965,6,0,P|211:203|163:101,1,161.999995056153,2|0,0:0|0:0,0:0:0:0:
237,127,92384,1,0,0:0:0:0:
262,203,92524,2,0,B|254:316|254:316|207:350,1,161.999995056153,2|0,0:0|0:0,0:0:0:0:
88,242,93082,5,2,0:0:0:0:
29,186,93221,1,0,0:0:0:0:
101,149,93361,1,0,0:0:0:0:
70,74,93500,1,0,0:0:0:0:
150,83,93640,2,0,B|190:78|190:78|225:54,1,80.9999975280763,2|0,0:0|0:0,0:0:0:0:
270,121,93919,2,0,B|303:97|303:97|343:92,1,80.9999975280763,0|0,0:0|0:0,0:0:0:0:
399,151,94198,5,2,0:0:0:0:
399,233,94337,1,0,0:0:0:0:
343,291,94477,2,0,B|303:286|303:286|270:263,1,80.9999975280763,0|0,0:0|0:0,0:0:0:0:
210,207,94756,2,0,P|187:160|85:167,1,161.999995056153,2|0,0:0|0:0,0:0:0:0:
60,239,95175,1,0,0:0:0:0:
58,254,95244,1,0,0:0:0:0:
56,270,95314,6,0,B|71:327|71:327|188:356,1,161.999995056153,2|0,0:0|0:0,0:0:0:0:
315,332,95872,1,2,0:0:0:0:
388,297,96012,1,0,0:0:0:0:
403,217,96151,1,0,0:0:0:0:
364,145,96291,1,0,0:0:0:0:
287,125,96430,6,0,L|116:98,1,161.999995056153,2|0,0:0|0:0,0:0:0:0:
53,134,96849,1,0,0:0:0:0:
31,212,96989,2,0,P|33:256|79:312,1,80.9999975280763,2|0,0:0|0:0,0:0:0:0:
121,327,97268,1,0,0:0:0:0:
201,324,97407,1,0,0:0:0:0:
217,323,97476,1,0,0:0:0:0:
232,323,97547,6,0,B|282:306|321:303|321:303|289:279|279:234|291:189|321:164|370:159,1,283.499991348267,2|0,0:0|0:0,0:0:0:0:
381,161,98105,2,0,P|444:208|417:306,1,161.999995056153,2|0,0:0|0:0,0:0:0:0:
370,240,98524,1,4,0:0:0:0:
236,168,98663,6,0,L|224:68,1,90,4|0,0:0|0:0,0:0:0:0:
149,187,98942,2,0,L|161:287,1,90,8|0,0:0|0:0,0:0:0:0:
230,316,99221,2,0,B|301:302|301:302|323:267|323:267|393:255,1,180,2|8,0:0|0:0,0:0:0:0:
444,196,99640,1,0,0:0:0:0:
388,128,99779,6,0,B|323:116|323:116|301:81|301:81|230:68,1,180,0|10,0:0|0:0,0:0:0:0:
162,112,100198,1,0,0:0:0:0:
82,126,100337,2,0,P|48:98|37:47,1,90,0|0,0:0|0:0,0:0:0:0:
133,190,100617,2,0,P|115:243|70:278,1,90,10|0,0:0|0:0,0:0:0:0:
162,112,100896,6,0,P|198:58|312:87,1,180,0|10,0:0|0:0,0:0:0:0:
317,151,101314,1,0,0:0:0:0:
240,125,101454,2,0,P|249:196|375:210,1,180,0|10,0:0|0:0,0:0:0:0:
317,151,101872,1,0,0:0:0:0:
166,206,102012,6,0,L|66:195,1,90,0|0,0:0|0:0,0:0:0:0:
101,328,102291,2,0,P|140:301|191:297,1,90,10|0,0:0|0:0,0:0:0:0:
330,295,102570,2,0,P|374:302|411:328,1,90,0|0,0:0|0:0,0:0:0:0:
435,196,102849,2,0,L|346:206,1,90,10|0,0:0|0:0,0:0:0:0:
277,162,103128,5,0,0:0:0:0:
253,84,103268,1,0,0:0:0:0:
175,62,103407,2,0,L|83:44,1,90,10|0,0:0|0:0,0:0:0:0:
45,114,103686,2,0,B|21:160|44:199|73:242|30:291,1,180,0|10,0:0|0:0,0:0:0:0:
100,332,104105,1,0,0:0:0:0:
117,335,104175,1,0,0:0:0:0:
134,337,104244,6,0,B|185:333|185:333|238:350|238:350|296:279,1,180,0|10,0:0|0:0,0:0:0:0:
284,293,104663,1,0,0:0:0:0:
320,220,104803,1,0,0:0:0:0:
364,287,104942,1,0,0:0:0:0:
401,214,105082,1,10,0:0:0:0:
433,140,105221,1,0,0:0:0:0:
355,147,105361,6,0,L|170:155,1,180,0|10,0:0|0:0,0:0:0:0:
175,154,105779,1,0,0:0:0:0:
96,134,105919,2,0,P|137:82|178:74,1,90,0|0,0:0|0:0,0:0:0:0:
197,233,106198,2,0,P|153:234|116:211,1,90,10|0,0:0|0:0,0:0:0:0:
100,219,106407,1,0,0:0:0:0:
84,227,106477,6,0,P|71:273|185:332,1,180,2|0,0:0|0:0,0:0:0:0:
243,325,106896,1,0,0:0:0:0:
316,291,107035,2,0,B|399:259|399:259|499:324,1,180,2|8,0:0|0:0,0:0:0:0:
280,148,107593,5,6,0:0:0:0:
280,148,107733,2,0,B|212:156|212:156|180:136|180:136|162:163|132:185|88:180,1,198.000006042481,0|0,0:0|1:0,0:0:0:0:
103,91,108151,2,0,P|161:51|206:56,1,99.0000030212403,10|2,0:0|0:0,0:0:0:0:
280,148,108430,2,0,P|326:172|385:174,1,99.0000030212403,0|2,1:0|0:0,0:0:0:0:
434,111,108710,2,0,P|461:175|366:264,1,198.000006042481,4|2,0:3|0:0,0:0:0:0:
298,284,109128,1,0,1:0:0:0:
208,282,109268,1,10,0:0:0:0:
142,221,109407,1,0,0:0:0:0:
212,165,109547,1,0,1:0:0:0:
143,108,109686,1,0,0:0:0:0:
226,76,109826,6,0,B|297:101|297:101|337:86|337:86|415:115,1,198.000006042481,4|2,1:0|0:0,0:0:0:0:
320,192,110244,1,0,1:0:0:0:
411,270,110384,2,0,B|337:297|337:297|297:282|297:282|226:308,1,198.000006042481,4|2,1:0|0:0,0:0:0:0:
135,351,110803,1,2,0:0:0:0:
55,311,110942,2,0,L|37:202,1,99.0000030212403,4|0,0:3|0:0,0:0:0:0:
143,86,111221,2,0,L|161:195,1,99.0000030212403,2|0,0:0|1:0,0:0:0:0:
193,266,111500,1,10,0:0:0:0:
269,312,111640,1,0,0:0:0:0:
357,305,111779,1,2,1:2:0:0:
429,252,111919,1,0,0:0:0:0:
459,168,112058,6,0,L|471:57,1,99.0000030212403,4|0,1:0|0:0,0:0:0:0:
381,85,112337,2,0,P|312:97|265:96,1,99.0000030212403,2|0,0:0|1:0,0:0:0:0:
193,90,112617,2,0,B|139:78|109:44|109:44|67:80|67:80|80:137,1,198.000006042481,10|0,0:0|1:0,0:0:0:0:
77,259,113035,1,2,0:0:0:0:
77,259,113105,1,0,0:0:0:0:
77,259,113175,2,0,B|67:304|67:304|109:340|109:340|139:306|193:294,1,198.000006042481,4|2,0:3|0:0,0:0:0:0:
354,317,113593,1,0,1:0:0:0:
283,222,113733,2,0,B|268:149|268:149|234:125|234:125|274:95|271:44,1,198.000006042481,10|0,0:0|1:0,0:0:0:0:
182,51,114151,1,0,0:0:0:0:
352,118,114291,6,0,L|466:101,1,99.0000030212403,4|0,1:0|0:0,0:0:0:0:
380,207,114570,2,0,L|266:224,1,99.0000030212403,2|0,0:0|1:0,0:0:0:0:
195,244,114849,1,10,0:0:0:0:
111,275,114989,1,2,0:0:0:0:
65,351,115128,1,0,1:0:0:0:
30,192,115268,1,2,0:0:0:0:
28,177,115337,1,0,0:0:0:0:
26,162,115407,2,0,P|31:108|174:93,1,198.000006042481,4|0,0:3|0:0,0:0:0:0:
256,152,115826,1,0,1:0:0:0:
360,72,115965,2,0,P|453:74|486:162,1,198.000006042481,14|4,0:0|1:2,0:0:0:0:
457,246,116384,1,0,0:0:0:0:
394,309,116524,6,0,B|357:335|308:333|308:333|269:300|201:300,1,198.000006042481,4|2,1:0|0:0,0:0:0:0:
119,293,116942,1,0,1:0:0:0:
59,226,117082,2,0,B|95:196|136:203|136:203|145:176|147:130|147:130|127:88,1,198.000006042481,10|0,0:0|1:0,0:0:0:0:
53,46,117500,1,2,0:0:0:0:
234,75,117640,2,0,P|286:78|342:73,1,99.0000030212403,4|0,0:3|0:0,0:0:0:0:
418,50,117919,1,2,0:0:0:0:
287,187,118058,1,0,1:0:0:0:
470,162,118198,2,0,P|421:158|372:163,1,99.0000030212403,10|0,0:0|0:0,0:0:0:0:
286,185,118477,2,0,P|311:228|355:250,1,99.0000030212403,0|0,1:0|0:0,0:0:0:0:
457,331,118756,6,0,L|241:347,1,198.000006042481,4|2,1:0|0:0,0:0:0:0:
178,307,119175,1,0,1:0:0:0:
175,218,119314,2,0,P|200:167|336:174,1,198.000006042481,10|0,0:0|1:0,0:0:0:0:
265,229,119733,1,2,0:0:0:0:
175,218,119872,2,0,L|57:189,1,99.0000030212403,4|0,0:3|0:0,0:0:0:0:
82,105,120151,1,2,0:0:0:0:
138,35,120291,1,0,1:0:0:0:
211,84,120430,1,10,0:0:0:0:
301,84,120570,1,0,0:0:0:0:
374,35,120710,1,0,1:0:0:0:
430,105,120850,1,0,0:0:0:0:
433,194,120989,6,0,L|423:298,1,99.0000030212403,4|0,1:0|0:0,0:0:0:0:
338,266,121268,2,0,P|303:226|243:259,1,99.0000030212403,2|0,0:0|1:0,0:0:0:0:
219,154,121547,2,0,P|156:82|48:141,1,198.000006042481,10|0,0:0|1:0,0:0:0:0:
33,188,121965,1,2,0:0:0:0:
33,202,122035,1,0,0:0:0:0:
33,216,122105,2,0,P|95:287|203:228,1,198.000006042481,4|2,0:3|0:0,0:0:0:0:
221,179,122524,1,0,1:0:0:0:
206,91,122663,2,0,B|173:56|173:56|123:83,1,99.0000030212403,10|0,0:0|0:0,0:0:0:0:
290,122,122942,2,0,B|323:157|323:157|373:130,1,99.0000030212403,0|0,1:0|0:0,0:0:0:0:
413,55,123221,6,0,B|449:88|449:88|458:151|458:151|441:182|441:182|450:253,1,198.000006042481,4|2,1:0|0:0,0:0:0:0:
375,284,123640,1,0,1:0:0:0:
287,297,123779,2,0,L|177:284,1,99.0000030212403,10|2,0:0|0:0,0:0:0:0:
108,246,124058,1,0,1:0:0:0:
184,200,124198,1,2,0:0:0:0:
156,116,124337,2,0,P|145:89|208:63,1,99.0000030212403,4|0,0:3|0:0,0:0:0:0:
318,54,124617,2,0,P|361:70|356:116,1,99.0000030212403,2|0,0:0|1:0,0:0:0:0:
108,200,124896,1,10,0:0:0:0:
404,200,125175,1,10,0:0:0:0:
256,352,125454,5,4,1:0:0:0:
208,119,134384,6,0,B|173:81|173:81|124:111,2,103.500001974106,4|0|8,0:2|0:0|0:0,0:0:0:0:
304,119,134803,2,0,B|339:81|339:81|388:111,2,103.500001974106,2|0|0,0:0|0:0|0:0,0:0:0:0:
256,200,135221,2,0,L|256:304,1,103.500001974106,10|0,0:0|0:0,0:0:0:0:
172,344,135500,2,0,P|111:336|82:206,1,207.000003948212,2|8,0:0|0:0,0:0:0:0:
86,198,135849,1,0,0:0:0:0:
94,184,135919,1,0,0:0:0:0:
100,170,135989,1,0,0:0:0:0:
104,155,136058,2,0,B|115:126|104:83|104:83|136:65|136:65|170:95|170:95|225:95,1,207.000003948212,2|10,0:0|0:0,0:0:0:0:
315,95,136477,1,0,0:0:0:0:
408,95,136617,6,0,P|446:87|429:27,2,103.500001974106,4|0|8,0:2|0:0|0:0,0:0:0:0:
403,187,137035,2,0,P|365:195|382:255,2,103.500001974106,2|0|0,0:0|0:0|0:0,0:0:0:0:
456,319,137454,2,0,L|332:347,1,103.500001974106,10|0,0:0|0:0,0:0:0:0:
261,337,137733,2,0,B|159:304|159:304|134:188,1,207.000003948212,2|8,0:0|0:0,0:0:0:0:
136,190,138082,1,0,0:0:0:0:
134,174,138151,1,0,0:0:0:0:
132,158,138221,1,0,0:0:0:0:
130,142,138291,2,0,P|143:83|288:64,1,207.000003948212,2|10,0:0|0:0,0:0:0:0:
223,131,138710,1,0,0:0:0:0:
250,219,138849,6,0,B|237:251|237:251|251:282|251:282|236:323,2,103.500001974106,4|0|8,0:2|0:0|0:0,0:0:0:0:
337,187,139268,2,0,B|349:154|349:154|335:123|335:123|348:91,2,103.500001974106,2|0|0,0:0|0:0|0:0,0:0:0:0:
362,276,139686,2,0,P|383:322|436:354,1,103.500001974106,10|0,0:0|0:0,0:0:0:0:
454,262,139965,2,0,B|477:180|477:180|453:136|453:136|475:50,1,207.000003948212,2|8,0:0|0:0,0:0:0:0:
455,62,140314,1,0,0:0:0:0:
440,57,140384,1,0,0:0:0:0:
425,52,140454,1,0,0:0:0:0:
410,47,140524,2,0,B|373:42|344:63|337:101|337:101|310:133|286:146|240:135,1,207.000003948212,2|10,0:0|0:0,0:0:0:0:
152,121,140942,1,0,0:0:0:0:
69,165,141082,6,0,L|43:278,2,103.500001974106,4|0|8,0:2|0:0|0:0,0:0:0:0:
152,121,141500,2,0,L|175:20,2,103.500001974106,2|0|0,0:0|0:0|0:0,0:0:0:0:
152,214,141919,2,0,P|176:276|221:303,1,103.500001974106,10|0,0:0|0:0,0:0:0:0:
245,212,142198,2,0,P|291:235|406:123,1,207.000003948212,2|8,0:0|0:0,0:0:0:0:
409,141,142547,1,0,0:0:0:0:
412,125,142617,1,0,0:0:0:0:
416,110,142686,1,0,0:0:0:0:
420,95,142756,1,2,0:0:0:0:
475,246,142896,1,0,0:0:0:0:
309,137,143035,2,0,L|285:29,1,103.500001974106,8|0,0:0|0:0,0:0:0:0:
152,164,143314,6,0,P|128:224|56:264,1,121.500000463486,0|0,0:0|0:0,0:0:0:0:
43,154,143593,1,8,0:0:0:0:
107,64,143733,1,0,0:0:0:0:
215,72,143872,2,0,B|291:75|291:75|345:42,1,121.500000463486,2|2,0:0|0:0,0:0:0:0:
475,135,144151,2,0,B|399:132|399:132|361:156,1,121.500000463486,10|2,0:0|0:0,0:0:0:0:
325,259,144430,5,0,0:0:0:0:
434,249,144570,1,2,0:0:0:0:
251,178,144710,2,0,P|217:139|210:55,1,121.500000463486,8|0,0:0|0:0,0:0:0:0:
108,122,144989,2,0,B|53:151|53:151|33:94,1,121.500000463486,2|2,0:0|0:0,0:0:0:0:
98,246,145268,2,0,B|153:217|153:217|173:274,1,121.500000463486,10|0,0:0|0:0,0:0:0:0:
273,315,145547,6,0,B|350:325|350:325|393:294,1,121.500000463486,4|0,0:0|0:0,0:0:0:0:
429,198,145826,1,8,0:0:0:0:
466,95,145965,1,0,0:0:0:0:
356,106,146105,2,0,P|293:80|313:23,1,121.500000463486,2|2,0:0|0:0,0:0:0:0:
128,61,146384,2,0,P|191:87|171:144,1,121.500000463486,10|2,0:0|0:0,0:0:0:0:
113,213,146663,6,0,P|64:280|176:268,1,243.000000926971,2|0,0:0|0:0,0:0:0:0:
256,184,147082,1,2,0:0:0:0:
338,285,147221,2,0,P|435:305|399:213,1,243.000000926971,2|2,0:0|0:0,0:0:0:0:
354,112,147640,1,2,0:0:0:0:
406,16,147779,6,0,P|451:70|456:131,1,121.500000463486,6|0,0:0|0:0,0:0:0:0:
354,112,148058,1,8,0:0:0:0:
255,63,148198,2,0,P|197:47|117:42,1,121.500000463486,2|2,0:0|0:0,0:0:0:0:
30,72,148477,1,0,0:0:0:0:
56,178,148617,2,0,P|42:242|2:328,1,121.500000463486,10|2,0:0|0:0,0:0:0:0:
120,341,148896,6,0,P|158:267|307:270,1,243.000000926971,0|8,0:0|0:0,0:0:0:0:
387,335,149314,1,0,0:0:0:0:
450,245,149454,2,0,L|456:109,1,121.500000463486,2|2,0:0|0:0,0:0:0:0:
381,42,149733,2,0,P|314:15|254:40,1,121.500000463486,10|0,0:0|0:0,0:0:0:0:
230,131,150012,6,0,L|244:267,1,121.500000463486,4|0,0:0|0:0,0:0:0:0:
189,347,150291,1,8,0:0:0:0:
297,348,150430,2,0,P|341:301|351:231,1,121.500000463486,0|2,0:0|0:0,0:0:0:0:
332,137,150710,1,2,0:0:0:0:
240,78,150849,2,0,L|96:51,1,121.500000463486,10|2,0:0|0:0,0:0:0:0:
332,137,151128,6,0,B|407:151|407:151|461:126|461:126|488:185|474:252,1,243.000000926971,0|8,0:0|0:0,0:0:0:0:
436,332,151547,1,0,0:0:0:0:
328,351,151686,2,0,L|181:355,1,121.500000463486,10|10,0:0|0:0,0:0:0:0:
68,306,151965,1,10,0:0:0:0:
181,213,152105,1,8,0:0:0:0:
54,141,152244,6,0,P|37:97|78:26,1,121.500000463486,6|0,0:0|0:0,0:0:0:0:
176,18,152524,1,10,0:0:0:0:
245,102,152663,2,0,P|291:129|371:95,1,121.500000463486,2|0,0:0|0:0,0:0:0:0:
430,34,152942,1,2,0:0:0:0:
481,130,153082,2,0,L|465:272,1,121.500000463486,10|2,0:0|0:0,0:0:0:0:
396,334,153361,6,0,P|325:355|258:216,1,243.000000926971,0|10,0:0|0:0,0:0:0:0:
330,155,153779,1,2,0:0:0:0:
240,91,153919,2,0,B|198:77|198:77|166:86|166:86|111:68,1,121.500000463486,2|2,0:0|0:0,0:0:0:0:
135,211,154198,2,0,B|177:225|177:225|209:216|209:216|264:234,1,121.500000463486,8|2,0:0|0:0,0:0:0:0:
330,155,154477,6,0,P|367:126|435:146,1,121.500000463486,6|0,0:0|0:0,0:0:0:0:
481,243,154756,1,10,0:0:0:0:
433,341,154896,2,0,L|301:366,1,121.500000463486,2|0,0:0|0:0,0:0:0:0:
204,353,155175,1,2,0:0:0:0:
117,287,155314,2,0,P|126:212|187:213,1,121.500000463486,10|0,0:0|0:0,0:0:0:0:
270,208,155593,6,0,B|342:218|342:218|415:183|415:183|503:194,1,243.000000926971,2|10,0:0|0:0,0:0:0:0:
432,277,156012,1,2,0:0:0:0:
324,120,156151,2,0,B|276:79|276:79|225:124,1,121.500000463486,2|0,0:0|0:0,0:0:0:0:
186,265,156430,2,0,B|142:303|142:303|94:262,1,121.500000463486,10|0,0:0|0:0,0:0:0:0:
41,165,156710,6,0,L|31:35,1,121.500000463486,6|0,0:0|0:0,0:0:0:0:
138,20,156989,1,10,0:0:0:0:
226,84,157128,2,0,P|229:137|180:201,1,121.500000463486,2|0,0:0|0:0,0:0:0:0:
99,250,157407,1,2,0:0:0:0:
177,326,157547,2,0,P|240:344|318:317,1,121.500000463486,10|0,0:0|0:0,0:0:0:0:
384,270,157826,6,0,B|441:173|334:132|396:26,1,243.000000926971,2|10,0:0|0:0,0:0:0:0:
481,96,158244,1,2,0:0:0:0:
296,209,158384,2,0,P|251:205|249:137,1,121.500000463486,2|0,0:0|0:0,0:0:0:0:
83,92,158663,2,0,P|128:96|130:164,1,121.500000463486,8|0,0:0|0:0,0:0:0:0:
69,250,158942,6,0,B|33:301|33:301|78:354,1,121.500000463486,6|0,0:0|0:0,0:0:0:0:
168,295,159221,1,10,0:0:0:0:
265,344,159361,2,0,B|301:293|301:293|256:240,1,121.500000463486,2|0,0:0|0:0,0:0:0:0:
168,295,159640,1,2,0:0:0:0:
165,186,159779,2,0,L|165:61,1,121.500000463486,10|0,0:0|0:0,0:0:0:0:
268,101,160058,6,0,B|327:114|375:93|375:93|412:84|476:94|504:156,1,243.000000926971,2|10,0:0|0:0,0:0:0:0:
500,246,160477,1,0,0:0:0:0:
423,325,160617,2,0,P|381:317|341:293,1,80.9999975280763,2|2,0:2|0:2,0:0:0:0:
281,238,160896,2,0,P|238:211|168:217,1,121.499996292114,2|0,0:0|2:0,0:0:0:0:
154,225,161175,6,0,P|97:232|66:118,1,180,4|8,0:2|0:0,0:0:0:0:
115,80,161593,2,0,B|182:43|225:104|306:66,1,180,2|0,0:0|0:0,0:0:0:0:
362,110,162012,2,0,P|378:151|377:201,1,90,10|0,0:0|0:0,0:0:0:0:
300,220,162291,2,0,P|340:268|444:246,1,180,2|8,0:0|0:0,0:0:0:0:
452,164,162710,1,0,0:0:0:0:
440,84,162849,2,0,P|405:49|358:52,1,90,2|0,0:0|0:0,0:0:0:0:
306,103,163128,2,0,P|261:124|221:117,1,90,10|0,0:0|0:0,0:0:0:0:
154,73,163407,6,0,P|101:50|34:143,1,180,4|8,0:2|0:0,0:0:0:0:
48,210,163826,2,0,B|75:262|75:262|141:248|141:248|185:328,1,180,2|0,0:0|0:0,0:0:0:0:
232,342,164244,2,0,P|281:348|344:349,1,90,10|0,0:0|0:0,0:0:0:0:
398,321,164524,2,0,B|426:264|426:264|401:203|401:203|408:121,1,180,2|8,0:0|0:0,0:0:0:0:
478,187,164942,1,0,0:0:0:0:
322,149,165082,2,0,P|274:132|247:98,1,90,2|0,0:0|0:0,0:0:0:0:
250,21,165361,2,0,P|292:34|322:68,1,90,10|0,0:0|0:0,0:0:0:0:
198,199,165640,6,0,B|195:257|195:257|164:303|164:303|194:324|220:350,1,180,4|8,0:2|0:0,0:0:0:0:
296,345,166058,2,0,B|318:324|348:303|348:303|317:257|317:257|314:199,1,180,2|0,0:0|0:0,0:0:0:0:
297,119,166477,1,10,0:0:0:0:
215,119,166617,1,0,0:0:0:0:
172,48,166756,2,0,B|216:32|216:32|256:48|256:48|296:32|296:32|340:48,1,180,2|8,0:0|0:0,0:0:0:0:
396,106,167175,1,0,0:0:0:0:
420,182,167314,2,0,P|408:235|370:253,1,90,2|0,0:0|0:0,0:0:0:0:
303,222,167593,2,0,P|265:191|199:206,1,90,10|0,0:0|0:0,0:0:0:0:
155,231,167872,6,0,P|114:272|18:208,1,180,4|8,0:2|0:0,0:0:0:0:
24,141,168291,2,0,P|65:100|161:164,1,180,2|0,0:0|0:0,0:0:0:0:
155,231,168710,2,0,L|149:357,1,90,10|0,0:0|0:0,0:0:0:0:
225,353,168989,2,0,B|281:336|281:336|349:344|349:344|422:324,1,180,2|8,0:0|0:0,0:0:0:0:
441,260,169407,1,0,0:0:0:0:
402,188,169547,2,0,B|376:152|370:100|370:100|347:142|295:165,2,180,2|10|4,0:0|0:0|0:0,0:0:0:0:
256,192,170244,12,0,171779,0:0:0:0:
