osu file format v14

[General]
AudioFilename: audio.mp3
AudioLeadIn: 0
PreviewTime: 56552
Countdown: 0
SampleSet: Soft
StackLeniency: 0.3
Mode: 0
LetterboxInBreaks: 0
WidescreenStoryboard: 1

[Editor]
DistanceSpacing: 2
BeatDivisor: 8
GridSize: 32
TimelineZoom: 1.8

[Metadata]
Title:Fuzaketenaize (TV Size)
TitleUnicode:ふざけてないぜ (TV Size)
Artist:Necry Talkie
ArtistUnicode:ネクライトーキー
Creator:Kyutei
Version:Ram's Insane
Source:カノジョも彼女
Tags:カノジョもかのじょ KanoKano Kanojo mo Kanojo Girlfriend, Girlfriend -Magic- is also my Girlfriend She Anime opening op japanese pop jpop j-pop Pepekcz My Angel Ram My_Angel_Ram Crissa Eula-
BeatmapID:3136863
BeatmapSetID:1533272

[Difficulty]
HPDrainRate:5.2
CircleSize:3.6
OverallDifficulty:8.2
ApproachRate:8.5
SliderMultiplier:1.72
SliderTickRate:1

[Events]
//Background and Video events
0,0,"bgowo.jpg",0,0
Video,-400,"kanokano_op.mp4"
//Break Periods
//Storyboard Layer 0 (Background)
//Storyboard Layer 1 (Fail)
//Storyboard Layer 2 (Pass)
//Storyboard Layer 3 (Foreground)
//Storyboard Layer 4 (Overlay)
//Storyboard Sound Samples

[TimingPoints]
252,400,4,2,12,40,1,0
1452,-238.095238095238,4,2,12,40,0,0
1852,-121.951219512195,4,2,12,45,0,0
4652,-238.095238095238,4,2,12,45,0,0
5052,-121.951219512195,4,2,12,45,0,0
23252,-108.695652173913,4,2,12,45,0,0
23852,-192.307692307692,4,2,12,45,0,0
25052,-108.695652173913,4,2,12,45,0,0
25852,-108.695652173913,4,2,12,50,0,0
31452,-108.695652173913,4,2,13,50,0,0
31652,-108.695652173913,4,2,13,50,0,0
32052,-108.695652173913,4,2,12,50,0,0
38652,-108.695652173913,4,2,12,55,0,0
54652,-192.307692307692,4,2,13,45,0,0
57852,-98.0392156862745,4,2,11,65,0,1
58052,-98.0392156862745,4,2,12,65,0,1
70652,-89.2857142857143,4,2,12,60,0,0
77052,-108.695652173913,4,2,12,40,0,0
78452,-108.695652173913,4,2,13,30,0,0
78652,-108.695652173913,4,2,13,60,0,0
79052,-108.695652173913,4,2,13,40,0,0
79852,-238.095238095238,4,2,13,40,0,0
80252,-121.951219512195,4,2,13,45,0,0
86052,-121.951219512195,4,2,12,45,0,0
86652,310.880829015544,4,2,12,45,1,0
86652,-161.290322580645,4,2,12,45,0,0
86690,-161.290322580645,4,2,13,45,0,0
86967,285.714285714286,4,2,13,45,1,0
86967,-180.01800180018,4,2,13,45,0,0
87278,315.789473684211,4,2,13,45,1,0
87278,-161.290322580645,4,2,13,45,0,0
87593,327.868852459016,4,2,13,45,1,0
87640,285.714285714286,4,2,13,45,1,0
87640,-163.398692810458,4,2,13,45,0,0
87925,352.941176470588,4,2,13,45,1,0
88268,352.941176470588,4,2,12,75,1,0

[Colours]
Combo1 : 67,166,194
Combo2 : 244,94,123
Combo3 : 105,145,209
Combo4 : 228,141,99

[HitObjects]
31,66,252,5,0,3:2:0:0:
53,76,652,1,0,3:2:0:0:
75,86,1052,1,0,3:2:0:0:
96,95,1452,6,0,P|106:121|106:148,1,54.1799983465577,2|0,3:2|0:0,0:0:0:0:
18,237,1852,6,0,B|104:222|75:274|163:260,1,141.0400021521,2|0,3:2|3:2,0:0:0:0:
284,186,2452,1,2,2:0:0:0:
200,59,2652,2,0,B|178:84|157:96|157:96|187:182,1,141.0400021521,2|0,3:2|3:2,0:0:0:0:
318,175,3252,1,2,2:0:0:0:
213,287,3452,2,0,B|166:282|131:309|131:309|104:300|81:277,1,141.0400021521,2|0,3:2|3:2,0:0:0:0:
29,115,4052,1,2,2:0:0:0:
139,211,4252,1,2,3:2:0:0:
149,73,4452,1,2,2:0:0:0:
54,206,4652,2,0,P|27:204|2:192,1,54.1799983465577,2|0,3:2|0:0,0:0:0:0:
144,104,5052,6,0,P|162:172|175:241,1,141.0400021521,2|0,3:2|3:2,0:0:0:0:
294,112,5652,1,2,2:0:0:0:
154,18,5852,2,0,P|86:12|42:65,1,141.0400021521,2|0,3:2|3:2,0:0:0:0:
142,197,6452,1,2,2:0:0:0:
261,90,6652,2,0,B|345:57|345:57|364:77|401:86,1,141.0400021521,2|0,3:2|3:2,0:0:0:0:
498,199,7252,1,2,2:0:0:0:
367,306,7452,2,0,P|359:271|350:237,1,70.5200010760498,2|2,3:2|2:0,0:0:0:0:
494,118,7852,2,0,P|484:152|476:186,1,70.5200010760498,2|0,3:2|0:0,0:0:0:0:
243,115,8252,6,0,P|312:103|378:79,1,141.0400021521,2|2,3:2|3:2,0:0:0:0:
504,171,8852,1,2,2:0:0:0:
367,306,9052,2,0,P|326:251|353:190,1,141.0400021521,2|0,3:2|3:2,0:0:0:0:
512,198,9652,1,2,2:0:0:0:
386,329,9852,2,0,B|305:312|327:367|233:350,1,141.0400021521,2|0,3:2|3:2,0:0:0:0:
106,254,10452,1,2,2:0:0:0:
247,165,10652,2,0,P|240:199|233:234,1,70.5200010760498,2|2,3:2|2:0,0:0:0:0:
109,337,11052,2,0,P|102:302|95:267,1,70.5200010760498,2|0,3:2|0:0,0:0:0:0:
165,123,11452,6,0,P|223:73|288:90,1,141.0400021521,2|2,3:2|3:2,0:0:0:0:
402,174,12052,1,2,2:0:0:0:
272,263,12252,2,0,P|265:228|258:193,1,70.5200010760498,2|0,3:2|0:0,0:0:0:0:
395,205,12652,1,2,3:2:0:0:
281,85,12852,2,0,B|200:68|222:123|128:106,1,141.0400021521,2|0,2:0|0:0,0:0:0:0:
5,5,13452,2,0,L|24:88,1,70.5200010760498,2|2,3:2|2:0,0:0:0:0:
161,248,13852,1,2,3:2:0:0:
123,89,14052,1,2,2:0:0:0:
50,245,14252,1,2,3:2:0:0:
203,169,14452,1,0,0:0:0:0:
34,131,14652,6,0,B|12:156|-8:173|-8:173|25:253,1,141.0400021521,2|2,3:2|3:2,0:0:0:0:
112,379,15252,1,2,2:0:0:0:
185,261,15452,2,0,B|269:231|269:231|316:251,1,141.0400021521,2|2,3:2|3:2,0:0:0:0:
447,316,16052,1,2,2:0:0:0:
316,251,16252,2,0,P|285:190|321:134,1,141.0400021521,2|0,3:2|3:2,0:0:0:0:
446,77,16852,1,2,2:0:0:0:
475,193,17052,2,0,P|440:183|406:174,1,70.5200010760498,2|2,3:2|2:0,0:0:0:0:
302,50,17452,2,0,P|336:40|370:31,1,70.5200010760498,2|0,3:2|0:0,0:0:0:0:
293,199,17852,6,0,B|217:173|235:232|150:209,1,141.0400021521,2|2,3:2|3:2,0:0:0:0:
0,113,18452,1,2,2:0:0:0:
165,42,18652,2,0,L|154:111,1,70.5200010760498,2|0,3:2|0:0,0:0:0:0:
122,305,19052,1,2,3:2:0:0:
0,212,19252,2,0,B|47:212|73:180|73:180|107:190|124:207,1,141.0400021521,2|0,2:0|0:0,0:0:0:0:
106,375,19852,2,0,L|95:305,1,70.5200010760498,2|2,3:2|2:0,0:0:0:0:
244,187,20252,1,2,3:2:0:0:
176,312,20452,1,2,2:0:0:0:
76,172,20652,2,0,P|110:165|145:157,1,70.5200010760498,2|0,3:2|0:0,0:0:0:0:
278,299,21052,6,0,P|243:242|269:179,1,141.0400021521,2|0,3:2|3:2,0:0:0:0:
377,106,21652,1,2,2:0:0:0:
506,279,21852,2,0,P|439:256|371:236,1,141.0400021521,2|0,3:2|3:2,0:0:0:0:
284,96,22452,1,2,2:0:0:0:
393,11,22652,2,0,B|407:35|429:53|429:53|400:133,1,141.0400021521,2|0,3:2|3:2,0:0:0:0:
211,268,23252,5,10,2:0:0:0:
206,246,23352,1,10,2:0:0:0:
201,224,23452,1,10,2:0:0:0:
159,8,23652,1,10,2:3:0:0:
408,219,23852,6,0,B|354:186|289:239|328:260|273:312|217:285,1,223.599998635254,6|2,3:2|3:2,0:0:0:0:
21,100,25052,5,10,2:0:0:0:
245,201,25252,1,2,3:2:0:0:
24,275,25452,5,10,2:0:0:0:
156,77,25652,1,2,3:2:0:0:
186,313,25852,6,0,P|241:303|297:294,1,79.1199973439942,6|0,3:2|0:0,0:0:0:0:
433,199,26252,1,10,2:0:0:0:
366,365,26452,1,8,2:0:0:0:
285,192,26652,2,0,P|275:153|263:115,1,79.1199973439942,0|0,3:2|0:0,0:0:0:0:
456,189,27052,2,0,P|443:232|434:269,1,79.1199973439942,8|0,2:0|0:0,0:0:0:0:
371,38,27452,6,0,P|409:29|447:17,1,79.1199973439942,0|0,3:2|0:0,0:0:0:0:
271,180,27852,1,0,3:2:0:0:
207,53,28052,1,10,2:0:0:0:
359,147,28252,1,2,3:2:0:0:
188,204,28452,1,2,2:0:0:0:
294,71,28652,1,10,2:0:0:0:
351,239,28852,5,10,2:0:0:0:
351,239,28952,1,8,2:0:0:0:
351,239,29052,2,0,B|262:214|286:274|191:256,1,158.239994687988,0|10,3:2|2:0,0:0:0:0:
62,164,29652,1,8,2:0:0:0:
205,55,29852,2,0,L|190:157,1,79.1199973439942,2|2,3:2|2:0,0:0:0:0:
220,323,30252,1,10,2:0:0:0:
0,250,30452,6,0,P|25:182|101:173,1,158.239994687988,2|0,2:0|0:0,0:0:0:0:
253,341,31052,1,10,2:0:0:0:
82,257,31252,1,10,2:0:0:0:
247,181,31452,1,6,3:2:0:0:
155,360,31652,1,10,2:0:0:0:
155,360,31752,1,8,2:0:0:0:
155,360,31852,1,2,3:2:0:0:
329,259,32052,5,10,2:3:0:0:
329,259,32152,1,8,2:3:0:0:
329,259,32252,2,0,B|428:226|428:226|477:247,1,158.239994687988,6|10,3:2|2:0,0:0:0:0:
404,370,32852,1,8,2:0:0:0:
266,304,33052,2,0,P|245:270|252:232,1,79.1199973439942,0|0,3:2|0:0,0:0:0:0:
336,48,33452,2,0,P|356:81|349:119,1,79.1199973439942,8|0,2:0|0:0,0:0:0:0:
107,135,33852,6,0,P|145:126|183:113,1,79.1199973439942,0|0,3:2|0:0,0:0:0:0:
337,206,34252,1,0,3:2:0:0:
186,264,34452,1,10,2:0:0:0:
269,106,34652,1,2,3:2:0:0:
287,292,34852,1,2,2:0:0:0:
187,159,35052,1,10,2:0:0:0:
114,314,35252,5,10,2:0:0:0:
114,314,35352,1,8,2:0:0:0:
114,314,35452,2,0,B|167:312|208:341|208:341|240:327|254:305,1,158.239994687988,2|10,3:2|2:0,0:0:0:0:
319,97,36052,1,10,2:0:0:0:
172,216,36252,1,2,3:2:0:0:
171,35,36452,1,2,2:0:0:0:
306,187,36652,1,10,2:0:0:0:
127,140,36852,6,0,P|99:69|146:10,1,158.239994687988,2|10,2:0|2:3,0:0:0:0:
299,164,37452,1,10,2:0:0:0:
276,172,37552,1,10,2:0:0:0:
252,179,37652,1,10,2:0:0:0:
47,243,37852,1,10,2:0:0:0:
66,284,38652,6,0,B|157:261|131:329|239:303,1,158.239994687988,6|10,3:2|2:0,0:0:0:0:
381,192,39252,1,0,0:0:0:0:
195,119,39452,5,10,2:0:0:0:
301,296,39652,1,2,3:2:0:0:
375,98,39852,5,10,2:0:0:0:
196,206,40052,1,2,3:2:0:0:
196,206,40152,1,0,0:0:0:0:
196,206,40252,2,0,P|125:218|61:151,1,158.239994687988,10|10,2:0|2:0,0:0:0:0:
221,45,40852,1,0,0:0:0:0:
345,186,41052,6,0,P|383:176|422:167,1,79.1199973439942,10|2,2:0|3:2,0:0:0:0:
291,43,41452,2,0,P|252:34|213:24,1,79.1199973439942,10|0,2:0|3:2,0:0:0:0:
51,197,41852,5,10,2:0:0:0:
238,126,42052,1,2,2:0:0:0:
68,33,42252,5,10,2:0:0:0:
228,205,42452,2,0,B|276:213|309:177|309:177|353:192|363:216,1,158.239994687988,2|2,2:0|3:2,0:0:0:0:
317,372,43052,2,0,P|301:336|309:298,1,79.1199973439942,10|2,2:0|3:2,0:0:0:0:
477,199,43452,5,10,2:0:0:0:
406,363,43652,1,2,2:0:0:0:
389,140,43852,5,10,2:0:0:0:
489,297,44052,1,2,2:0:0:0:
491,76,44252,5,10,2:0:0:0:
356,264,44452,1,2,3:2:0:0:
290,40,44652,5,10,2:0:0:0:
500,166,44852,1,2,3:2:0:0:
239,242,45052,6,0,B|158:215|171:279|88:255,1,158.239994687988,14|10,2:0|2:0,0:0:0:0:
269,116,45652,1,0,0:0:0:0:
85,41,45852,2,0,P|94:79|102:118,1,79.1199973439942,10|2,2:0|3:2,0:0:0:0:
267,211,46252,2,0,P|275:172|284:133,1,79.1199973439942,10|2,2:0|3:2,0:0:0:0:
95,252,46652,5,10,2:0:0:0:
302,354,46852,1,2,2:0:0:0:
177,149,47052,1,10,2:0:0:0:
112,358,47252,2,0,P|74:370|37:359,1,79.1199973439942,2|10,2:0|2:0,0:0:0:0:
196,172,47652,1,2,3:2:0:0:
302,368,47852,2,0,P|339:378|377:367,1,79.1199973439942,10|0,2:0|3:2,0:0:0:0:
206,142,48252,6,0,P|137:175|130:250,1,158.239994687988,14|10,2:0|2:0,0:0:0:0:
332,192,48852,1,2,2:0:0:0:
313,27,49052,2,0,P|275:19|236:10,1,79.1199973439942,10|0,2:0|3:2,0:0:0:0:
180,194,49452,1,10,2:0:0:0:
89,39,49652,1,2,3:2:0:0:
356,126,49852,6,0,P|343:163|333:201,1,79.1199973439942,10|0,2:0|0:0,0:0:0:0:
192,122,50252,1,10,2:0:0:0:
349,37,50452,2,0,P|385:25|423:34,1,79.1199973439942,2|10,2:0|2:0,0:0:0:0:
512,191,50852,1,2,3:2:0:0:
326,124,51052,1,10,2:0:0:0:
508,37,51252,1,2,3:2:0:0:
326,248,51452,6,0,P|250:260|193:209,1,158.239994687988,14|10,2:0|2:0,0:0:0:0:
109,31,52052,1,2,2:0:0:0:
291,170,52252,2,0,P|301:131|313:93,1,79.1199973439942,10|0,2:0|3:2,0:0:0:0:
119,247,52652,1,10,2:0:0:0:
311,344,52852,1,2,3:2:0:0:
172,156,53052,6,0,P|136:139|98:146,1,79.1199973439942,10|0,2:0|3:2,0:0:0:0:
208,346,53452,1,14,2:0:0:0:
304,154,53652,1,10,2:0:0:0:
304,154,53752,1,8,2:0:0:0:
304,154,53852,1,8,2:0:0:0:
115,248,54052,1,0,3:2:0:0:
276,288,54252,1,10,2:0:0:0:
210,187,54452,1,10,2:3:0:0:
124,278,54652,6,0,L|69:267,1,44.7199997270508,6|2,2:0|2:0,0:0:0:0:
0,161,55052,2,0,L|55:150,1,44.7199997270508,6|2,2:0|2:0,0:0:0:0:
139,255,55452,2,0,L|84:244,1,44.7199997270508,6|2,2:0|2:0,0:0:0:0:
15,138,55852,2,0,L|70:127,1,44.7199997270508,6|2,2:0|2:0,0:0:0:0:
264,76,56252,5,8,2:0:0:0:
19,116,57852,6,0,B|60:89|116:119|90:137|141:167|179:142,1,175.440001070801,6|8,3:2|2:0,0:0:0:0:
404,20,58452,1,4,2:3:0:0:
308,206,58652,2,0,P|296:163|284:121,1,87.7200005354004,0|6,3:2|2:3,0:0:0:0:
512,11,59052,2,0,P|500:53|488:95,1,87.7200005354004,10|6,2:0|2:3,0:0:0:0:
303,310,59452,1,2,3:2:0:0:
512,219,59652,1,6,2:3:0:0:
305,105,59852,2,0,P|263:93|221:107,1,87.7200005354004,10|4,2:0|2:3,0:0:0:0:
47,310,60252,1,2,3:2:0:0:
261,212,60452,1,6,2:3:0:0:
55,101,60652,1,10,2:0:0:0:
215,322,60852,5,6,2:3:0:0:
215,322,60952,1,10,0:2:0:0:
215,322,61052,2,0,P|256:334|299:327,1,87.7200005354004,0|6,3:2|2:3,0:0:0:0:
506,136,61452,2,0,P|464:123|421:130,1,87.7200005354004,10|6,2:0|2:3,0:0:0:0:
299,326,61852,1,2,3:2:0:0:
250,106,62052,1,6,2:3:0:0:
460,216,62252,1,10,2:0:0:0:
174,189,62452,6,0,P|134:114|179:44,1,175.440001070801,6|6,2:3|2:3,0:0:0:0:
430,216,63052,2,0,P|387:225|345:239,1,87.7200005354004,10|4,2:0|2:3,0:0:0:0:
200,40,63452,1,0,3:2:0:0:
385,131,63652,1,6,2:3:0:0:
183,220,63852,1,10,2:0:0:0:
372,29,64052,5,10,2:0:0:0:
372,29,64152,1,8,2:0:0:0:
372,29,64252,2,0,P|390:68|380:110,1,87.7200005354004,6|4,3:2|2:3,0:0:0:0:
184,266,64652,2,0,P|165:226|175:184,1,87.7200005354004,10|4,2:0|2:3,0:0:0:0:
406,338,65052,6,0,P|358:319|301:304,1,87.7200005354004,2|4,3:2|2:3,0:0:0:0:
155,163,65452,1,10,2:0:0:0:
241,364,65652,1,6,2:3:0:0:
380,152,65852,6,0,P|332:171|275:186,1,87.7200005354004,0|6,3:2|2:3,0:0:0:0:
3,127,66252,1,10,2:0:0:0:
179,261,66452,1,6,3:0:0:0:
138,31,66652,1,2,3:2:0:0:
15,233,66852,1,6,2:3:0:0:
232,129,67052,1,10,2:0:0:0:
0,47,67252,5,6,2:3:0:0:
0,47,67352,1,0,0:0:0:0:
0,46,67452,2,0,P|13:88|24:131,1,87.7200005354004,2|4,3:2|2:3,0:0:0:0:
244,258,67852,1,10,2:0:0:0:
150,84,68052,1,6,2:3:0:0:
12,274,68252,6,0,P|55:286|96:300,1,87.7200005354004,0|4,3:2|2:3,0:0:0:0:
279,116,68652,1,10,2:0:0:0:
86,202,68852,1,6,2:3:0:0:
260,321,69052,2,0,P|270:278|283:236,1,87.7200005354004,0|4,3:2|2:3,0:0:0:0:
192,56,69452,1,8,2:0:0:0:
379,185,69652,5,6,2:3:0:0:
164,223,69852,1,6,3:2:0:0:
313,42,70052,1,10,2:0:0:0:
313,42,70152,1,8,2:0:0:0:
313,42,70252,2,0,L|328:134,1,87.7200005354004,10|10,2:0|2:0,0:0:0:0:
413,169,70552,5,8,2:0:0:0:
413,169,70652,2,0,L|397:267,1,96.3200011757813,6|0,3:2|0:0,0:0:0:0:
254,384,71052,5,10,2:0:0:0:
452,330,71252,1,0,0:0:0:0:
270,169,71452,5,10,2:0:0:0:
358,368,71652,1,2,3:2:0:0:
283,154,71852,5,10,2:0:0:0:
170,347,72052,1,2,3:2:0:0:
382,194,72252,6,0,P|398:149|381:106,1,96.3200011757813,10|0,2:0|0:0,0:0:0:0:
160,121,72652,5,10,2:0:0:0:
286,294,72852,1,0,0:0:0:0:
255,53,73052,5,10,2:0:0:0:
154,279,73252,1,2,3:2:0:0:
66,39,73452,5,10,2:0:0:0:
304,150,73652,1,2,3:2:0:0:
73,258,73852,6,0,P|27:267|-14:247,1,96.3200011757813,10|0,2:0|0:0,0:0:0:0:
236,43,74252,2,0,P|282:33|324:53,1,96.3200011757813,10|0,2:0|0:0,0:0:0:0:
501,316,74652,5,10,2:0:0:0:
415,116,74852,1,2,3:2:0:0:
369,368,75052,5,10,2:0:0:0:
493,190,75252,1,2,3:2:0:0:
259,293,75452,6,0,P|178:271|143:262,1,96.3200011757813,10|0,2:0|0:0,0:0:0:0:
14,74,75852,1,14,2:0:0:0:
212,185,76052,1,8,2:0:0:0:
212,185,76152,1,8,2:0:0:0:
212,185,76252,1,8,2:0:0:0:
137,10,76452,1,2,3:2:0:0:
70,188,76652,1,10,2:3:0:0:
179,98,76852,1,2,3:2:0:0:
37,109,77052,6,0,P|-18:160|-1:234,2,158.239994687988,6|2|2,3:2|2:0|2:0,0:0:0:0:
232,0,78252,1,2,2:0:0:0:
298,197,78552,5,4,2:3:0:0:
298,197,78652,2,0,B|211:178|231:238|131:218,2,158.239994687988,2|2|2,2:3|2:0|2:0,0:0:0:0:
424,253,79852,2,0,P|418:226|424:200,1,54.1799983465577,2|0,2:0|0:0,0:0:0:0:
464,129,80252,6,0,B|381:100|381:100|331:118,1,141.0400021521,2|0,3:2|3:2,0:0:0:0:
232,202,80852,1,2,2:0:0:0:
380,344,81052,2,0,P|418:288|399:222,1,141.0400021521,2|0,3:2|3:2,0:0:0:0:
309,103,81652,1,2,2:0:0:0:
152,238,81852,2,0,B|231:222|215:272|300:255,1,141.0400021521,2|0,3:2|3:2,0:0:0:0:
453,155,82452,1,2,2:0:0:0:
320,93,82652,2,0,P|327:127|333:162,1,70.5200010760498,2|2,3:2|2:0,0:0:0:0:
453,239,83052,2,0,P|459:204|466:169,1,70.5200010760498,2|0,3:2|0:0,0:0:0:0:
239,304,83452,6,0,B|286:307|316:278|316:278|352:293|362:310,1,141.0400021521,2|0,3:2|3:2,0:0:0:0:
163,384,84052,1,2,2:0:0:0:
75,286,84252,2,0,B|53:261|32:249|32:249|62:163,1,141.0400021521,2|0,3:2|3:2,0:0:0:0:
233,160,84852,1,2,2:0:0:0:
120,56,85052,2,0,P|53:40|-1:82,1,141.0400021521,2|0,3:2|3:2,0:0:0:0:
188,280,85652,5,10,2:0:0:0:
200,256,85752,1,8,2:0:0:0:
212,232,85852,1,8,2:0:0:0:
311,63,86052,1,8,2:3:0:0:
62,152,86252,2,0,P|96:161|129:171,1,70.5200010760498,4|0,3:2|0:0,0:0:0:0:
219,19,86652,5,0,3:2:0:0:
219,19,86730,2,0,P|200:53|216:108,1,79.9799968269655,8|0,2:0|3:2,0:0:0:0:
261,160,87038,6,0,P|295:169|346:187,1,71.6594985785317,8|8,2:0|2:3,0:0:0:0:
414,148,87356,6,0,P|426:185|416:223,1,79.9799968269655,8|0,2:0|3:2,0:0:0:0:
363,293,87640,6,0,B|275:270|294:335|197:313,1,170.365993916986,8|8,2:0|2:3,0:0:0:0:
37,153,88268,5,4,2:0:0:0:
