osu file format v14

[General]
AudioFilename: audio.mp3
AudioLeadIn: 0
PreviewTime: 56552
Countdown: 0
SampleSet: Soft
StackLeniency: 0.3
Mode: 0
LetterboxInBreaks: 0
WidescreenStoryboard: 1

[Editor]
DistanceSpacing: 1.4
BeatDivisor: 8
GridSize: 4
TimelineZoom: 1.8

[Metadata]
Title:Fuzaketenaize (TV Size)
TitleUnicode:ふざけてないぜ (TV Size)
Artist:Necry Talkie
ArtistUnicode:ネクライトーキー
Creator:Kyutei
Version:Pepekcz's Hard
Source:カノジョも彼女
Tags:カノジョもかのじょ KanoKano Kanojo mo Kanojo Girlfriend, Girlfriend -Magic- is also my Girlfriend She Anime opening op japanese pop jpop j-pop Pepekcz My Angel Ram My_Angel_Ram Crissa Eula-
BeatmapID:3142046
BeatmapSetID:1533272

[Difficulty]
HPDrainRate:4.2
CircleSize:3.6
OverallDifficulty:7
ApproachRate:8
SliderMultiplier:1.4
SliderTickRate:1

[Events]
//Background and Video events
0,0,"bgowo.jpg",0,0
Video,-400,"kanokano_op.mp4"
//Break Periods
//Storyboard Layer 0 (Background)
//Storyboard Layer 1 (Fail)
//Storyboard Layer 2 (Pass)
//Storyboard Layer 3 (Foreground)
//Storyboard Layer 4 (Overlay)
//Storyboard Sound Samples

[TimingPoints]
252,400,4,2,12,40,1,0
252,-125,4,2,12,40,0,0
1852,-125,4,2,12,45,0,0
25852,-111.111111111111,4,2,12,50,0,0
31452,-111.111111111111,4,2,13,50,0,0
31652,-111.111111111111,4,2,13,50,0,0
32052,-111.111111111111,4,2,12,50,0,0
38652,-111.111111111111,4,2,12,55,0,0
54652,-125,4,2,13,45,0,0
57852,-100,4,2,11,65,0,1
58052,-100,4,2,12,65,0,1
70652,-100,4,2,12,60,0,0
77052,-111.111111111111,4,2,12,40,0,0
78452,-111.111111111111,4,2,13,30,0,0
78652,-111.111111111111,4,2,13,60,0,0
79052,-111.111111111111,4,2,13,40,0,0
79852,-111.111111111111,4,2,13,40,0,0
80252,-111.111111111111,4,2,13,45,0,0
86052,-111.111111111111,4,2,12,45,0,0
86652,310.880829015544,4,2,12,45,1,0
86652,-111.111111111111,4,2,12,45,0,0
86690,-111.111111111111,4,2,13,45,0,0
86967,285.714285714286,4,2,13,45,1,0
86967,-111.111111111111,4,2,13,45,0,0
87278,315.789473684211,4,2,13,45,1,0
87278,-111.111111111111,4,2,13,45,0,0
87593,327.868852459016,4,2,13,45,1,0
87593,-111.111111111111,4,2,13,45,0,0
87640,285.714285714286,4,2,13,45,1,0
87640,-111.111111111111,4,2,13,45,0,0
87925,352.941176470588,4,2,13,45,1,0
87925,-111.111111111111,4,2,13,45,0,0
88268,352.941176470588,4,2,12,75,1,0
88268,-111.111111111111,4,2,12,75,0,0

[Colours]
Combo1 : 67,166,194
Combo2 : 244,94,123
Combo3 : 105,145,209
Combo4 : 228,141,99

[HitObjects]
40,116,252,6,0,B|92:108|76:180|144:172,1,112,0|0,3:2|3:2,0:0:0:0:
260,84,1052,1,0,3:2:0:0:
388,176,1452,2,0,L|371:258,1,84,2|0,3:2|0:0,0:0:0:0:
364,296,1852,6,0,P|316:332|264:304,1,112,2|0,3:2|3:2,0:0:0:0:
224,252,2452,1,2,2:0:0:0:
176,188,2652,2,0,P|124:202|68:220,1,112,2|0,3:2|3:2,0:0:0:0:
20,284,3252,1,2,2:0:0:0:
76,340,3452,6,0,B|120:372|120:372|168:340,1,112,2|0,3:2|3:2,0:0:0:0:
224,284,4052,1,2,2:0:0:0:
280,231,4252,2,0,P|307:230|328:247,1,56,2|2,3:2|2:0,0:0:0:0:
376,312,4652,2,0,P|420:308|440:268,1,84,2|0,3:2|0:0,0:0:0:0:
440,236,5052,6,0,P|425:183|408:128,1,112,2|0,3:2|3:2,0:0:0:0:
372,60,5652,1,2,2:0:0:0:
300,24,5852,2,0,B|248:16|264:88|196:80,1,112,2|0,3:2|3:2,0:0:0:0:
140,48,6452,1,2,2:0:0:0:
64,24,6652,6,0,P|24:48|28:120,1,112,2|0,3:2|3:2,0:0:0:0:
72,168,7252,1,2,2:0:0:0:
128,224,7452,2,0,P|155:213|184:204,1,56,2|2,3:2|2:0,0:0:0:0:
244,160,7852,2,0,P|285:173|332:192,1,84,2|0,3:2|0:0,0:0:0:0:
360,204,8252,6,0,P|399:239|391:292,1,112,2|2,3:2|3:2,0:0:0:0:
344,356,8852,1,2,2:0:0:0:
276,316,9052,2,0,B|224:308|240:380|172:372,1,112,2|0,3:2|3:2,0:0:0:0:
116,336,9652,1,2,2:0:0:0:
56,288,9852,2,0,B|24:252|24:252|48:188,1,112,2|0,3:2|3:2,0:0:0:0:
92,128,10452,1,2,2:0:0:0:
152,80,10652,6,0,P|172:60|212:64,1,56,2|2,3:2|2:0,0:0:0:0:
251,115,11052,2,0,P|284:140|324:131,1,84,2|0,3:2|0:0,0:0:0:0:
344,100,11452,6,0,B|384:60|384:60|434:81,1,112,2|2,3:2|3:2,0:0:0:0:
508,112,12052,1,2,2:0:0:0:
456,172,12252,2,0,P|470:224|484:280,1,112,2|2,3:2|3:2,0:0:0:0:
452,352,12852,1,2,2:0:0:0:
392,300,13052,6,0,P|356:259|303:267,1,112,2|2,3:2|3:2,0:0:0:0:
248,324,13652,1,2,2:0:0:0:
180,364,13852,2,0,L|112:348,1,56,2|2,3:2|2:0,0:0:0:0:
56,316,14252,2,0,L|80:228,1,84,2|0,3:2|0:0,0:0:0:0:
88,196,14652,6,0,B|141:203|125:131|177:139,1,112,2|2,3:2|3:2,0:0:0:0:
236,188,15252,1,2,2:0:0:0:
284,248,15452,2,0,P|343:263|410:280,1,112,2|2,3:2|3:2,0:0:0:0:
440,216,16052,1,2,2:0:0:0:
480,148,16252,6,0,P|492:88|432:64,1,112,2|0,3:2|3:2,0:0:0:0:
380,80,16852,1,2,2:0:0:0:
312,120,17052,2,0,P|283:113|256:108,1,56,2|2,3:2|2:0,0:0:0:0:
204,48,17452,2,0,P|162:39|121:30,1,84,2|0,3:2|0:0,0:0:0:0:
84,24,17852,6,0,B|99:75|26:70|42:120,1,112,2|2,3:2|3:2,0:0:0:0:
56,196,18452,1,2,2:0:0:0:
108,256,18652,2,0,P|162:268|220:284,1,112,2|2,3:2|3:2,0:0:0:0:
292,304,19252,1,2,2:0:0:0:
348,360,19452,6,0,B|401:367|385:295|437:303,1,112,2|2,3:2|3:2,0:0:0:0:
484,240,20052,1,2,2:0:0:0:
448,172,20252,2,0,P|428:152|392:156,1,56,2|2,3:2|2:0,0:0:0:0:
344,208,20652,2,0,P|312:248|268:240,1,84,2|0,3:2|0:0,0:0:0:0:
248,232,21052,6,0,B|194:224|210:296|158:288,1,112,2|0,3:2|3:2,0:0:0:0:
88,256,21652,1,2,2:0:0:0:
28,204,21852,2,0,B|4:152|4:152|48:100,1,112,2|0,3:2|3:2,0:0:0:0:
108,72,22452,1,2,2:0:0:0:
180,40,22652,6,0,P|235:52|296:68,1,112,2|0,3:2|3:2,0:0:0:0:
356,28,23252,1,10,2:0:0:0:
356,28,23352,1,10,2:0:0:0:
356,28,23452,1,10,2:0:0:0:
420,76,23652,1,10,2:3:0:0:
376,184,23852,6,0,B|316:128|228:212|316:240|260:340|180:296,1,280,6|2,3:2|3:2,0:0:0:0:
120,256,25052,1,10,2:0:0:0:
120,256,25252,1,2,3:2:0:0:
176,200,25452,1,10,2:0:0:0:
176,200,25652,1,2,3:2:0:0:
80,120,25852,6,0,P|104:76|176:84,1,125.999996154785,6|10,3:2|2:0,0:0:0:0:
240,144,26452,1,8,2:0:0:0:
240,144,26652,2,0,P|288:129|340:116,1,94.499997116089,0|0,3:2|0:0,0:0:0:0:
372,104,27052,1,8,2:0:0:0:
444,156,27252,6,0,P|436:188|424:232,1,62.9999980773926,0|0,0:0|3:2,0:0:0:0:
384,296,27652,2,0,P|353:288|323:280,1,62.9999980773926,0|0,0:0|3:2,0:0:0:0:
252,228,28052,1,10,2:0:0:0:
188,168,28252,2,0,P|152:164|132:184,1,62.9999980773926,2|2,3:2|2:0,0:0:0:0:
80,252,28652,1,10,2:0:0:0:
176,328,28852,5,10,2:0:0:0:
176,328,28952,1,8,2:0:0:0:
176,328,29052,2,0,P|239:342|308:359,1,125.999996154785,0|10,3:2|2:0,0:0:0:0:
380,320,29652,1,8,2:0:0:0:
380,320,29852,2,0,P|372:288|364:256,1,62.9999980773926,2|2,3:2|2:0,0:0:0:0:
416,188,30252,1,10,2:0:0:0:
360,120,30452,6,0,B|300:100|312:188|252:168,1,125.999996154785,2|0,2:0|0:0,0:0:0:0:
184,116,31052,1,10,2:0:0:0:
120,56,31252,2,0,P|89:53|65:72,1,62.9999980773926,10|6,2:0|3:2,0:0:0:0:
28,156,31652,1,10,2:0:0:0:
28,156,31752,1,8,2:0:0:0:
28,156,31852,2,0,L|36:200,3,31.4999990386963,2|0|10|8,3:2|3:2|2:3|2:3,0:0:0:0:
48,228,32252,6,0,B|111:206|88:292|160:272,1,125.999996154785,6|10,3:2|2:0,0:0:0:0:
224,220,32852,1,8,2:0:0:0:
224,220,33052,2,0,B|268:200|268:200|300:236,1,94.499997116089,0|0,3:2|0:0,0:0:0:0:
328,268,33452,1,8,2:0:0:0:
404,308,33652,6,0,L|472:284,1,62.9999980773926,0|0,0:0|3:2,0:0:0:0:
508,208,34052,2,0,L|488:148,1,62.9999980773926,0|0,0:0|3:2,0:0:0:0:
508,64,34452,1,10,2:0:0:0:
428,24,34652,2,0,P|396:24|372:48,1,62.9999980773926,2|2,3:2|2:0,0:0:0:0:
328,120,35052,1,10,2:0:0:0:
252,212,35252,5,10,2:0:0:0:
252,212,35352,1,8,2:0:0:0:
252,212,35452,2,0,P|194:194|132:176,1,125.999996154785,2|10,3:2|2:0,0:0:0:0:
48,156,36052,1,10,2:0:0:0:
48,156,36252,2,0,P|55:185|63:217,1,62.9999980773926,2|2,3:2|2:0,0:0:0:0:
92,300,36652,1,10,2:0:0:0:
156,360,36852,6,0,P|208:368|232:304,1,125.999996154785,2|10,2:0|2:3,0:0:0:0:
212,236,37452,1,10,2:0:0:0:
212,236,37552,1,10,2:0:0:0:
212,236,37652,1,10,2:0:0:0:
272,172,37852,1,10,2:0:0:0:
496,24,38652,6,0,P|486:52|476:88,1,62.9999980773926,6|0,3:2|0:0,0:0:0:0:
408,140,39052,2,0,P|417:169|428:204,1,62.9999980773926,10|0,2:0|0:0,0:0:0:0:
456,284,39452,1,10,2:0:0:0:
456,284,39652,1,2,3:2:0:0:
400,352,39852,1,10,2:0:0:0:
344,284,40052,6,0,P|320:264|276:272,1,62.9999980773926,2|10,3:2|2:0,0:0:0:0:
224,324,40452,1,0,0:0:0:0:
152,372,40652,2,0,P|121:372|97:352,1,62.9999980773926,10|0,2:0|0:0,0:0:0:0:
40,284,41052,1,10,2:0:0:0:
40,284,41252,1,2,3:2:0:0:
104,224,41452,2,0,P|95:190|84:148,1,62.9999980773926,10|0,2:0|3:2,0:0:0:0:
24,100,41852,5,10,2:0:0:0:
24,100,42052,1,2,2:0:0:0:
84,36,42252,1,10,2:0:0:0:
147,95,42452,2,0,P|174:111|205:107,1,62.9999980773926,2|10,2:0|2:0,0:0:0:0:
280,60,42852,1,2,3:2:0:0:
340,124,43052,2,0,P|331:155|324:188,1,62.9999980773926,10|2,2:0|3:2,0:0:0:0:
256,240,43452,6,0,P|264:271|272:304,1,62.9999980773926,10|2,2:0|2:0,0:0:0:0:
344,352,43852,2,0,P|375:343|408:336,1,62.9999980773926,10|2,2:0|2:0,0:0:0:0:
472,280,44252,1,10,2:0:0:0:
472,280,44452,1,2,3:2:0:0:
400,228,44652,1,10,2:0:0:0:
400,228,44852,1,2,3:2:0:0:
500,156,45052,6,0,P|496:120|472:100,1,62.9999980773926,14|0,2:0|0:0,0:0:0:0:
396,72,45452,2,0,P|366:80|332:92,1,62.9999980773926,10|0,2:0|0:0,0:0:0:0:
264,140,45852,2,0,P|234:130|203:121,1,62.9999980773926,10|2,2:0|3:2,0:0:0:0:
136,68,46252,1,10,2:0:0:0:
136,68,46452,1,2,3:2:0:0:
68,124,46652,6,0,P|59:154|51:184,1,62.9999980773926,10|2,2:0|2:0,0:0:0:0:
36,272,47052,1,10,2:0:0:0:
100,332,47252,2,0,P|136:336|160:312,1,62.9999980773926,2|10,2:0|2:0,0:0:0:0:
208,248,47652,1,2,3:2:0:0:
268,180,47852,2,0,P|304:176|328:200,1,62.9999980773926,10|0,2:0|3:2,0:0:0:0:
383,291,48252,6,0,P|424:312|464:290,1,94.499997116089,14|0,2:0|0:0,0:0:0:0:
484,252,48652,1,10,2:0:0:0:
472,164,48852,2,0,P|413:143|352:124,1,125.999996154785,2|0,2:0|3:2,0:0:0:0:
264,136,49452,1,10,2:0:0:0:
196,76,49652,6,0,B|136:56|148:144|88:124,1,125.999996154785,2|0,3:2|0:0,0:0:0:0:
16,80,50252,1,10,2:0:0:0:
20,168,50452,2,0,L|32:240,1,62.9999980773926,2|10,2:0|2:0,0:0:0:0:
72,308,50852,1,2,3:2:0:0:
140,252,51052,1,10,2:0:0:0:
140,252,51252,1,2,3:2:0:0:
212,340,51452,6,0,P|268:340|288:272,1,125.999996154785,14|10,2:0|2:0,0:0:0:0:
240,212,52052,2,0,B|200:164|200:164|240:112,1,125.999996154785,2|0,2:0|3:2,0:0:0:0:
312,64,52652,1,10,2:0:0:0:
392,104,52852,6,0,P|405:165|419:226,1,125.999996154785,2|0,3:2|3:2,0:0:0:0:
500,312,53452,1,14,2:0:0:0:
436,368,53652,1,10,2:0:0:0:
436,368,53752,1,8,2:0:0:0:
436,368,53852,2,0,P|404:361|372:356,1,62.9999980773926,8|0,2:0|3:2,0:0:0:0:
304,304,54252,1,10,2:0:0:0:
304,304,54452,1,10,2:3:0:0:
232,232,54652,6,0,P|176:224|148:276,1,112,6|6,2:0|2:0,0:0:0:0:
40,380,55452,2,0,L|56:320,1,56,6|2,2:0|2:0,0:0:0:0:
20,256,55852,2,0,L|4:196,1,56,6|2,2:0|2:0,0:0:0:0:
56,140,56252,1,8,2:0:0:0:
0,20,57852,6,0,B|68:8|40:104|112:88,1,140,6|8,3:2|2:0,0:0:0:0:
196,48,58452,1,4,2:3:0:0:
260,124,58652,2,0,P|294:113|328:104,1,70,0|6,3:2|2:3,0:0:0:0:
400,36,59052,2,0,P|433:45|467:55,1,70,10|6,2:0|2:3,0:0:0:0:
512,136,59452,1,2,3:2:0:0:
436,200,59652,1,6,2:3:0:0:
496,280,59852,6,0,P|472:308|432:308,1,70,10|4,2:0|2:3,0:0:0:0:
348,276,60252,1,2,3:2:0:0:
348,276,60452,1,6,2:3:0:0:
276,208,60652,1,10,2:0:0:0:
228,296,60852,5,6,2:3:0:0:
228,296,60952,1,10,0:2:0:0:
228,296,61052,2,0,P|189:303|152:312,1,70,0|6,3:2|2:3,0:0:0:0:
64,332,61452,2,0,P|71:293|80:256,1,70,10|6,2:0|2:3,0:0:0:0:
152,196,61852,2,0,P|144:157|136:120,1,70,2|6,3:2|2:3,0:0:0:0:
64,64,62252,1,10,2:0:0:0:
152,16,62452,6,0,P|213:34|288:56,1,140,6|6,2:3|2:3,0:0:0:0:
380,20,63052,2,0,B|420:64|420:64|388:144,1,140,10|0,2:0|3:2,0:0:0:0:
304,184,63652,1,6,2:3:0:0:
360,264,63852,1,10,2:0:0:0:
260,352,64052,5,10,2:0:0:0:
260,352,64152,1,8,2:0:0:0:
259,351,64252,2,0,L|372:380,1,105,6|0,3:2|0:0,0:0:0:0:
408,380,64652,2,0,P|430:355|428:321,1,70,10|4,2:0|2:3,0:0:0:0:
352,256,65052,2,0,P|349:221|371:196,1,70,2|4,3:2|2:3,0:0:0:0:
460,152,65452,1,10,2:0:0:0:
412,64,65652,6,0,P|378:72|336:84,1,70,6|0,2:3|3:2,0:0:0:0:
264,140,66052,1,6,2:3:0:0:
208,64,66252,1,10,2:0:0:0:
208,64,66452,1,6,3:0:0:0:
124,112,66652,2,0,P|114:145|104:180,1,70,2|6,3:2|2:3,0:0:0:0:
36,248,67052,2,0,P|45:281|56:316,1,70,10|6,2:0|2:3,0:0:0:0:
132,376,67452,6,0,B|186:385|164:308|221:321,1,105,2|0,3:2|0:0,0:0:0:0:
256,336,67852,1,10,2:0:0:0:
328,272,68052,1,6,2:3:0:0:
392,348,68252,2,0,P|425:350|450:326,1,70,0|4,3:2|2:3,0:0:0:0:
492,236,68652,1,10,2:0:0:0:
436,156,68852,6,0,B|369:144|397:240|330:225,1,140,6|4,2:3|2:3,0:0:0:0:
248,168,69452,2,0,P|208:172|188:200,1,70,8|6,2:0|2:3,0:0:0:0:
132,272,69852,1,6,3:2:0:0:
68,216,70052,1,10,2:0:0:0:
68,216,70152,1,8,2:0:0:0:
68,216,70252,1,10,2:0:0:0:
144,100,70452,5,10,2:0:0:0:
144,100,70552,1,8,2:0:0:0:
144,100,70652,2,0,P|196:83|248:68,1,105,6|0,3:2|0:0,0:0:0:0:
288,44,71052,2,0,P|320:54|356:68,1,70,10|0,2:0|0:0,0:0:0:0:
440,116,71452,2,0,P|464:139|465:173,1,70,10|2,2:0|3:2,0:0:0:0:
412,256,71852,1,10,2:0:0:0:
340,324,72052,6,0,P|305:316|272:308,1,70,2|10,3:2|2:0,0:0:0:0:
200,244,72452,2,0,P|165:252|131:260,1,70,0|10,0:0|2:0,0:0:0:0:
40,292,72852,2,0,L|56:364,2,70,0|10|2,0:0|2:0|3:2,0:0:0:0:
44,196,73452,1,10,2:0:0:0:
128,144,73652,6,0,P|165:151|208:160,1,70,2|10,3:2|2:0,0:0:0:0:
244,244,74052,2,0,P|281:251|324:260,1,70,0|10,0:0|2:0,0:0:0:0:
400,300,74452,1,0,0:0:0:0:
476,236,74652,2,0,P|483:270|490:304,2,70,10|2|10,2:0|3:2|2:0,0:0:0:0:
456,140,75252,6,0,P|431:115|397:116,1,70,2|10,3:2|2:0,0:0:0:0:
308,156,75652,1,0,0:0:0:0:
256,72,75852,1,14,2:0:0:0:
184,136,76052,1,8,2:0:0:0:
184,136,76152,1,8,2:0:0:0:
184,136,76252,2,0,P|145:126|112:120,1,70,8|2,2:0|3:2,0:0:0:0:
20,92,76652,2,0,P|30:129|40:168,1,70,10|2,2:3|3:2,0:0:0:0:
88,236,77052,6,0,P|73:300|60:364,2,125.999996154785,6|2|2,3:2|2:0|2:0,0:0:0:0:
212,108,78252,2,0,P|258:106|290:140,1,94.499997116089,2|4,2:0|2:3,0:0:0:0:
308,180,78652,6,0,B|368:192|352:116|412:128,2,125.999996154785,2|2|2,2:3|2:0|2:0,0:0:0:0:
220,28,79852,2,0,P|174:26|142:60,1,94.499997116089,2|0,2:0|0:0,0:0:0:0:
124,100,80252,6,0,P|138:160|156:232,1,125.999996154785,2|0,3:2|3:2,0:0:0:0:
180,308,80852,1,2,2:0:0:0:
256,268,81052,2,0,B|316:248|304:336|364:316,1,125.999996154785,2|0,3:2|3:2,0:0:0:0:
436,276,81652,1,2,2:0:0:0:
484,204,81852,6,0,B|512:148|512:148|460:108,1,125.999996154785,2|0,3:2|3:2,0:0:0:0:
380,76,82452,1,2,2:0:0:0:
308,128,82652,2,0,L|324:200,1,62.9999980773926,2|2,3:2|2:0,0:0:0:0:
392,240,83052,2,0,L|368:340,1,94.499997116089,2|0,3:2|0:0,0:0:0:0:
332,356,83452,6,0,P|275:374|236:329,1,125.999996154785,2|0,3:2|3:2,0:0:0:0:
272,248,84052,1,2,2:0:0:0:
204,192,84252,2,0,B|144:172|156:260|96:240,1,125.999996154785,2|0,3:2|3:2,0:0:0:0:
36,180,84852,1,2,2:0:0:0:
48,92,85052,6,0,P|80:40|148:56,1,125.999996154785,2|0,3:2|3:2,0:0:0:0:
192,116,85652,1,10,2:0:0:0:
192,116,85752,1,8,2:0:0:0:
192,116,85852,1,8,2:0:0:0:
248,48,86052,1,8,2:3:0:0:
320,136,86252,6,0,P|368:171|422:146,1,125.999996154785,4|0,3:2|3:2,0:0:0:0:
448,108,86730,6,0,P|459:152|472:200,1,94.499997116089,8|0,2:0|3:2,0:0:0:0:
492,224,87038,2,0,P|480:268|468:316,1,94.499997116089,8|8,2:0|2:3,0:0:0:0:
452,352,87356,6,0,L|416:340,3,31.4999990386963,8|8|8|0,2:0|2:3|2:3|3:2,0:0:0:0:
400,320,87640,2,0,P|343:333|268:352,1,125.999996154785,8|8,2:0|2:3,0:0:0:0:
136,252,88268,5,4,2:0:0:0:
