osu file format v14

[General]
AudioFilename: audio.mp3
AudioLeadIn: 0
PreviewTime: 56552
Countdown: 0
SampleSet: Soft
StackLeniency: 0.3
Mode: 0
LetterboxInBreaks: 0
WidescreenStoryboard: 1

[Editor]
DistanceSpacing: 2
BeatDivisor: 4
GridSize: 32
TimelineZoom: 1.8

[Metadata]
Title:Fuzaketenaize (TV Size)
TitleUnicode:ふざけてないぜ (TV Size)
Artist:Necry Talkie
ArtistUnicode:ネクライトーキー
Creator:Kyutei
Version:Feelings
Source:カノジョも彼女
Tags:カノジョもかのじょ KanoKano Kanojo mo Kanojo Girlfriend, Girlfriend -Magic- is also my Girlfriend She Anime opening op japanese pop jpop j-pop Pepekcz My Angel Ram My_Angel_Ram Crissa Eula-
BeatmapID:3135602
BeatmapSetID:1533272

[Difficulty]
HPDrainRate:5.8
CircleSize:4
OverallDifficulty:8.8
ApproachRate:9.2
SliderMultiplier:2
SliderTickRate:1

[Events]
//Background and Video events
0,0,"bgowo.jpg",0,0
Video,-400,"kanokano_op.mp4"
//Break Periods
//Storyboard Layer 0 (Background)
//Storyboard Layer 1 (Fail)
//Storyboard Layer 2 (Pass)
//Storyboard Layer 3 (Foreground)
//Storyboard Layer 4 (Overlay)
//Storyboard Sound Samples

[TimingPoints]
252,400,4,2,12,40,1,0
1452,-200,4,2,12,40,0,0
1752,-100,4,2,12,5,0,0
1852,-100,4,2,12,45,0,0
2152,-100,4,2,12,5,0,0
2252,-100,4,2,12,45,0,0
2552,-100,4,2,12,5,0,0
2652,-76.9230769230769,4,2,12,45,0,0
2952,-100,4,2,12,5,0,0
3052,-76.9230769230769,4,2,12,45,0,0
3252,-100,4,2,12,45,0,0
3352,-100,4,2,12,5,0,0
3452,-76.9230769230769,4,2,12,45,0,0
3752,-100,4,2,12,5,0,0
3852,-76.9230769230769,4,2,12,45,0,0
4152,-100,4,2,12,5,0,0
4252,-76.9230769230769,4,2,12,45,0,0
4352,-100,4,2,12,5,0,0
4452,-76.9230769230769,4,2,12,45,0,0
4552,-100,4,2,12,5,0,0
4652,-76.9230769230769,4,2,12,45,0,0
4952,-100,4,2,12,5,0,0
5052,-76.9230769230769,4,2,12,45,0,0
5352,-100,4,2,12,5,0,0
5452,-76.9230769230769,4,2,12,45,0,0
5652,-100,4,2,12,45,0,0
5752,-100,4,2,12,5,0,0
5852,-76.9230769230769,4,2,12,45,0,0
6152,-100,4,2,12,5,0,0
6252,-76.9230769230769,4,2,12,45,0,0
6452,-100,4,2,12,45,0,0
6552,-100,4,2,12,5,0,0
6652,-76.9230769230769,4,2,12,45,0,0
6952,-100,4,2,12,5,0,0
7052,-76.9230769230769,4,2,12,45,0,0
7352,-100,4,2,12,5,0,0
7452,-76.9230769230769,4,2,12,45,0,0
7552,-100,4,2,12,5,0,0
7652,-76.9230769230769,4,2,12,45,0,0
7752,-100,4,2,12,5,0,0
7852,-76.9230769230769,4,2,12,45,0,0
8152,-100,4,2,12,5,0,0
8252,-76.9230769230769,4,2,12,45,0,0
8552,-100,4,2,12,5,0,0
8652,-76.9230769230769,4,2,12,45,0,0
8852,-100,4,2,12,45,0,0
8952,-100,4,2,12,5,0,0
9052,-76.9230769230769,4,2,12,45,0,0
9352,-100,4,2,12,5,0,0
9452,-76.9230769230769,4,2,12,45,0,0
9652,-100,4,2,12,45,0,0
9752,-100,4,2,12,5,0,0
9852,-76.9230769230769,4,2,12,45,0,0
10152,-100,4,2,12,5,0,0
10252,-76.9230769230769,4,2,12,45,0,0
10552,-100,4,2,12,5,0,0
10652,-76.9230769230769,4,2,12,45,0,0
10752,-100,4,2,12,5,0,0
10852,-76.9230769230769,4,2,12,45,0,0
10952,-100,4,2,12,5,0,0
11052,-76.9230769230769,4,2,12,45,0,0
11352,-100,4,2,12,5,0,0
11452,-76.9230769230769,4,2,12,45,0,0
11752,-100,4,2,12,5,0,0
11852,-76.9230769230769,4,2,12,45,0,0
12052,-100,4,2,12,45,0,0
12152,-100,4,2,12,5,0,0
12252,-76.9230769230769,4,2,12,45,0,0
12552,-100,4,2,12,5,0,0
12652,-76.9230769230769,4,2,12,45,0,0
12852,-100,4,2,12,45,0,0
12952,-100,4,2,12,5,0,0
13052,-76.9230769230769,4,2,12,45,0,0
13352,-100,4,2,12,5,0,0
13452,-76.9230769230769,4,2,12,45,0,0
13752,-100,4,2,12,5,0,0
13852,-76.9230769230769,4,2,12,45,0,0
13952,-100,4,2,12,5,0,0
14052,-76.9230769230769,4,2,12,45,0,0
14152,-100,4,2,12,5,0,0
14252,-76.9230769230769,4,2,12,45,0,0
14552,-100,4,2,12,5,0,0
14652,-76.9230769230769,4,2,12,45,0,0
14952,-100,4,2,12,5,0,0
15052,-76.9230769230769,4,2,12,45,0,0
15252,-100,4,2,12,45,0,0
15352,-100,4,2,12,5,0,0
15452,-76.9230769230769,4,2,12,45,0,0
15752,-100,4,2,12,5,0,0
15852,-76.9230769230769,4,2,12,45,0,0
16052,-100,4,2,12,45,0,0
16152,-100,4,2,12,5,0,0
16252,-76.9230769230769,4,2,12,45,0,0
16552,-100,4,2,12,5,0,0
16652,-76.9230769230769,4,2,12,45,0,0
16952,-100,4,2,12,5,0,0
17052,-76.9230769230769,4,2,12,45,0,0
17152,-100,4,2,12,5,0,0
17252,-76.9230769230769,4,2,12,45,0,0
17352,-100,4,2,12,5,0,0
17452,-76.9230769230769,4,2,12,45,0,0
17752,-100,4,2,12,5,0,0
17852,-62.5,4,2,12,45,0,0
18152,-100,4,2,12,5,0,0
18252,-62.5,4,2,12,45,0,0
18452,-100,4,2,12,45,0,0
18552,-100,4,2,12,5,0,0
18652,-76.9230769230769,4,2,12,45,0,0
18952,-100,4,2,12,5,0,0
19052,-76.9230769230769,4,2,12,45,0,0
19252,-100,4,2,12,45,0,0
19352,-100,4,2,12,5,0,0
19452,-76.9230769230769,4,2,12,45,0,0
19752,-100,4,2,12,5,0,0
19852,-76.9230769230769,4,2,12,45,0,0
20152,-100,4,2,12,5,0,0
20252,-76.9230769230769,4,2,12,45,0,0
20352,-100,4,2,12,5,0,0
20452,-76.9230769230769,4,2,12,45,0,0
20552,-100,4,2,12,5,0,0
20652,-76.9230769230769,4,2,12,45,0,0
20952,-100,4,2,12,5,0,0
21052,-76.9230769230769,4,2,12,45,0,0
21352,-100,4,2,12,5,0,0
21452,-76.9230769230769,4,2,12,45,0,0
21652,-100,4,2,12,45,0,0
21752,-100,4,2,12,5,0,0
21852,-76.9230769230769,4,2,12,45,0,0
22152,-100,4,2,12,5,0,0
22252,-76.9230769230769,4,2,12,45,0,0
22452,-100,4,2,12,45,0,0
22552,-100,4,2,12,5,0,0
22652,-76.9230769230769,4,2,12,45,0,0
22952,-100,4,2,12,5,0,0
23052,-76.9230769230769,4,2,12,45,0,0
23552,-100,4,2,12,5,0,0
23652,-52.6315789473684,4,2,12,45,0,0
23752,-100,4,2,12,5,0,0
23852,-52.6315789473684,4,2,12,45,0,0
25052,-62.5,4,2,12,45,0,0
25152,-100,4,2,12,5,0,0
25252,-62.5,4,2,12,45,0,0
25352,-100,4,2,12,5,0,0
25452,-62.5,4,2,12,45,0,0
25852,-71.4285714285714,4,2,12,50,0,0
26152,-100,4,2,12,5,0,0
26252,-71.4285714285714,4,2,12,50,0,0
26352,-100,4,2,12,5,0,0
26452,-71.4285714285714,4,2,12,50,0,0
26552,-100,4,2,12,5,0,0
26652,-71.4285714285714,4,2,12,50,0,0
26952,-100,4,2,12,5,0,0
27052,-142.857142857143,4,2,12,50,0,0
27452,-71.4285714285714,4,2,12,50,0,0
27752,-100,4,2,12,5,0,0
27852,-142.857142857143,4,2,12,50,0,0
27952,-100,4,2,12,5,0,0
28052,-71.4285714285714,4,2,12,50,0,0
28152,-100,4,2,12,5,0,0
28252,-71.4285714285714,4,2,12,50,0,0
28752,-100,4,2,12,5,0,0
28852,-71.4285714285714,4,2,12,50,0,0
29352,-100,4,2,12,5,0,0
29452,-71.4285714285714,4,2,12,50,0,0
29552,-100,4,2,12,5,0,0
29652,-71.4285714285714,4,2,12,50,0,0
29752,-100,4,2,12,5,0,0
29852,-71.4285714285714,4,2,12,50,0,0
30152,-100,4,2,12,5,0,0
30252,-71.4285714285714,4,2,12,50,0,0
30352,-100,4,2,12,5,0,0
30452,-71.4285714285714,4,2,12,50,0,0
30652,-62.5,4,2,12,50,0,0
30952,-100,4,2,12,5,0,0
31052,-71.4285714285714,4,2,12,50,0,0
31152,-100,4,2,12,5,0,0
31252,-71.4285714285714,4,2,12,50,0,0
31352,-100,4,2,12,5,0,0
31452,-71.4285714285714,4,2,13,50,0,0
31552,-100,4,2,12,5,0,0
31652,-71.4285714285714,4,2,13,50,0,0
32052,-71.4285714285714,4,2,12,50,0,0
32252,-71.4285714285714,4,2,12,50,0,0
32552,-100,4,2,12,5,0,0
32652,-71.4285714285714,4,2,12,50,0,0
32752,-100,4,2,12,5,0,0
32852,-71.4285714285714,4,2,12,50,0,0
32952,-100,4,2,12,5,0,0
33052,-71.4285714285714,4,2,12,50,0,0
33352,-100,4,2,12,5,0,0
33452,-142.857142857143,4,2,12,50,0,0
33852,-71.4285714285714,4,2,12,50,0,0
34152,-100,4,2,12,5,0,0
34252,-142.857142857143,4,2,12,50,0,0
34452,-71.4285714285714,4,2,12,50,0,0
35152,-100,4,2,12,5,0,0
35252,-71.4285714285714,4,2,12,50,0,0
35752,-100,4,2,12,5,0,0
35852,-71.4285714285714,4,2,12,50,0,0
35952,-100,4,2,12,5,0,0
36052,-71.4285714285714,4,2,12,50,0,0
36152,-100,4,2,12,5,0,0
36252,-100,4,2,12,50,0,0
36352,-100,4,2,12,5,0,0
36452,-100,4,2,12,50,0,0
36552,-100,4,2,12,5,0,0
36652,-71.4285714285714,4,2,12,50,0,0
36952,-100,4,2,12,5,0,0
37052,-100,4,2,12,50,0,0
37152,-100,4,2,12,5,0,0
37252,-100,4,2,12,50,0,0
37352,-100,4,2,12,5,0,0
37452,-71.4285714285714,4,2,12,50,0,0
38652,-166.666666666667,4,2,12,55,0,0
38952,-100,4,2,12,5,0,0
39052,-100,4,2,12,55,0,0
40252,-166.666666666667,4,2,12,55,0,0
40552,-100,4,2,12,5,0,0
40652,-100,4,2,12,55,0,0
41852,-166.666666666667,4,2,12,55,0,0
42152,-100,4,2,12,5,0,0
42252,-100,4,2,12,55,0,0
43452,-125,4,2,12,55,0,0
45052,-166.666666666667,4,2,12,55,0,0
45352,-100,4,2,12,5,0,0
45452,-166.666666666667,4,2,12,55,0,0
46952,-100,4,2,12,5,0,0
47052,-100,4,2,12,55,0,0
47452,-166.666666666667,4,2,12,55,0,0
48252,-125,4,2,12,55,0,0
48552,-100,4,2,12,5,0,0
48652,-125,4,2,12,55,0,0
50152,-100,4,2,12,5,0,0
50252,-125,4,2,12,55,0,0
51752,-100,4,2,12,5,0,0
51852,-125,4,2,12,55,0,0
53452,-100,4,2,12,55,0,0
53552,-100,4,2,12,5,0,0
53652,-100,4,2,12,55,0,0
53952,-100,4,2,12,5,0,0
54052,-100,4,2,12,55,0,0
54652,-200,4,2,13,45,0,0
57852,-50,4,2,11,65,0,1
58052,-71.4285714285714,4,2,12,65,0,1
58152,-100,4,2,12,5,0,1
58252,-47.6190476190476,4,2,12,65,0,1
58552,-100,4,2,12,5,0,1
58652,-45.4545454545455,4,2,12,65,0,1
58802,-100,4,2,12,5,0,1
58852,-41.6666666666667,4,2,12,65,0,1
58952,-100,4,2,12,5,0,1
59052,-71.4285714285714,4,2,12,65,0,1
59152,-100,4,2,12,5,0,1
59252,-71.4285714285714,4,2,12,65,0,1
59352,-100,4,2,12,5,0,1
59452,-71.4285714285714,4,2,12,65,0,1
59552,-100,4,2,12,5,0,1
59652,-71.4285714285714,4,2,12,65,0,1
59752,-100,4,2,12,5,0,1
59852,-52.6315789473684,4,2,12,65,0,1
60152,-100,4,2,12,5,0,1
60252,-55.5555555555556,4,2,12,65,0,1
60352,-100,4,2,12,5,0,1
60452,-41.6666666666667,4,2,12,65,0,1
60552,-100,4,2,12,5,0,1
60652,-31.25,4,2,12,65,0,1
60752,-100,4,2,12,5,0,1
60852,-38.4615384615386,4,2,12,65,0,1
61202,-100,4,2,12,5,0,1
61252,-83.3333333333333,4,2,12,65,0,1
61352,-100,4,2,12,5,0,1
61452,-71.4285714285714,4,2,12,65,0,1
61552,-100,4,2,12,5,0,1
61652,-71.4285714285714,4,2,12,65,0,1
61752,-100,4,2,12,5,0,1
61852,-55.5555555555556,4,2,12,65,0,1
62002,-100,4,2,12,5,0,1
62052,-71.4285714285714,4,2,12,65,0,1
62152,-100,4,2,12,5,0,1
62252,-100,4,2,12,65,0,1
62352,-100,4,2,12,5,0,1
62452,-100,4,2,12,65,0,1
62652,-83.3333333333333,4,2,12,65,0,1
62752,-100,4,2,12,5,0,1
62852,-83.3333333333333,4,2,12,65,0,1
63052,-50,4,2,12,65,0,1
63352,-100,4,2,12,5,0,1
63452,-50,4,2,12,65,0,1
63652,-38.4615384615385,4,2,12,65,0,1
63752,-100,4,2,12,5,0,1
63852,-62.5,4,2,12,65,0,1
64252,-38.4615384615385,4,2,12,65,0,1
64552,-100,4,2,12,5,0,1
64652,-133.333333333333,4,2,12,65,0,1
65052,-31.25,4,2,12,65,0,1
65352,-100,4,2,12,5,0,1
65452,-62.5,4,2,12,65,0,1
65552,-100,4,2,12,5,0,1
65652,-100,4,2,12,65,0,1
65752,-100,4,2,12,5,0,1
65852,-83.3333333333333,4,2,12,65,0,1
65952,-100,4,2,12,5,0,1
66052,-125,4,2,12,65,0,1
66152,-100,4,2,12,5,0,1
66252,-50,4,2,12,65,0,1
66352,-100,4,2,12,5,0,1
66452,-50,4,2,12,65,0,1
66552,-100,4,2,12,5,0,1
66652,-100,4,2,12,65,0,1
66752,-100,4,2,12,5,0,1
66852,-100,4,2,12,65,0,1
66952,-100,4,2,12,5,0,1
67052,-100,4,2,12,65,0,1
67452,-71.4285714285714,4,2,12,65,0,1
67752,-100,4,2,12,5,0,1
67852,-83.3333333333333,4,2,12,65,0,1
67952,-100,4,2,12,5,0,1
68052,-83.3333333333333,4,2,12,65,0,1
68152,-100,4,2,12,5,0,1
68252,-83.3333333333333,4,2,12,65,0,1
68552,-100,4,2,12,5,0,1
68652,-71.4285714285714,4,2,12,65,0,1
68752,-100,4,2,12,5,0,1
68852,-71.4285714285714,4,2,12,65,0,1
68952,-100,4,2,12,5,0,1
69052,-41.6666666666667,4,2,12,65,0,1
69352,-100,4,2,12,5,0,1
69452,-71.4285714285714,4,2,12,65,0,1
69752,-100,4,2,12,5,0,1
69852,-41.6666666666667,4,2,12,65,0,1
70352,-100,4,2,12,5,0,1
70452,-41.6666666666667,4,2,12,65,0,1
70652,-166.666666666667,4,2,12,60,0,0
70952,-100,4,2,12,5,0,0
71052,-166.666666666667,4,2,12,60,0,0
71352,-100,4,2,12,5,0,0
71452,-166.666666666667,4,2,12,60,0,0
72552,-100,4,2,12,5,0,0
72652,-166.666666666667,4,2,12,60,0,0
74152,-100,4,2,12,5,0,0
74252,-100,4,2,12,60,0,0
74652,-166.666666666667,4,2,12,60,0,0
75752,-100,4,2,12,5,0,0
75852,-166.666666666667,4,2,12,60,0,0
75952,-100,4,2,12,5,0,0
76052,-166.666666666667,4,2,12,60,0,0
76452,-111.111111111111,4,2,12,60,0,0
76552,-100,4,2,12,5,0,0
76652,-142.857142857143,4,2,12,60,0,0
76752,-100,4,2,12,5,0,0
76852,-200,4,2,12,60,0,0
76952,-100,4,2,12,5,0,0
77052,-200,4,2,12,40,0,0
78452,-200,4,2,13,30,0,0
78652,-333.333333333334,4,2,13,60,0,0
78752,-100,4,2,12,5,0,0
78852,-333.333333333334,4,2,13,60,0,0
79052,-333.333333333334,4,2,13,40,0,0
79852,-333.333333333334,4,2,13,40,0,0
80152,-100,4,2,12,5,0,0
80252,-166.666666666667,4,2,13,45,0,0
80552,-100,4,2,12,5,0,0
80652,-166.666666666667,4,2,13,45,0,0
80952,-100,4,2,12,5,0,0
81052,-166.666666666667,4,2,13,45,0,0
81352,-100,4,2,12,5,0,0
81452,-166.666666666667,4,2,13,45,0,0
81752,-100,4,2,12,5,0,0
81852,-166.666666666667,4,2,13,45,0,0
82152,-100,4,2,12,5,0,0
82252,-166.666666666667,4,2,13,45,0,0
83052,-500.000000000003,4,2,13,45,0,0
83352,-100,4,2,12,5,0,0
83452,-166.666666666667,4,2,13,45,0,0
83752,-100,4,2,12,5,0,0
83852,-166.666666666667,4,2,13,45,0,0
84152,-100,4,2,12,5,0,0
84252,-166.666666666667,4,2,13,45,0,0
84552,-100,4,2,12,5,0,0
84652,-166.666666666667,4,2,13,45,0,0
84952,-100,4,2,12,5,0,0
85052,-166.666666666667,4,2,13,45,0,0
85352,-100,4,2,12,5,0,0
85452,-166.666666666667,4,2,13,45,0,0
85852,-83.3333333333334,4,2,13,45,0,0
85952,-100,4,2,12,5,0,0
86052,-83.3333333333334,4,2,12,45,0,0
86652,310.880829015544,4,2,12,45,1,0
86652,-100,4,2,12,45,0,0
86690,-100,4,2,13,45,0,0
86967,285.714285714286,4,2,13,45,1,0
87038,-111.111111111111,4,2,13,45,0,0
87278,315.789473684211,4,2,13,45,1,0
87356,-125,4,2,13,45,0,0
87593,327.868852459016,4,2,13,45,1,0
87640,285.714285714286,4,2,13,45,1,0
87640,-142.857142857143,4,2,13,45,0,0
87925,352.941176470588,4,2,13,45,1,0
87925,-166.666666666667,4,2,13,45,0,0
88268,352.941176470588,4,2,12,75,1,0

[Colours]
Combo1 : 67,166,194
Combo2 : 244,94,123
Combo3 : 105,145,209
Combo4 : 228,141,99

[HitObjects]
258,355,252,5,0,3:2:0:0:
263,345,652,5,0,3:2:0:0:
268,335,1052,5,0,3:2:0:0:
462,230,1452,6,0,B|473:219|477:207|469:192|469:192|460:217|443:222,1,75,2|0,3:2|0:0,0:0:0:0:
397,276,1852,6,0,P|295:249|233:238,1,150,2|0,3:2|0:0,0:0:0:0:
245,230,2252,1,0,3:2:0:0:
44,41,2452,6,0,P|66:48|91:57,1,50,2|0,2:0|0:0,0:0:0:0:
84,137,2652,6,0,B|141:154|173:110|151:89|172:43|243:55,1,194.999991073609,2|0,3:2|0:0,0:0:0:0:
247,68,3052,1,0,3:2:0:0:
424,90,3252,6,0,P|413:124|410:149,1,50,2|0,2:0|0:0,0:0:0:0:
351,32,3452,6,0,P|379:133|393:232,1,194.999991073609,2|0,3:2|0:0,0:0:0:0:
380,234,3852,1,0,3:2:0:0:
187,341,4052,6,0,P|167:359|123:350,1,64.9999970245363,2|0,2:0|0:0,0:0:0:0:
127,341,4252,6,0,P|103:328|95:284,1,64.9999970245363,2|0,3:2|0:0,0:0:0:0:
100,288,4452,6,0,P|103:261|142:239,1,64.9999970245363,2|0,2:0|0:0,0:0:0:0:
222,233,4652,6,0,B|161:244|140:188|170:170|139:114|83:137,1,194.999991073609,2|0,3:2|0:0,0:0:0:0:
57,209,5052,6,0,P|193:172|276:158,1,194.999991073609,2|0,3:2|0:0,0:0:0:0:
252,145,5452,1,0,3:2:0:0:
484,267,5652,6,0,P|468:271|434:242,1,50,2|0,2:0|0:0,0:0:0:0:
488,188,5852,6,0,P|411:177|366:299,1,194.999991073609,2|0,3:2|0:0,0:0:0:0:
348,276,6252,1,0,3:2:0:0:
216,293,6452,6,0,P|227:259|230:234,1,50,2|0,2:0|0:0,0:0:0:0:
287,352,6652,6,0,P|259:251|245:152,1,194.999991073609,2|0,3:2|0:0,0:0:0:0:
252,145,7052,1,0,3:2:0:0:
104,72,7252,6,0,P|84:54|40:63,1,64.9999970245363,2|0,2:0|0:0,0:0:0:0:
44,72,7452,6,0,P|20:85|12:129,1,64.9999970245363,2|0,3:2|0:0,0:0:0:0:
17,125,7652,6,0,P|20:152|59:174,1,64.9999970245363,2|0,2:0|0:0,0:0:0:0:
61,182,7852,6,0,P|143:160|265:144,1,194.999991073609,2|0,3:2|0:0,0:0:0:0:
292,76,8252,6,0,B|321:55|309:21|309:21|358:50|372:98|322:148,1,194.999991073609,2|0,3:2|0:0,0:0:0:0:
325,130,8652,1,2,3:2:0:0:
476,174,8852,6,0,P|450:179|420:187,1,50,2|0,2:0|0:0,0:0:0:0:
394,259,9052,6,0,B|387:227|351:209|351:209|474:263,1,194.999991073609,2|0,3:2|0:0,0:0:0:0:
472,276,9452,1,0,3:2:0:0:
264,330,9652,6,0,B|245:346|245:346|261:321,1,50,2|0,2:0|0:0,0:0:0:0:
242,216,9852,6,0,B|193:147|193:147|236:268,1,194.999991073609,2|0,3:2|0:0,0:0:0:0:
249,244,10252,1,0,3:2:0:0:
347,358,10452,6,0,P|367:376|411:367,1,64.9999970245363,2|0,2:0|0:0,0:0:0:0:
407,358,10652,6,0,P|431:345|439:301,1,64.9999970245363,2|0,3:2|0:0,0:0:0:0:
434,305,10852,6,0,P|431:278|392:256,1,64.9999970245363,2|0,2:0|0:0,0:0:0:0:
395,249,11052,6,0,P|298:261|204:286,1,194.999991073609,2|0,3:2|0:0,0:0:0:0:
57,238,11452,6,0,B|107:250|118:306|118:306|109:249|153:221,1,194.999991073609,2|0,3:2|0:0,0:0:0:0:
96,169,11852,1,2,3:2:0:0:
22,36,12052,6,0,B|12:27|-1:28|-1:28|13:21|23:30,1,50,2|0,2:0|0:0,0:0:0:0:
78,90,12252,6,0,B|135:107|167:63|145:42|166:-4|237:8,1,194.999991073609,2|0,3:2|0:0,0:0:0:0:
241,22,12652,1,2,3:2:0:0:
409,207,12852,6,0,B|409:232|409:232|396:201,1,50,2|0,2:0|0:0,0:0:0:0:
315,141,13052,6,0,B|360:32|360:32|346:113,1,194.999991073609,2|0,3:2|0:0,0:0:0:0:
343,136,13452,1,2,3:2:0:0:
231,312,13652,6,0,P|211:330|167:321,1,64.9999970245363,2|0,2:0|0:0,0:0:0:0:
171,312,13852,6,0,P|147:299|139:255,1,64.9999970245363,2|0,3:2|0:0,0:0:0:0:
144,259,14052,6,0,P|147:232|186:210,1,64.9999970245363,2|0,2:0|0:0,0:0:0:0:
179,200,14252,6,0,P|268:225|380:278,1,194.999991073609,2|0,3:2|0:0,0:0:0:0:
440,290,14652,6,0,B|443:262|463:249|463:249|374:242|360:327|393:356,1,194.999991073609,2|0,3:2|0:0,0:0:0:0:
391,344,15052,1,2,3:2:0:0:
279,208,15252,6,0,B|291:230|291:230|286:205,1,50,2|0,2:0|0:0,0:0:0:0:
373,158,15452,6,0,B|409:54|409:54|360:123,1,194.999991073609,2|0,3:2|0:0,0:0:0:0:
353,143,15852,1,2,3:2:0:0:
265,22,16052,6,0,P|243:29|218:38,1,50,2|0,2:0|0:0,0:0:0:0:
225,118,16252,6,0,B|168:135|136:91|158:70|127:21|68:41,1,194.999991073609,2|0,3:2|0:0,0:0:0:0:
62,49,16652,1,0,3:2:0:0:
124,238,16852,6,0,P|104:256|60:247,1,64.9999970245363,2|0,2:0|0:0,0:0:0:0:
64,238,17052,6,0,P|40:225|32:181,1,64.9999970245363,2|0,3:2|0:0,0:0:0:0:
37,185,17252,6,0,P|40:158|79:136,1,64.9999970245363,2|0,2:0|0:0,0:0:0:0:
75,126,17452,6,0,P|55:268|49:330,1,194.999991073609,2|0,3:2|0:0,0:0:0:0:
100,384,17852,6,0,B|171:400|232:354|235:272|150:260|134:306,1,240,2|0,3:2|0:0,0:0:0:0:
123,307,18252,1,2,3:2:0:0:
255,231,18452,6,0,B|267:209|267:209|262:234,1,50,2|0,2:0|0:0,0:0:0:0:
349,281,18652,6,0,B|385:385|385:385|336:316,1,194.999991073609,2|0,3:2|0:0,0:0:0:0:
329,296,19052,1,2,3:2:0:0:
459,107,19252,6,0,B|467:95|483:96|483:96|469:103|466:128,1,50,2|0,2:0|0:0,0:0:0:0:
424,177,19452,2,0,P|340:147|227:137,1,194.999991073609,2|0,3:2|0:0,0:0:0:0:
229,125,19852,1,2,3:2:0:0:
104,341,20052,6,0,P|84:359|40:350,1,64.9999970245363,2|0,2:0|0:0,0:0:0:0:
44,341,20252,6,0,P|20:328|12:284,1,64.9999970245363,2|0,3:2|0:0,0:0:0:0:
49,224,20452,6,0,P|79:236|115:254,1,64.9999970245363,2|0,2:0|0:0,0:0:0:0:
173,207,20652,1,2,3:2:0:0:
19,113,20852,6,0,P|49:101|85:83,1,64.9999970245363
19,26,21052,6,0,P|111:61|221:83,1,194.999991073609,2|0,3:2|0:0,0:0:0:0:
210,98,21452,1,0,3:2:0:0:
478,177,21652,6,0,P|456:184|431:193,1,50,2|0,2:0|0:0,0:0:0:0:
437,276,21852,6,0,B|380:293|348:249|370:228|349:182|278:194,1,194.999991073609,2|0,3:2|0:0,0:0:0:0:
274,207,22252,1,0,3:2:0:0:
178,325,22452,6,0,B|190:347|190:347|185:322,1,50,2|0,2:0|0:0,0:0:0:0:
61,231,22652,6,0,B|39:151|39:151|92:255,1,194.999991073609,2|0,3:2|0:0,0:0:0:0:
62,254,23052,1,0,3:2:0:0:
214,129,23252,5,10,2:0:0:0:
208,135,23352,1,10,2:0:0:0:
202,143,23452,2,0,L|127:120,1,64.9999970245363,10|0,2:0|0:0,0:0:0:0:
247,50,23652,6,0,L|155:26,1,94.9999974632264,10|0,2:3|0:0,0:0:0:0:
39,152,23852,5,6,3:2:0:0:
256,320,24852,5,2,3:2:0:0:
461,86,25052,6,0,P|434:107|384:117,1,80,10|0,2:0|0:0,0:0:0:0:
472,218,25252,2,0,P|441:200|391:198,1,80,2|0,3:2|0:0,0:0:0:0:
302,50,25452,5,10,2:0:0:0:
260,114,25652,1,2,3:2:0:0:
305,39,25852,6,0,P|221:96|98:86,1,209.999993591309,6|0,3:2|0:0,0:0:0:0:
108,87,26252,6,0,P|113:125|123:160,1,69.9999978637696,10|0,2:0|0:0,0:0:0:0:
31,104,26452,2,0,P|40:137|44:172,1,69.9999978637696,8|0,2:0|0:0,0:0:0:0:
24,268,26652,6,0,B|83:292|122:238|98:214|127:161|198:182,1,209.999993591309,0|0,3:2|0:0,0:0:0:0:
247,233,27052,2,0,P|268:243|248:232,1,69.9999978637696,8|0,2:0|0:0,0:0:0:0:
438,81,27452,6,0,B|441:53|461:40|461:40|372:33|358:118|391:147,1,209.999993591309,0|0,3:2|0:0,0:0:0:0:
394,141,27852,6,0,P|412:148|430:153,1,34.9999989318848,0|0,3:2|0:0,0:0:0:0:
350,210,28052,2,0,P|382:219|414:233,1,69.9999978637696,10|0,2:0|0:0,0:0:0:0:
496,188,28252,5,2,3:2:0:0:
360,291,28452,1,2,2:0:0:0:
506,196,28652,2,0,P|493:227|485:262,1,69.9999978637696,10|0,2:0|0:0,0:0:0:0:
500,362,28852,5,10,2:0:0:0:
495,372,28952,1,8,2:0:0:0:
489,384,29052,2,0,P|435:339|292:346,1,209.999993591309,0|0,3:2|0:0,0:0:0:0:
297,350,29452,6,0,P|285:313|279:277,1,69.9999978637696,10|0,2:0|0:0,0:0:0:0:
221,368,29652,2,0,P|215:334|204:300,1,69.9999978637696,8|0,2:0|0:0,0:0:0:0:
50,203,29852,6,0,P|169:176|180:59,1,209.999993591309,2|0,3:2|0:0,0:0:0:0:
133,40,30252,6,0,P|114:29|132:44,1,69.9999978637696,10|0,2:0|0:0,0:0:0:0:
190,93,30452,1,2,2:0:0:0:
320,13,30652,6,0,B|388:-12|457:33|453:120|374:137|352:86,1,240,0|0,3:2|0:0,0:0:0:0:
358,84,31052,6,0,P|362:118|372:152,1,69.9999978637696,10|0,2:0|0:0,0:0:0:0:
280,101,31252,2,0,P|290:138|295:174,1,69.9999978637696,10|0,2:0|0:0,0:0:0:0:
468,339,31452,6,0,P|490:348|466:343,1,69.9999978637696,6|0,3:2|0:0,0:0:0:0:
427,264,31652,5,10,2:0:0:0:
349,224,31752,5,8,2:0:0:0:
291,282,31852,5,2,3:2:0:0:
292,333,31952,5,0,3:2:0:0:
330,360,32052,5,10,2:3:0:0:
348,356,32152,5,8,2:3:0:0:
354,351,32252,6,0,P|250:311|143:305,1,209.999993591309,6|0,3:2|0:0,0:0:0:0:
147,311,32652,6,0,P|136:273|132:237,1,69.9999978637696,10|0,2:0|0:0,0:0:0:0:
70,326,32852,2,0,P|65:291|56:257,1,69.9999978637696,8|0,2:0|0:0,0:0:0:0:
1,160,33052,6,0,P|83:161|136:41,1,209.999993591309,0|0,3:2|0:0,0:0:0:0:
73,17,33452,2,0,P|53:13|74:22,1,69.9999978637696,8|0,2:0|0:0,0:0:0:0:
304,54,33852,6,0,B|307:26|327:13|327:13|238:6|224:91|257:120,1,209.999993591309,0|0,3:2|0:0,0:0:0:0:
260,115,34252,6,0,P|278:122|296:127,1,34.9999989318848,0|0,3:2|0:0,0:0:0:0:
221,184,34452,2,0,P|253:193|289:205,1,69.9999978637696,10|0,2:0|0:0,0:0:0:0:
421,272,34652,5,2,3:2:0:0:
367,174,34852,1,2,2:0:0:0:
508,262,35052,2,0,P|498:298|490:333,1,69.9999978637696,10|0,2:0|0:0,0:0:0:0:
380,363,35252,5,10,2:0:0:0:
374,369,35352,1,8,2:0:0:0:
367,375,35452,2,0,B|310:397|273:346|296:323|268:272|200:292,1,209.999993591309,2|0,3:2|0:0,0:0:0:0:
192,286,35852,6,0,P|197:248|207:213,1,69.9999978637696,10|0,2:0|0:0,0:0:0:0:
114,272,36052,2,0,P|123:239|127:204,1,69.9999978637696,10|0,2:0|0:0,0:0:0:0:
84,23,36252,6,0,P|113:25|130:61,1,50,2|0,3:2|0:0,0:0:0:0:
97,109,36452,2,0,P|68:107|51:71,1,50,2|0,2:0|0:0,0:0:0:0:
11,20,36652,6,0,P|90:82|207:75,1,209.999993591309,10|0,2:0|0:0,0:0:0:0:
205,73,37052,6,0,P|201:45|195:18,1,50,0|0,3:2|0:0,0:0:0:0:
318,116,37252,2,0,P|314:144|308:171,1,50,10|0,2:3|0:0,0:0:0:0:
205,217,37452,5,10,2:0:0:0:
189,211,37552,1,10,2:0:0:0:
173,205,37652,1,10,2:0:0:0:
332,368,37852,5,10,2:0:0:0:
435,187,38652,6,0,P|475:181|495:126,1,89.9999972534181,6|0,3:2|0:0,0:0:0:0:
374,267,39052,6,0,P|393:303|456:303,1,100,10|0,2:0|0:0,0:0:0:0:
329,138,39452,5,10,2:0:0:0:
244,346,39652,1,2,3:2:0:0:
177,123,39852,5,10,2:0:0:0:
237,243,40052,1,2,3:2:0:0:
102,142,40252,6,0,P|62:148|42:203,1,89.9999972534181,10|0,2:0|0:0,0:0:0:0:
206,50,40652,6,0,P|185:12|125:12,1,100,10|0,2:0|0:0,0:0:0:0:
58,56,41052,5,10,2:0:0:0:
253,165,41252,1,2,3:2:0:0:
14,308,41452,5,10,2:0:0:0:
177,123,41652,1,0,3:2:0:0:
264,250,41852,6,0,P|306:242|326:203,1,89.9999972534181,10|0,2:0|0:0,0:0:0:0:
189,330,42252,6,0,P|210:371|259:383,1,100,10|2,2:0|2:0,0:0:0:0:
329,347,42652,5,10,2:0:0:0:
155,206,42852,1,2,3:2:0:0:
484,45,43052,5,10,2:0:0:0:
253,165,43252,1,2,3:2:0:0:
454,333,43452,6,0,P|463:290|480:241,1,80,10|2,2:0|2:0,0:0:0:0:
381,112,43852,2,0,P|372:155|355:204,1,80,10|2,2:0|2:0,0:0:0:0:
512,173,44252,5,10,2:0:0:0:
327,269,44452,1,2,3:2:0:0:
253,165,44652,5,10,2:0:0:0:
102,63,44852,1,2,3:2:0:0:
102,262,45052,6,0,P|62:256|42:201,1,89.9999972534181,14|0,2:0|0:0,0:0:0:0:
163,342,45452,6,0,P|149:368|105:368,1,59.9999981689454,10|0,2:0|0:0,0:0:0:0:
175,181,45852,5,10,2:0:0:0:
234,307,46052,1,2,3:2:0:0:
336,173,46252,5,10,2:0:0:0:
267,384,46452,1,2,3:2:0:0:
446,138,46652,6,0,P|406:132|386:77,1,89.9999972534181,10|0,2:0|0:0,0:0:0:0:
512,248,47052,6,0,P|491:284|433:283,1,100,10|2,2:0|2:0,0:0:0:0:
394,221,47452,5,10,2:0:0:0:
339,365,47652,1,2,3:2:0:0:
174,92,47852,5,10,2:0:0:0:
234,307,48052,1,0,3:2:0:0:
57,184,48252,6,0,P|64:129|73:66,1,120,14|0,2:0|0:0,0:0:0:0:
140,22,48652,6,0,B|160:11|179:15|179:15|158:1|134:13,1,80,10|2,2:0|2:0,0:0:0:0:
63,59,49052,5,10,2:0:0:0:
255,191,49252,1,0,3:2:0:0:
11,346,49452,5,10,2:0:0:0:
174,172,49652,1,2,3:2:0:0:
290,323,49852,6,0,P|231:337|174:354,1,120,10|0,2:0|0:0,0:0:0:0:
121,294,50252,6,0,B|96:261|96:261|120:229,1,80,10|2,2:0|2:0,0:0:0:0:
260,112,50652,5,10,2:0:0:0:
204,262,50852,1,2,3:2:0:0:
91,0,51052,5,10,2:0:0:0:
173,172,51252,1,2,3:2:0:0:
252,17,51452,6,0,P|346:37|398:48,1,120,14|0,2:0|0:0,0:0:0:0:
430,113,51852,6,0,B|460:86|460:86|420:101,1,80,10|2,2:0|2:0,0:0:0:0:
324,146,52252,5,10,2:0:0:0:
502,303,52452,1,0,3:2:0:0:
242,384,52652,5,10,2:0:0:0:
380,244,52852,1,2,3:2:0:0:
77,105,53052,5,10,2:0:0:0:
274,247,53252,1,0,3:2:0:0:
18,377,53452,6,0,P|14:349|9:314,1,50,14|0,2:0|0:0,0:0:0:0:
195,75,53652,5,10,2:0:0:0:
202,81,53752,1,8,2:0:0:0:
209,86,53852,2,0,P|205:114|200:149,1,50,8|0,2:0|0:0,0:0:0:0:
384,382,54052,5,0,3:2:0:0:
511,223,54252,1,10,2:0:0:0:
324,146,54452,1,10,2:3:0:0:
162,382,54652,6,0,P|157:355|151:329,1,50,6|2,2:0|2:0,0:0:0:0:
226,320,55052,2,0,P|231:344|235:368,1,50,6|2,2:0|2:0,0:0:0:0:
389,211,55452,6,0,P|394:186|398:162,1,50,6|2,2:0|2:0,0:0:0:0:
324,146,55852,2,0,P|319:173|313:199,1,50,6|2,2:0|2:0,0:0:0:0:
110,16,56252,5,8,2:0:0:0:
143,212,57852,6,0,B|83:212|0:62|212:25|201:179|149:208,1,300,6|0,3:2|0:0,0:0:0:0:
16,237,58252,6,0,B|44:242|65:273|65:273|149:208|250:231|250:231|252:200|285:167,1,314.999990386963,8|0,2:0|0:0,0:0:0:0:
420,281,58652,6,0,P|367:355|300:328,1,165.000005035401,0|0,3:2|0:0,0:0:0:0:
233,376,58852,2,0,P|173:354|176:305,1,119.999996337891,6|0,2:3|0:0,0:0:0:0:
434,140,59052,6,0,P|452:164|443:204,1,69.9999978637696,10|0,2:0|0:0,0:0:0:0:
369,215,59252,2,0,P|351:191|360:151,1,69.9999978637696,6|0,2:3|0:0,0:0:0:0:
90,46,59452,6,0,P|72:70|81:110,1,69.9999978637696,2|0,3:2|0:0,0:0:0:0:
153,120,59652,2,0,P|171:96|162:56,1,69.9999978637696,6|0,2:3|0:0,0:0:0:0:
280,0,59852,6,0,P|258:136|246:287,1,284.999992389679,10|0,2:0|0:0,0:0:0:0:
307,336,60252,6,0,P|360:345|387:302,1,89.9999972534181,2|0,3:2|0:0,0:0:0:0:
486,308,60452,6,0,P|516:254|483:206,1,119.999996337891,6|0,2:3|0:0,0:0:0:0:
462,108,60652,6,0,P|411:46|341:67,1,160,10|0,2:0|0:0,0:0:0:0:
171,294,60852,5,6,2:3:0:0:
175,306,60952,1,10,0:2:0:0:
178,317,61052,2,0,B|130:354|77:314|119:276|66:231|19:264,1,194.999991073609,0|0,3:2|0:0,0:0:0:0:
25,252,61252,2,0,P|14:270|31:256,1,59.9999981689454,6|0,2:3|0:0,0:0:0:0:
223,155,61452,6,0,P|202:140|196:81,1,69.9999978637696,10|0,2:0|0:0,0:0:0:0:
115,188,61652,2,0,P|123:163|100:107,1,69.9999978637696,6|0,2:3|0:0,0:0:0:0:
250,0,61852,6,0,P|271:52|354:60,1,134.999995880127,2|0,3:2|0:0,0:0:0:0:
406,112,62052,2,0,P|435:109|453:71,1,69.9999978637696,6|0,2:3|0:0,0:0:0:0:
448,69,62252,6,0,P|464:75|446:74,1,50,10|0,2:0|0:0,0:0:0:0:
339,143,62452,5,6,2:3:0:0:
331,151,62552,1,0,0:0:0:0:
324,159,62652,2,0,L|340:221,1,59.9999981689454,0|0,3:2|0:0,0:0:0:0:
356,292,62852,1,6,2:3:0:0:
472,384,63052,6,0,B|466:346|466:346|252:312|252:312|241:259,1,300,10|0,2:0|0:0,0:0:0:0:
231,260,63452,1,0,3:2:0:0:
86,373,63652,6,0,B|88:359|88:359|81:360|81:360|88:359|88:359|105:238,1,129.999994049073,6|0,2:3|0:0,0:0:0:0:
144,0,63852,1,10,2:0:0:0:
0,95,64052,5,10,2:0:0:0:
4,104,64152,1,8,2:0:0:0:
9,112,64252,2,0,B|-3:163|71:180|84:119|84:119|93:64|175:78|160:139|160:139|154:192|228:208|241:146,1,389.999982147218,6|0,3:2|0:0,0:0:0:0:
234,141,64652,2,0,P|244:164|238:139,1,75.0000028610231,10|4,2:0|2:3,0:0:0:0:
172,311,65052,6,0,B|185:382|279:361|266:299|266:299|248:223|348:207|360:274|360:274|376:350|468:328|453:265,1,480,2|0,3:2|0:0,0:0:0:0:
445,256,65452,2,0,P|455:280|449:253,1,80,10|0,2:0|0:0,0:0:0:0:
311,26,65652,6,0,P|297:23|312:30,1,50,6|0,2:3|0:0,0:0:0:0:
368,89,65852,6,0,P|399:94|440:102,1,59.9999981689454,0|0,3:2|0:0,0:0:0:0:
430,22,66052,2,0,P|407:17|385:13,1,40,6|0,2:3|0:0,0:0:0:0:
147,112,66252,6,0,P|154:167|169:219,1,100,10|0,2:0|0:0,0:0:0:0:
11,133,66452,6,0,P|24:182|30:233,1,100,6|0,3:0|0:0,0:0:0:0:
367,245,66652,6,0,P|362:281|353:315,1,50,2|0,3:2|0:0,0:0:0:0:
452,264,66852,6,0,P|443:295|439:329,1,50,6|0,2:3|0:0,0:0:0:0:
256,384,67052,5,10,2:0:0:0:
502,147,67252,5,6,2:3:0:0:
497,156,67352,1,0,0:0:0:0:
491,165,67452,2,0,P|384:142|327:39,1,209.999993591309,2|0,3:2|0:0,0:0:0:0:
382,5,67852,2,0,P|400:-5|385:9,1,59.9999981689454,10|0,2:0|0:0,0:0:0:0:
281,149,68052,6,0,P|245:159|219:167,1,59.9999981689454,6|0,2:3|0:0,0:0:0:0:
229,244,68252,2,0,B|177:264|143:217|166:196|139:150|77:169,1,179.999994506836,0|0,3:2|0:0,0:0:0:0:
79,171,68652,6,0,P|83:210|94:244,1,69.9999978637696,10|0,2:0|0:0,0:0:0:0:
0,187,68852,2,0,P|10:220|13:255,1,69.9999978637696,6|0,2:3|0:0,0:0:0:0:
71,329,69052,6,0,B|122:283|171:334|123:406|231:455|317:370|276:314|262:310|297:258|364:285,1,359.999989013672,0|0,3:2|0:0,0:0:0:0:
378,384,69452,6,0,B|379:374|379:374|372:372|372:372|379:374|379:374|407:171,1,209.999993591309,8|0,2:0|0:0,0:0:0:0:
416,115,69852,1,6,3:2:0:0:
505,277,70052,5,10,2:0:0:0:
502,284,70152,1,8,2:0:0:0:
499,291,70252,2,0,B|483:316|483:316|424:314|425:255,1,119.999996337891,10|0,2:0|0:0,0:0:0:0:
272,80,70452,5,10,2:0:0:0:
279,93,70552,1,8,2:0:0:0:
285,106,70652,2,0,P|325:100|345:45,1,89.9999972534181,6|0,3:2|0:0,0:0:0:0:
176,201,71052,6,0,P|195:236|253:236,1,89.9999972534181,10|0,2:0|0:0,0:0:0:0:
300,191,71452,5,10,2:0:0:0:
212,381,71652,1,2,3:2:0:0:
7,71,71852,5,10,2:0:0:0:
105,339,72052,1,2,3:2:0:0:
236,35,72252,6,0,P|186:23|143:6,1,89.9999972534181,10|0,2:0|0:0,0:0:0:0:
136,106,72652,6,0,P|172:114|204:127,1,59.9999981689454,10|0,2:0|0:0,0:0:0:0:
285,106,73052,5,10,2:0:0:0:
499,291,73252,1,2,3:2:0:0:
212,381,73452,5,10,2:0:0:0:
351,280,73652,1,2,3:2:0:0:
140,193,73852,6,0,P|126:236|162:276,1,89.9999972534181,10|0,2:0|0:0,0:0:0:0:
0,347,74252,6,0,P|35:374|85:354,1,100,10|0,2:0|0:0,0:0:0:0:
212,381,74652,5,10,2:0:0:0:
0,241,74852,1,2,3:2:0:0:
416,2,75052,5,10,2:0:0:0:
140,193,75252,1,2,3:2:0:0:
419,268,75452,6,0,P|407:218|402:172,1,89.9999972534181,10|0,2:0|0:0,0:0:0:0:
285,228,75852,6,0,P|289:247|291:265,1,29.9999990844727,14|0,2:0|0:0,0:0:0:0:
242,333,76052,5,8,2:0:0:0:
240,342,76152,1,8,2:0:0:0:
239,352,76252,1,8,2:0:0:0:
25,262,76452,6,0,P|54:277|72:268,1,44.999998626709,2|0,3:2|0:0,0:0:0:0:
103,206,76652,6,0,P|123:187|121:170,1,34.9999989318848,10|0,2:3|0:0,0:0:0:0:
67,124,76852,6,0,P|59:105|47:102,1,25,2|0,3:2|0:0,0:0:0:0:
36,21,77052,5,6,3:2:0:0:
57,26,77252,5,0,0:0:0:0:
79,32,77452,5,2,2:0:0:0:
101,38,77652,5,0,0:0:0:0:
229,173,78452,6,0,L|232:154,2,12.5,4|0|4,2:3|0:0|2:3,0:0:0:0:
285,228,78652,6,0,L|301:223,1,14.9999995422363,2|0,2:3|0:0,0:0:0:0:
321,219,78852,5,0,0:0:0:0:
359,208,79052,5,2,2:0:0:0:
398,198,79252,5,0,0:0:0:0:
459,287,79852,6,0,L|448:330,1,44.999998626709,2|0,2:0|0:0,0:0:0:0:
450,335,80252,6,0,P|408:321|358:309,1,89.9999972534181,2|0,3:2|0:0,0:0:0:0:
359,298,80652,1,0,3:2:0:0:
186,370,80852,6,0,P|205:365|216:363,1,29.9999990844727,2|0,2:0|0:0,0:0:0:0:
140,303,81052,6,0,P|185:293|230:284,1,89.9999972534181,2|0,3:2|0:0,0:0:0:0:
233,273,81452,1,0,3:2:0:0:
82,211,81652,6,0,P|62:206|51:204,1,29.9999990844727,2|0,2:0|0:0,0:0:0:0:
128,144,81852,6,0,P|83:134|37:125,1,89.9999972534181,2|0,3:2|0:0,0:0:0:0:
35,114,82252,1,0,3:2:0:0:
204,45,82452,5,2,2:0:0:0:
281,84,82652,1,2,3:2:0:0:
230,155,82852,1,2,2:0:0:0:
111,40,83052,6,0,L|118:3,1,30,2|0,3:2|0:0,0:0:0:0:
113,8,83452,6,0,P|155:22|205:34,1,89.9999972534181,2|0,3:2|0:0,0:0:0:0:
204,45,83852,1,0,3:2:0:0:
363,221,84052,6,0,P|382:216|393:214,1,29.9999990844727,2|0,2:0|0:0,0:0:0:0:
317,154,84252,6,0,P|362:144|407:135,1,89.9999972534181,2|0,3:2|0:0,0:0:0:0:
410,124,84652,1,0,3:2:0:0:
209,324,84852,6,0,P|189:319|178:317,1,29.9999990844727,2|0,2:0|0:0,0:0:0:0:
255,257,85052,6,0,P|210:247|164:238,1,89.9999972534181,2|0,3:2|0:0,0:0:0:0:
162,227,85452,1,0,3:2:0:0:
360,371,85652,5,10,2:0:0:0:
370,364,85752,1,8,2:0:0:0:
379,356,85852,2,0,L|363:286,1,59.9999981689454,8|0,2:0|0:0,0:0:0:0:
423,246,86052,1,8,2:3:0:0:
274,128,86252,5,4,3:2:0:0:
483,19,86652,5,0,3:2:0:0:
489,26,86729,2,0,L|480:85,2,50,8|8|0,2:0|2:3|2:3,0:0:0:0:
372,66,86967,5,0,3:2:0:0:
378,73,87038,2,0,L|370:124,2,44.999998626709,8|8|8,2:0|2:3|2:3,0:0:0:0:
274,129,87278,5,0,3:2:0:0:
280,136,87356,2,0,L|273:181,2,40,8|8|8,2:0|2:3|2:3,0:0:0:0:
194,201,87593,5,0,3:2:0:0:
200,208,87640,2,0,L|192:248,3,34.9999989318848,8|8|8|8,2:0|2:3|2:3|2:3,0:0:0:0:
124,278,87925,6,0,L|116:320,3,29.9999990844727,8|8|8|8,2:3|2:3|2:3|2:3,0:0:0:0:
32,352,88268,5,4,2:0:0:0:
