osu file format v14

[General]
AudioFilename: audio.mp3
AudioLeadIn: 0
PreviewTime: 56552
Countdown: 0
SampleSet: Soft
StackLeniency: 0.3
Mode: 0
LetterboxInBreaks: 0
WidescreenStoryboard: 1

[Editor]
Bookmarks: 22952
DistanceSpacing: 0.8
BeatDivisor: 8
GridSize: 32
TimelineZoom: 1.8

[Metadata]
Title:Fuzaketenaize (TV Size)
TitleUnicode:ふざけてないぜ (TV Size)
Artist:Necry Talkie
ArtistUnicode:ネクライトーキー
Creator:Kyutei
Version:Eula's Normal
Source:カノジョも彼女
Tags:カノジョもかのじょ KanoKano Kanojo mo Kanojo Girlfriend, Girlfriend -Magic- is also my Girlfriend She Anime opening op japanese pop jpop j-pop Pepekcz My Angel Ram My_Angel_Ram Crissa Eula-
BeatmapID:3135603
BeatmapSetID:1533272

[Difficulty]
HPDrainRate:4
CircleSize:3
OverallDifficulty:5
ApproachRate:5.5
SliderMultiplier:1.4
SliderTickRate:1

[Events]
//Background and Video events
0,0,"bgowo.jpg",0,0
Video,-400,"kanokano_op.mp4"
//Break Periods
//Storyboard Layer 0 (Background)
//Storyboard Layer 1 (Fail)
//Storyboard Layer 2 (Pass)
//Storyboard Layer 3 (Foreground)
//Storyboard Layer 4 (Overlay)
//Storyboard Sound Samples

[TimingPoints]
252,400,4,2,12,40,1,0
1852,-100,4,2,12,45,0,0
25852,-100,4,2,12,50,0,0
31452,-100,4,2,13,50,0,0
31652,-100,4,2,13,50,0,0
32052,-100,4,2,12,50,0,0
38652,-100,4,2,12,55,0,0
54652,-111.111111111111,4,2,13,45,0,0
57852,-90.9090909090908,4,2,11,65,0,0
58052,-90.9090909090908,4,2,12,65,0,0
70652,-90.9090909090908,4,2,12,60,0,0
77052,-100,4,2,12,40,0,0
78452,-100,4,2,13,30,0,0
78652,-100,4,2,13,60,0,0
79052,-100,4,2,13,40,0,0
79852,-100,4,2,13,40,0,0
80252,-100,4,2,13,45,0,0
86052,-100,4,2,12,45,0,0
86652,310.880829015544,4,2,12,45,1,0
86690,-100,4,2,13,45,0,0
86967,285.714285714286,4,2,13,45,1,0
87278,315.789473684211,4,2,13,45,1,0
87593,327.868852459016,4,2,13,45,1,0
87640,285.714285714286,4,2,13,45,1,0
87925,352.941176470588,4,2,13,45,1,0
88268,352.941176470588,4,2,12,75,1,0

[Colours]
Combo1 : 67,166,194
Combo2 : 244,94,123
Combo3 : 105,145,209
Combo4 : 228,141,99

[HitObjects]
36,280,252,5,0,3:2:0:0:
144,252,652,1,0,3:2:0:0:
252,224,1052,1,0,3:2:0:0:
210,113,1452,6,0,B|182:107|182:107|112:156|112:156|81:150,2,140,2|2|0,3:2|3:2|3:2,0:0:0:0:
266,97,2452,1,2,2:0:0:0:
266,97,2652,1,2,3:2:0:0:
428,155,3252,1,2,2:0:0:0:
428,155,3452,2,0,P|379:195|385:289,1,140,2|0,3:2|3:2,0:0:0:0:
404,320,4052,1,2,2:0:0:0:
404,320,4252,2,0,L|257:302,1,140,2|2,3:2|3:2,0:0:0:0:
157,332,5052,6,0,B|146:288|146:288|166:242|166:242|156:190,1,140,2|0,3:2|3:2,0:0:0:0:
115,171,5652,1,2,2:0:0:0:
115,171,5852,1,2,3:2:0:0:
223,43,6452,1,2,2:0:0:0:
223,43,6652,2,0,B|261:68|261:68|359:50,1,140,2|0,3:2|3:2,0:0:0:0:
400,17,7252,1,2,2:0:0:0:
400,17,7452,2,0,L|470:34,2,70,2|2|2,3:2|2:0|3:2,0:0:0:0:
416,127,8252,6,0,P|357:166|346:247,1,140,2|2,3:2|3:2,0:0:0:0:
375,282,8852,1,2,2:0:0:0:
375,282,9052,1,2,3:2:0:0:
221,351,9652,1,2,2:0:0:0:
221,351,9852,2,0,B|201:330|201:330|222:217,1,140,2|0,3:2|3:2,0:0:0:0:
269,192,10452,2,0,L|254:117,2,70,2|2|2,2:0|3:2|2:0,0:0:0:0:
320,214,11052,1,2,3:2:0:0:
403,139,11452,6,0,P|414:83|344:32,1,140,2|2,3:2|3:2,0:0:0:0:
307,53,12052,1,2,2:0:0:0:
307,53,12252,2,0,L|166:33,1,140,2|2,3:2|3:2,0:0:0:0:
74,94,13052,2,0,L|56:26,2,70,2|0|2,3:2|0:0|3:2,0:0:0:0:
155,170,13852,2,0,L|143:257,2,70,2|2|2,3:2|2:0|3:2,0:0:0:0:
226,84,14652,6,0,P|278:76|323:156,1,140,2|2,3:2|3:2,0:0:0:0:
312,197,15252,1,2,2:0:0:0:
312,197,15452,1,2,3:2:0:0:
426,328,16052,1,2,2:0:0:0:
426,328,16252,2,0,B|396:303|396:303|414:194,1,140,2|0,3:2|3:2,0:0:0:0:
461,174,16852,1,2,2:0:0:0:
461,174,17052,2,0,P|475:113|408:64,1,140,2|2,3:2|3:2,0:0:0:0:
329,127,17852,6,0,B|289:137|259:113|263:107|230:86|189:97,1,140,2|2,3:2|3:2,0:0:0:0:
150,125,18452,1,2,2:0:0:0:
150,125,18652,2,0,P|133:187|136:276,1,140,2|2,3:2|3:2,0:0:0:0:
156,319,19252,1,2,2:0:0:0:
156,319,19452,2,0,P|210:324|225:232,2,140,2|2|2,3:2|3:2|3:2,0:0:0:0:
69,247,20652,1,2,3:2:0:0:
55,135,21052,6,0,B|77:110|77:110|192:122,1,140,2|0,3:2|3:2,0:0:0:0:
235,96,21652,1,2,2:0:0:0:
235,96,21852,1,2,3:2:0:0:
344,231,22452,1,2,2:0:0:0:
344,231,22652,2,0,P|396:202|395:106,1,140,2|0,3:2|3:2,0:0:0:0:
366,78,23252,5,10,2:0:0:0:
303,73,23452,2,0,L|225:80,1,70,10|10,2:0|2:3,0:0:0:0:
180,44,23852,1,6,3:2:0:0:
346,284,24852,5,2,3:2:0:0:
398,263,25052,2,0,L|416:176,1,70,10|2,2:0|3:2,0:0:0:0:
368,158,25452,1,10,2:0:0:0:
384,42,25852,6,0,L|221:22,1,140,6|10,3:2|2:0,0:0:0:0:
207,66,26452,1,8,2:0:0:0:
168,107,26652,2,0,L|184:189,1,70,0|0,3:2|0:0,0:0:0:0:
231,201,27052,2,0,L|215:283,1,70,8|0,2:0|0:0,0:0:0:0:
180,311,27452,6,0,L|323:292,1,140,0|0,3:2|3:2,0:0:0:0:
366,331,28052,1,10,2:0:0:0:
366,331,28252,1,2,3:2:0:0:
462,273,28652,2,0,L|476:189,1,70,10|10,2:0|2:0,0:0:0:0:
511,162,29052,6,0,P|458:187|401:141,1,140,0|10,3:2|2:0,0:0:0:0:
413,85,29652,1,8,2:0:0:0:
388,34,29852,2,0,P|355:13|311:17,1,70,2|2,3:2|2:0,0:0:0:0:
277,42,30252,1,10,2:0:0:0:
277,42,30452,6,0,L|136:61,1,140,2|0,2:0|0:0,0:0:0:0:
83,71,31052,1,10,2:0:0:0:
7,153,31452,1,6,3:2:0:0:
21,207,31652,1,10,2:0:0:0:
35,261,31852,2,0,L|53:342,1,70,2|10,3:2|2:3,0:0:0:0:
18,375,32252,6,0,L|165:341,1,140,6|10,3:2|2:0,0:0:0:0:
202,372,32852,1,8,2:0:0:0:
202,372,33052,2,0,P|181:316|233:253,1,140,0|8,3:2|2:0,0:0:0:0:
325,206,33852,6,0,P|344:141|302:89,1,140,0|0,3:2|3:2,0:0:0:0:
240,80,34452,1,10,2:0:0:0:
240,80,34652,2,0,L|169:88,1,70,2|2,3:2|2:0,0:0:0:0:
131,127,35052,1,10,2:0:0:0:
131,127,35252,6,0,P|134:60|76:16,1,140,10|0,2:0|0:0,0:0:0:0:
25,25,35852,1,10,2:0:0:0:
0,134,36252,2,0,L|16:212,2,70,2|2|10,3:2|2:0|2:0,0:0:0:0:
23,82,36852,6,0,P|91:78|123:155,1,140,2|10,2:0|2:3,0:0:0:0:
128,189,37452,2,0,L|110:263,1,70,10|10,2:0|2:0,0:0:0:0:
97,311,37852,1,10,2:0:0:0:
296,359,38652,6,0,L|454:327,1,140,6|10,3:2|2:0,0:0:0:0:
348,257,39452,2,0,L|406:210,1,70,10|2,2:0|3:2,0:0:0:0:
389,158,39852,2,0,L|399:79,1,70,10|2,2:0|3:2,0:0:0:0:
443,56,40252,6,0,L|297:32,1,140,10|10,2:0|2:0,0:0:0:0:
269,139,41052,2,0,L|221:87,1,70,10|2,2:0|3:2,0:0:0:0:
174,118,41452,2,0,L|94:115,1,70,10|0,2:0|3:2,0:0:0:0:
58,82,41852,6,0,L|95:228,1,140,10|10,2:0|2:0,0:0:0:0:
22,305,42652,2,0,L|89:328,1,70,10|2,2:0|3:2,0:0:0:0:
114,377,43052,2,0,L|200:354,1,70,10|2,2:0|3:2,0:0:0:0:
234,378,43452,6,0,L|219:225,1,140,10|10,2:0|2:0,0:0:0:0:
328,265,44252,2,0,L|351:196,1,70,10|2,2:0|3:2,0:0:0:0:
403,216,44652,2,0,L|490:186,1,70,10|2,2:0|3:2,0:0:0:0:
510,230,45052,6,0,L|484:85,1,140,14|10,2:0|2:0,0:0:0:0:
375,68,45852,2,0,L|401:140,1,70,10|2,2:0|3:2,0:0:0:0:
364,178,46252,2,0,L|343:252,1,70,10|2,2:0|3:2,0:0:0:0:
388,279,46652,6,0,L|413:357,2,70,10|2|10,2:0|2:0|2:0,0:0:0:0:
296,344,47452,2,0,L|214:326,1,70,10|2,2:0|3:2,0:0:0:0:
172,335,47852,2,0,L|147:254,1,70,10|0,2:0|3:2,0:0:0:0:
105,236,48252,6,0,P|176:226|193:151,2,140,14|10|10,2:0|2:0|2:0,0:0:0:0:
59,203,49252,1,0,3:2:0:0:
59,203,49452,2,0,L|46:124,1,70,10|2,2:0|3:2,0:0:0:0:
3,100,49852,6,0,L|144:71,1,140,10|10,2:0|2:0,0:0:0:0:
195,169,50652,2,0,L|120:160,1,70,10|2,2:0|3:2,0:0:0:0:
115,216,51052,2,0,L|55:268,1,70,10|2,2:0|3:2,0:0:0:0:
8,279,51452,6,0,P|75:300|73:374,2,140,14|10|10,2:0|2:0|2:0,0:0:0:0:
6,227,52452,1,0,3:2:0:0:
6,227,52652,2,0,L|22:149,1,70,10|2,2:0|3:2,0:0:0:0:
34,104,53052,5,10,2:0:0:0:
144,124,53452,1,14,2:0:0:0:
176,78,53652,2,0,L|160:-4,2,70,10|8|0,2:0|2:0|3:2,0:0:0:0:
229,93,54252,2,0,L|245:175,1,70,10|10,2:0|2:3,0:0:0:0:
218,206,54652,5,6,2:0:0:0:
161,355,55052,2,0,L|238:336,1,62.9999980773926,6|2,2:0|2:0,0:0:0:0:
270,325,55452,2,0,L|347:306,1,62.9999980773926,6|2,2:0|2:0,0:0:0:0:
379,295,55852,2,0,L|456:276,1,62.9999980773926,6|2,2:0|2:0,0:0:0:0:
489,268,56252,5,8,2:0:0:0:
487,10,57852,6,0,P|481:80|406:88,1,154.000004699707,6|8,3:2|2:0,0:0:0:0:
355,120,58452,2,0,P|324:55|234:62,1,154.000004699707,4|6,2:3|2:3,0:0:0:0:
201,90,59052,2,0,L|187:183,1,77.0000023498536,10|6,2:0|2:3,0:0:0:0:
179,226,59452,5,2,3:2:0:0:
226,265,59652,1,6,2:3:0:0:
200,321,59852,1,10,2:0:0:0:
313,368,60252,1,2,3:2:0:0:
317,373,60452,2,0,L|407:356,1,77.0000023498536,6|10,2:3|2:0,0:0:0:0:
450,380,60852,6,0,P|406:326|436:252,1,154.000004699707,6|6,2:3|2:3,0:0:0:0:
485,220,61452,2,0,P|498:167|481:145,1,77.0000023498536,10|6,2:0|2:3,0:0:0:0:
444,115,61852,1,2,3:2:0:0:
444,115,62052,2,0,P|431:62|448:40,1,77.0000023498536,6|10,2:3|2:0,0:0:0:0:
487,5,62452,1,6,2:3:0:0:
367,5,62852,5,6,2:3:0:0:
367,5,63052,2,0,P|315:16|306:122,1,154.000004699707,10|0,2:0|3:2,0:0:0:0:
336,147,63652,2,0,L|425:161,2,77.0000023498536,6|10|10,2:3|2:0|2:0,0:0:0:0:
292,191,64252,6,0,L|306:292,1,77.0000023498536,6|4,3:2|2:3,0:0:0:0:
342,314,64652,2,0,L|177:292,1,154.000004699707,10|2,2:0|3:2,0:0:0:0:
80,352,65452,1,10,2:0:0:0:
29,316,65652,6,0,P|12:256|84:216,1,154.000004699707,6|6,2:3|2:3,0:0:0:0:
132,249,66252,1,10,2:0:0:0:
191,233,66452,1,6,3:0:0:0:
210,174,66652,2,0,B|193:146|193:146|228:64|228:64|214:30,1,154.000004699707,2|10,3:2|2:0,0:0:0:0:
156,15,67252,6,0,L|319:-2,1,154.000004699707,6|4,2:3|2:3,0:0:0:0:
360,34,67852,1,10,2:0:0:0:
480,6,68252,2,0,L|451:172,1,154.000004699707,0|10,3:2|2:0,0:0:0:0:
398,186,68852,1,6,2:3:0:0:
388,246,69052,6,0,L|403:341,1,77.0000023498536,0|4,3:2|2:3,0:0:0:0:
409,383,69452,1,8,2:0:0:0:
309,310,69852,1,6,3:2:0:0:
255,340,70052,1,10,2:0:0:0:
196,321,70252,2,0,L|98:310,1,77.0000023498536,10|10,2:0|2:0,0:0:0:0:
72,352,70652,5,6,3:2:0:0:
16,241,71052,1,10,2:0:0:0:
81,136,71452,2,0,L|159:147,1,77.0000023498536,10|2,2:0|3:2,0:0:0:0:
190,198,71852,2,0,L|268:187,1,77.0000023498536,10|2,2:0|3:2,0:0:0:0:
312,146,72252,5,10,2:0:0:0:
350,262,72652,1,10,2:0:0:0:
433,171,73052,2,0,L|460:82,1,77.0000023498536,10|2,2:0|3:2,0:0:0:0:
397,74,73452,2,0,L|378:-7,1,77.0000023498536,10|2,2:0|3:2,0:0:0:0:
317,6,73852,5,10,2:0:0:0:
242,104,74252,1,10,2:0:0:0:
120,81,74652,2,0,P|76:88|60:130,1,77.0000023498536,10|2,2:0|3:2,0:0:0:0:
7,144,75052,2,0,P|-4:190|17:222,1,77.0000023498536,10|2,2:0|3:2,0:0:0:0:
62,245,75452,5,10,2:0:0:0:
181,213,75852,1,14,2:0:0:0:
236,239,76052,1,8,2:0:0:0:
231,300,76252,2,0,L|210:384,2,77.0000023498536,8|2|10,2:0|3:2|2:3,0:0:0:0:
322,235,77052,6,0,P|376:241|385:326,1,140,6|2,3:2|2:0,0:0:0:0:
485,377,77852,2,0,P|514:336|503:248,1,140,2|2,2:0|2:0,0:0:0:0:
409,191,78652,5,2,2:3:0:0:
333,108,79052,1,2,2:0:0:0:
416,32,79452,1,2,2:0:0:0:
492,115,79852,1,2,2:0:0:0:
409,191,80252,6,0,L|246:207,1,140,2|0,3:2|3:2,0:0:0:0:
246,255,80852,1,2,2:0:0:0:
190,252,81052,2,0,L|156:101,1,140,2|0,3:2|3:2,0:0:0:0:
109,90,81652,1,2,2:0:0:0:
97,35,81852,6,0,P|157:9|225:37,1,140,2|0,3:2|3:2,0:0:0:0:
246,86,82452,1,2,2:0:0:0:
268,137,82652,2,0,L|248:222,2,70,2|2|2,3:2|2:0|3:2,0:0:0:0:
368,186,83452,6,0,P|366:128|446:93,1,140,2|0,3:2|3:2,0:0:0:0:
484,106,84052,1,2,2:0:0:0:
477,161,84252,2,0,L|457:316,1,140,2|0,3:2|3:2,0:0:0:0:
481,351,84852,1,2,2:0:0:0:
434,381,85052,6,0,P|397:372|364:282,1,140,2|0,3:2|3:2,0:0:0:0:
390,236,85652,1,10,2:0:0:0:
360,188,85852,1,8,2:0:0:0:
383,137,86052,1,8,2:3:0:0:
365,83,86252,1,4,3:2:0:0:
256,192,86452,12,4,88268,2:0:0:0:
