osu file format v14

[General]
AudioFilename: Ignominious & Pale.mp3
AudioLeadIn: 0
PreviewTime: 94602
Countdown: 0
SampleSet: None
StackLeniency: 0.7
Mode: 3
LetterboxInBreaks: 0
SpecialStyle: 0
WidescreenStoryboard: 0

[Editor]
DistanceSpacing: 0.8
BeatDivisor: 3
GridSize: 32
TimelineZoom: 1.8

[Metadata]
Title:Ignominious & Pale
TitleUnicode:Ignominious & Pale
Artist:Necrophagist
ArtistUnicode:Necrophagist
Creator:XeoStyle
Version:Eclipse of Mind
Source:
Tags:technical death metal epitaph
BeatmapID:2157289
BeatmapSetID:1031658

[Difficulty]
HPDrainRate:8
CircleSize:4
OverallDifficulty:8.2
ApproachRate:5
SliderMultiplier:1.4
SliderTickRate:1

[Events]
//Background and Video events
0,0,"bg.png",0,0
//Break Periods
//Storyboard Layer 0 (Background)
//Storyboard Layer 1 (Fail)
//Storyboard Layer 2 (Pass)
//Storyboard Layer 3 (Foreground)
//Storyboard Layer 4 (Overlay)
//Storyboard Sound Samples

[TimingPoints]
208,258.62069,4,3,0,45,1,0
208,-100,4,3,0,45,0,0
49605,517.241379,4,3,0,45,1,0
49605,-50,4,3,0,45,0,0
95122,258.62069,4,3,0,45,1,0
95122,-100,4,3,0,45,0,1
120984,-100,4,3,0,45,0,0
214346,-100,4,3,0,45,0,1
235035,-100,4,3,0,45,0,0

[HitObjects]
192,192,208,5,0,0:0:0:0:
320,192,272,1,0,0:0:0:0:
192,192,337,1,0,0:0:0:0:
320,192,401,1,0,0:0:0:0:
192,192,466,1,0,0:0:0:0:
448,192,531,1,0,0:0:0:0:
64,192,595,1,0,0:0:0:0:
320,192,595,1,0,0:0:0:0:
192,192,660,1,0,0:0:0:0:
320,192,725,1,0,0:0:0:0:
448,192,789,1,0,0:0:0:0:
64,192,854,1,0,0:0:0:0:
192,192,854,1,0,0:0:0:0:
320,192,919,1,0,0:0:0:0:
64,192,983,1,0,0:0:0:0:
192,192,983,1,0,0:0:0:0:
448,192,1048,1,0,0:0:0:0:
320,192,1113,1,0,0:0:0:0:
64,192,1177,1,0,0:0:0:0:
320,192,1242,1,0,0:0:0:0:
64,192,1307,1,0,0:0:0:0:
320,192,1371,1,0,0:0:0:0:
64,192,1436,1,0,0:0:0:0:
192,192,1501,1,0,0:0:0:0:
448,192,1501,1,0,0:0:0:0:
320,192,1565,1,0,0:0:0:0:
64,192,1630,1,0,0:0:0:0:
448,192,1630,1,0,0:0:0:0:
192,192,1695,1,0,0:0:0:0:
64,192,1759,1,0,0:0:0:0:
320,192,1759,1,0,0:0:0:0:
448,192,1824,1,0,0:0:0:0:
192,192,1889,1,0,0:0:0:0:
320,192,1953,1,0,0:0:0:0:
64,192,2018,1,0,0:0:0:0:
448,192,2018,1,0,0:0:0:0:
192,192,2083,1,0,0:0:0:0:
320,192,2147,1,0,0:0:0:0:
448,192,2147,1,0,0:0:0:0:
192,192,2212,1,0,0:0:0:0:
64,192,2276,1,0,0:0:0:0:
448,192,2341,1,0,0:0:0:0:
64,192,2406,1,0,0:0:0:0:
320,192,2406,1,0,0:0:0:0:
192,192,2470,1,0,0:0:0:0:
320,192,2535,1,0,0:0:0:0:
448,192,2535,1,0,0:0:0:0:
192,192,2600,1,0,0:0:0:0:
64,192,2664,1,0,0:0:0:0:
448,192,2729,1,0,0:0:0:0:
64,192,2794,1,0,0:0:0:0:
448,192,2858,1,0,0:0:0:0:
192,192,2923,1,0,0:0:0:0:
320,192,2923,1,0,0:0:0:0:
64,192,2988,1,0,0:0:0:0:
448,192,3052,1,0,0:0:0:0:
320,192,3117,1,0,0:0:0:0:
64,192,3182,1,0,0:0:0:0:
192,192,3182,1,0,0:0:0:0:
320,192,3246,1,0,0:0:0:0:
448,192,3311,1,0,0:0:0:0:
192,192,3376,1,0,0:0:0:0:
448,192,3440,1,0,0:0:0:0:
192,192,3505,1,0,0:0:0:0:
448,192,3570,1,0,0:0:0:0:
320,192,3634,1,0,0:0:0:0:
64,192,3699,1,0,0:0:0:0:
192,192,3699,1,0,0:0:0:0:
320,192,3764,1,0,0:0:0:0:
192,192,3828,1,0,0:0:0:0:
64,192,3893,1,0,0:0:0:0:
320,192,3958,1,0,0:0:0:0:
448,192,3958,1,0,0:0:0:0:
192,192,4022,1,0,0:0:0:0:
320,192,4087,1,0,0:0:0:0:
448,192,4087,1,0,0:0:0:0:
192,192,4151,1,0,0:0:0:0:
320,192,4216,1,0,0:0:0:0:
64,192,4281,1,0,0:0:0:0:
320,192,4345,1,0,0:0:0:0:
64,192,4410,1,0,0:0:0:0:
320,192,4475,1,0,0:0:0:0:
64,192,4539,1,0,0:0:0:0:
448,192,4604,1,0,0:0:0:0:
192,192,4669,1,0,0:0:0:0:
448,192,4733,1,0,0:0:0:0:
320,192,4798,1,0,0:0:0:0:
64,192,4863,1,0,0:0:0:0:
192,192,4863,1,0,0:0:0:0:
448,192,4927,1,0,0:0:0:0:
192,192,4992,1,0,0:0:0:0:
320,192,5057,1,0,0:0:0:0:
64,192,5121,1,0,0:0:0:0:
448,192,5121,1,0,0:0:0:0:
192,192,5186,1,0,0:0:0:0:
64,192,5251,1,0,0:0:0:0:
320,192,5251,1,0,0:0:0:0:
448,192,5315,1,0,0:0:0:0:
192,192,5380,1,0,0:0:0:0:
320,192,5445,1,0,0:0:0:0:
64,192,5509,1,0,0:0:0:0:
192,192,5509,1,0,0:0:0:0:
320,192,5574,1,0,0:0:0:0:
64,192,5639,1,0,0:0:0:0:
448,192,5639,1,0,0:0:0:0:
320,192,5703,1,0,0:0:0:0:
192,192,5768,1,0,0:0:0:0:
448,192,5833,1,0,0:0:0:0:
192,192,5897,1,0,0:0:0:0:
448,192,5962,1,0,0:0:0:0:
320,192,6026,1,0,0:0:0:0:
192,192,6091,1,0,0:0:0:0:
64,192,6156,1,0,0:0:0:0:
320,192,6220,1,0,0:0:0:0:
448,192,6285,1,0,0:0:0:0:
64,192,6350,1,0,0:0:0:0:
320,192,6414,1,0,0:0:0:0:
448,192,6414,1,0,0:0:0:0:
64,192,6544,1,0,0:0:0:0:
192,192,6544,1,0,0:0:0:0:
320,192,6673,1,0,0:0:0:0:
448,192,6673,1,0,0:0:0:0:
192,192,6802,1,0,0:0:0:0:
448,192,6802,1,0,0:0:0:0:
192,192,6932,1,0,0:0:0:0:
320,192,6932,1,0,0:0:0:0:
320,192,7061,1,0,0:0:0:0:
448,192,7061,1,0,0:0:0:0:
64,192,7190,1,0,0:0:0:0:
192,192,7190,1,0,0:0:0:0:
320,192,7320,1,0,0:0:0:0:
448,192,7320,1,0,0:0:0:0:
64,192,7449,1,0,0:0:0:0:
448,192,7449,1,0,0:0:0:0:
64,192,7578,1,0,0:0:0:0:
320,192,7578,1,0,0:0:0:0:
192,192,7708,1,0,0:0:0:0:
320,192,7708,1,0,0:0:0:0:
64,192,7837,1,0,0:0:0:0:
448,192,7837,1,0,0:0:0:0:
192,192,7966,1,0,0:0:0:0:
320,192,7966,1,0,0:0:0:0:
64,192,8095,1,0,0:0:0:0:
320,192,8095,1,0,0:0:0:0:
64,192,8225,1,0,0:0:0:0:
192,192,8225,1,0,0:0:0:0:
448,192,8354,1,0,0:0:0:0:
192,192,8419,1,0,0:0:0:0:
448,192,8483,1,0,0:0:0:0:
192,192,8548,1,0,0:0:0:0:
448,192,8613,1,0,0:0:0:0:
320,192,8677,1,0,0:0:0:0:
64,192,8742,1,0,0:0:0:0:
192,192,8742,1,0,0:0:0:0:
320,192,8807,1,0,0:0:0:0:
448,192,8871,1,0,0:0:0:0:
64,192,8936,1,0,0:0:0:0:
192,192,9001,1,0,0:0:0:0:
448,192,9001,1,0,0:0:0:0:
320,192,9065,1,0,0:0:0:0:
64,192,9130,1,0,0:0:0:0:
192,192,9130,1,0,0:0:0:0:
320,192,9259,1,0,0:0:0:0:
448,192,9259,1,0,0:0:0:0:
64,192,9389,1,0,0:0:0:0:
192,192,9389,1,0,0:0:0:0:
192,192,9518,1,0,0:0:0:0:
448,192,9518,1,0,0:0:0:0:
64,192,9647,1,0,0:0:0:0:
448,192,9647,1,0,0:0:0:0:
64,192,9776,1,0,0:0:0:0:
192,192,9776,1,0,0:0:0:0:
320,192,9906,1,0,0:0:0:0:
448,192,9906,1,0,0:0:0:0:
64,192,10035,1,0,0:0:0:0:
192,192,10035,1,0,0:0:0:0:
192,192,10164,1,0,0:0:0:0:
448,192,10164,1,0,0:0:0:0:
64,192,10294,1,0,0:0:0:0:
448,192,10294,1,0,0:0:0:0:
64,192,10423,1,0,0:0:0:0:
320,192,10423,1,0,0:0:0:0:
192,192,10552,1,0,0:0:0:0:
448,192,10552,1,0,0:0:0:0:
64,192,10682,1,0,0:0:0:0:
320,192,10682,1,0,0:0:0:0:
192,192,10811,1,0,0:0:0:0:
320,192,10811,1,0,0:0:0:0:
64,192,10940,1,0,0:0:0:0:
192,192,10940,1,0,0:0:0:0:
320,192,11070,1,0,0:0:0:0:
192,192,11134,1,0,0:0:0:0:
320,192,11199,1,0,0:0:0:0:
192,192,11264,1,0,0:0:0:0:
320,192,11328,1,0,0:0:0:0:
448,192,11393,1,0,0:0:0:0:
64,192,11458,1,0,0:0:0:0:
192,192,11458,1,0,0:0:0:0:
320,192,11522,1,0,0:0:0:0:
64,192,11587,1,0,0:0:0:0:
192,192,11651,1,0,0:0:0:0:
320,192,11716,1,0,0:0:0:0:
448,192,11716,1,0,0:0:0:0:
64,192,11781,1,0,0:0:0:0:
192,192,11845,1,0,0:0:0:0:
448,192,11910,1,0,0:0:0:0:
192,192,11975,1,0,0:0:0:0:
448,192,12039,1,0,0:0:0:0:
192,192,12104,1,0,0:0:0:0:
320,192,12169,1,0,0:0:0:0:
64,192,12233,1,0,0:0:0:0:
448,192,12233,1,0,0:0:0:0:
320,192,12298,1,0,0:0:0:0:
192,192,12363,1,0,0:0:0:0:
64,192,12427,1,0,0:0:0:0:
320,192,12492,1,0,0:0:0:0:
448,192,12492,1,0,0:0:0:0:
192,192,12557,1,0,0:0:0:0:
320,192,12621,1,0,0:0:0:0:
448,192,12621,1,0,0:0:0:0:
64,192,12686,1,0,0:0:0:0:
192,192,12751,1,0,0:0:0:0:
320,192,12815,1,0,0:0:0:0:
192,192,12880,1,0,0:0:0:0:
320,192,12945,1,0,0:0:0:0:
192,192,13009,1,0,0:0:0:0:
320,192,13074,1,0,0:0:0:0:
64,192,13139,1,0,0:0:0:0:
448,192,13139,1,0,0:0:0:0:
192,192,13203,1,0,0:0:0:0:
320,192,13268,1,0,0:0:0:0:
448,192,13268,1,0,0:0:0:0:
192,192,13333,1,0,0:0:0:0:
64,192,13397,1,0,0:0:0:0:
320,192,13397,1,0,0:0:0:0:
448,192,13462,1,0,0:0:0:0:
192,192,13526,1,0,0:0:0:0:
64,192,13591,1,0,0:0:0:0:
320,192,13656,1,0,0:0:0:0:
448,192,13656,1,0,0:0:0:0:
192,192,13720,1,0,0:0:0:0:
64,192,13785,1,0,0:0:0:0:
320,192,13785,1,0,0:0:0:0:
448,192,13850,1,0,0:0:0:0:
192,192,13914,1,0,0:0:0:0:
320,192,13979,1,0,0:0:0:0:
64,192,14044,1,0,0:0:0:0:
448,192,14044,1,0,0:0:0:0:
192,192,14108,1,0,0:0:0:0:
320,192,14173,1,0,0:0:0:0:
448,192,14173,1,0,0:0:0:0:
192,192,14238,1,0,0:0:0:0:
64,192,14302,1,0,0:0:0:0:
448,192,14367,1,0,0:0:0:0:
64,192,14432,1,0,0:0:0:0:
448,192,14496,1,0,0:0:0:0:
192,192,14561,1,0,0:0:0:0:
320,192,14561,1,0,0:0:0:0:
64,192,14626,1,0,0:0:0:0:
448,192,14690,1,0,0:0:0:0:
320,192,14755,1,0,0:0:0:0:
64,192,14820,1,0,0:0:0:0:
192,192,14820,1,0,0:0:0:0:
320,192,14884,1,0,0:0:0:0:
448,192,14949,1,0,0:0:0:0:
64,192,15014,1,0,0:0:0:0:
448,192,15078,1,0,0:0:0:0:
64,192,15143,1,0,0:0:0:0:
448,192,15208,1,0,0:0:0:0:
192,192,15272,1,0,0:0:0:0:
64,192,15337,1,0,0:0:0:0:
320,192,15337,1,0,0:0:0:0:
448,192,15401,1,0,0:0:0:0:
192,192,15466,1,0,0:0:0:0:
320,192,15531,1,0,0:0:0:0:
64,192,15595,1,0,0:0:0:0:
192,192,15595,1,0,0:0:0:0:
448,192,15660,1,0,0:0:0:0:
64,192,15725,1,0,0:0:0:0:
192,192,15725,1,0,0:0:0:0:
320,192,15789,1,0,0:0:0:0:
448,192,15854,1,0,0:0:0:0:
64,192,15919,1,0,0:0:0:0:
448,192,15983,1,0,0:0:0:0:
64,192,16048,1,0,0:0:0:0:
448,192,16113,1,0,0:0:0:0:
64,192,16177,1,0,0:0:0:0:
192,192,16242,1,0,0:0:0:0:
320,192,16307,1,0,0:0:0:0:
192,192,16371,1,0,0:0:0:0:
320,192,16436,1,0,0:0:0:0:
64,192,16501,1,0,0:0:0:0:
192,192,16501,1,0,0:0:0:0:
448,192,16565,1,0,0:0:0:0:
320,192,16630,1,0,0:0:0:0:
64,192,16695,1,0,0:0:0:0:
192,192,16759,1,0,0:0:0:0:
448,192,16759,1,0,0:0:0:0:
320,192,16824,1,0,0:0:0:0:
64,192,16889,1,0,0:0:0:0:
192,192,16889,1,0,0:0:0:0:
448,192,16953,1,0,0:0:0:0:
320,192,17018,1,0,0:0:0:0:
192,192,17083,1,0,0:0:0:0:
64,192,17147,1,0,0:0:0:0:
448,192,17147,1,0,0:0:0:0:
320,192,17212,1,0,0:0:0:0:
64,192,17276,1,0,0:0:0:0:
192,192,17276,1,0,0:0:0:0:
320,192,17341,1,0,0:0:0:0:
448,192,17406,1,0,0:0:0:0:
192,192,17470,1,0,0:0:0:0:
448,192,17535,1,0,0:0:0:0:
192,192,17600,1,0,0:0:0:0:
320,192,17664,1,0,0:0:0:0:
448,192,17729,1,0,0:0:0:0:
64,192,17794,1,0,0:0:0:0:
192,192,17858,1,0,0:0:0:0:
448,192,17923,1,0,0:0:0:0:
320,192,17988,1,0,0:0:0:0:
64,192,18052,1,0,0:0:0:0:
192,192,18052,1,0,0:0:0:0:
448,192,18117,1,0,0:0:0:0:
320,192,18182,1,0,0:0:0:0:
448,192,18246,1,0,0:0:0:0:
192,192,18311,1,0,0:0:0:0:
320,192,18376,1,0,0:0:0:0:
64,192,18440,1,0,0:0:0:0:
192,192,18505,1,0,0:0:0:0:
320,192,18570,1,0,0:0:0:0:
448,192,18570,1,0,0:0:0:0:
64,192,18656,1,0,0:0:0:0:
192,192,18656,1,0,0:0:0:0:
320,192,18742,1,0,0:0:0:0:
448,192,18742,1,0,0:0:0:0:
64,192,18828,1,0,0:0:0:0:
192,192,18914,1,0,0:0:0:0:
64,192,19001,1,0,0:0:0:0:
448,192,19087,1,0,0:0:0:0:
192,192,19173,1,0,0:0:0:0:
320,192,19259,1,0,0:0:0:0:
448,192,19259,1,0,0:0:0:0:
192,192,19345,1,0,0:0:0:0:
448,192,19432,1,0,0:0:0:0:
320,192,19518,1,0,0:0:0:0:
64,192,19604,1,0,0:0:0:0:
192,192,19604,1,0,0:0:0:0:
320,192,19690,1,0,0:0:0:0:
448,192,19690,1,0,0:0:0:0:
64,192,19776,1,0,0:0:0:0:
192,192,19776,1,0,0:0:0:0:
320,192,19863,1,0,0:0:0:0:
192,192,19927,1,0,0:0:0:0:
320,192,19992,1,0,0:0:0:0:
192,192,20057,1,0,0:0:0:0:
448,192,20121,1,0,0:0:0:0:
320,192,20186,1,0,0:0:0:0:
192,192,20251,1,0,0:0:0:0:
64,192,20315,1,0,0:0:0:0:
448,192,20380,1,0,0:0:0:0:
192,192,20445,1,0,0:0:0:0:
320,192,20509,1,0,0:0:0:0:
448,192,20574,1,0,0:0:0:0:
192,192,20639,1,0,0:0:0:0:
320,192,20703,1,0,0:0:0:0:
192,192,20768,1,0,0:0:0:0:
320,192,20833,1,0,0:0:0:0:
192,192,20897,1,0,0:0:0:0:
448,192,20962,1,0,0:0:0:0:
64,192,21026,1,0,0:0:0:0:
320,192,21026,1,0,0:0:0:0:
192,192,21091,1,0,0:0:0:0:
320,192,21156,1,0,0:0:0:0:
448,192,21220,1,0,0:0:0:0:
64,192,21285,1,0,0:0:0:0:
192,192,21285,1,0,0:0:0:0:
320,192,21350,1,0,0:0:0:0:
192,192,21414,1,0,0:0:0:0:
448,192,21414,1,0,0:0:0:0:
64,192,21479,1,0,0:0:0:0:
320,192,21544,1,0,0:0:0:0:
192,192,21608,1,0,0:0:0:0:
64,192,21673,1,0,0:0:0:0:
448,192,21673,1,0,0:0:0:0:
320,192,21738,1,0,0:0:0:0:
192,192,21802,1,0,0:0:0:0:
320,192,21867,1,0,0:0:0:0:
64,192,21932,1,0,0:0:0:0:
448,192,21932,1,0,0:0:0:0:
192,192,21996,1,0,0:0:0:0:
320,192,22061,1,0,0:0:0:0:
448,192,22126,1,0,0:0:0:0:
64,192,22190,1,0,0:0:0:0:
192,192,22190,1,0,0:0:0:0:
320,192,22255,1,0,0:0:0:0:
192,192,22320,1,0,0:0:0:0:
448,192,22320,1,0,0:0:0:0:
64,192,22384,1,0,0:0:0:0:
320,192,22449,1,0,0:0:0:0:
192,192,22514,1,0,0:0:0:0:
320,192,22578,1,0,0:0:0:0:
192,192,22643,1,0,0:0:0:0:
64,192,22708,1,0,0:0:0:0:
448,192,22708,1,0,0:0:0:0:
320,192,22772,1,0,0:0:0:0:
192,192,22837,1,0,0:0:0:0:
448,192,22901,1,0,0:0:0:0:
64,192,22966,1,0,0:0:0:0:
320,192,22966,1,0,0:0:0:0:
192,192,23031,1,0,0:0:0:0:
64,192,23095,1,0,0:0:0:0:
448,192,23095,1,0,0:0:0:0:
320,192,23160,1,0,0:0:0:0:
192,192,23225,1,0,0:0:0:0:
448,192,23289,1,0,0:0:0:0:
64,192,23354,1,0,0:0:0:0:
192,192,23354,1,0,0:0:0:0:
320,192,23419,1,0,0:0:0:0:
64,192,23483,1,0,0:0:0:0:
448,192,23483,1,0,0:0:0:0:
192,192,23548,1,0,0:0:0:0:
448,192,23613,1,0,0:0:0:0:
320,192,23677,1,0,0:0:0:0:
64,192,23742,1,0,0:0:0:0:
448,192,23807,1,0,0:0:0:0:
64,192,23871,1,0,0:0:0:0:
448,192,23936,1,0,0:0:0:0:
64,192,24001,1,0,0:0:0:0:
192,192,24065,1,0,0:0:0:0:
64,192,24130,1,0,0:0:0:0:
448,192,24130,1,0,0:0:0:0:
320,192,24195,1,0,0:0:0:0:
192,192,24259,1,0,0:0:0:0:
64,192,24324,1,0,0:0:0:0:
192,192,24389,1,0,0:0:0:0:
448,192,24389,1,0,0:0:0:0:
320,192,24453,1,0,0:0:0:0:
64,192,24518,1,0,0:0:0:0:
448,192,24518,1,0,0:0:0:0:
192,192,24583,1,0,0:0:0:0:
320,192,24647,1,0,0:0:0:0:
64,192,24712,1,0,0:0:0:0:
192,192,24776,1,0,0:0:0:0:
448,192,24776,1,0,0:0:0:0:
320,192,24841,1,0,0:0:0:0:
64,192,24906,1,0,0:0:0:0:
448,192,24906,1,0,0:0:0:0:
320,192,24970,1,0,0:0:0:0:
192,192,25035,1,0,0:0:0:0:
64,192,25100,1,0,0:0:0:0:
320,192,25164,1,0,0:0:0:0:
448,192,25164,1,0,0:0:0:0:
192,192,25229,1,0,0:0:0:0:
64,192,25294,1,0,0:0:0:0:
320,192,25294,1,0,0:0:0:0:
448,192,25358,1,0,0:0:0:0:
192,192,25423,1,0,0:0:0:0:
320,192,25488,1,0,0:0:0:0:
192,192,25552,1,0,0:0:0:0:
448,192,25552,1,0,0:0:0:0:
64,192,25617,1,0,0:0:0:0:
320,192,25682,1,0,0:0:0:0:
192,192,25746,1,0,0:0:0:0:
64,192,25811,1,0,0:0:0:0:
448,192,25811,1,0,0:0:0:0:
320,192,25876,1,0,0:0:0:0:
192,192,25940,1,0,0:0:0:0:
448,192,26005,1,0,0:0:0:0:
64,192,26070,1,0,0:0:0:0:
320,192,26070,1,0,0:0:0:0:
192,192,26134,1,0,0:0:0:0:
320,192,26199,1,0,0:0:0:0:
448,192,26199,1,0,0:0:0:0:
64,192,26264,1,0,0:0:0:0:
192,192,26328,1,0,0:0:0:0:
448,192,26393,1,0,0:0:0:0:
192,192,26458,1,0,0:0:0:0:
448,192,26522,1,0,0:0:0:0:
64,192,26587,1,0,0:0:0:0:
320,192,26587,1,0,0:0:0:0:
192,192,26651,1,0,0:0:0:0:
448,192,26716,1,0,0:0:0:0:
320,192,26781,1,0,0:0:0:0:
192,192,26845,1,0,0:0:0:0:
448,192,26845,1,0,0:0:0:0:
64,192,26910,1,0,0:0:0:0:
320,192,26975,1,0,0:0:0:0:
448,192,26975,1,0,0:0:0:0:
192,192,27039,1,0,0:0:0:0:
64,192,27104,1,0,0:0:0:0:
448,192,27169,1,0,0:0:0:0:
64,192,27233,1,0,0:0:0:0:
192,192,27233,1,0,0:0:0:0:
320,192,27298,1,0,0:0:0:0:
448,192,27363,1,0,0:0:0:0:
192,192,27427,1,0,0:0:0:0:
448,192,27508,1,0,0:0:0:0:
64,192,27557,1,0,0:0:0:0:
320,192,27621,1,0,0:0:0:0:
192,192,27686,1,0,0:0:0:0:
320,192,27751,1,0,0:0:0:0:
192,192,27815,1,0,0:0:0:0:
320,192,27880,1,0,0:0:0:0:
448,192,27945,1,0,0:0:0:0:
64,192,28009,1,0,0:0:0:0:
192,192,28009,1,0,0:0:0:0:
320,192,28074,1,0,0:0:0:0:
64,192,28139,1,0,0:0:0:0:
192,192,28203,1,0,0:0:0:0:
320,192,28268,1,0,0:0:0:0:
448,192,28268,1,0,0:0:0:0:
192,192,28333,1,0,0:0:0:0:
64,192,28397,1,0,0:0:0:0:
448,192,28462,1,0,0:0:0:0:
64,192,28526,1,0,0:0:0:0:
448,192,28591,1,0,0:0:0:0:
64,192,28656,1,0,0:0:0:0:
320,192,28720,1,0,0:0:0:0:
192,192,28785,1,0,0:0:0:0:
448,192,28785,1,0,0:0:0:0:
320,192,28850,1,0,0:0:0:0:
192,192,28914,1,0,0:0:0:0:
64,192,28979,1,0,0:0:0:0:
320,192,29044,1,0,0:0:0:0:
448,192,29044,1,0,0:0:0:0:
192,192,29108,1,0,0:0:0:0:
320,192,29173,1,0,0:0:0:0:
448,192,29173,1,0,0:0:0:0:
64,192,29238,1,0,0:0:0:0:
320,192,29302,1,0,0:0:0:0:
192,192,29367,1,0,0:0:0:0:
448,192,29432,1,0,0:0:0:0:
64,192,29496,1,0,0:0:0:0:
448,192,29561,1,0,0:0:0:0:
64,192,29626,1,0,0:0:0:0:
192,192,29690,1,0,0:0:0:0:
448,192,29690,1,0,0:0:0:0:
320,192,29755,1,0,0:0:0:0:
64,192,29820,1,0,0:0:0:0:
192,192,29820,1,0,0:0:0:0:
448,192,29884,1,0,0:0:0:0:
64,192,29949,1,0,0:0:0:0:
320,192,29949,1,0,0:0:0:0:
192,192,30014,1,0,0:0:0:0:
448,192,30078,1,0,0:0:0:0:
320,192,30143,1,0,0:0:0:0:
64,192,30208,1,0,0:0:0:0:
192,192,30272,1,0,0:0:0:0:
320,192,30337,1,0,0:0:0:0:
448,192,30337,1,0,0:0:0:0:
192,192,30401,1,0,0:0:0:0:
64,192,30466,1,0,0:0:0:0:
448,192,30531,1,0,0:0:0:0:
64,192,30595,1,0,0:0:0:0:
320,192,30595,1,0,0:0:0:0:
192,192,30660,1,0,0:0:0:0:
320,192,30725,1,0,0:0:0:0:
448,192,30725,1,0,0:0:0:0:
192,192,30789,1,0,0:0:0:0:
64,192,30854,1,0,0:0:0:0:
320,192,30919,1,0,0:0:0:0:
64,192,30983,1,0,0:0:0:0:
320,192,31048,1,0,0:0:0:0:
192,192,31113,1,0,0:0:0:0:
448,192,31113,1,0,0:0:0:0:
64,192,31177,1,0,0:0:0:0:
320,192,31242,1,0,0:0:0:0:
192,192,31307,1,0,0:0:0:0:
64,192,31371,1,0,0:0:0:0:
448,192,31371,1,0,0:0:0:0:
320,192,31436,1,0,0:0:0:0:
192,192,31501,1,0,0:0:0:0:
448,192,31565,1,0,0:0:0:0:
192,192,31630,1,0,0:0:0:0:
448,192,31695,1,0,0:0:0:0:
192,192,31759,1,0,0:0:0:0:
320,192,31824,1,0,0:0:0:0:
64,192,31889,1,0,0:0:0:0:
448,192,31889,1,0,0:0:0:0:
192,192,31953,1,0,0:0:0:0:
320,192,32018,1,0,0:0:0:0:
448,192,32083,1,0,0:0:0:0:
64,192,32147,1,0,0:0:0:0:
192,192,32147,1,0,0:0:0:0:
320,192,32212,1,0,0:0:0:0:
64,192,32276,1,0,0:0:0:0:
192,192,32276,1,0,0:0:0:0:
448,192,32341,1,0,0:0:0:0:
320,192,32406,1,0,0:0:0:0:
64,192,32470,1,0,0:0:0:0:
320,192,32535,1,0,0:0:0:0:
64,192,32600,1,0,0:0:0:0:
320,192,32664,1,0,0:0:0:0:
64,192,32729,1,0,0:0:0:0:
192,192,32794,1,0,0:0:0:0:
448,192,32794,1,0,0:0:0:0:
320,192,32858,1,0,0:0:0:0:
64,192,32923,1,0,0:0:0:0:
448,192,32988,1,0,0:0:0:0:
64,192,33052,1,0,0:0:0:0:
320,192,33052,1,0,0:0:0:0:
192,192,33117,1,0,0:0:0:0:
320,192,33182,1,0,0:0:0:0:
448,192,33246,1,0,0:0:0:0:
64,192,33311,1,0,0:0:0:0:
192,192,33311,1,0,0:0:0:0:
320,192,33376,1,0,0:0:0:0:
64,192,33440,1,0,0:0:0:0:
448,192,33440,1,0,0:0:0:0:
192,192,33505,1,0,0:0:0:0:
320,192,33570,1,0,0:0:0:0:
192,192,33634,1,0,0:0:0:0:
64,192,33699,1,0,0:0:0:0:
448,192,33699,1,0,0:0:0:0:
320,192,33764,1,0,0:0:0:0:
64,192,33828,1,0,0:0:0:0:
192,192,33828,1,0,0:0:0:0:
320,192,33893,1,0,0:0:0:0:
448,192,33958,1,0,0:0:0:0:
192,192,34022,1,0,0:0:0:0:
320,192,34087,1,0,0:0:0:0:
64,192,34151,1,0,0:0:0:0:
192,192,34216,1,0,0:0:0:0:
448,192,34216,1,0,0:0:0:0:
320,192,34281,1,0,0:0:0:0:
64,192,34345,1,0,0:0:0:0:
192,192,34345,1,0,0:0:0:0:
448,192,34475,1,0,0:0:0:0:
64,192,34539,1,0,0:0:0:0:
448,192,34604,1,0,0:0:0:0:
192,192,34733,1,0,0:0:0:0:
448,192,34798,1,0,0:0:0:0:
192,192,34863,1,0,0:0:0:0:
320,192,34992,1,0,0:0:0:0:
64,192,35057,1,0,0:0:0:0:
320,192,35121,1,0,0:0:0:0:
192,192,35186,1,0,0:0:0:0:
320,192,35251,1,0,0:0:0:0:
192,192,35315,1,0,0:0:0:0:
320,192,35380,1,0,0:0:0:0:
64,192,35445,1,0,0:0:0:0:
192,192,35509,1,0,0:0:0:0:
448,192,35509,1,0,0:0:0:0:
320,192,35574,1,0,0:0:0:0:
192,192,35639,1,0,0:0:0:0:
64,192,35703,1,0,0:0:0:0:
320,192,35768,1,0,0:0:0:0:
448,192,35768,1,0,0:0:0:0:
192,192,35833,1,0,0:0:0:0:
64,192,35897,1,0,0:0:0:0:
320,192,35897,1,0,0:0:0:0:
448,192,35962,1,0,0:0:0:0:
192,192,36026,1,0,0:0:0:0:
320,192,36091,1,0,0:0:0:0:
64,192,36156,1,0,0:0:0:0:
448,192,36156,1,0,0:0:0:0:
192,192,36220,1,0,0:0:0:0:
320,192,36285,1,0,0:0:0:0:
192,192,36350,1,0,0:0:0:0:
64,192,36414,1,0,0:0:0:0:
448,192,36414,1,0,0:0:0:0:
320,192,36479,1,0,0:0:0:0:
192,192,36544,1,0,0:0:0:0:
448,192,36608,1,0,0:0:0:0:
64,192,36673,1,0,0:0:0:0:
320,192,36673,1,0,0:0:0:0:
192,192,36738,1,0,0:0:0:0:
320,192,36802,1,0,0:0:0:0:
448,192,36802,1,0,0:0:0:0:
64,192,36867,1,0,0:0:0:0:
192,192,36932,1,0,0:0:0:0:
320,192,36996,1,0,0:0:0:0:
192,192,37061,1,0,0:0:0:0:
320,192,37126,1,0,0:0:0:0:
64,192,37190,1,0,0:0:0:0:
192,192,37190,1,0,0:0:0:0:
448,192,37255,1,0,0:0:0:0:
320,192,37320,1,0,0:0:0:0:
64,192,37384,1,0,0:0:0:0:
192,192,37449,1,0,0:0:0:0:
448,192,37449,1,0,0:0:0:0:
320,192,37514,1,0,0:0:0:0:
64,192,37578,1,0,0:0:0:0:
448,192,37578,1,0,0:0:0:0:
192,192,37643,1,0,0:0:0:0:
320,192,37708,1,0,0:0:0:0:
64,192,37772,1,0,0:0:0:0:
320,192,37837,1,0,0:0:0:0:
448,192,37837,1,0,0:0:0:0:
192,192,37901,1,0,0:0:0:0:
64,192,37966,1,0,0:0:0:0:
448,192,37966,1,0,0:0:0:0:
320,192,38031,1,0,0:0:0:0:
64,192,38095,1,0,0:0:0:0:
192,192,38160,1,0,0:0:0:0:
320,192,38225,1,0,0:0:0:0:
64,192,38289,1,0,0:0:0:0:
320,192,38354,1,0,0:0:0:0:
64,192,38419,1,0,0:0:0:0:
320,192,38483,1,0,0:0:0:0:
448,192,38548,1,0,0:0:0:0:
64,192,38613,1,0,0:0:0:0:
320,192,38613,1,0,0:0:0:0:
192,192,38677,1,0,0:0:0:0:
448,192,38742,1,0,0:0:0:0:
320,192,38807,1,0,0:0:0:0:
64,192,38871,1,0,0:0:0:0:
448,192,38871,1,0,0:0:0:0:
192,192,38936,1,0,0:0:0:0:
64,192,39001,1,0,0:0:0:0:
320,192,39001,1,0,0:0:0:0:
448,192,39065,1,0,0:0:0:0:
192,192,39130,1,0,0:0:0:0:
320,192,39195,1,0,0:0:0:0:
64,192,39259,1,0,0:0:0:0:
448,192,39259,1,0,0:0:0:0:
192,192,39324,1,0,0:0:0:0:
64,192,39389,1,0,0:0:0:0:
320,192,39389,1,0,0:0:0:0:
192,192,39453,1,0,0:0:0:0:
320,192,39518,1,0,0:0:0:0:
448,192,39583,1,0,0:0:0:0:
64,192,39647,1,0,0:0:0:0:
192,192,39647,1,0,0:0:0:0:
320,192,39712,1,0,0:0:0:0:
192,192,39776,1,0,0:0:0:0:
448,192,39776,1,0,0:0:0:0:
64,192,39841,1,0,0:0:0:0:
320,192,39906,1,0,0:0:0:0:
192,192,39970,1,0,0:0:0:0:
64,192,40035,1,0,0:0:0:0:
448,192,40035,1,0,0:0:0:0:
320,192,40100,1,0,0:0:0:0:
192,192,40164,1,0,0:0:0:0:
448,192,40229,1,0,0:0:0:0:
64,192,40294,1,0,0:0:0:0:
320,192,40294,1,0,0:0:0:0:
192,192,40358,1,0,0:0:0:0:
320,192,40423,1,0,0:0:0:0:
64,192,40488,1,0,0:0:0:0:
192,192,40552,1,0,0:0:0:0:
448,192,40552,1,0,0:0:0:0:
320,192,40617,1,0,0:0:0:0:
64,192,40682,1,0,0:0:0:0:
192,192,40682,1,0,0:0:0:0:
448,192,40746,1,0,0:0:0:0:
320,192,40811,1,0,0:0:0:0:
64,192,40876,1,0,0:0:0:0:
320,192,40940,1,0,0:0:0:0:
64,192,41005,1,0,0:0:0:0:
192,192,41070,1,0,0:0:0:0:
448,192,41070,1,0,0:0:0:0:
320,192,41134,1,0,0:0:0:0:
64,192,41199,1,0,0:0:0:0:
192,192,41264,1,0,0:0:0:0:
64,192,41328,1,0,0:0:0:0:
320,192,41328,1,0,0:0:0:0:
448,192,41393,1,0,0:0:0:0:
64,192,41458,1,0,0:0:0:0:
192,192,41458,1,0,0:0:0:0:
320,192,41522,1,0,0:0:0:0:
448,192,41587,1,0,0:0:0:0:
64,192,41651,1,0,0:0:0:0:
320,192,41716,1,0,0:0:0:0:
448,192,41716,1,0,0:0:0:0:
192,192,41781,1,0,0:0:0:0:
64,192,41845,1,0,0:0:0:0:
320,192,41910,1,0,0:0:0:0:
64,192,41991,1,0,0:0:0:0:
448,192,42039,1,0,0:0:0:0:
192,192,42104,1,0,0:0:0:0:
320,192,42169,1,0,0:0:0:0:
192,192,42233,1,0,0:0:0:0:
320,192,42298,1,0,0:0:0:0:
192,192,42363,1,0,0:0:0:0:
64,192,42427,1,0,0:0:0:0:
320,192,42492,1,0,0:0:0:0:
448,192,42492,1,0,0:0:0:0:
192,192,42557,1,0,0:0:0:0:
448,192,42621,1,0,0:0:0:0:
320,192,42686,1,0,0:0:0:0:
64,192,42751,1,0,0:0:0:0:
192,192,42751,1,0,0:0:0:0:
320,192,42815,1,0,0:0:0:0:
448,192,42880,1,0,0:0:0:0:
64,192,42945,1,0,0:0:0:0:
448,192,43009,1,0,0:0:0:0:
64,192,43074,1,0,0:0:0:0:
448,192,43139,1,0,0:0:0:0:
192,192,43203,1,0,0:0:0:0:
64,192,43268,1,0,0:0:0:0:
320,192,43268,1,0,0:0:0:0:
448,192,43333,1,0,0:0:0:0:
192,192,43397,1,0,0:0:0:0:
64,192,43462,1,0,0:0:0:0:
320,192,43526,1,0,0:0:0:0:
448,192,43526,1,0,0:0:0:0:
192,192,43591,1,0,0:0:0:0:
320,192,43656,1,0,0:0:0:0:
448,192,43656,1,0,0:0:0:0:
64,192,43720,1,0,0:0:0:0:
192,192,43785,1,0,0:0:0:0:
448,192,43850,1,0,0:0:0:0:
192,192,43914,1,0,0:0:0:0:
448,192,43979,1,0,0:0:0:0:
192,192,44044,1,0,0:0:0:0:
448,192,44108,1,0,0:0:0:0:
64,192,44173,1,0,0:0:0:0:
320,192,44173,1,0,0:0:0:0:
192,192,44238,1,0,0:0:0:0:
320,192,44302,1,0,0:0:0:0:
448,192,44302,1,0,0:0:0:0:
64,192,44367,1,0,0:0:0:0:
192,192,44432,1,0,0:0:0:0:
320,192,44432,1,0,0:0:0:0:
448,192,44496,1,0,0:0:0:0:
64,192,44561,1,0,0:0:0:0:
192,192,44626,1,0,0:0:0:0:
448,192,44690,1,0,0:0:0:0:
320,192,44755,1,0,0:0:0:0:
64,192,44820,1,0,0:0:0:0:
192,192,44820,1,0,0:0:0:0:
320,192,44884,1,0,0:0:0:0:
448,192,44949,1,0,0:0:0:0:
64,192,45014,1,0,0:0:0:0:
192,192,45078,1,0,0:0:0:0:
448,192,45078,1,0,0:0:0:0:
320,192,45143,1,0,0:0:0:0:
64,192,45208,1,0,0:0:0:0:
192,192,45208,1,0,0:0:0:0:
320,192,45272,1,0,0:0:0:0:
448,192,45337,1,0,0:0:0:0:
192,192,45401,1,0,0:0:0:0:
448,192,45466,1,0,0:0:0:0:
192,192,45531,1,0,0:0:0:0:
64,192,45595,1,0,0:0:0:0:
448,192,45595,1,0,0:0:0:0:
320,192,45660,1,0,0:0:0:0:
192,192,45725,1,0,0:0:0:0:
320,192,45789,1,0,0:0:0:0:
64,192,45854,1,0,0:0:0:0:
448,192,45854,1,0,0:0:0:0:
192,192,45919,1,0,0:0:0:0:
320,192,45983,1,0,0:0:0:0:
64,192,46048,1,0,0:0:0:0:
320,192,46113,1,0,0:0:0:0:
64,192,46177,1,0,0:0:0:0:
320,192,46242,1,0,0:0:0:0:
192,192,46307,1,0,0:0:0:0:
64,192,46371,1,0,0:0:0:0:
448,192,46371,1,0,0:0:0:0:
320,192,46436,1,0,0:0:0:0:
192,192,46501,1,0,0:0:0:0:
64,192,46565,1,0,0:0:0:0:
320,192,46630,1,0,0:0:0:0:
448,192,46630,1,0,0:0:0:0:
192,192,46695,1,0,0:0:0:0:
320,192,46759,1,0,0:0:0:0:
448,192,46759,1,0,0:0:0:0:
64,192,46824,1,0,0:0:0:0:
192,192,46889,1,0,0:0:0:0:
448,192,46953,1,0,0:0:0:0:
192,192,47018,1,0,0:0:0:0:
448,192,47083,1,0,0:0:0:0:
192,192,47147,1,0,0:0:0:0:
448,192,47212,1,0,0:0:0:0:
64,192,47276,1,0,0:0:0:0:
320,192,47276,1,0,0:0:0:0:
192,192,47341,1,0,0:0:0:0:
320,192,47406,1,0,0:0:0:0:
64,192,47470,1,0,0:0:0:0:
192,192,47535,1,0,0:0:0:0:
448,192,47535,1,0,0:0:0:0:
320,192,47600,1,0,0:0:0:0:
192,192,47664,1,0,0:0:0:0:
64,192,47729,1,0,0:0:0:0:
320,192,47794,1,0,0:0:0:0:
448,192,47794,1,0,0:0:0:0:
192,192,47858,1,0,0:0:0:0:
64,192,47923,1,0,0:0:0:0:
448,192,47923,1,0,0:0:0:0:
320,192,47988,1,0,0:0:0:0:
192,192,48052,1,0,0:0:0:0:
320,192,48117,1,0,0:0:0:0:
64,192,48182,1,0,0:0:0:0:
448,192,48182,1,0,0:0:0:0:
192,192,48246,1,0,0:0:0:0:
320,192,48311,1,0,0:0:0:0:
448,192,48311,1,0,0:0:0:0:
192,192,48376,1,0,0:0:0:0:
64,192,48440,1,0,0:0:0:0:
320,192,48505,1,0,0:0:0:0:
192,192,48570,1,0,0:0:0:0:
448,192,48634,1,0,0:0:0:0:
64,192,48699,1,0,0:0:0:0:
320,192,48699,1,0,0:0:0:0:
192,192,48764,1,0,0:0:0:0:
320,192,48828,1,0,0:0:0:0:
448,192,48828,1,0,0:0:0:0:
64,192,48893,1,0,0:0:0:0:
192,192,48893,1,0,0:0:0:0:
320,192,48958,1,0,0:0:0:0:
448,192,49022,1,0,0:0:0:0:
64,192,49087,1,0,0:0:0:0:
192,192,49087,1,0,0:0:0:0:
320,192,49151,1,0,0:0:0:0:
64,192,49216,1,0,0:0:0:0:
448,192,49281,1,0,0:0:0:0:
192,192,49345,1,0,0:0:0:0:
448,192,49410,1,0,0:0:0:0:
320,192,49475,1,0,0:0:0:0:
64,192,49539,1,0,0:0:0:0:
320,192,49605,1,0,0:0:0:0:
448,192,49605,1,0,0:0:0:0:
64,192,49691,1,0,0:0:0:0:
192,192,49691,1,0,0:0:0:0:
320,192,49777,1,0,0:0:0:0:
448,192,49777,1,0,0:0:0:0:
64,192,49863,1,0,0:0:0:0:
192,192,49863,1,0,0:0:0:0:
320,192,49949,1,0,0:0:0:0:
192,192,50036,1,0,0:0:0:0:
320,192,50122,1,0,0:0:0:0:
64,192,50208,1,0,0:0:0:0:
192,192,50294,1,0,0:0:0:0:
448,192,50294,1,0,0:0:0:0:
320,192,50380,1,0,0:0:0:0:
448,192,50467,1,0,0:0:0:0:
320,192,50553,1,0,0:0:0:0:
64,192,50639,1,0,0:0:0:0:
192,192,50639,1,0,0:0:0:0:
320,192,50725,1,0,0:0:0:0:
448,192,50725,1,0,0:0:0:0:
64,192,50811,1,0,0:0:0:0:
192,192,50811,1,0,0:0:0:0:
320,192,50898,1,0,0:0:0:0:
448,192,50898,1,0,0:0:0:0:
192,192,50962,1,0,0:0:0:0:
64,192,51027,1,0,0:0:0:0:
448,192,51092,1,0,0:0:0:0:
320,192,51156,1,0,0:0:0:0:
192,192,51221,1,0,0:0:0:0:
320,192,51286,1,0,0:0:0:0:
192,192,51350,1,0,0:0:0:0:
448,192,51415,1,0,0:0:0:0:
64,192,51479,1,0,0:0:0:0:
448,192,51544,1,0,0:0:0:0:
64,192,51609,1,0,0:0:0:0:
320,192,51673,1,0,0:0:0:0:
448,192,51673,1,0,0:0:0:0:
448,192,51846,1,0,0:0:0:0:
448,192,52018,1,0,0:0:0:0:
320,192,52191,1,0,0:0:0:0:
448,192,52191,1,0,0:0:0:0:
448,192,52363,1,0,0:0:0:0:
448,192,52536,1,0,0:0:0:0:
320,192,52708,1,0,0:0:0:0:
448,192,52708,1,0,0:0:0:0:
448,192,52880,1,0,0:0:0:0:
448,192,53053,1,0,0:0:0:0:
192,192,53139,1,0,0:0:0:0:
64,192,53225,1,0,0:0:0:0:
320,192,53225,1,0,0:0:0:0:
448,192,53225,1,0,0:0:0:0:
64,192,53398,1,0,0:0:0:0:
192,192,53398,1,0,0:0:0:0:
192,192,53570,1,0,0:0:0:0:
320,192,53570,1,0,0:0:0:0:
64,192,53742,1,0,0:0:0:0:
192,192,53742,1,0,0:0:0:0:
448,192,53742,1,0,0:0:0:0:
448,192,53915,1,0,0:0:0:0:
448,192,54087,1,0,0:0:0:0:
192,192,54260,1,0,0:0:0:0:
320,192,54260,1,0,0:0:0:0:
192,192,54432,1,0,0:0:0:0:
192,192,54604,128,0,55208:0:0:0:0:
448,192,54604,128,0,55208:0:0:0:0:
64,192,55294,128,0,56673:0:0:0:0:
320,192,55294,1,0,0:0:0:0:
448,192,55467,1,0,0:0:0:0:
448,192,55639,1,0,0:0:0:0:
320,192,55811,1,0,0:0:0:0:
448,192,55811,1,0,0:0:0:0:
448,192,55984,1,0,0:0:0:0:
448,192,56156,1,0,0:0:0:0:
320,192,56329,1,0,0:0:0:0:
448,192,56329,1,0,0:0:0:0:
448,192,56501,1,0,0:0:0:0:
192,192,56673,1,0,0:0:0:0:
448,192,56673,1,0,0:0:0:0:
192,192,56846,1,0,0:0:0:0:
320,192,56846,1,0,0:0:0:0:
64,192,57018,1,0,0:0:0:0:
192,192,57191,1,0,0:0:0:0:
448,192,57191,1,0,0:0:0:0:
64,192,57277,1,0,0:0:0:0:
192,192,57363,1,0,0:0:0:0:
320,192,57363,1,0,0:0:0:0:
448,192,57449,1,0,0:0:0:0:
64,192,57536,1,0,0:0:0:0:
192,192,57622,1,0,0:0:0:0:
320,192,57708,1,0,0:0:0:0:
448,192,57708,1,0,0:0:0:0:
192,192,57794,1,0,0:0:0:0:
320,192,57880,1,0,0:0:0:0:
448,192,57967,1,0,0:0:0:0:
64,192,58053,1,0,0:0:0:0:
192,192,58053,1,0,0:0:0:0:
320,192,58139,1,0,0:0:0:0:
192,192,58225,1,0,0:0:0:0:
448,192,58311,1,0,0:0:0:0:
320,192,58398,1,0,0:0:0:0:
192,192,58484,1,0,0:0:0:0:
320,192,58570,1,0,0:0:0:0:
192,192,58656,1,0,0:0:0:0:
320,192,58742,1,0,0:0:0:0:
192,192,58829,1,0,0:0:0:0:
64,192,58915,1,0,0:0:0:0:
448,192,58915,1,0,0:0:0:0:
320,192,59001,1,0,0:0:0:0:
192,192,59087,1,0,0:0:0:0:
448,192,59173,1,0,0:0:0:0:
192,192,59260,1,0,0:0:0:0:
320,192,59346,1,0,0:0:0:0:
64,192,59432,1,0,0:0:0:0:
192,192,59432,1,0,0:0:0:0:
320,192,59518,1,0,0:0:0:0:
448,192,59604,1,0,0:0:0:0:
64,192,59691,1,0,0:0:0:0:
448,192,59777,1,0,0:0:0:0:
192,192,59863,1,0,0:0:0:0:
64,192,59949,1,0,0:0:0:0:
448,192,59949,1,0,0:0:0:0:
192,192,60036,1,0,0:0:0:0:
320,192,60122,1,0,0:0:0:0:
448,192,60208,1,0,0:0:0:0:
64,192,60294,1,0,0:0:0:0:
192,192,60294,1,0,0:0:0:0:
320,192,60380,1,0,0:0:0:0:
192,192,60467,1,0,0:0:0:0:
448,192,60467,1,0,0:0:0:0:
64,192,60553,1,0,0:0:0:0:
320,192,60639,1,0,0:0:0:0:
192,192,60725,1,0,0:0:0:0:
320,192,60811,1,0,0:0:0:0:
64,192,60898,1,0,0:0:0:0:
320,192,60984,1,0,0:0:0:0:
448,192,60984,1,0,0:0:0:0:
192,192,61070,1,0,0:0:0:0:
448,192,61156,1,0,0:0:0:0:
320,192,61242,1,0,0:0:0:0:
192,192,61329,1,0,0:0:0:0:
448,192,61329,128,0,62018:0:0:0:0:
64,192,61415,1,0,0:0:0:0:
320,192,61501,1,0,0:0:0:0:
192,192,61587,1,0,0:0:0:0:
64,192,61673,1,0,0:0:0:0:
192,192,61760,1,0,0:0:0:0:
320,192,61846,1,0,0:0:0:0:
64,192,61932,1,0,0:0:0:0:
192,192,62018,1,0,0:0:0:0:
320,192,62018,1,0,0:0:0:0:
64,192,62104,1,0,0:0:0:0:
448,192,62191,1,0,0:0:0:0:
320,192,62277,1,0,0:0:0:0:
448,192,62363,1,0,0:0:0:0:
192,192,62449,1,0,0:0:0:0:
64,192,62536,1,0,0:0:0:0:
448,192,62536,1,0,0:0:0:0:
320,192,62622,1,0,0:0:0:0:
192,192,62708,1,0,0:0:0:0:
448,192,62794,1,0,0:0:0:0:
192,192,62880,1,0,0:0:0:0:
320,192,62967,1,0,0:0:0:0:
192,192,63053,1,0,0:0:0:0:
448,192,63053,1,0,0:0:0:0:
64,192,63139,1,0,0:0:0:0:
320,192,63225,1,0,0:0:0:0:
192,192,63311,1,0,0:0:0:0:
320,192,63398,1,0,0:0:0:0:
64,192,63484,1,0,0:0:0:0:
192,192,63570,1,0,0:0:0:0:
320,192,63570,1,0,0:0:0:0:
448,192,63656,1,0,0:0:0:0:
64,192,63742,1,0,0:0:0:0:
192,192,63829,1,0,0:0:0:0:
320,192,63915,1,0,0:0:0:0:
448,192,63915,1,0,0:0:0:0:
192,192,64001,1,0,0:0:0:0:
64,192,64087,1,0,0:0:0:0:
320,192,64087,1,0,0:0:0:0:
64,192,64260,1,0,0:0:0:0:
448,192,64260,1,0,0:0:0:0:
64,192,64432,1,0,0:0:0:0:
192,192,64432,1,0,0:0:0:0:
64,192,64604,1,0,0:0:0:0:
320,192,64604,1,0,0:0:0:0:
192,192,64777,1,0,0:0:0:0:
448,192,64777,1,0,0:0:0:0:
320,192,64863,1,0,0:0:0:0:
192,192,64949,1,0,0:0:0:0:
64,192,65036,1,0,0:0:0:0:
320,192,65122,128,0,65639:0:0:0:0:
448,192,65122,1,0,0:0:0:0:
64,192,65208,1,0,0:0:0:0:
192,192,65294,1,0,0:0:0:0:
448,192,65380,1,0,0:0:0:0:
192,192,65467,1,0,0:0:0:0:
64,192,65553,1,0,0:0:0:0:
192,192,65639,1,0,0:0:0:0:
448,192,65725,1,0,0:0:0:0:
320,192,65811,1,0,0:0:0:0:
64,192,65898,1,0,0:0:0:0:
192,192,65898,1,0,0:0:0:0:
320,192,65984,1,0,0:0:0:0:
448,192,65984,1,0,0:0:0:0:
64,192,66070,1,0,0:0:0:0:
192,192,66070,1,0,0:0:0:0:
320,192,66156,1,0,0:0:0:0:
192,192,66242,1,0,0:0:0:0:
448,192,66329,1,0,0:0:0:0:
192,192,66415,1,0,0:0:0:0:
320,192,66501,1,0,0:0:0:0:
192,192,66587,1,0,0:0:0:0:
64,192,66673,1,0,0:0:0:0:
448,192,66673,1,0,0:0:0:0:
192,192,66760,1,0,0:0:0:0:
320,192,66846,1,0,0:0:0:0:
64,192,66932,1,0,0:0:0:0:
320,192,67018,1,0,0:0:0:0:
192,192,67104,1,0,0:0:0:0:
64,192,67191,1,0,0:0:0:0:
320,192,67191,1,0,0:0:0:0:
448,192,67277,1,0,0:0:0:0:
192,192,67363,1,0,0:0:0:0:
320,192,67449,1,0,0:0:0:0:
192,192,67536,1,0,0:0:0:0:
448,192,67622,1,0,0:0:0:0:
64,192,67708,1,0,0:0:0:0:
192,192,67708,1,0,0:0:0:0:
320,192,67794,1,0,0:0:0:0:
448,192,67880,1,0,0:0:0:0:
192,192,67967,1,0,0:0:0:0:
448,192,68053,1,0,0:0:0:0:
320,192,68139,1,0,0:0:0:0:
64,192,68225,1,0,0:0:0:0:
448,192,68225,1,0,0:0:0:0:
320,192,68311,1,0,0:0:0:0:
192,192,68398,1,0,0:0:0:0:
320,192,68484,1,0,0:0:0:0:
64,192,68570,1,0,0:0:0:0:
448,192,68570,1,0,0:0:0:0:
192,192,68656,1,0,0:0:0:0:
64,192,68742,1,0,0:0:0:0:
320,192,68742,1,0,0:0:0:0:
448,192,68829,1,0,0:0:0:0:
192,192,68915,1,0,0:0:0:0:
320,192,69001,1,0,0:0:0:0:
192,192,69087,1,0,0:0:0:0:
448,192,69173,1,0,0:0:0:0:
192,192,69260,1,0,0:0:0:0:
320,192,69260,1,0,0:0:0:0:
64,192,69346,1,0,0:0:0:0:
320,192,69432,1,0,0:0:0:0:
64,192,69518,1,0,0:0:0:0:
192,192,69604,128,0,70294:0:0:0:0:
320,192,69604,1,0,0:0:0:0:
448,192,69691,1,0,0:0:0:0:
64,192,69777,1,0,0:0:0:0:
320,192,69863,1,0,0:0:0:0:
448,192,69949,1,0,0:0:0:0:
320,192,70036,1,0,0:0:0:0:
64,192,70122,1,0,0:0:0:0:
448,192,70208,1,0,0:0:0:0:
64,192,70294,1,0,0:0:0:0:
320,192,70294,1,0,0:0:0:0:
448,192,70380,1,0,0:0:0:0:
192,192,70467,1,0,0:0:0:0:
320,192,70553,1,0,0:0:0:0:
192,192,70639,1,0,0:0:0:0:
448,192,70725,1,0,0:0:0:0:
64,192,70811,1,0,0:0:0:0:
192,192,70811,1,0,0:0:0:0:
320,192,70898,1,0,0:0:0:0:
448,192,70984,1,0,0:0:0:0:
192,192,71070,1,0,0:0:0:0:
448,192,71156,1,0,0:0:0:0:
320,192,71242,1,0,0:0:0:0:
64,192,71329,1,0,0:0:0:0:
448,192,71329,1,0,0:0:0:0:
192,192,71415,1,0,0:0:0:0:
320,192,71501,1,0,0:0:0:0:
64,192,71587,1,0,0:0:0:0:
320,192,71673,1,0,0:0:0:0:
192,192,71760,1,0,0:0:0:0:
64,192,71846,1,0,0:0:0:0:
320,192,71846,1,0,0:0:0:0:
448,192,71932,1,0,0:0:0:0:
192,192,72018,1,0,0:0:0:0:
448,192,72104,1,0,0:0:0:0:
64,192,72191,1,0,0:0:0:0:
320,192,72191,1,0,0:0:0:0:
192,192,72277,1,0,0:0:0:0:
320,192,72363,1,0,0:0:0:0:
448,192,72363,1,0,0:0:0:0:
192,192,72449,1,0,0:0:0:0:
64,192,72536,1,0,0:0:0:0:
448,192,72536,1,0,0:0:0:0:
192,192,72622,1,0,0:0:0:0:
320,192,72708,1,0,0:0:0:0:
448,192,72708,1,0,0:0:0:0:
64,192,72794,1,0,0:0:0:0:
192,192,72880,1,0,0:0:0:0:
448,192,72880,1,0,0:0:0:0:
320,192,72967,1,0,0:0:0:0:
64,192,73053,1,0,0:0:0:0:
192,192,73053,1,0,0:0:0:0:
320,192,73139,1,0,0:0:0:0:
448,192,73225,1,0,0:0:0:0:
64,192,73311,1,0,0:0:0:0:
320,192,73398,1,0,0:0:0:0:
192,192,73484,1,0,0:0:0:0:
320,192,73570,1,0,0:0:0:0:
192,192,73656,1,0,0:0:0:0:
320,192,73742,1,0,0:0:0:0:
192,192,73829,1,0,0:0:0:0:
64,192,73915,1,0,0:0:0:0:
448,192,73915,1,0,0:0:0:0:
192,192,74001,1,0,0:0:0:0:
320,192,74087,1,0,0:0:0:0:
64,192,74173,1,0,0:0:0:0:
320,192,74260,1,0,0:0:0:0:
192,192,74346,1,0,0:0:0:0:
320,192,74432,1,0,0:0:0:0:
448,192,74432,1,0,0:0:0:0:
192,192,74518,1,0,0:0:0:0:
64,192,74604,1,0,0:0:0:0:
448,192,74691,1,0,0:0:0:0:
64,192,74777,1,0,0:0:0:0:
320,192,74863,1,0,0:0:0:0:
64,192,74949,1,0,0:0:0:0:
448,192,74949,1,0,0:0:0:0:
320,192,75036,1,0,0:0:0:0:
192,192,75122,1,0,0:0:0:0:
64,192,75208,1,0,0:0:0:0:
320,192,75294,1,0,0:0:0:0:
448,192,75294,1,0,0:0:0:0:
192,192,75380,1,0,0:0:0:0:
64,192,75467,1,0,0:0:0:0:
320,192,75467,1,0,0:0:0:0:
448,192,75553,1,0,0:0:0:0:
192,192,75639,1,0,0:0:0:0:
320,192,75725,1,0,0:0:0:0:
192,192,75811,1,0,0:0:0:0:
448,192,75898,1,0,0:0:0:0:
64,192,75984,1,0,0:0:0:0:
192,192,75984,1,0,0:0:0:0:
320,192,76070,1,0,0:0:0:0:
64,192,76156,1,0,0:0:0:0:
192,192,76242,1,0,0:0:0:0:
64,192,76329,128,0,77018:0:0:0:0:
320,192,76329,1,0,0:0:0:0:
448,192,76415,1,0,0:0:0:0:
192,192,76501,1,0,0:0:0:0:
320,192,76587,1,0,0:0:0:0:
448,192,76673,1,0,0:0:0:0:
320,192,76760,1,0,0:0:0:0:
192,192,76846,1,0,0:0:0:0:
448,192,76932,1,0,0:0:0:0:
192,192,77018,1,0,0:0:0:0:
320,192,77018,1,0,0:0:0:0:
448,192,77104,1,0,0:0:0:0:
64,192,77191,1,0,0:0:0:0:
192,192,77277,1,0,0:0:0:0:
64,192,77363,1,0,0:0:0:0:
320,192,77449,1,0,0:0:0:0:
64,192,77536,1,0,0:0:0:0:
448,192,77536,1,0,0:0:0:0:
192,192,77622,1,0,0:0:0:0:
320,192,77708,1,0,0:0:0:0:
64,192,77794,1,0,0:0:0:0:
320,192,77880,1,0,0:0:0:0:
192,192,77967,1,0,0:0:0:0:
64,192,78053,1,0,0:0:0:0:
320,192,78053,1,0,0:0:0:0:
448,192,78139,1,0,0:0:0:0:
192,192,78225,1,0,0:0:0:0:
320,192,78311,1,0,0:0:0:0:
192,192,78398,1,0,0:0:0:0:
448,192,78484,1,0,0:0:0:0:
192,192,78570,1,0,0:0:0:0:
320,192,78570,1,0,0:0:0:0:
64,192,78656,1,0,0:0:0:0:
448,192,78742,1,0,0:0:0:0:
320,192,78829,1,0,0:0:0:0:
64,192,78915,1,0,0:0:0:0:
192,192,78915,1,0,0:0:0:0:
320,192,79001,1,0,0:0:0:0:
192,192,79087,1,0,0:0:0:0:
448,192,79087,1,0,0:0:0:0:
64,192,79260,1,0,0:0:0:0:
448,192,79260,1,0,0:0:0:0:
320,192,79432,1,0,0:0:0:0:
448,192,79432,1,0,0:0:0:0:
192,192,79604,1,0,0:0:0:0:
448,192,79604,1,0,0:0:0:0:
64,192,79777,1,0,0:0:0:0:
320,192,79777,1,0,0:0:0:0:
192,192,79863,1,0,0:0:0:0:
320,192,79949,1,0,0:0:0:0:
448,192,80036,1,0,0:0:0:0:
64,192,80122,1,0,0:0:0:0:
192,192,80122,128,0,80639:0:0:0:0:
448,192,80208,1,0,0:0:0:0:
320,192,80294,1,0,0:0:0:0:
64,192,80380,1,0,0:0:0:0:
320,192,80467,1,0,0:0:0:0:
448,192,80553,1,0,0:0:0:0:
64,192,80639,1,0,0:0:0:0:
320,192,80639,1,0,0:0:0:0:
192,192,80725,1,0,0:0:0:0:
448,192,80811,1,0,0:0:0:0:
64,192,80898,1,0,0:0:0:0:
192,192,80898,1,0,0:0:0:0:
320,192,80984,1,0,0:0:0:0:
448,192,80984,1,0,0:0:0:0:
64,192,81070,1,0,0:0:0:0:
192,192,81070,1,0,0:0:0:0:
320,192,81156,1,0,0:0:0:0:
448,192,81156,1,0,0:0:0:0:
64,192,81242,1,0,0:0:0:0:
192,192,81242,1,0,0:0:0:0:
320,192,81329,1,0,0:0:0:0:
448,192,81415,1,0,0:0:0:0:
192,192,81501,1,0,0:0:0:0:
320,192,81587,1,0,0:0:0:0:
64,192,81673,1,0,0:0:0:0:
192,192,81673,1,0,0:0:0:0:
320,192,81760,1,0,0:0:0:0:
448,192,81760,1,0,0:0:0:0:
64,192,81846,1,0,0:0:0:0:
192,192,81932,1,0,0:0:0:0:
448,192,82018,1,0,0:0:0:0:
64,192,82104,1,0,0:0:0:0:
192,192,82191,1,0,0:0:0:0:
320,192,82191,1,0,0:0:0:0:
448,192,82191,1,0,0:0:0:0:
64,192,82363,1,0,0:0:0:0:
64,192,82536,1,0,0:0:0:0:
64,192,82708,1,0,0:0:0:0:
320,192,82708,1,0,0:0:0:0:
320,192,82880,1,0,0:0:0:0:
320,192,83053,1,0,0:0:0:0:
448,192,83053,1,0,0:0:0:0:
192,192,83225,128,0,83398:0:0:0:0:
448,192,83225,1,0,0:0:0:0:
64,192,83398,128,0,83570:0:0:0:0:
448,192,83570,128,0,83742:0:0:0:0:
64,192,83742,1,0,0:0:0:0:
192,192,83742,1,0,0:0:0:0:
192,192,83915,1,0,0:0:0:0:
320,192,83915,1,0,0:0:0:0:
192,192,84087,1,0,0:0:0:0:
448,192,84087,1,0,0:0:0:0:
64,192,84260,1,0,0:0:0:0:
320,192,84260,1,0,0:0:0:0:
320,192,84432,1,0,0:0:0:0:
192,192,84604,1,0,0:0:0:0:
320,192,84604,1,0,0:0:0:0:
64,192,84777,128,0,84949:0:0:0:0:
192,192,84777,1,0,0:0:0:0:
448,192,84949,128,0,85122:0:0:0:0:
192,192,85122,128,0,85294:0:0:0:0:
64,192,85294,1,0,0:0:0:0:
320,192,85294,1,0,0:0:0:0:
320,192,85467,1,0,0:0:0:0:
448,192,85467,1,0,0:0:0:0:
64,192,85639,1,0,0:0:0:0:
448,192,85639,1,0,0:0:0:0:
192,192,85811,1,0,0:0:0:0:
320,192,85898,1,0,0:0:0:0:
64,192,85984,1,0,0:0:0:0:
320,192,86070,1,0,0:0:0:0:
64,192,86156,1,0,0:0:0:0:
320,192,86242,1,0,0:0:0:0:
192,192,86329,1,0,0:0:0:0:
448,192,86329,1,0,0:0:0:0:
448,192,86501,1,0,0:0:0:0:
192,192,86673,1,0,0:0:0:0:
448,192,86673,1,0,0:0:0:0:
64,192,86846,1,0,0:0:0:0:
320,192,86846,1,0,0:0:0:0:
192,192,87018,1,0,0:0:0:0:
320,192,87018,1,0,0:0:0:0:
320,192,87191,1,0,0:0:0:0:
448,192,87191,1,0,0:0:0:0:
192,192,87363,1,0,0:0:0:0:
448,192,87449,1,0,0:0:0:0:
64,192,87536,1,0,0:0:0:0:
448,192,87622,1,0,0:0:0:0:
64,192,87708,1,0,0:0:0:0:
448,192,87794,1,0,0:0:0:0:
64,192,87880,1,0,0:0:0:0:
448,192,87967,1,0,0:0:0:0:
64,192,88053,1,0,0:0:0:0:
448,192,88139,1,0,0:0:0:0:
64,192,88225,1,0,0:0:0:0:
448,192,88311,1,0,0:0:0:0:
64,192,88398,1,0,0:0:0:0:
320,192,88398,1,0,0:0:0:0:
192,192,88570,1,0,0:0:0:0:
320,192,88570,1,0,0:0:0:0:
64,192,88742,1,0,0:0:0:0:
320,192,88742,1,0,0:0:0:0:
192,192,88915,1,0,0:0:0:0:
448,192,88915,1,0,0:0:0:0:
192,192,89087,1,0,0:0:0:0:
64,192,89260,1,0,0:0:0:0:
192,192,89260,1,0,0:0:0:0:
64,192,89432,1,0,0:0:0:0:
320,192,89432,128,0,89604:0:0:0:0:
448,192,89604,128,0,89777:0:0:0:0:
64,192,89777,128,0,89949:0:0:0:0:
320,192,89949,1,0,0:0:0:0:
448,192,89949,1,0,0:0:0:0:
192,192,90122,1,0,0:0:0:0:
320,192,90122,1,0,0:0:0:0:
64,192,90294,1,0,0:0:0:0:
320,192,90294,1,0,0:0:0:0:
192,192,90467,1,0,0:0:0:0:
448,192,90467,1,0,0:0:0:0:
192,192,90639,1,0,0:0:0:0:
192,192,90811,1,0,0:0:0:0:
320,192,90811,1,0,0:0:0:0:
320,192,90984,1,0,0:0:0:0:
448,192,90984,128,0,91156:0:0:0:0:
64,192,91156,128,0,91329:0:0:0:0:
320,192,91329,128,0,91501:0:0:0:0:
192,192,91501,1,0,0:0:0:0:
448,192,91501,1,0,0:0:0:0:
64,192,91673,1,0,0:0:0:0:
192,192,91673,1,0,0:0:0:0:
64,192,91846,1,0,0:0:0:0:
448,192,91846,1,0,0:0:0:0:
320,192,92018,1,0,0:0:0:0:
192,192,92104,1,0,0:0:0:0:
448,192,92191,1,0,0:0:0:0:
192,192,92277,1,0,0:0:0:0:
448,192,92363,1,0,0:0:0:0:
192,192,92449,1,0,0:0:0:0:
64,192,92536,1,0,0:0:0:0:
320,192,92536,1,0,0:0:0:0:
64,192,92708,1,0,0:0:0:0:
64,192,92880,1,0,0:0:0:0:
320,192,92880,1,0,0:0:0:0:
192,192,93053,1,0,0:0:0:0:
448,192,93053,1,0,0:0:0:0:
192,192,93225,1,0,0:0:0:0:
320,192,93225,1,0,0:0:0:0:
64,192,93398,1,0,0:0:0:0:
192,192,93398,1,0,0:0:0:0:
320,192,93570,1,0,0:0:0:0:
64,192,93656,1,0,0:0:0:0:
448,192,93742,1,0,0:0:0:0:
64,192,93829,1,0,0:0:0:0:
448,192,93915,1,0,0:0:0:0:
64,192,94001,1,0,0:0:0:0:
448,192,94087,1,0,0:0:0:0:
64,192,94173,1,0,0:0:0:0:
448,192,94260,1,0,0:0:0:0:
64,192,94346,1,0,0:0:0:0:
448,192,94432,1,0,0:0:0:0:
64,192,94518,1,0,0:0:0:0:
448,192,94604,1,0,0:0:0:0:
320,192,94691,1,0,0:0:0:0:
192,192,94777,1,0,0:0:0:0:
320,192,94863,1,0,0:0:0:0:
192,192,94949,1,0,0:0:0:0:
64,192,95036,1,0,0:0:0:0:
320,192,95122,1,0,0:0:0:0:
448,192,95122,1,0,0:0:0:0:
192,192,95186,1,0,0:0:0:0:
320,192,95251,1,0,0:0:0:0:
448,192,95315,1,0,0:0:0:0:
64,192,95380,1,0,0:0:0:0:
192,192,95380,1,0,0:0:0:0:
320,192,95445,1,0,0:0:0:0:
64,192,95509,1,0,0:0:0:0:
192,192,95509,1,0,0:0:0:0:
448,192,95574,1,0,0:0:0:0:
320,192,95639,1,0,0:0:0:0:
192,192,95703,1,0,0:0:0:0:
64,192,95768,1,0,0:0:0:0:
448,192,95768,1,0,0:0:0:0:
320,192,95833,1,0,0:0:0:0:
64,192,95897,1,0,0:0:0:0:
192,192,95897,1,0,0:0:0:0:
448,192,95962,1,0,0:0:0:0:
320,192,96027,1,0,0:0:0:0:
192,192,96091,1,0,0:0:0:0:
64,192,96156,1,0,0:0:0:0:
448,192,96156,1,0,0:0:0:0:
192,192,96221,1,0,0:0:0:0:
320,192,96285,1,0,0:0:0:0:
448,192,96285,1,0,0:0:0:0:
64,192,96350,1,0,0:0:0:0:
320,192,96415,1,0,0:0:0:0:
448,192,96415,1,0,0:0:0:0:
192,192,96479,1,0,0:0:0:0:
64,192,96544,1,0,0:0:0:0:
448,192,96609,1,0,0:0:0:0:
64,192,96673,1,0,0:0:0:0:
320,192,96673,1,0,0:0:0:0:
192,192,96738,1,0,0:0:0:0:
320,192,96803,1,0,0:0:0:0:
448,192,96867,1,0,0:0:0:0:
64,192,96932,1,0,0:0:0:0:
192,192,96932,1,0,0:0:0:0:
320,192,96997,1,0,0:0:0:0:
64,192,97061,1,0,0:0:0:0:
448,192,97061,1,0,0:0:0:0:
192,192,97126,1,0,0:0:0:0:
320,192,97190,1,0,0:0:0:0:
448,192,97190,1,0,0:0:0:0:
64,192,97255,1,0,0:0:0:0:
192,192,97320,1,0,0:0:0:0:
320,192,97320,1,0,0:0:0:0:
448,192,97384,1,0,0:0:0:0:
64,192,97449,1,0,0:0:0:0:
192,192,97514,1,0,0:0:0:0:
64,192,97578,1,0,0:0:0:0:
320,192,97578,1,0,0:0:0:0:
448,192,97643,1,0,0:0:0:0:
192,192,97708,1,0,0:0:0:0:
320,192,97772,1,0,0:0:0:0:
64,192,97837,1,0,0:0:0:0:
448,192,97837,1,0,0:0:0:0:
320,192,97902,1,0,0:0:0:0:
192,192,97966,1,0,0:0:0:0:
64,192,98031,1,0,0:0:0:0:
320,192,98096,1,0,0:0:0:0:
448,192,98096,1,0,0:0:0:0:
192,192,98160,1,0,0:0:0:0:
64,192,98225,1,0,0:0:0:0:
448,192,98225,1,0,0:0:0:0:
320,192,98290,1,0,0:0:0:0:
192,192,98354,1,0,0:0:0:0:
64,192,98419,1,0,0:0:0:0:
320,192,98484,1,0,0:0:0:0:
448,192,98484,1,0,0:0:0:0:
192,192,98548,1,0,0:0:0:0:
320,192,98613,1,0,0:0:0:0:
448,192,98613,1,0,0:0:0:0:
64,192,98678,1,0,0:0:0:0:
192,192,98742,1,0,0:0:0:0:
448,192,98807,1,0,0:0:0:0:
64,192,98872,1,0,0:0:0:0:
320,192,98872,1,0,0:0:0:0:
192,192,98936,1,0,0:0:0:0:
320,192,99001,1,0,0:0:0:0:
448,192,99001,1,0,0:0:0:0:
192,192,99065,1,0,0:0:0:0:
320,192,99130,1,0,0:0:0:0:
192,192,99195,1,0,0:0:0:0:
64,192,99259,1,0,0:0:0:0:
448,192,99324,1,0,0:0:0:0:
64,192,99389,1,0,0:0:0:0:
192,192,99389,1,0,0:0:0:0:
320,192,99453,1,0,0:0:0:0:
64,192,99518,1,0,0:0:0:0:
192,192,99518,1,0,0:0:0:0:
448,192,99583,1,0,0:0:0:0:
320,192,99647,1,0,0:0:0:0:
192,192,99712,1,0,0:0:0:0:
64,192,99777,1,0,0:0:0:0:
448,192,99777,1,0,0:0:0:0:
320,192,99841,1,0,0:0:0:0:
192,192,99906,1,0,0:0:0:0:
320,192,99971,1,0,0:0:0:0:
64,192,100035,1,0,0:0:0:0:
448,192,100035,1,0,0:0:0:0:
192,192,100100,1,0,0:0:0:0:
64,192,100165,1,0,0:0:0:0:
320,192,100165,1,0,0:0:0:0:
448,192,100229,1,0,0:0:0:0:
192,192,100294,1,0,0:0:0:0:
320,192,100294,1,0,0:0:0:0:
64,192,100359,1,0,0:0:0:0:
192,192,100423,1,0,0:0:0:0:
448,192,100423,1,0,0:0:0:0:
320,192,100488,1,0,0:0:0:0:
64,192,100553,1,0,0:0:0:0:
192,192,100617,1,0,0:0:0:0:
320,192,100682,1,0,0:0:0:0:
448,192,100682,1,0,0:0:0:0:
192,192,100747,1,0,0:0:0:0:
64,192,100811,1,0,0:0:0:0:
448,192,100811,1,0,0:0:0:0:
320,192,100876,1,0,0:0:0:0:
64,192,100940,1,0,0:0:0:0:
192,192,100940,1,0,0:0:0:0:
448,192,101005,1,0,0:0:0:0:
320,192,101070,1,0,0:0:0:0:
192,192,101134,1,0,0:0:0:0:
320,192,101199,1,0,0:0:0:0:
448,192,101199,1,0,0:0:0:0:
64,192,101264,1,0,0:0:0:0:
192,192,101328,1,0,0:0:0:0:
448,192,101328,1,0,0:0:0:0:
320,192,101393,1,0,0:0:0:0:
64,192,101458,1,0,0:0:0:0:
448,192,101522,1,0,0:0:0:0:
64,192,101587,1,0,0:0:0:0:
192,192,101587,1,0,0:0:0:0:
320,192,101652,1,0,0:0:0:0:
64,192,101716,1,0,0:0:0:0:
192,192,101716,1,0,0:0:0:0:
448,192,101781,1,0,0:0:0:0:
320,192,101846,1,0,0:0:0:0:
192,192,101910,1,0,0:0:0:0:
64,192,101975,1,0,0:0:0:0:
448,192,101975,1,0,0:0:0:0:
320,192,102040,1,0,0:0:0:0:
192,192,102104,1,0,0:0:0:0:
448,192,102104,1,0,0:0:0:0:
64,192,102169,1,0,0:0:0:0:
192,192,102234,1,0,0:0:0:0:
320,192,102298,1,0,0:0:0:0:
64,192,102363,1,0,0:0:0:0:
448,192,102363,1,0,0:0:0:0:
192,192,102428,1,0,0:0:0:0:
320,192,102492,1,0,0:0:0:0:
448,192,102492,1,0,0:0:0:0:
64,192,102557,1,0,0:0:0:0:
320,192,102622,1,0,0:0:0:0:
448,192,102622,1,0,0:0:0:0:
192,192,102686,1,0,0:0:0:0:
64,192,102751,1,0,0:0:0:0:
320,192,102815,1,0,0:0:0:0:
64,192,102880,1,0,0:0:0:0:
192,192,102880,1,0,0:0:0:0:
448,192,102945,1,0,0:0:0:0:
320,192,103009,1,0,0:0:0:0:
192,192,103074,1,0,0:0:0:0:
64,192,103139,1,0,0:0:0:0:
448,192,103139,1,0,0:0:0:0:
320,192,103203,1,0,0:0:0:0:
64,192,103268,1,0,0:0:0:0:
192,192,103268,1,0,0:0:0:0:
320,192,103333,1,0,0:0:0:0:
192,192,103397,1,0,0:0:0:0:
448,192,103397,1,0,0:0:0:0:
64,192,103462,1,0,0:0:0:0:
320,192,103527,1,0,0:0:0:0:
448,192,103527,1,0,0:0:0:0:
192,192,103591,1,0,0:0:0:0:
64,192,103656,1,0,0:0:0:0:
448,192,103721,1,0,0:0:0:0:
192,192,103785,1,0,0:0:0:0:
320,192,103785,1,0,0:0:0:0:
64,192,103850,1,0,0:0:0:0:
448,192,103915,1,0,0:0:0:0:
320,192,103979,1,0,0:0:0:0:
64,192,104044,1,0,0:0:0:0:
192,192,104044,1,0,0:0:0:0:
320,192,104109,1,0,0:0:0:0:
192,192,104173,1,0,0:0:0:0:
64,192,104238,1,0,0:0:0:0:
320,192,104303,1,0,0:0:0:0:
448,192,104303,1,0,0:0:0:0:
192,192,104367,1,0,0:0:0:0:
64,192,104432,1,0,0:0:0:0:
448,192,104432,1,0,0:0:0:0:
320,192,104497,1,0,0:0:0:0:
192,192,104561,1,0,0:0:0:0:
64,192,104626,1,0,0:0:0:0:
320,192,104690,1,0,0:0:0:0:
448,192,104690,1,0,0:0:0:0:
192,192,104755,1,0,0:0:0:0:
320,192,104820,1,0,0:0:0:0:
448,192,104820,1,0,0:0:0:0:
192,192,104884,1,0,0:0:0:0:
64,192,104949,1,0,0:0:0:0:
448,192,105014,1,0,0:0:0:0:
64,192,105078,1,0,0:0:0:0:
320,192,105078,1,0,0:0:0:0:
192,192,105143,1,0,0:0:0:0:
320,192,105208,1,0,0:0:0:0:
448,192,105208,1,0,0:0:0:0:
192,192,105272,1,0,0:0:0:0:
320,192,105337,1,0,0:0:0:0:
192,192,105402,1,0,0:0:0:0:
448,192,105466,1,0,0:0:0:0:
64,192,105531,1,0,0:0:0:0:
320,192,105596,1,0,0:0:0:0:
448,192,105596,1,0,0:0:0:0:
192,192,105660,1,0,0:0:0:0:
320,192,105725,1,0,0:0:0:0:
448,192,105725,1,0,0:0:0:0:
64,192,105790,1,0,0:0:0:0:
192,192,105854,1,0,0:0:0:0:
320,192,105919,1,0,0:0:0:0:
64,192,105984,1,0,0:0:0:0:
448,192,105984,1,0,0:0:0:0:
192,192,106048,1,0,0:0:0:0:
320,192,106113,1,0,0:0:0:0:
192,192,106178,1,0,0:0:0:0:
64,192,106242,1,0,0:0:0:0:
448,192,106242,1,0,0:0:0:0:
320,192,106307,1,0,0:0:0:0:
192,192,106372,1,0,0:0:0:0:
448,192,106372,1,0,0:0:0:0:
64,192,106436,1,0,0:0:0:0:
192,192,106501,1,0,0:0:0:0:
320,192,106501,1,0,0:0:0:0:
448,192,106565,1,0,0:0:0:0:
64,192,106630,1,0,0:0:0:0:
320,192,106630,1,0,0:0:0:0:
192,192,106695,1,0,0:0:0:0:
448,192,106759,1,0,0:0:0:0:
320,192,106824,1,0,0:0:0:0:
64,192,106889,1,0,0:0:0:0:
192,192,106889,1,0,0:0:0:0:
320,192,106953,1,0,0:0:0:0:
64,192,107018,1,0,0:0:0:0:
448,192,107018,1,0,0:0:0:0:
192,192,107083,1,0,0:0:0:0:
320,192,107147,1,0,0:0:0:0:
448,192,107147,1,0,0:0:0:0:
64,192,107212,1,0,0:0:0:0:
192,192,107277,1,0,0:0:0:0:
320,192,107341,1,0,0:0:0:0:
64,192,107406,1,0,0:0:0:0:
192,192,107406,1,0,0:0:0:0:
448,192,107471,1,0,0:0:0:0:
320,192,107535,1,0,0:0:0:0:
192,192,107600,1,0,0:0:0:0:
64,192,107665,1,0,0:0:0:0:
448,192,107665,1,0,0:0:0:0:
320,192,107729,1,0,0:0:0:0:
192,192,107794,1,0,0:0:0:0:
64,192,107859,1,0,0:0:0:0:
320,192,107923,1,0,0:0:0:0:
448,192,107923,1,0,0:0:0:0:
192,192,107988,1,0,0:0:0:0:
64,192,108053,1,0,0:0:0:0:
448,192,108117,1,0,0:0:0:0:
64,192,108182,1,0,0:0:0:0:
192,192,108182,1,0,0:0:0:0:
320,192,108247,1,0,0:0:0:0:
64,192,108311,1,0,0:0:0:0:
192,192,108311,1,0,0:0:0:0:
448,192,108376,1,0,0:0:0:0:
320,192,108440,1,0,0:0:0:0:
64,192,108505,1,0,0:0:0:0:
320,192,108570,1,0,0:0:0:0:
64,192,108634,1,0,0:0:0:0:
320,192,108699,1,0,0:0:0:0:
448,192,108699,1,0,0:0:0:0:
192,192,108764,1,0,0:0:0:0:
64,192,108828,1,0,0:0:0:0:
448,192,108893,1,0,0:0:0:0:
64,192,108958,1,0,0:0:0:0:
448,192,109022,1,0,0:0:0:0:
64,192,109087,1,0,0:0:0:0:
192,192,109087,1,0,0:0:0:0:
320,192,109152,1,0,0:0:0:0:
192,192,109216,1,0,0:0:0:0:
448,192,109216,1,0,0:0:0:0:
64,192,109281,1,0,0:0:0:0:
320,192,109346,1,0,0:0:0:0:
448,192,109346,1,0,0:0:0:0:
192,192,109410,1,0,0:0:0:0:
320,192,109475,1,0,0:0:0:0:
64,192,109540,1,0,0:0:0:0:
192,192,109604,1,0,0:0:0:0:
448,192,109669,1,0,0:0:0:0:
64,192,109734,1,0,0:0:0:0:
320,192,109734,1,0,0:0:0:0:
192,192,109798,1,0,0:0:0:0:
448,192,109863,1,0,0:0:0:0:
320,192,109928,1,0,0:0:0:0:
64,192,109992,1,0,0:0:0:0:
192,192,109992,1,0,0:0:0:0:
448,192,110057,1,0,0:0:0:0:
64,192,110122,1,0,0:0:0:0:
192,192,110186,1,0,0:0:0:0:
320,192,110251,1,0,0:0:0:0:
448,192,110251,1,0,0:0:0:0:
64,192,110315,1,0,0:0:0:0:
320,192,110380,1,0,0:0:0:0:
448,192,110380,1,0,0:0:0:0:
192,192,110445,1,0,0:0:0:0:
320,192,110509,1,0,0:0:0:0:
64,192,110574,1,0,0:0:0:0:
192,192,110639,1,0,0:0:0:0:
448,192,110639,1,0,0:0:0:0:
320,192,110703,1,0,0:0:0:0:
64,192,110768,1,0,0:0:0:0:
192,192,110768,1,0,0:0:0:0:
320,192,110833,1,0,0:0:0:0:
192,192,110897,1,0,0:0:0:0:
320,192,110962,1,0,0:0:0:0:
64,192,111027,1,0,0:0:0:0:
448,192,111027,1,0,0:0:0:0:
192,192,111091,1,0,0:0:0:0:
320,192,111156,1,0,0:0:0:0:
64,192,111221,1,0,0:0:0:0:
192,192,111285,1,0,0:0:0:0:
448,192,111285,1,0,0:0:0:0:
320,192,111350,1,0,0:0:0:0:
192,192,111415,1,0,0:0:0:0:
64,192,111479,1,0,0:0:0:0:
320,192,111544,1,0,0:0:0:0:
448,192,111544,1,0,0:0:0:0:
192,192,111609,1,0,0:0:0:0:
320,192,111673,1,0,0:0:0:0:
448,192,111738,1,0,0:0:0:0:
64,192,111803,1,0,0:0:0:0:
192,192,111803,1,0,0:0:0:0:
320,192,111867,1,0,0:0:0:0:
64,192,111932,1,0,0:0:0:0:
192,192,111932,1,0,0:0:0:0:
448,192,111997,1,0,0:0:0:0:
320,192,112061,1,0,0:0:0:0:
192,192,112126,1,0,0:0:0:0:
320,192,112190,1,0,0:0:0:0:
192,192,112255,1,0,0:0:0:0:
64,192,112320,1,0,0:0:0:0:
448,192,112320,1,0,0:0:0:0:
320,192,112384,1,0,0:0:0:0:
192,192,112449,1,0,0:0:0:0:
448,192,112514,1,0,0:0:0:0:
192,192,112578,1,0,0:0:0:0:
448,192,112643,1,0,0:0:0:0:
192,192,112708,1,0,0:0:0:0:
320,192,112708,1,0,0:0:0:0:
64,192,112772,1,0,0:0:0:0:
320,192,112837,1,0,0:0:0:0:
448,192,112837,1,0,0:0:0:0:
192,192,112902,1,0,0:0:0:0:
64,192,112966,1,0,0:0:0:0:
448,192,112966,1,0,0:0:0:0:
320,192,113031,1,0,0:0:0:0:
192,192,113096,1,0,0:0:0:0:
64,192,113160,1,0,0:0:0:0:
320,192,113225,1,0,0:0:0:0:
448,192,113225,1,0,0:0:0:0:
192,192,113290,1,0,0:0:0:0:
64,192,113354,1,0,0:0:0:0:
448,192,113354,1,0,0:0:0:0:
320,192,113419,1,0,0:0:0:0:
192,192,113484,1,0,0:0:0:0:
448,192,113548,1,0,0:0:0:0:
64,192,113613,1,0,0:0:0:0:
320,192,113613,1,0,0:0:0:0:
192,192,113678,1,0,0:0:0:0:
448,192,113742,1,0,0:0:0:0:
64,192,113807,1,0,0:0:0:0:
320,192,113872,1,0,0:0:0:0:
448,192,113872,1,0,0:0:0:0:
192,192,113936,1,0,0:0:0:0:
320,192,114001,1,0,0:0:0:0:
448,192,114001,1,0,0:0:0:0:
64,192,114065,1,0,0:0:0:0:
192,192,114130,1,0,0:0:0:0:
320,192,114195,1,0,0:0:0:0:
64,192,114259,1,0,0:0:0:0:
448,192,114259,1,0,0:0:0:0:
192,192,114324,1,0,0:0:0:0:
64,192,114389,1,0,0:0:0:0:
320,192,114389,1,0,0:0:0:0:
448,192,114453,1,0,0:0:0:0:
192,192,114518,1,0,0:0:0:0:
320,192,114518,1,0,0:0:0:0:
64,192,114583,1,0,0:0:0:0:
192,192,114647,1,0,0:0:0:0:
448,192,114647,1,0,0:0:0:0:
320,192,114712,1,0,0:0:0:0:
64,192,114777,1,0,0:0:0:0:
448,192,114777,1,0,0:0:0:0:
192,192,114841,1,0,0:0:0:0:
320,192,114906,1,0,0:0:0:0:
64,192,114971,1,0,0:0:0:0:
320,192,115035,1,0,0:0:0:0:
448,192,115035,1,0,0:0:0:0:
192,192,115100,1,0,0:0:0:0:
320,192,115165,1,0,0:0:0:0:
448,192,115165,1,0,0:0:0:0:
64,192,115229,1,0,0:0:0:0:
192,192,115294,1,0,0:0:0:0:
320,192,115359,1,0,0:0:0:0:
64,192,115423,1,0,0:0:0:0:
448,192,115423,1,0,0:0:0:0:
192,192,115488,1,0,0:0:0:0:
64,192,115553,1,0,0:0:0:0:
320,192,115553,1,0,0:0:0:0:
448,192,115617,1,0,0:0:0:0:
320,192,115682,1,0,0:0:0:0:
192,192,115747,1,0,0:0:0:0:
64,192,115811,1,0,0:0:0:0:
448,192,115811,1,0,0:0:0:0:
320,192,115876,1,0,0:0:0:0:
64,192,115940,1,0,0:0:0:0:
192,192,115940,1,0,0:0:0:0:
448,192,116005,1,0,0:0:0:0:
64,192,116070,1,0,0:0:0:0:
192,192,116070,1,0,0:0:0:0:
320,192,116134,1,0,0:0:0:0:
448,192,116199,1,0,0:0:0:0:
192,192,116264,1,0,0:0:0:0:
320,192,116328,1,0,0:0:0:0:
448,192,116328,1,0,0:0:0:0:
64,192,116393,1,0,0:0:0:0:
192,192,116458,1,0,0:0:0:0:
320,192,116522,1,0,0:0:0:0:
64,192,116587,1,0,0:0:0:0:
448,192,116587,1,0,0:0:0:0:
192,192,116652,1,0,0:0:0:0:
320,192,116716,1,0,0:0:0:0:
448,192,116716,1,0,0:0:0:0:
192,192,116781,1,0,0:0:0:0:
64,192,116846,1,0,0:0:0:0:
320,192,116846,1,0,0:0:0:0:
448,192,116910,1,0,0:0:0:0:
64,192,116975,1,0,0:0:0:0:
192,192,116975,1,0,0:0:0:0:
320,192,117040,1,0,0:0:0:0:
448,192,117104,1,0,0:0:0:0:
64,192,117169,1,0,0:0:0:0:
192,192,117234,1,0,0:0:0:0:
320,192,117234,1,0,0:0:0:0:
448,192,117298,1,0,0:0:0:0:
64,192,117363,1,0,0:0:0:0:
192,192,117428,1,0,0:0:0:0:
320,192,117492,1,0,0:0:0:0:
448,192,117492,1,0,0:0:0:0:
192,192,117557,1,0,0:0:0:0:
320,192,117622,1,0,0:0:0:0:
448,192,117686,1,0,0:0:0:0:
64,192,117751,1,0,0:0:0:0:
192,192,117751,1,0,0:0:0:0:
320,192,117815,1,0,0:0:0:0:
64,192,117880,1,0,0:0:0:0:
448,192,117880,1,0,0:0:0:0:
192,192,117945,1,0,0:0:0:0:
320,192,118009,1,0,0:0:0:0:
448,192,118074,1,0,0:0:0:0:
64,192,118139,1,0,0:0:0:0:
192,192,118139,1,0,0:0:0:0:
320,192,118203,1,0,0:0:0:0:
64,192,118268,1,0,0:0:0:0:
192,192,118268,1,0,0:0:0:0:
320,192,118333,1,0,0:0:0:0:
448,192,118397,1,0,0:0:0:0:
64,192,118462,1,0,0:0:0:0:
192,192,118527,1,0,0:0:0:0:
448,192,118527,1,0,0:0:0:0:
320,192,118591,1,0,0:0:0:0:
64,192,118656,1,0,0:0:0:0:
192,192,118656,1,0,0:0:0:0:
320,192,118721,1,0,0:0:0:0:
192,192,118785,1,0,0:0:0:0:
320,192,118850,1,0,0:0:0:0:
64,192,118915,1,0,0:0:0:0:
448,192,118979,1,0,0:0:0:0:
64,192,119044,1,0,0:0:0:0:
192,192,119044,1,0,0:0:0:0:
320,192,119109,1,0,0:0:0:0:
64,192,119173,1,0,0:0:0:0:
192,192,119173,1,0,0:0:0:0:
448,192,119238,1,0,0:0:0:0:
320,192,119303,1,0,0:0:0:0:
192,192,119367,1,0,0:0:0:0:
64,192,119432,1,0,0:0:0:0:
448,192,119432,1,0,0:0:0:0:
320,192,119497,1,0,0:0:0:0:
192,192,119561,1,0,0:0:0:0:
448,192,119626,1,0,0:0:0:0:
64,192,119690,1,0,0:0:0:0:
320,192,119690,1,0,0:0:0:0:
192,192,119755,1,0,0:0:0:0:
64,192,119820,1,0,0:0:0:0:
448,192,119820,1,0,0:0:0:0:
320,192,119884,1,0,0:0:0:0:
192,192,119949,1,0,0:0:0:0:
448,192,119949,1,0,0:0:0:0:
64,192,120014,1,0,0:0:0:0:
192,192,120078,1,0,0:0:0:0:
320,192,120078,1,0,0:0:0:0:
448,192,120143,1,0,0:0:0:0:
64,192,120208,1,0,0:0:0:0:
192,192,120272,1,0,0:0:0:0:
320,192,120337,1,0,0:0:0:0:
448,192,120337,1,0,0:0:0:0:
192,192,120402,1,0,0:0:0:0:
64,192,120466,1,0,0:0:0:0:
320,192,120531,1,0,0:0:0:0:
64,192,120596,1,0,0:0:0:0:
192,192,120596,1,0,0:0:0:0:
448,192,120660,1,0,0:0:0:0:
320,192,120725,1,0,0:0:0:0:
192,192,120790,1,0,0:0:0:0:
64,192,120854,1,0,0:0:0:0:
320,192,120854,1,0,0:0:0:0:
448,192,120919,1,0,0:0:0:0:
64,192,120984,128,0,121501:0:0:0:0:
192,192,120984,128,0,121501:0:0:0:0:
448,192,121501,1,0,0:0:0:0:
320,192,121587,1,0,0:0:0:0:
192,192,121673,1,0,0:0:0:0:
64,192,121759,1,0,0:0:0:0:
448,192,121846,1,0,0:0:0:0:
320,192,121932,1,0,0:0:0:0:
192,192,122018,1,0,0:0:0:0:
320,192,122104,1,0,0:0:0:0:
192,192,122190,1,0,0:0:0:0:
64,192,122277,1,0,0:0:0:0:
448,192,122363,1,0,0:0:0:0:
320,192,122449,1,0,0:0:0:0:
192,192,122535,1,0,0:0:0:0:
320,192,122622,1,0,0:0:0:0:
192,192,122708,1,0,0:0:0:0:
64,192,122794,1,0,0:0:0:0:
64,192,122880,1,0,0:0:0:0:
448,192,122966,1,0,0:0:0:0:
320,192,123053,1,0,0:0:0:0:
192,192,123139,1,0,0:0:0:0:
320,192,123225,1,0,0:0:0:0:
192,192,123311,1,0,0:0:0:0:
64,192,123397,1,0,0:0:0:0:
192,192,123484,1,0,0:0:0:0:
320,192,123570,1,0,0:0:0:0:
448,192,123656,1,0,0:0:0:0:
320,192,123742,1,0,0:0:0:0:
192,192,123828,1,0,0:0:0:0:
320,192,123915,1,0,0:0:0:0:
192,192,124001,1,0,0:0:0:0:
64,192,124087,1,0,0:0:0:0:
320,192,124173,1,0,0:0:0:0:
448,192,124259,1,0,0:0:0:0:
64,192,124346,128,0,124777:0:0:0:0:
192,192,124863,128,0,125122:0:0:0:0:
448,192,125122,1,0,0:0:0:0:
320,192,125208,1,0,0:0:0:0:
192,192,125294,1,0,0:0:0:0:
64,192,125380,1,0,0:0:0:0:
448,192,125466,1,0,0:0:0:0:
320,192,125553,1,0,0:0:0:0:
192,192,125639,1,0,0:0:0:0:
320,192,125725,1,0,0:0:0:0:
448,192,125811,1,0,0:0:0:0:
320,192,125897,1,0,0:0:0:0:
192,192,125984,1,0,0:0:0:0:
320,192,126070,1,0,0:0:0:0:
192,192,126156,1,0,0:0:0:0:
64,192,126242,1,0,0:0:0:0:
192,192,126328,1,0,0:0:0:0:
320,192,126415,1,0,0:0:0:0:
448,192,126501,1,0,0:0:0:0:
320,192,126587,1,0,0:0:0:0:
192,192,126673,128,0,127449:0:0:0:0:
448,192,127449,1,0,0:0:0:0:
320,192,127535,1,0,0:0:0:0:
192,192,127622,1,0,0:0:0:0:
64,192,127708,128,0,127934:0:0:0:0:
448,192,127934,1,0,0:0:0:0:
320,192,127966,128,0,128139:0:0:0:0:
320,192,128225,128,0,128484:0:0:0:0:
192,192,128484,128,0,128742:0:0:0:0:
64,192,128742,128,0,129432:0:0:0:0:
320,192,129486,1,0,0:0:0:0:
192,192,129518,128,0,129777:0:0:0:0:
448,192,129777,128,0,130035:0:0:0:0:
320,192,130035,128,0,130294:0:0:0:0:
64,192,130294,128,0,130682:0:0:0:0:
192,192,130768,1,0,0:0:0:0:
320,192,130811,128,0,131846:0:0:0:0:
448,192,131846,1,0,0:0:0:0:
320,192,131932,1,0,0:0:0:0:
64,192,132018,1,0,0:0:0:0:
192,192,132104,1,0,0:0:0:0:
320,192,132190,1,0,0:0:0:0:
448,192,132277,1,0,0:0:0:0:
320,192,132363,1,0,0:0:0:0:
192,192,132449,1,0,0:0:0:0:
320,192,132535,1,0,0:0:0:0:
192,192,132622,1,0,0:0:0:0:
64,192,132708,1,0,0:0:0:0:
192,192,132794,1,0,0:0:0:0:
320,192,132880,1,0,0:0:0:0:
448,192,132966,1,0,0:0:0:0:
320,192,133053,1,0,0:0:0:0:
192,192,133139,1,0,0:0:0:0:
320,192,133225,1,0,0:0:0:0:
192,192,133311,1,0,0:0:0:0:
64,192,133397,1,0,0:0:0:0:
192,192,133484,1,0,0:0:0:0:
320,192,133570,1,0,0:0:0:0:
448,192,133656,1,0,0:0:0:0:
320,192,133742,1,0,0:0:0:0:
192,192,133828,1,0,0:0:0:0:
64,192,133915,1,0,0:0:0:0:
448,192,134001,1,0,0:0:0:0:
320,192,134087,1,0,0:0:0:0:
192,192,134173,1,0,0:0:0:0:
64,192,134259,1,0,0:0:0:0:
192,192,134346,1,0,0:0:0:0:
320,192,134432,1,0,0:0:0:0:
448,192,134518,1,0,0:0:0:0:
320,192,134604,1,0,0:0:0:0:
192,192,134690,1,0,0:0:0:0:
320,192,134777,1,0,0:0:0:0:
192,192,134863,1,0,0:0:0:0:
64,192,134949,1,0,0:0:0:0:
448,192,135035,1,0,0:0:0:0:
320,192,135122,1,0,0:0:0:0:
192,192,135208,1,0,0:0:0:0:
64,192,135294,1,0,0:0:0:0:
192,192,135380,1,0,0:0:0:0:
320,192,135466,1,0,0:0:0:0:
192,192,135553,1,0,0:0:0:0:
320,192,135639,1,0,0:0:0:0:
448,192,135725,1,0,0:0:0:0:
64,192,135811,1,0,0:0:0:0:
192,192,135897,1,0,0:0:0:0:
448,192,135984,1,0,0:0:0:0:
64,192,136070,1,0,0:0:0:0:
192,192,136156,1,0,0:0:0:0:
448,192,136242,1,0,0:0:0:0:
64,192,136328,1,0,0:0:0:0:
192,192,136415,1,0,0:0:0:0:
64,192,136501,128,0,136759:0:0:0:0:
192,192,136759,128,0,137277:0:0:0:0:
320,192,137277,128,0,137535:0:0:0:0:
64,192,137535,128,0,138311:0:0:0:0:
448,192,138311,128,0,138484:0:0:0:0:
448,192,138570,128,0,138828:0:0:0:0:
320,192,138828,128,0,140122:0:0:0:0:
64,192,140122,1,0,0:0:0:0:
192,192,140208,1,0,0:0:0:0:
320,192,140294,1,0,0:0:0:0:
448,192,140380,1,0,0:0:0:0:
320,192,140466,1,0,0:0:0:0:
192,192,140553,1,0,0:0:0:0:
64,192,140639,1,0,0:0:0:0:
448,192,140725,1,0,0:0:0:0:
320,192,140811,1,0,0:0:0:0:
192,192,140897,1,0,0:0:0:0:
64,192,140984,1,0,0:0:0:0:
192,192,141070,1,0,0:0:0:0:
320,192,141156,1,0,0:0:0:0:
192,192,141242,1,0,0:0:0:0:
320,192,141328,1,0,0:0:0:0:
448,192,141415,1,0,0:0:0:0:
320,192,141501,1,0,0:0:0:0:
192,192,141587,1,0,0:0:0:0:
320,192,141673,128,0,141932:0:0:0:0:
64,192,141932,1,0,0:0:0:0:
192,192,142018,1,0,0:0:0:0:
320,192,142104,1,0,0:0:0:0:
448,192,142190,128,0,142449:0:0:0:0:
64,192,142449,1,0,0:0:0:0:
192,192,142535,1,0,0:0:0:0:
320,192,142622,1,0,0:0:0:0:
64,192,142708,1,0,0:0:0:0:
448,192,142794,1,0,0:0:0:0:
320,192,142880,1,0,0:0:0:0:
192,192,142966,1,0,0:0:0:0:
320,192,143053,1,0,0:0:0:0:
192,192,143139,1,0,0:0:0:0:
64,192,143225,1,0,0:0:0:0:
448,192,143311,1,0,0:0:0:0:
320,192,143397,1,0,0:0:0:0:
192,192,143484,1,0,0:0:0:0:
320,192,143570,1,0,0:0:0:0:
192,192,143656,1,0,0:0:0:0:
64,192,143742,1,0,0:0:0:0:
448,192,143828,1,0,0:0:0:0:
320,192,143915,1,0,0:0:0:0:
64,192,144001,1,0,0:0:0:0:
192,192,144087,1,0,0:0:0:0:
320,192,144173,1,0,0:0:0:0:
192,192,144259,1,0,0:0:0:0:
320,192,144346,1,0,0:0:0:0:
448,192,144432,1,0,0:0:0:0:
64,192,144518,1,0,0:0:0:0:
320,192,144604,1,0,0:0:0:0:
192,192,144690,1,0,0:0:0:0:
64,192,144777,1,0,0:0:0:0:
448,192,144863,1,0,0:0:0:0:
320,192,144949,1,0,0:0:0:0:
64,192,145035,128,0,145208:0:0:0:0:
320,192,145294,128,0,145811:0:0:0:0:
64,192,145811,1,0,0:0:0:0:
192,192,145897,1,0,0:0:0:0:
320,192,145984,1,0,0:0:0:0:
192,192,146070,1,0,0:0:0:0:
320,192,146156,1,0,0:0:0:0:
448,192,146242,1,0,0:0:0:0:
320,192,146328,1,0,0:0:0:0:
192,192,146415,1,0,0:0:0:0:
320,192,146501,1,0,0:0:0:0:
192,192,146587,1,0,0:0:0:0:
64,192,146673,1,0,0:0:0:0:
192,192,146759,1,0,0:0:0:0:
320,192,146846,1,0,0:0:0:0:
448,192,146932,1,0,0:0:0:0:
192,192,147018,1,0,0:0:0:0:
64,192,147104,1,0,0:0:0:0:
320,192,147190,1,0,0:0:0:0:
192,192,147277,1,0,0:0:0:0:
64,192,147363,1,0,0:0:0:0:
448,192,147449,1,0,0:0:0:0:
320,192,147535,1,0,0:0:0:0:
192,192,147622,1,0,0:0:0:0:
320,192,147708,1,0,0:0:0:0:
192,192,147794,1,0,0:0:0:0:
64,192,147880,1,0,0:0:0:0:
448,192,147966,1,0,0:0:0:0:
320,192,148053,1,0,0:0:0:0:
192,192,148139,1,0,0:0:0:0:
320,192,148225,1,0,0:0:0:0:
192,192,148311,1,0,0:0:0:0:
64,192,148397,1,0,0:0:0:0:
448,192,148484,1,0,0:0:0:0:
320,192,148570,1,0,0:0:0:0:
192,192,148656,1,0,0:0:0:0:
64,192,148742,1,0,0:0:0:0:
320,192,148828,1,0,0:0:0:0:
64,192,148915,1,0,0:0:0:0:
448,192,149001,1,0,0:0:0:0:
320,192,149087,1,0,0:0:0:0:
192,192,149173,1,0,0:0:0:0:
64,192,149259,1,0,0:0:0:0:
192,192,149346,1,0,0:0:0:0:
320,192,149432,1,0,0:0:0:0:
448,192,149518,1,0,0:0:0:0:
192,192,149604,1,0,0:0:0:0:
64,192,149690,1,0,0:0:0:0:
448,192,149777,1,0,0:0:0:0:
320,192,149863,1,0,0:0:0:0:
64,192,149949,1,0,0:0:0:0:
320,192,150035,1,0,0:0:0:0:
192,192,150122,1,0,0:0:0:0:
64,192,150208,1,0,0:0:0:0:
448,192,150294,1,0,0:0:0:0:
320,192,150380,1,0,0:0:0:0:
192,192,150466,1,0,0:0:0:0:
64,192,150553,1,0,0:0:0:0:
192,192,150639,1,0,0:0:0:0:
320,192,150725,1,0,0:0:0:0:
192,192,150811,1,0,0:0:0:0:
320,192,150897,1,0,0:0:0:0:
448,192,150984,1,0,0:0:0:0:
192,192,151070,1,0,0:0:0:0:
448,192,151156,1,0,0:0:0:0:
320,192,151242,1,0,0:0:0:0:
192,192,151328,1,0,0:0:0:0:
448,192,151415,1,0,0:0:0:0:
320,192,151501,1,0,0:0:0:0:
64,192,151587,1,0,0:0:0:0:
320,192,151673,1,0,0:0:0:0:
192,192,151759,128,0,152018:0:0:0:0:
448,192,152018,1,0,0:0:0:0:
64,192,152104,1,0,0:0:0:0:
192,192,152190,1,0,0:0:0:0:
320,192,152277,1,0,0:0:0:0:
448,192,152363,1,0,0:0:0:0:
192,192,152449,1,0,0:0:0:0:
64,192,152535,1,0,0:0:0:0:
448,192,152622,1,0,0:0:0:0:
320,192,152708,1,0,0:0:0:0:
192,192,152794,1,0,0:0:0:0:
64,192,152880,1,0,0:0:0:0:
192,192,152966,1,0,0:0:0:0:
320,192,153053,1,0,0:0:0:0:
448,192,153139,1,0,0:0:0:0:
320,192,153225,1,0,0:0:0:0:
192,192,153311,1,0,0:0:0:0:
320,192,153397,1,0,0:0:0:0:
192,192,153484,1,0,0:0:0:0:
64,192,153570,1,0,0:0:0:0:
448,192,153656,1,0,0:0:0:0:
320,192,153742,1,0,0:0:0:0:
192,192,153828,1,0,0:0:0:0:
64,192,153915,1,0,0:0:0:0:
192,192,154001,1,0,0:0:0:0:
320,192,154087,1,0,0:0:0:0:
192,192,154173,1,0,0:0:0:0:
320,192,154259,1,0,0:0:0:0:
448,192,154346,1,0,0:0:0:0:
320,192,154432,1,0,0:0:0:0:
192,192,154518,1,0,0:0:0:0:
448,192,154604,1,0,0:0:0:0:
320,192,154690,1,0,0:0:0:0:
192,192,154777,1,0,0:0:0:0:
448,192,154863,1,0,0:0:0:0:
320,192,154949,1,0,0:0:0:0:
192,192,155035,1,0,0:0:0:0:
64,192,155122,128,0,155380:0:0:0:0:
192,192,155380,1,0,0:0:0:0:
320,192,155466,1,0,0:0:0:0:
448,192,155553,1,0,0:0:0:0:
64,192,155639,128,0,155897:0:0:0:0:
448,192,155897,128,0,156070:0:0:0:0:
448,192,156156,128,0,156415:0:0:0:0:
320,192,156415,128,0,156673:0:0:0:0:
64,192,156673,1,0,0:0:0:0:
192,192,156759,1,0,0:0:0:0:
320,192,156846,1,0,0:0:0:0:
192,192,156932,1,0,0:0:0:0:
320,192,157018,1,0,0:0:0:0:
448,192,157104,1,0,0:0:0:0:
320,192,157190,1,0,0:0:0:0:
192,192,157277,1,0,0:0:0:0:
320,192,157363,1,0,0:0:0:0:
192,192,157449,1,0,0:0:0:0:
64,192,157535,1,0,0:0:0:0:
192,192,157622,1,0,0:0:0:0:
320,192,157708,1,0,0:0:0:0:
448,192,157794,1,0,0:0:0:0:
320,192,157880,1,0,0:0:0:0:
192,192,157966,1,0,0:0:0:0:
320,192,158053,1,0,0:0:0:0:
192,192,158139,1,0,0:0:0:0:
64,192,158225,1,0,0:0:0:0:
192,192,158311,1,0,0:0:0:0:
320,192,158397,1,0,0:0:0:0:
448,192,158484,1,0,0:0:0:0:
320,192,158570,1,0,0:0:0:0:
192,192,158656,1,0,0:0:0:0:
64,192,158742,1,0,0:0:0:0:
448,192,158828,1,0,0:0:0:0:
320,192,158915,1,0,0:0:0:0:
192,192,159001,1,0,0:0:0:0:
64,192,159087,1,0,0:0:0:0:
192,192,159173,1,0,0:0:0:0:
320,192,159259,1,0,0:0:0:0:
448,192,159346,1,0,0:0:0:0:
320,192,159432,1,0,0:0:0:0:
192,192,159518,1,0,0:0:0:0:
320,192,159604,1,0,0:0:0:0:
192,192,159690,1,0,0:0:0:0:
64,192,159777,1,0,0:0:0:0:
448,192,159863,1,0,0:0:0:0:
320,192,159949,1,0,0:0:0:0:
192,192,160035,1,0,0:0:0:0:
64,192,160122,1,0,0:0:0:0:
192,192,160208,1,0,0:0:0:0:
320,192,160294,1,0,0:0:0:0:
64,192,160380,1,0,0:0:0:0:
192,192,160466,1,0,0:0:0:0:
448,192,160553,1,0,0:0:0:0:
320,192,160639,1,0,0:0:0:0:
192,192,160725,1,0,0:0:0:0:
64,192,160811,128,0,161070:0:0:0:0:
192,192,161070,128,0,161328:0:0:0:0:
64,192,161328,128,0,162018:0:0:0:0:
64,192,162104,1,0,0:0:0:0:
192,192,162190,1,0,0:0:0:0:
320,192,162277,1,0,0:0:0:0:
448,192,162363,1,0,0:0:0:0:
192,192,162449,1,0,0:0:0:0:
64,192,162535,1,0,0:0:0:0:
448,192,162622,1,0,0:0:0:0:
320,192,162708,1,0,0:0:0:0:
192,192,162794,1,0,0:0:0:0:
64,192,162880,1,0,0:0:0:0:
448,192,162966,1,0,0:0:0:0:
320,192,163053,1,0,0:0:0:0:
64,192,163139,1,0,0:0:0:0:
320,192,163225,1,0,0:0:0:0:
192,192,163311,1,0,0:0:0:0:
64,192,163397,128,0,163828:0:0:0:0:
192,192,163828,128,0,163915:0:0:0:0:
64,192,163915,128,0,164173:0:0:0:0:
192,192,164173,1,0,0:0:0:0:
320,192,164259,1,0,0:0:0:0:
448,192,164346,1,0,0:0:0:0:
64,192,164432,128,0,165208:0:0:0:0:
320,192,164432,128,0,165208:0:0:0:0:
192,192,165208,128,0,165466:0:0:0:0:
64,192,165466,128,0,165725:0:0:0:0:
320,192,165725,128,0,165984:0:0:0:0:
448,192,165725,128,0,165984:0:0:0:0:
192,192,165984,128,0,166242:0:0:0:0:
64,192,166242,128,0,166501:0:0:0:0:
192,192,166501,128,0,167277:0:0:0:0:
320,192,166501,128,0,167277:0:0:0:0:
448,192,167277,128,0,167535:0:0:0:0:
64,192,167535,128,0,169087:0:0:0:0:
320,192,167535,128,0,168053:0:0:0:0:
192,192,168053,128,0,168311:0:0:0:0:
448,192,168311,128,0,168570:0:0:0:0:
192,192,168570,128,0,169087:0:0:0:0:
320,192,169087,128,0,169346:0:0:0:0:
64,192,169346,128,0,170553:0:0:0:0:
448,192,169346,128,0,169604:0:0:0:0:
192,192,169604,128,0,170553:0:0:0:0:
192,192,170639,128,0,170703:0:0:0:0:
448,192,170639,1,0,0:0:0:0:
192,192,171027,128,0,171091:0:0:0:0:
320,192,171156,1,0,0:0:0:0:
64,192,171415,128,0,172966:0:0:0:0:
448,192,171415,1,0,0:0:0:0:
448,192,171932,1,0,0:0:0:0:
320,192,172190,1,0,0:0:0:0:
192,192,172449,1,0,0:0:0:0:
192,192,172708,1,0,0:0:0:0:
192,192,172966,1,0,0:0:0:0:
448,192,172966,1,0,0:0:0:0:
192,192,173225,1,0,0:0:0:0:
320,192,173225,1,0,0:0:0:0:
64,192,173484,1,0,0:0:0:0:
320,192,173742,1,0,0:0:0:0:
448,192,173742,1,0,0:0:0:0:
320,192,174001,1,0,0:0:0:0:
64,192,174259,1,0,0:0:0:0:
448,192,174259,1,0,0:0:0:0:
64,192,174518,128,0,175811:0:0:0:0:
320,192,174518,128,0,174777:0:0:0:0:
448,192,174777,128,0,175165:0:0:0:0:
320,192,175035,128,0,175294:0:0:0:0:
448,192,175294,1,0,0:0:0:0:
320,192,175553,1,0,0:0:0:0:
192,192,175811,128,0,175876:0:0:0:0:
448,192,176070,1,0,0:0:0:0:
192,192,176199,128,0,176264:0:0:0:0:
64,192,176587,128,0,176846:0:0:0:0:
320,192,176587,1,0,0:0:0:0:
448,192,176846,1,0,0:0:0:0:
192,192,177104,1,0,0:0:0:0:
320,192,177234,1,0,0:0:0:0:
192,192,177363,1,0,0:0:0:0:
320,192,177492,1,0,0:0:0:0:
192,192,177622,1,0,0:0:0:0:
320,192,177751,1,0,0:0:0:0:
192,192,177880,128,0,177966:0:0:0:0:
64,192,178139,1,0,0:0:0:0:
448,192,178139,1,0,0:0:0:0:
192,192,178397,1,0,0:0:0:0:
320,192,178397,1,0,0:0:0:0:
448,192,178397,1,0,0:0:0:0:
64,192,178656,1,0,0:0:0:0:
320,192,178656,1,0,0:0:0:0:
64,192,178915,1,0,0:0:0:0:
320,192,178915,1,0,0:0:0:0:
192,192,179173,1,0,0:0:0:0:
448,192,179173,1,0,0:0:0:0:
64,192,179432,1,0,0:0:0:0:
448,192,179432,1,0,0:0:0:0:
192,192,179690,1,0,0:0:0:0:
320,192,179690,1,0,0:0:0:0:
64,192,179949,128,0,180014:0:0:0:0:
192,192,179949,128,0,180014:0:0:0:0:
320,192,180208,1,0,0:0:0:0:
64,192,180337,128,0,180402:0:0:0:0:
192,192,180337,128,0,180402:0:0:0:0:
448,192,180466,1,0,0:0:0:0:
192,192,180725,128,0,181501:0:0:0:0:
320,192,180725,1,0,0:0:0:0:
448,192,180984,1,0,0:0:0:0:
448,192,181242,1,0,0:0:0:0:
64,192,181501,128,0,181565:0:0:0:0:
320,192,181501,1,0,0:0:0:0:
448,192,181759,1,0,0:0:0:0:
64,192,181889,128,0,181953:0:0:0:0:
320,192,182018,1,0,0:0:0:0:
192,192,182277,128,0,182341:0:0:0:0:
448,192,182277,1,0,0:0:0:0:
64,192,182535,128,0,183053:0:0:0:0:
320,192,182535,1,0,0:0:0:0:
192,192,182794,1,0,0:0:0:0:
192,192,183053,128,0,183117:0:0:0:0:
448,192,183053,1,0,0:0:0:0:
192,192,183440,128,0,183505:0:0:0:0:
320,192,183570,1,0,0:0:0:0:
64,192,183828,128,0,185380:0:0:0:0:
448,192,183828,1,0,0:0:0:0:
448,192,184346,1,0,0:0:0:0:
320,192,184604,1,0,0:0:0:0:
192,192,184863,1,0,0:0:0:0:
192,192,185122,1,0,0:0:0:0:
192,192,185380,1,0,0:0:0:0:
448,192,185380,1,0,0:0:0:0:
192,192,185639,1,0,0:0:0:0:
320,192,185639,1,0,0:0:0:0:
64,192,185897,1,0,0:0:0:0:
320,192,186156,1,0,0:0:0:0:
448,192,186156,1,0,0:0:0:0:
320,192,186415,1,0,0:0:0:0:
64,192,186673,1,0,0:0:0:0:
448,192,186673,1,0,0:0:0:0:
64,192,186932,128,0,188225:0:0:0:0:
320,192,186932,128,0,187190:0:0:0:0:
448,192,187190,128,0,187578:0:0:0:0:
320,192,187449,128,0,187708:0:0:0:0:
448,192,187708,1,0,0:0:0:0:
320,192,187966,1,0,0:0:0:0:
192,192,188225,128,0,188290:0:0:0:0:
448,192,188484,1,0,0:0:0:0:
192,192,188613,128,0,188678:0:0:0:0:
64,192,189001,128,0,189065:0:0:0:0:
320,192,189001,1,0,0:0:0:0:
448,192,189259,1,0,0:0:0:0:
192,192,189518,1,0,0:0:0:0:
320,192,189647,1,0,0:0:0:0:
192,192,189777,1,0,0:0:0:0:
320,192,189906,1,0,0:0:0:0:
192,192,190035,1,0,0:0:0:0:
320,192,190165,1,0,0:0:0:0:
192,192,190294,128,0,190380:0:0:0:0:
64,192,190553,1,0,0:0:0:0:
448,192,190553,1,0,0:0:0:0:
192,192,190811,1,0,0:0:0:0:
320,192,190811,1,0,0:0:0:0:
448,192,190811,1,0,0:0:0:0:
64,192,191070,1,0,0:0:0:0:
320,192,191070,1,0,0:0:0:0:
64,192,191328,1,0,0:0:0:0:
320,192,191328,1,0,0:0:0:0:
192,192,191587,1,0,0:0:0:0:
448,192,191587,1,0,0:0:0:0:
64,192,191846,1,0,0:0:0:0:
448,192,191846,1,0,0:0:0:0:
192,192,192104,1,0,0:0:0:0:
320,192,192104,1,0,0:0:0:0:
64,192,192363,128,0,192428:0:0:0:0:
192,192,192363,128,0,192428:0:0:0:0:
320,192,192622,1,0,0:0:0:0:
64,192,192751,128,0,192815:0:0:0:0:
192,192,192751,128,0,192815:0:0:0:0:
448,192,192880,1,0,0:0:0:0:
192,192,193139,128,0,193915:0:0:0:0:
320,192,193139,1,0,0:0:0:0:
448,192,193397,1,0,0:0:0:0:
448,192,193656,1,0,0:0:0:0:
64,192,193915,1,0,0:0:0:0:
320,192,193915,1,0,0:0:0:0:
448,192,194001,1,0,0:0:0:0:
320,192,194087,1,0,0:0:0:0:
192,192,194173,1,0,0:0:0:0:
320,192,194259,1,0,0:0:0:0:
192,192,194346,1,0,0:0:0:0:
64,192,194432,1,0,0:0:0:0:
448,192,194518,1,0,0:0:0:0:
320,192,194604,1,0,0:0:0:0:
192,192,194690,1,0,0:0:0:0:
320,192,194777,1,0,0:0:0:0:
448,192,194863,1,0,0:0:0:0:
192,192,194949,1,0,0:0:0:0:
320,192,195035,1,0,0:0:0:0:
192,192,195122,1,0,0:0:0:0:
320,192,195208,1,0,0:0:0:0:
64,192,195294,1,0,0:0:0:0:
192,192,195294,1,0,0:0:0:0:
64,192,195466,1,0,0:0:0:0:
320,192,195466,1,0,0:0:0:0:
192,192,195639,1,0,0:0:0:0:
448,192,195639,1,0,0:0:0:0:
320,192,195811,1,0,0:0:0:0:
64,192,195984,1,0,0:0:0:0:
192,192,195984,1,0,0:0:0:0:
320,192,196156,1,0,0:0:0:0:
64,192,196328,1,0,0:0:0:0:
192,192,196328,1,0,0:0:0:0:
64,192,196501,1,0,0:0:0:0:
448,192,196501,1,0,0:0:0:0:
320,192,196673,1,0,0:0:0:0:
448,192,196673,1,0,0:0:0:0:
192,192,196846,1,0,0:0:0:0:
448,192,197018,1,0,0:0:0:0:
64,192,197104,1,0,0:0:0:0:
448,192,197190,1,0,0:0:0:0:
64,192,197277,1,0,0:0:0:0:
448,192,197363,1,0,0:0:0:0:
64,192,197535,1,0,0:0:0:0:
320,192,197535,1,0,0:0:0:0:
64,192,197708,1,0,0:0:0:0:
448,192,197708,1,0,0:0:0:0:
64,192,197880,1,0,0:0:0:0:
320,192,197880,1,0,0:0:0:0:
320,192,198053,1,0,0:0:0:0:
64,192,198225,1,0,0:0:0:0:
448,192,198225,1,0,0:0:0:0:
64,192,198397,1,0,0:0:0:0:
320,192,198570,1,0,0:0:0:0:
448,192,198570,1,0,0:0:0:0:
320,192,198742,1,0,0:0:0:0:
64,192,198915,1,0,0:0:0:0:
448,192,198915,1,0,0:0:0:0:
192,192,199087,1,0,0:0:0:0:
448,192,199173,1,0,0:0:0:0:
192,192,199259,1,0,0:0:0:0:
448,192,199346,1,0,0:0:0:0:
64,192,199432,1,0,0:0:0:0:
192,192,199432,1,0,0:0:0:0:
64,192,199604,1,0,0:0:0:0:
320,192,199604,1,0,0:0:0:0:
192,192,199777,1,0,0:0:0:0:
448,192,199777,1,0,0:0:0:0:
320,192,199949,1,0,0:0:0:0:
64,192,200122,1,0,0:0:0:0:
448,192,200122,1,0,0:0:0:0:
192,192,200294,1,0,0:0:0:0:
64,192,200466,1,0,0:0:0:0:
448,192,200466,1,0,0:0:0:0:
64,192,200639,1,0,0:0:0:0:
320,192,200639,1,0,0:0:0:0:
192,192,200811,1,0,0:0:0:0:
320,192,200811,1,0,0:0:0:0:
448,192,200984,1,0,0:0:0:0:
320,192,201156,1,0,0:0:0:0:
64,192,201242,1,0,0:0:0:0:
320,192,201328,1,0,0:0:0:0:
64,192,201415,1,0,0:0:0:0:
320,192,201501,1,0,0:0:0:0:
192,192,201673,1,0,0:0:0:0:
448,192,201673,1,0,0:0:0:0:
448,192,201846,1,0,0:0:0:0:
64,192,202018,1,0,0:0:0:0:
448,192,202018,1,0,0:0:0:0:
64,192,202190,1,0,0:0:0:0:
320,192,202190,1,0,0:0:0:0:
192,192,202363,1,0,0:0:0:0:
192,192,202535,1,0,0:0:0:0:
320,192,202708,1,0,0:0:0:0:
448,192,202708,1,0,0:0:0:0:
320,192,202880,1,0,0:0:0:0:
192,192,203053,1,0,0:0:0:0:
448,192,203053,1,0,0:0:0:0:
448,192,203225,1,0,0:0:0:0:
64,192,203397,1,0,0:0:0:0:
192,192,203397,1,0,0:0:0:0:
192,192,203570,1,0,0:0:0:0:
320,192,203742,1,0,0:0:0:0:
448,192,203742,1,0,0:0:0:0:
320,192,203915,1,0,0:0:0:0:
320,192,204087,1,0,0:0:0:0:
448,192,204087,1,0,0:0:0:0:
64,192,204259,1,0,0:0:0:0:
192,192,204259,1,0,0:0:0:0:
192,192,204432,1,0,0:0:0:0:
64,192,204604,1,0,0:0:0:0:
192,192,204604,1,0,0:0:0:0:
320,192,204777,1,0,0:0:0:0:
192,192,204863,1,0,0:0:0:0:
320,192,204949,1,0,0:0:0:0:
192,192,205035,1,0,0:0:0:0:
320,192,205122,1,0,0:0:0:0:
192,192,205208,1,0,0:0:0:0:
320,192,205294,1,0,0:0:0:0:
448,192,205294,1,0,0:0:0:0:
192,192,205466,1,0,0:0:0:0:
448,192,205466,1,0,0:0:0:0:
64,192,205639,1,0,0:0:0:0:
448,192,205639,1,0,0:0:0:0:
192,192,205725,1,0,0:0:0:0:
320,192,205811,1,0,0:0:0:0:
192,192,205897,1,0,0:0:0:0:
64,192,205984,1,0,0:0:0:0:
192,192,206070,1,0,0:0:0:0:
320,192,206156,1,0,0:0:0:0:
192,192,206242,1,0,0:0:0:0:
64,192,206328,1,0,0:0:0:0:
64,192,206501,1,0,0:0:0:0:
192,192,206501,1,0,0:0:0:0:
192,192,206673,1,0,0:0:0:0:
320,192,206846,1,0,0:0:0:0:
448,192,206846,1,0,0:0:0:0:
320,192,207018,1,0,0:0:0:0:
320,192,207190,1,0,0:0:0:0:
448,192,207190,1,0,0:0:0:0:
64,192,207363,1,0,0:0:0:0:
192,192,207363,1,0,0:0:0:0:
192,192,207535,1,0,0:0:0:0:
192,192,207708,1,0,0:0:0:0:
320,192,207708,1,0,0:0:0:0:
448,192,207880,1,0,0:0:0:0:
192,192,207966,1,0,0:0:0:0:
448,192,208053,1,0,0:0:0:0:
192,192,208139,1,0,0:0:0:0:
448,192,208225,1,0,0:0:0:0:
192,192,208311,1,0,0:0:0:0:
320,192,208397,1,0,0:0:0:0:
64,192,208570,1,0,0:0:0:0:
192,192,208570,1,0,0:0:0:0:
192,192,208742,1,0,0:0:0:0:
320,192,208915,1,0,0:0:0:0:
448,192,208915,1,0,0:0:0:0:
320,192,209087,1,0,0:0:0:0:
320,192,209259,1,0,0:0:0:0:
448,192,209259,1,0,0:0:0:0:
64,192,209432,1,0,0:0:0:0:
192,192,209432,1,0,0:0:0:0:
192,192,209604,1,0,0:0:0:0:
64,192,209777,1,0,0:0:0:0:
192,192,209777,1,0,0:0:0:0:
320,192,209949,1,0,0:0:0:0:
192,192,210035,1,0,0:0:0:0:
320,192,210122,1,0,0:0:0:0:
192,192,210208,1,0,0:0:0:0:
320,192,210294,1,0,0:0:0:0:
192,192,210380,1,0,0:0:0:0:
320,192,210466,1,0,0:0:0:0:
448,192,210466,1,0,0:0:0:0:
64,192,210639,1,0,0:0:0:0:
320,192,210639,1,0,0:0:0:0:
64,192,210811,1,0,0:0:0:0:
448,192,210811,1,0,0:0:0:0:
192,192,210897,1,0,0:0:0:0:
320,192,210984,1,0,0:0:0:0:
192,192,211070,1,0,0:0:0:0:
64,192,211156,1,0,0:0:0:0:
192,192,211242,1,0,0:0:0:0:
320,192,211328,1,0,0:0:0:0:
192,192,211415,1,0,0:0:0:0:
64,192,211501,1,0,0:0:0:0:
64,192,211673,1,0,0:0:0:0:
192,192,211673,1,0,0:0:0:0:
192,192,211846,1,0,0:0:0:0:
320,192,212018,1,0,0:0:0:0:
448,192,212018,1,0,0:0:0:0:
320,192,212190,1,0,0:0:0:0:
320,192,212363,1,0,0:0:0:0:
448,192,212363,1,0,0:0:0:0:
64,192,212535,1,0,0:0:0:0:
192,192,212535,1,0,0:0:0:0:
192,192,212708,1,0,0:0:0:0:
192,192,212880,1,0,0:0:0:0:
320,192,212880,1,0,0:0:0:0:
448,192,213053,1,0,0:0:0:0:
320,192,213225,1,0,0:0:0:0:
448,192,213225,1,0,0:0:0:0:
192,192,213397,1,0,0:0:0:0:
320,192,213397,1,0,0:0:0:0:
64,192,213570,1,0,0:0:0:0:
320,192,213570,1,0,0:0:0:0:
64,192,213699,1,0,0:0:0:0:
64,192,213828,1,0,0:0:0:0:
192,192,213958,1,0,0:0:0:0:
448,192,213958,1,0,0:0:0:0:
64,192,214087,1,0,0:0:0:0:
192,192,214087,1,0,0:0:0:0:
320,192,214152,1,0,0:0:0:0:
448,192,214152,1,0,0:0:0:0:
64,192,214216,1,0,0:0:0:0:
192,192,214216,1,0,0:0:0:0:
320,192,214281,1,0,0:0:0:0:
448,192,214281,1,0,0:0:0:0:
64,192,214346,1,0,0:0:0:0:
192,192,214346,1,0,0:0:0:0:
320,192,214410,1,0,0:0:0:0:
448,192,214475,1,0,0:0:0:0:
64,192,214540,1,0,0:0:0:0:
320,192,214604,1,0,0:0:0:0:
448,192,214604,1,0,0:0:0:0:
192,192,214669,1,0,0:0:0:0:
320,192,214734,1,0,0:0:0:0:
448,192,214734,1,0,0:0:0:0:
64,192,214798,1,0,0:0:0:0:
192,192,214863,1,0,0:0:0:0:
320,192,214928,1,0,0:0:0:0:
64,192,214992,1,0,0:0:0:0:
448,192,214992,1,0,0:0:0:0:
192,192,215057,1,0,0:0:0:0:
320,192,215122,1,0,0:0:0:0:
448,192,215122,1,0,0:0:0:0:
64,192,215186,1,0,0:0:0:0:
192,192,215251,1,0,0:0:0:0:
320,192,215315,1,0,0:0:0:0:
64,192,215380,1,0,0:0:0:0:
448,192,215380,1,0,0:0:0:0:
320,192,215445,1,0,0:0:0:0:
64,192,215509,1,0,0:0:0:0:
192,192,215509,1,0,0:0:0:0:
448,192,215574,1,0,0:0:0:0:
64,192,215639,1,0,0:0:0:0:
192,192,215639,1,0,0:0:0:0:
320,192,215703,1,0,0:0:0:0:
448,192,215768,1,0,0:0:0:0:
64,192,215833,1,0,0:0:0:0:
192,192,215897,1,0,0:0:0:0:
448,192,215897,1,0,0:0:0:0:
320,192,215962,1,0,0:0:0:0:
192,192,216027,1,0,0:0:0:0:
64,192,216091,1,0,0:0:0:0:
320,192,216156,1,0,0:0:0:0:
448,192,216156,1,0,0:0:0:0:
192,192,216221,1,0,0:0:0:0:
64,192,216285,1,0,0:0:0:0:
448,192,216285,1,0,0:0:0:0:
320,192,216350,1,0,0:0:0:0:
64,192,216415,1,0,0:0:0:0:
192,192,216415,1,0,0:0:0:0:
448,192,216479,1,0,0:0:0:0:
192,192,216544,1,0,0:0:0:0:
320,192,216544,1,0,0:0:0:0:
64,192,216609,1,0,0:0:0:0:
448,192,216673,1,0,0:0:0:0:
320,192,216738,1,0,0:0:0:0:
192,192,216803,1,0,0:0:0:0:
448,192,216803,1,0,0:0:0:0:
64,192,216867,1,0,0:0:0:0:
320,192,216932,1,0,0:0:0:0:
192,192,216997,1,0,0:0:0:0:
64,192,217061,1,0,0:0:0:0:
448,192,217061,1,0,0:0:0:0:
192,192,217126,1,0,0:0:0:0:
320,192,217190,1,0,0:0:0:0:
448,192,217255,1,0,0:0:0:0:
64,192,217320,1,0,0:0:0:0:
192,192,217320,1,0,0:0:0:0:
320,192,217384,1,0,0:0:0:0:
64,192,217449,1,0,0:0:0:0:
448,192,217449,1,0,0:0:0:0:
192,192,217514,1,0,0:0:0:0:
320,192,217578,1,0,0:0:0:0:
448,192,217643,1,0,0:0:0:0:
64,192,217708,1,0,0:0:0:0:
192,192,217708,1,0,0:0:0:0:
320,192,217772,1,0,0:0:0:0:
64,192,217837,1,0,0:0:0:0:
192,192,217837,1,0,0:0:0:0:
448,192,217902,1,0,0:0:0:0:
320,192,217966,1,0,0:0:0:0:
64,192,218031,1,0,0:0:0:0:
192,192,218096,1,0,0:0:0:0:
448,192,218096,1,0,0:0:0:0:
320,192,218160,1,0,0:0:0:0:
64,192,218225,1,0,0:0:0:0:
192,192,218225,1,0,0:0:0:0:
320,192,218290,1,0,0:0:0:0:
192,192,218354,1,0,0:0:0:0:
320,192,218419,1,0,0:0:0:0:
448,192,218484,1,0,0:0:0:0:
64,192,218548,1,0,0:0:0:0:
320,192,218613,1,0,0:0:0:0:
448,192,218613,1,0,0:0:0:0:
192,192,218678,1,0,0:0:0:0:
320,192,218742,1,0,0:0:0:0:
448,192,218742,1,0,0:0:0:0:
64,192,218807,1,0,0:0:0:0:
192,192,218872,1,0,0:0:0:0:
320,192,218936,1,0,0:0:0:0:
64,192,219001,1,0,0:0:0:0:
448,192,219001,1,0,0:0:0:0:
192,192,219065,1,0,0:0:0:0:
320,192,219130,1,0,0:0:0:0:
192,192,219195,1,0,0:0:0:0:
64,192,219259,1,0,0:0:0:0:
448,192,219259,1,0,0:0:0:0:
320,192,219324,1,0,0:0:0:0:
192,192,219389,1,0,0:0:0:0:
448,192,219389,1,0,0:0:0:0:
64,192,219453,1,0,0:0:0:0:
192,192,219518,1,0,0:0:0:0:
320,192,219518,1,0,0:0:0:0:
448,192,219583,1,0,0:0:0:0:
64,192,219647,1,0,0:0:0:0:
320,192,219647,1,0,0:0:0:0:
192,192,219712,1,0,0:0:0:0:
448,192,219777,1,0,0:0:0:0:
320,192,219841,1,0,0:0:0:0:
64,192,219906,1,0,0:0:0:0:
192,192,219906,1,0,0:0:0:0:
320,192,219971,1,0,0:0:0:0:
64,192,220035,1,0,0:0:0:0:
448,192,220035,1,0,0:0:0:0:
192,192,220100,1,0,0:0:0:0:
320,192,220165,1,0,0:0:0:0:
448,192,220165,1,0,0:0:0:0:
64,192,220229,1,0,0:0:0:0:
192,192,220294,1,0,0:0:0:0:
320,192,220359,1,0,0:0:0:0:
64,192,220423,1,0,0:0:0:0:
192,192,220423,1,0,0:0:0:0:
448,192,220488,1,0,0:0:0:0:
64,192,220553,1,0,0:0:0:0:
320,192,220553,1,0,0:0:0:0:
192,192,220617,1,0,0:0:0:0:
448,192,220682,1,0,0:0:0:0:
64,192,220747,1,0,0:0:0:0:
320,192,220811,1,0,0:0:0:0:
448,192,220811,1,0,0:0:0:0:
192,192,220876,1,0,0:0:0:0:
320,192,220940,1,0,0:0:0:0:
448,192,220940,1,0,0:0:0:0:
64,192,221005,1,0,0:0:0:0:
192,192,221070,1,0,0:0:0:0:
320,192,221134,1,0,0:0:0:0:
64,192,221199,1,0,0:0:0:0:
448,192,221199,1,0,0:0:0:0:
192,192,221264,1,0,0:0:0:0:
64,192,221328,1,0,0:0:0:0:
320,192,221328,1,0,0:0:0:0:
448,192,221393,1,0,0:0:0:0:
320,192,221458,1,0,0:0:0:0:
192,192,221522,1,0,0:0:0:0:
64,192,221587,1,0,0:0:0:0:
448,192,221587,1,0,0:0:0:0:
320,192,221652,1,0,0:0:0:0:
64,192,221716,1,0,0:0:0:0:
192,192,221716,1,0,0:0:0:0:
448,192,221781,1,0,0:0:0:0:
64,192,221846,1,0,0:0:0:0:
192,192,221846,1,0,0:0:0:0:
320,192,221910,1,0,0:0:0:0:
448,192,221975,1,0,0:0:0:0:
192,192,222040,1,0,0:0:0:0:
320,192,222104,1,0,0:0:0:0:
448,192,222104,1,0,0:0:0:0:
64,192,222169,1,0,0:0:0:0:
192,192,222234,1,0,0:0:0:0:
320,192,222298,1,0,0:0:0:0:
64,192,222363,1,0,0:0:0:0:
448,192,222363,1,0,0:0:0:0:
192,192,222428,1,0,0:0:0:0:
320,192,222492,1,0,0:0:0:0:
448,192,222492,1,0,0:0:0:0:
192,192,222557,1,0,0:0:0:0:
64,192,222622,1,0,0:0:0:0:
320,192,222622,1,0,0:0:0:0:
448,192,222686,1,0,0:0:0:0:
64,192,222751,1,0,0:0:0:0:
192,192,222751,1,0,0:0:0:0:
320,192,222815,1,0,0:0:0:0:
448,192,222880,1,0,0:0:0:0:
64,192,222945,1,0,0:0:0:0:
192,192,223009,1,0,0:0:0:0:
320,192,223009,1,0,0:0:0:0:
448,192,223074,1,0,0:0:0:0:
64,192,223139,1,0,0:0:0:0:
192,192,223203,1,0,0:0:0:0:
320,192,223268,1,0,0:0:0:0:
448,192,223268,1,0,0:0:0:0:
192,192,223333,1,0,0:0:0:0:
320,192,223397,1,0,0:0:0:0:
448,192,223462,1,0,0:0:0:0:
64,192,223527,1,0,0:0:0:0:
192,192,223527,1,0,0:0:0:0:
320,192,223591,1,0,0:0:0:0:
64,192,223656,1,0,0:0:0:0:
448,192,223656,1,0,0:0:0:0:
192,192,223721,1,0,0:0:0:0:
320,192,223785,1,0,0:0:0:0:
448,192,223850,1,0,0:0:0:0:
64,192,223915,1,0,0:0:0:0:
192,192,223915,1,0,0:0:0:0:
320,192,223979,1,0,0:0:0:0:
64,192,224044,1,0,0:0:0:0:
192,192,224044,1,0,0:0:0:0:
320,192,224109,1,0,0:0:0:0:
448,192,224173,1,0,0:0:0:0:
64,192,224238,1,0,0:0:0:0:
192,192,224303,1,0,0:0:0:0:
448,192,224303,1,0,0:0:0:0:
320,192,224367,1,0,0:0:0:0:
64,192,224432,1,0,0:0:0:0:
192,192,224432,1,0,0:0:0:0:
320,192,224497,1,0,0:0:0:0:
192,192,224561,1,0,0:0:0:0:
320,192,224626,1,0,0:0:0:0:
64,192,224690,1,0,0:0:0:0:
448,192,224755,1,0,0:0:0:0:
64,192,224820,1,0,0:0:0:0:
192,192,224820,1,0,0:0:0:0:
320,192,224884,1,0,0:0:0:0:
64,192,224949,1,0,0:0:0:0:
192,192,224949,1,0,0:0:0:0:
448,192,225014,1,0,0:0:0:0:
320,192,225078,1,0,0:0:0:0:
192,192,225143,1,0,0:0:0:0:
64,192,225208,1,0,0:0:0:0:
448,192,225208,1,0,0:0:0:0:
320,192,225272,1,0,0:0:0:0:
192,192,225337,1,0,0:0:0:0:
320,192,225402,1,0,0:0:0:0:
64,192,225466,1,0,0:0:0:0:
448,192,225466,1,0,0:0:0:0:
192,192,225531,1,0,0:0:0:0:
64,192,225596,1,0,0:0:0:0:
320,192,225596,1,0,0:0:0:0:
448,192,225660,1,0,0:0:0:0:
192,192,225725,1,0,0:0:0:0:
320,192,225725,1,0,0:0:0:0:
64,192,225790,1,0,0:0:0:0:
192,192,225854,1,0,0:0:0:0:
448,192,225854,1,0,0:0:0:0:
320,192,225919,1,0,0:0:0:0:
64,192,225984,1,0,0:0:0:0:
192,192,226048,1,0,0:0:0:0:
320,192,226113,1,0,0:0:0:0:
448,192,226113,1,0,0:0:0:0:
192,192,226178,1,0,0:0:0:0:
64,192,226242,1,0,0:0:0:0:
448,192,226242,1,0,0:0:0:0:
320,192,226307,1,0,0:0:0:0:
64,192,226372,1,0,0:0:0:0:
192,192,226372,1,0,0:0:0:0:
448,192,226436,1,0,0:0:0:0:
320,192,226501,1,0,0:0:0:0:
192,192,226565,1,0,0:0:0:0:
320,192,226630,1,0,0:0:0:0:
448,192,226630,1,0,0:0:0:0:
64,192,226695,1,0,0:0:0:0:
192,192,226759,1,0,0:0:0:0:
320,192,226824,1,0,0:0:0:0:
64,192,226889,1,0,0:0:0:0:
448,192,226889,1,0,0:0:0:0:
192,192,226953,1,0,0:0:0:0:
320,192,227018,1,0,0:0:0:0:
448,192,227083,1,0,0:0:0:0:
64,192,227147,1,0,0:0:0:0:
192,192,227147,1,0,0:0:0:0:
320,192,227212,1,0,0:0:0:0:
448,192,227277,1,0,0:0:0:0:
64,192,227341,1,0,0:0:0:0:
320,192,227406,1,0,0:0:0:0:
448,192,227406,1,0,0:0:0:0:
192,192,227471,1,0,0:0:0:0:
320,192,227535,1,0,0:0:0:0:
448,192,227535,1,0,0:0:0:0:
64,192,227600,1,0,0:0:0:0:
192,192,227665,1,0,0:0:0:0:
448,192,227729,1,0,0:0:0:0:
192,192,227794,1,0,0:0:0:0:
448,192,227859,1,0,0:0:0:0:
64,192,227923,1,0,0:0:0:0:
192,192,227923,1,0,0:0:0:0:
320,192,227988,1,0,0:0:0:0:
448,192,228053,1,0,0:0:0:0:
64,192,228117,1,0,0:0:0:0:
448,192,228182,1,0,0:0:0:0:
64,192,228247,1,0,0:0:0:0:
320,192,228311,1,0,0:0:0:0:
448,192,228311,1,0,0:0:0:0:
192,192,228376,1,0,0:0:0:0:
64,192,228440,1,0,0:0:0:0:
320,192,228440,1,0,0:0:0:0:
448,192,228505,1,0,0:0:0:0:
64,192,228570,1,0,0:0:0:0:
192,192,228570,1,0,0:0:0:0:
320,192,228634,1,0,0:0:0:0:
192,192,228699,1,0,0:0:0:0:
448,192,228764,1,0,0:0:0:0:
320,192,228828,1,0,0:0:0:0:
64,192,228893,1,0,0:0:0:0:
192,192,228958,1,0,0:0:0:0:
448,192,228958,1,0,0:0:0:0:
320,192,229022,1,0,0:0:0:0:
64,192,229087,1,0,0:0:0:0:
192,192,229152,1,0,0:0:0:0:
320,192,229216,1,0,0:0:0:0:
448,192,229216,1,0,0:0:0:0:
64,192,229281,1,0,0:0:0:0:
448,192,229346,1,0,0:0:0:0:
320,192,229410,1,0,0:0:0:0:
64,192,229475,1,0,0:0:0:0:
192,192,229475,1,0,0:0:0:0:
448,192,229540,1,0,0:0:0:0:
64,192,229604,1,0,0:0:0:0:
192,192,229604,1,0,0:0:0:0:
320,192,229669,1,0,0:0:0:0:
192,192,229734,1,0,0:0:0:0:
448,192,229798,1,0,0:0:0:0:
64,192,229863,1,0,0:0:0:0:
320,192,229863,1,0,0:0:0:0:
192,192,229928,1,0,0:0:0:0:
320,192,229992,1,0,0:0:0:0:
448,192,229992,1,0,0:0:0:0:
192,192,230057,1,0,0:0:0:0:
320,192,230122,1,0,0:0:0:0:
192,192,230186,1,0,0:0:0:0:
64,192,230251,1,0,0:0:0:0:
448,192,230251,1,0,0:0:0:0:
320,192,230315,1,0,0:0:0:0:
192,192,230380,1,0,0:0:0:0:
448,192,230445,1,0,0:0:0:0:
64,192,230509,1,0,0:0:0:0:
320,192,230509,1,0,0:0:0:0:
192,192,230574,1,0,0:0:0:0:
320,192,230639,1,0,0:0:0:0:
448,192,230703,1,0,0:0:0:0:
64,192,230768,1,0,0:0:0:0:
192,192,230768,1,0,0:0:0:0:
320,192,230833,1,0,0:0:0:0:
192,192,230897,1,0,0:0:0:0:
64,192,230962,1,0,0:0:0:0:
320,192,231027,1,0,0:0:0:0:
448,192,231027,1,0,0:0:0:0:
192,192,231091,1,0,0:0:0:0:
320,192,231156,1,0,0:0:0:0:
448,192,231156,1,0,0:0:0:0:
64,192,231221,1,0,0:0:0:0:
192,192,231285,1,0,0:0:0:0:
320,192,231350,1,0,0:0:0:0:
192,192,231415,1,0,0:0:0:0:
320,192,231479,1,0,0:0:0:0:
64,192,231544,1,0,0:0:0:0:
448,192,231544,1,0,0:0:0:0:
192,192,231609,1,0,0:0:0:0:
320,192,231673,1,0,0:0:0:0:
64,192,231738,1,0,0:0:0:0:
320,192,231803,1,0,0:0:0:0:
64,192,231867,1,0,0:0:0:0:
192,192,231932,1,0,0:0:0:0:
320,192,231932,1,0,0:0:0:0:
448,192,231997,1,0,0:0:0:0:
64,192,232061,1,0,0:0:0:0:
192,192,232061,1,0,0:0:0:0:
320,192,232126,1,0,0:0:0:0:
64,192,232190,1,0,0:0:0:0:
448,192,232190,1,0,0:0:0:0:
192,192,232255,1,0,0:0:0:0:
320,192,232320,1,0,0:0:0:0:
448,192,232384,1,0,0:0:0:0:
64,192,232449,1,0,0:0:0:0:
192,192,232449,1,0,0:0:0:0:
320,192,232514,1,0,0:0:0:0:
64,192,232578,1,0,0:0:0:0:
448,192,232578,1,0,0:0:0:0:
192,192,232643,1,0,0:0:0:0:
320,192,232708,1,0,0:0:0:0:
64,192,232772,1,0,0:0:0:0:
192,192,232837,1,0,0:0:0:0:
448,192,232837,1,0,0:0:0:0:
320,192,232902,1,0,0:0:0:0:
64,192,232966,1,0,0:0:0:0:
448,192,233031,1,0,0:0:0:0:
64,192,233096,1,0,0:0:0:0:
192,192,233096,1,0,0:0:0:0:
320,192,233160,1,0,0:0:0:0:
64,192,233225,1,0,0:0:0:0:
192,192,233225,1,0,0:0:0:0:
448,192,233290,1,0,0:0:0:0:
320,192,233354,1,0,0:0:0:0:
192,192,233419,1,0,0:0:0:0:
64,192,233484,1,0,0:0:0:0:
448,192,233484,1,0,0:0:0:0:
320,192,233548,1,0,0:0:0:0:
192,192,233613,1,0,0:0:0:0:
448,192,233613,1,0,0:0:0:0:
64,192,233678,1,0,0:0:0:0:
192,192,233742,1,0,0:0:0:0:
320,192,233742,1,0,0:0:0:0:
448,192,233807,1,0,0:0:0:0:
64,192,233872,1,0,0:0:0:0:
192,192,233936,1,0,0:0:0:0:
320,192,234001,1,0,0:0:0:0:
448,192,234001,1,0,0:0:0:0:
192,192,234065,1,0,0:0:0:0:
320,192,234130,1,0,0:0:0:0:
448,192,234195,1,0,0:0:0:0:
64,192,234259,1,0,0:0:0:0:
192,192,234324,1,0,0:0:0:0:
320,192,234389,1,0,0:0:0:0:
448,192,234453,1,0,0:0:0:0:
64,192,234518,128,0,235035:0:0:0:0:
192,192,234518,128,0,235035:0:0:0:0:
320,192,234518,128,0,235035:0:0:0:0:
