osu file format v14

[General]
AudioFilename: Necromancer - The Fhrer (Frenchcore).mp3
AudioLeadIn: 0
PreviewTime: 51770
Countdown: 0
SampleSet: Soft
StackLeniency: 0.7
Mode: 3
LetterboxInBreaks: 0
SpecialStyle: 0
WidescreenStoryboard: 0

[Editor]
DistanceSpacing: 0.5
BeatDivisor: 4
GridSize: 32
TimelineZoom: 3.200005

[Metadata]
Title:The Fuehrer
TitleUnicode:The Führer
Artist:Necromancer
ArtistUnicode:Necromancer
Creator:Stampfgas
Version:Hyper WIP
Source:
Tags:frenchcore the fuehrer necromancer mania 4k
BeatmapID:1168283
BeatmapSetID:551569

[Difficulty]
HPDrainRate:7
CircleSize:4
OverallDifficulty:7
ApproachRate:5
SliderMultiplier:1.4
SliderTickRate:1

[Events]
//Background and Video events
0,0,"aliens_wage_war_w1.jpeg",0,0
//Break Periods
2,59170,69770
2,109570,122570
2,126370,181970
//Storyboard Layer 0 (Background)
//Storyboard Layer 1 (Fail)
//Storyboard Layer 2 (Pass)
//Storyboard Layer 3 (Foreground)
//Storyboard Sound Samples

[TimingPoints]
1370,300,4,2,0,5,1,0

[HitObjects]
64,192,1370,128,0,1670:0:0:0:0:
448,192,1670,128,0,1970:0:0:0:0:
192,192,1970,128,0,2270:0:0:0:0:
320,192,2270,128,0,2570:0:0:0:0:
64,192,2570,1,0,0:0:0:0:
448,192,2570,1,0,0:0:0:0:
448,192,2870,1,0,0:0:0:0:
320,192,3170,1,0,0:0:0:0:
192,192,3470,1,0,0:0:0:0:
64,192,3770,1,0,0:0:0:0:
448,192,4070,1,0,0:0:0:0:
320,192,4370,1,0,0:0:0:0:
192,192,4670,1,0,0:0:0:0:
320,192,4820,1,0,0:0:0:0:
64,192,4970,1,0,0:0:0:0:
448,192,4970,1,0,0:0:0:0:
192,192,5270,1,0,0:0:0:0:
320,192,5570,1,0,0:0:0:0:
192,192,5870,1,0,0:0:0:0:
64,192,6170,1,0,0:0:0:0:
320,192,6170,1,0,0:0:0:0:
192,192,6470,1,0,0:0:0:0:
320,192,6770,1,0,0:0:0:0:
64,192,7070,128,0,7370:0:0:0:0:
448,192,7070,1,0,0:0:0:0:
320,192,7370,1,0,0:0:0:0:
192,192,7670,1,0,0:0:0:0:
64,192,7970,1,0,0:0:0:0:
320,192,8270,1,0,0:0:0:0:
448,192,8570,1,0,0:0:0:0:
192,192,8870,1,0,0:0:0:0:
320,192,9170,1,0,0:0:0:0:
64,192,9470,1,0,0:0:0:0:
192,192,9770,1,0,0:0:0:0:
448,192,9770,1,0,0:0:0:0:
320,192,10070,1,0,0:0:0:0:
448,192,10370,1,0,0:0:0:0:
320,192,10670,1,0,0:0:0:0:
192,192,10970,1,0,0:0:0:0:
320,192,11270,1,0,0:0:0:0:
64,192,11570,1,0,0:0:0:0:
448,192,11570,128,0,11870:0:0:0:0:
320,192,11870,128,0,12170:0:0:0:0:
448,192,12170,1,0,0:0:0:0:
64,192,12170,1,0,0:0:0:0:
192,192,12320,1,0,0:0:0:0:
320,192,12470,1,0,0:0:0:0:
192,192,12620,1,0,0:0:0:0:
64,192,12770,1,0,0:0:0:0:
448,192,12770,1,0,0:0:0:0:
320,192,12920,1,0,0:0:0:0:
192,192,13070,1,0,0:0:0:0:
320,192,13220,1,0,0:0:0:0:
64,192,13370,1,0,0:0:0:0:
448,192,13370,1,0,0:0:0:0:
192,192,13520,1,0,0:0:0:0:
320,192,13670,1,0,0:0:0:0:
192,192,13820,1,0,0:0:0:0:
64,192,13970,1,0,0:0:0:0:
320,192,13970,1,0,0:0:0:0:
192,192,14120,1,0,0:0:0:0:
320,192,14270,1,0,0:0:0:0:
64,192,14420,1,0,0:0:0:0:
448,192,14570,1,0,0:0:0:0:
192,192,14570,1,0,0:0:0:0:
320,192,14720,1,0,0:0:0:0:
192,192,14870,1,0,0:0:0:0:
320,192,15020,1,0,0:0:0:0:
64,192,15170,1,0,0:0:0:0:
448,192,15170,1,0,0:0:0:0:
192,192,15320,1,0,0:0:0:0:
320,192,15470,1,0,0:0:0:0:
192,192,15620,1,0,0:0:0:0:
64,192,15770,1,0,0:0:0:0:
320,192,15770,1,0,0:0:0:0:
192,192,15920,1,0,0:0:0:0:
448,192,16070,1,0,0:0:0:0:
320,192,16220,1,0,0:0:0:0:
64,192,16370,1,0,0:0:0:0:
448,192,16370,1,0,0:0:0:0:
192,192,16520,1,0,0:0:0:0:
64,192,16670,1,0,0:0:0:0:
320,192,16820,1,0,0:0:0:0:
64,192,16970,1,0,0:0:0:0:
448,192,16970,1,0,0:0:0:0:
192,192,17045,1,0,0:0:0:0:
448,192,17120,1,0,0:0:0:0:
320,192,17195,1,0,0:0:0:0:
192,192,17270,1,0,0:0:0:0:
64,192,17345,1,0,0:0:0:0:
320,192,17420,1,0,0:0:0:0:
448,192,17495,1,0,0:0:0:0:
192,192,17570,1,0,0:0:0:0:
64,192,17645,1,0,0:0:0:0:
448,192,17720,1,0,0:0:0:0:
320,192,17795,1,0,0:0:0:0:
64,192,17870,1,0,0:0:0:0:
192,192,17945,1,0,0:0:0:0:
320,192,18020,1,0,0:0:0:0:
448,192,18095,1,0,0:0:0:0:
64,192,18170,1,0,0:0:0:0:
192,192,18245,1,0,0:0:0:0:
448,192,18320,1,0,0:0:0:0:
320,192,18395,1,0,0:0:0:0:
64,192,18470,1,0,0:0:0:0:
192,192,18545,1,0,0:0:0:0:
320,192,18620,1,0,0:0:0:0:
448,192,18695,1,0,0:0:0:0:
192,192,18770,1,0,0:0:0:0:
64,192,18845,1,0,0:0:0:0:
448,192,18920,1,0,0:0:0:0:
320,192,18995,1,0,0:0:0:0:
64,192,19070,1,0,0:0:0:0:
192,192,19145,1,0,0:0:0:0:
448,192,19220,1,0,0:0:0:0:
320,192,19295,1,0,0:0:0:0:
448,192,19370,128,0,19670:0:0:0:0:
192,192,19370,1,0,0:0:0:0:
192,192,19670,128,0,20120:0:0:0:0:
320,192,20120,128,0,20345:0:0:0:0:
64,192,20345,128,0,20570:0:0:0:0:
64,192,20795,128,0,21095:0:0:0:0:
320,192,21095,128,0,21320:0:0:0:0:
192,192,21320,128,0,21470:0:0:0:0:
448,192,21470,128,0,21620:0:0:0:0:
320,192,21620,128,0,21770:0:0:0:0:
192,192,21770,128,0,22070:0:0:0:0:
320,192,22070,128,0,22370:0:0:0:0:
448,192,22370,1,0,0:0:0:0:
64,192,22370,1,0,0:0:0:0:
192,192,22520,1,0,0:0:0:0:
320,192,22595,1,0,0:0:0:0:
64,192,22670,1,0,0:0:0:0:
448,192,22670,1,0,0:0:0:0:
320,192,22820,1,0,0:0:0:0:
64,192,22970,1,0,0:0:0:0:
448,192,22970,1,0,0:0:0:0:
192,192,23120,1,0,0:0:0:0:
64,192,23270,1,0,0:0:0:0:
448,192,23270,1,0,0:0:0:0:
320,192,23420,1,0,0:0:0:0:
192,192,23420,1,0,0:0:0:0:
64,192,23570,1,0,0:0:0:0:
448,192,23570,1,0,0:0:0:0:
192,192,23720,1,0,0:0:0:0:
64,192,23870,1,0,0:0:0:0:
320,192,23870,1,0,0:0:0:0:
192,192,24020,1,0,0:0:0:0:
64,192,24170,1,0,0:0:0:0:
448,192,24170,1,0,0:0:0:0:
320,192,24320,1,0,0:0:0:0:
192,192,24470,1,0,0:0:0:0:
448,192,24470,1,0,0:0:0:0:
320,192,24620,1,0,0:0:0:0:
64,192,24770,1,0,0:0:0:0:
448,192,24770,1,0,0:0:0:0:
192,192,24920,1,0,0:0:0:0:
320,192,24920,1,0,0:0:0:0:
64,192,25070,128,0,25220:0:0:0:0:
448,192,25220,128,0,25370:0:0:0:0:
192,192,25370,1,0,0:0:0:0:
320,192,25520,1,0,0:0:0:0:
192,192,25670,1,0,0:0:0:0:
448,192,25670,1,0,0:0:0:0:
320,192,25820,1,0,0:0:0:0:
64,192,25970,1,0,0:0:0:0:
448,192,25970,1,0,0:0:0:0:
320,192,26120,1,0,0:0:0:0:
192,192,26270,1,0,0:0:0:0:
448,192,26270,1,0,0:0:0:0:
320,192,26420,1,0,0:0:0:0:
64,192,26570,1,0,0:0:0:0:
448,192,26570,1,0,0:0:0:0:
192,192,26720,1,0,0:0:0:0:
320,192,26720,1,0,0:0:0:0:
64,192,26870,1,0,0:0:0:0:
448,192,26870,1,0,0:0:0:0:
192,192,27020,1,0,0:0:0:0:
64,192,27170,1,0,0:0:0:0:
320,192,27170,1,0,0:0:0:0:
192,192,27320,1,0,0:0:0:0:
192,192,27470,128,0,27770:0:0:0:0:
320,192,27470,1,0,0:0:0:0:
64,192,27770,1,0,0:0:0:0:
448,192,27770,1,0,0:0:0:0:
192,192,27920,1,0,0:0:0:0:
64,192,28070,1,0,0:0:0:0:
320,192,28070,1,0,0:0:0:0:
192,192,28220,1,0,0:0:0:0:
64,192,28370,1,0,0:0:0:0:
448,192,28370,1,0,0:0:0:0:
320,192,28520,1,0,0:0:0:0:
192,192,28670,1,0,0:0:0:0:
448,192,28670,1,0,0:0:0:0:
320,192,28820,1,0,0:0:0:0:
64,192,28970,1,0,0:0:0:0:
448,192,28970,1,0,0:0:0:0:
192,192,29120,1,0,0:0:0:0:
320,192,29120,1,0,0:0:0:0:
64,192,29270,1,0,0:0:0:0:
448,192,29270,1,0,0:0:0:0:
192,192,29420,1,0,0:0:0:0:
64,192,29570,1,0,0:0:0:0:
448,192,29570,1,0,0:0:0:0:
192,192,29720,1,0,0:0:0:0:
64,192,29870,1,0,0:0:0:0:
320,192,29870,1,0,0:0:0:0:
192,192,30020,1,0,0:0:0:0:
448,192,30020,1,0,0:0:0:0:
64,192,30170,1,0,0:0:0:0:
320,192,30170,1,0,0:0:0:0:
192,192,30320,1,0,0:0:0:0:
320,192,30470,128,0,30695:0:0:0:0:
192,192,30470,1,0,0:0:0:0:
64,192,30695,1,0,0:0:0:0:
448,192,30695,1,0,0:0:0:0:
320,192,30920,1,0,0:0:0:0:
192,192,31070,128,0,31370:0:0:0:0:
448,192,31370,1,0,0:0:0:0:
64,192,31370,1,0,0:0:0:0:
192,192,31520,1,0,0:0:0:0:
320,192,31520,1,0,0:0:0:0:
64,192,31670,1,0,0:0:0:0:
448,192,31670,1,0,0:0:0:0:
320,192,31820,1,0,0:0:0:0:
448,192,31970,128,0,32270:0:0:0:0:
192,192,31970,1,0,0:0:0:0:
320,192,32270,128,0,32570:0:0:0:0:
64,192,32270,1,0,0:0:0:0:
64,192,32570,1,0,0:0:0:0:
448,192,32570,1,0,0:0:0:0:
192,192,32720,1,0,0:0:0:0:
64,192,32870,1,0,0:0:0:0:
320,192,32870,1,0,0:0:0:0:
192,192,33020,1,0,0:0:0:0:
64,192,33170,1,0,0:0:0:0:
448,192,33170,1,0,0:0:0:0:
192,192,33320,1,0,0:0:0:0:
320,192,33320,1,0,0:0:0:0:
64,192,33470,1,0,0:0:0:0:
448,192,33470,1,0,0:0:0:0:
320,192,33620,1,0,0:0:0:0:
192,192,33770,1,0,0:0:0:0:
448,192,33770,1,0,0:0:0:0:
320,192,33920,1,0,0:0:0:0:
64,192,34070,1,0,0:0:0:0:
448,192,34070,1,0,0:0:0:0:
192,192,34220,1,0,0:0:0:0:
64,192,34370,1,0,0:0:0:0:
320,192,34370,1,0,0:0:0:0:
192,192,34520,1,0,0:0:0:0:
64,192,34670,1,0,0:0:0:0:
320,192,34670,1,0,0:0:0:0:
192,192,34820,1,0,0:0:0:0:
320,192,34820,1,0,0:0:0:0:
64,192,34970,1,0,0:0:0:0:
448,192,34970,1,0,0:0:0:0:
192,192,35120,1,0,0:0:0:0:
64,192,35270,1,0,0:0:0:0:
320,192,35270,1,0,0:0:0:0:
192,192,35420,1,0,0:0:0:0:
64,192,35570,1,0,0:0:0:0:
448,192,35570,1,0,0:0:0:0:
320,192,35720,1,0,0:0:0:0:
192,192,35870,1,0,0:0:0:0:
448,192,35870,1,0,0:0:0:0:
320,192,36020,1,0,0:0:0:0:
64,192,36170,1,0,0:0:0:0:
448,192,36170,1,0,0:0:0:0:
192,192,36320,1,0,0:0:0:0:
320,192,36320,1,0,0:0:0:0:
64,192,36470,1,0,0:0:0:0:
448,192,36470,1,0,0:0:0:0:
320,192,36620,1,0,0:0:0:0:
448,192,36770,128,0,37070:0:0:0:0:
64,192,36770,1,0,0:0:0:0:
192,192,37070,128,0,37370:0:0:0:0:
64,192,37370,1,0,0:0:0:0:
448,192,37370,1,0,0:0:0:0:
320,192,37520,1,0,0:0:0:0:
192,192,37520,1,0,0:0:0:0:
64,192,37670,1,0,0:0:0:0:
448,192,37670,1,0,0:0:0:0:
320,192,37820,1,0,0:0:0:0:
192,192,37970,1,0,0:0:0:0:
448,192,37970,1,0,0:0:0:0:
320,192,38120,1,0,0:0:0:0:
64,192,38270,1,0,0:0:0:0:
448,192,38270,1,0,0:0:0:0:
192,192,38420,1,0,0:0:0:0:
64,192,38570,1,0,0:0:0:0:
320,192,38570,1,0,0:0:0:0:
192,192,38720,1,0,0:0:0:0:
64,192,38870,1,0,0:0:0:0:
448,192,38870,1,0,0:0:0:0:
320,192,39020,1,0,0:0:0:0:
192,192,39170,1,0,0:0:0:0:
448,192,39170,1,0,0:0:0:0:
320,192,39320,1,0,0:0:0:0:
64,192,39470,1,0,0:0:0:0:
448,192,39470,1,0,0:0:0:0:
320,192,39620,1,0,0:0:0:0:
192,192,39620,1,0,0:0:0:0:
64,192,39770,1,0,0:0:0:0:
448,192,39770,1,0,0:0:0:0:
320,192,39920,1,0,0:0:0:0:
192,192,40070,1,0,0:0:0:0:
448,192,40070,1,0,0:0:0:0:
320,192,40220,1,0,0:0:0:0:
64,192,40370,1,0,0:0:0:0:
448,192,40370,1,0,0:0:0:0:
192,192,40520,1,0,0:0:0:0:
320,192,40520,1,0,0:0:0:0:
64,192,40670,1,0,0:0:0:0:
448,192,40670,1,0,0:0:0:0:
192,192,40820,1,0,0:0:0:0:
64,192,40970,128,0,41270:0:0:0:0:
448,192,40970,1,0,0:0:0:0:
320,192,41270,128,0,41570:0:0:0:0:
448,192,41270,1,0,0:0:0:0:
448,192,41570,128,0,41870:0:0:0:0:
64,192,41570,1,0,0:0:0:0:
192,192,41870,128,0,42170:0:0:0:0:
64,192,41870,1,0,0:0:0:0:
448,192,42170,1,0,0:0:0:0:
320,192,42320,1,0,0:0:0:0:
64,192,42470,1,0,0:0:0:0:
448,192,42470,1,0,0:0:0:0:
192,192,42620,1,0,0:0:0:0:
64,192,42770,1,0,0:0:0:0:
320,192,42770,1,0,0:0:0:0:
192,192,42920,1,0,0:0:0:0:
64,192,43070,1,0,0:0:0:0:
448,192,43070,1,0,0:0:0:0:
320,192,43220,1,0,0:0:0:0:
192,192,43220,1,0,0:0:0:0:
64,192,43370,1,0,0:0:0:0:
448,192,43370,1,0,0:0:0:0:
320,192,43520,1,0,0:0:0:0:
448,192,43670,1,0,0:0:0:0:
192,192,43670,1,0,0:0:0:0:
64,192,43820,1,0,0:0:0:0:
320,192,43820,1,0,0:0:0:0:
448,192,43970,1,0,0:0:0:0:
192,192,43970,1,0,0:0:0:0:
320,192,44120,1,0,0:0:0:0:
64,192,44270,1,0,0:0:0:0:
448,192,44270,1,0,0:0:0:0:
64,192,44420,1,0,0:0:0:0:
448,192,44420,1,0,0:0:0:0:
64,192,44570,1,0,0:0:0:0:
448,192,44570,1,0,0:0:0:0:
192,192,44720,1,0,0:0:0:0:
320,192,44720,1,0,0:0:0:0:
64,192,44870,1,0,0:0:0:0:
448,192,44870,1,0,0:0:0:0:
320,192,45020,1,0,0:0:0:0:
192,192,45170,1,0,0:0:0:0:
448,192,45170,1,0,0:0:0:0:
320,192,45320,1,0,0:0:0:0:
448,192,45470,1,0,0:0:0:0:
64,192,45470,1,0,0:0:0:0:
192,192,45620,1,0,0:0:0:0:
64,192,45770,1,0,0:0:0:0:
320,192,45770,1,0,0:0:0:0:
192,192,45920,1,0,0:0:0:0:
64,192,46070,1,0,0:0:0:0:
448,192,46070,1,0,0:0:0:0:
320,192,46220,1,0,0:0:0:0:
192,192,46370,1,0,0:0:0:0:
448,192,46370,1,0,0:0:0:0:
320,192,46520,1,0,0:0:0:0:
192,192,46595,1,0,0:0:0:0:
64,192,46670,1,0,0:0:0:0:
448,192,46670,1,0,0:0:0:0:
320,192,46820,1,0,0:0:0:0:
192,192,46970,1,0,0:0:0:0:
448,192,46970,1,0,0:0:0:0:
320,192,47120,1,0,0:0:0:0:
64,192,47270,1,0,0:0:0:0:
448,192,47270,1,0,0:0:0:0:
192,192,47420,1,0,0:0:0:0:
64,192,47570,1,0,0:0:0:0:
320,192,47570,1,0,0:0:0:0:
192,192,47720,1,0,0:0:0:0:
64,192,47870,1,0,0:0:0:0:
448,192,47870,1,0,0:0:0:0:
192,192,48020,1,0,0:0:0:0:
320,192,48020,1,0,0:0:0:0:
64,192,48170,1,0,0:0:0:0:
448,192,48170,1,0,0:0:0:0:
192,192,48320,1,0,0:0:0:0:
320,192,48320,1,0,0:0:0:0:
64,192,48470,1,0,0:0:0:0:
448,192,48470,1,0,0:0:0:0:
192,192,48620,1,0,0:0:0:0:
64,192,48770,1,0,0:0:0:0:
320,192,48770,1,0,0:0:0:0:
192,192,48920,1,0,0:0:0:0:
64,192,49070,128,0,49220:0:0:0:0:
448,192,49070,1,0,0:0:0:0:
192,192,49220,128,0,49370:0:0:0:0:
448,192,49220,1,0,0:0:0:0:
64,192,49370,1,0,0:0:0:0:
448,192,49370,1,0,0:0:0:0:
320,192,49520,1,0,0:0:0:0:
192,192,49670,1,0,0:0:0:0:
448,192,49670,1,0,0:0:0:0:
320,192,49820,1,0,0:0:0:0:
448,192,49970,1,0,0:0:0:0:
64,192,49970,1,0,0:0:0:0:
320,192,50120,1,0,0:0:0:0:
192,192,50270,1,0,0:0:0:0:
448,192,50270,1,0,0:0:0:0:
320,192,50420,1,0,0:0:0:0:
192,192,50570,128,0,50870:0:0:0:0:
448,192,50570,1,0,0:0:0:0:
320,192,50870,128,0,51020:0:0:0:0:
448,192,51020,128,0,51170:0:0:0:0:
64,192,51170,128,0,51470:0:0:0:0:
320,192,51470,128,0,51770:0:0:0:0:
64,192,51770,1,0,0:0:0:0:
448,192,51770,1,0,0:0:0:0:
192,192,51920,1,0,0:0:0:0:
64,192,52070,1,0,0:0:0:0:
320,192,52070,1,0,0:0:0:0:
192,192,52220,1,0,0:0:0:0:
64,192,52370,1,0,0:0:0:0:
448,192,52370,1,0,0:0:0:0:
320,192,52520,1,0,0:0:0:0:
192,192,52670,1,0,0:0:0:0:
448,192,52670,1,0,0:0:0:0:
320,192,52820,1,0,0:0:0:0:
64,192,52970,1,0,0:0:0:0:
448,192,52970,1,0,0:0:0:0:
192,192,53120,1,0,0:0:0:0:
320,192,53120,1,0,0:0:0:0:
64,192,53270,1,0,0:0:0:0:
448,192,53270,1,0,0:0:0:0:
192,192,53420,1,0,0:0:0:0:
64,192,53570,1,0,0:0:0:0:
320,192,53570,1,0,0:0:0:0:
192,192,53720,1,0,0:0:0:0:
64,192,53870,1,0,0:0:0:0:
448,192,53870,1,0,0:0:0:0:
192,192,54020,1,0,0:0:0:0:
320,192,54020,1,0,0:0:0:0:
64,192,54170,1,0,0:0:0:0:
448,192,54170,1,0,0:0:0:0:
320,192,54320,1,0,0:0:0:0:
64,192,54470,1,0,0:0:0:0:
448,192,54470,1,0,0:0:0:0:
320,192,54620,1,0,0:0:0:0:
448,192,54770,1,0,0:0:0:0:
192,192,54770,1,0,0:0:0:0:
320,192,54920,1,0,0:0:0:0:
64,192,55070,1,0,0:0:0:0:
448,192,55070,1,0,0:0:0:0:
192,192,55220,1,0,0:0:0:0:
64,192,55370,1,0,0:0:0:0:
320,192,55370,1,0,0:0:0:0:
192,192,55520,1,0,0:0:0:0:
64,192,55670,1,0,0:0:0:0:
448,192,55670,1,0,0:0:0:0:
320,192,55820,1,0,0:0:0:0:
192,192,55970,1,0,0:0:0:0:
448,192,55970,1,0,0:0:0:0:
320,192,56120,1,0,0:0:0:0:
64,192,56195,1,0,0:0:0:0:
192,192,56270,1,0,0:0:0:0:
64,192,56420,1,0,0:0:0:0:
448,192,56420,1,0,0:0:0:0:
64,192,56570,1,0,0:0:0:0:
448,192,56570,1,0,0:0:0:0:
320,192,56720,1,0,0:0:0:0:
192,192,56870,1,0,0:0:0:0:
448,192,56870,1,0,0:0:0:0:
320,192,57020,1,0,0:0:0:0:
64,192,57170,1,0,0:0:0:0:
448,192,57170,1,0,0:0:0:0:
192,192,57320,1,0,0:0:0:0:
64,192,57470,1,0,0:0:0:0:
320,192,57470,1,0,0:0:0:0:
192,192,57620,1,0,0:0:0:0:
64,192,57770,1,0,0:0:0:0:
448,192,57770,1,0,0:0:0:0:
192,192,57920,1,0,0:0:0:0:
320,192,57920,1,0,0:0:0:0:
64,192,58070,1,0,0:0:0:0:
448,192,58070,1,0,0:0:0:0:
320,192,58220,1,0,0:0:0:0:
192,192,58370,1,0,0:0:0:0:
448,192,58370,1,0,0:0:0:0:
320,192,58520,1,0,0:0:0:0:
192,192,58670,128,0,58820:0:0:0:0:
320,192,58820,128,0,58970:0:0:0:0:
448,192,58970,1,0,0:0:0:0:
64,192,58970,1,0,0:0:0:0:
448,192,70970,5,0,0:0:0:0:
64,192,70970,1,0,0:0:0:0:
192,192,73370,128,0,75770:0:0:0:0:
320,192,75770,128,0,78170:0:0:0:0:
64,192,78170,128,0,79970:0:0:0:0:
192,192,79970,128,0,80270:0:0:0:0:
320,192,80270,128,0,80570:0:0:0:0:
448,192,80570,128,0,81770:0:0:0:0:
64,192,80570,128,0,81770:0:0:0:0:
192,192,81770,128,0,85370:0:0:0:0:
64,192,85370,128,0,87770:0:0:0:0:
448,192,87770,128,0,89570:0:0:0:0:
320,192,89570,128,0,89870:0:0:0:0:
192,192,89870,128,0,90170:0:0:0:0:
64,192,90170,128,0,94970:0:0:0:0:
448,192,90170,1,0,0:0:0:0:
320,192,90320,1,0,0:0:0:0:
192,192,90470,1,0,0:0:0:0:
320,192,90620,1,0,0:0:0:0:
448,192,90770,1,0,0:0:0:0:
192,192,90920,1,0,0:0:0:0:
448,192,91070,1,0,0:0:0:0:
320,192,91220,1,0,0:0:0:0:
448,192,91370,1,0,0:0:0:0:
192,192,91520,1,0,0:0:0:0:
320,192,91670,1,0,0:0:0:0:
448,192,91820,1,0,0:0:0:0:
320,192,91970,1,0,0:0:0:0:
192,192,92120,1,0,0:0:0:0:
320,192,92270,1,0,0:0:0:0:
192,192,92420,1,0,0:0:0:0:
448,192,92570,1,0,0:0:0:0:
320,192,92720,1,0,0:0:0:0:
192,192,92870,1,0,0:0:0:0:
320,192,93020,1,0,0:0:0:0:
448,192,93170,1,0,0:0:0:0:
320,192,93320,1,0,0:0:0:0:
192,192,93470,1,0,0:0:0:0:
448,192,93620,1,0,0:0:0:0:
320,192,93770,1,0,0:0:0:0:
448,192,93920,1,0,0:0:0:0:
192,192,94070,1,0,0:0:0:0:
448,192,94220,1,0,0:0:0:0:
320,192,94370,1,0,0:0:0:0:
192,192,94520,1,0,0:0:0:0:
320,192,94670,1,0,0:0:0:0:
448,192,94820,1,0,0:0:0:0:
320,192,94970,128,0,97370:0:0:0:0:
448,192,94970,1,0,0:0:0:0:
64,192,95120,1,0,0:0:0:0:
448,192,95270,1,0,0:0:0:0:
192,192,95420,1,0,0:0:0:0:
448,192,95570,1,0,0:0:0:0:
64,192,95720,1,0,0:0:0:0:
448,192,95870,1,0,0:0:0:0:
64,192,96020,1,0,0:0:0:0:
448,192,96170,1,0,0:0:0:0:
192,192,96320,1,0,0:0:0:0:
64,192,96470,1,0,0:0:0:0:
192,192,96620,1,0,0:0:0:0:
448,192,96770,1,0,0:0:0:0:
192,192,96920,1,0,0:0:0:0:
64,192,97070,1,0,0:0:0:0:
448,192,97220,1,0,0:0:0:0:
448,192,97370,128,0,99170:0:0:0:0:
64,192,97370,1,0,0:0:0:0:
320,192,97520,1,0,0:0:0:0:
192,192,97670,1,0,0:0:0:0:
320,192,97820,1,0,0:0:0:0:
64,192,97970,1,0,0:0:0:0:
192,192,98120,1,0,0:0:0:0:
320,192,98270,1,0,0:0:0:0:
192,192,98420,1,0,0:0:0:0:
320,192,98570,1,0,0:0:0:0:
64,192,98720,1,0,0:0:0:0:
192,192,98870,1,0,0:0:0:0:
320,192,99020,1,0,0:0:0:0:
320,192,99170,128,0,99470:0:0:0:0:
64,192,99170,1,0,0:0:0:0:
64,192,99470,128,0,99770:0:0:0:0:
448,192,99470,1,0,0:0:0:0:
448,192,99770,1,0,0:0:0:0:
192,192,99770,128,0,104570:0:0:0:0:
320,192,99920,1,0,0:0:0:0:
64,192,100070,1,0,0:0:0:0:
448,192,100220,1,0,0:0:0:0:
320,192,100370,1,0,0:0:0:0:
448,192,100520,1,0,0:0:0:0:
64,192,100670,1,0,0:0:0:0:
320,192,100820,1,0,0:0:0:0:
448,192,100970,1,0,0:0:0:0:
320,192,101120,1,0,0:0:0:0:
448,192,101270,1,0,0:0:0:0:
64,192,101420,1,0,0:0:0:0:
448,192,101570,1,0,0:0:0:0:
64,192,101720,1,0,0:0:0:0:
448,192,101870,1,0,0:0:0:0:
320,192,102020,1,0,0:0:0:0:
64,192,102170,1,0,0:0:0:0:
320,192,102320,1,0,0:0:0:0:
448,192,102470,1,0,0:0:0:0:
64,192,102620,1,0,0:0:0:0:
320,192,102770,1,0,0:0:0:0:
448,192,102920,1,0,0:0:0:0:
320,192,103070,1,0,0:0:0:0:
448,192,103220,1,0,0:0:0:0:
64,192,103370,1,0,0:0:0:0:
320,192,103520,1,0,0:0:0:0:
64,192,103670,1,0,0:0:0:0:
448,192,103820,1,0,0:0:0:0:
64,192,103970,1,0,0:0:0:0:
320,192,104120,1,0,0:0:0:0:
448,192,104270,1,0,0:0:0:0:
320,192,104420,1,0,0:0:0:0:
448,192,104570,128,0,106970:0:0:0:0:
64,192,104570,1,0,0:0:0:0:
320,192,104720,1,0,0:0:0:0:
192,192,104870,1,0,0:0:0:0:
64,192,105020,1,0,0:0:0:0:
192,192,105170,1,0,0:0:0:0:
64,192,105320,1,0,0:0:0:0:
320,192,105470,1,0,0:0:0:0:
192,192,105620,1,0,0:0:0:0:
64,192,105770,1,0,0:0:0:0:
192,192,105920,1,0,0:0:0:0:
64,192,106070,1,0,0:0:0:0:
192,192,106220,1,0,0:0:0:0:
320,192,106370,1,0,0:0:0:0:
192,192,106520,1,0,0:0:0:0:
320,192,106670,1,0,0:0:0:0:
192,192,106820,1,0,0:0:0:0:
320,192,106970,128,0,108770:0:0:0:0:
64,192,106970,1,0,0:0:0:0:
192,192,107120,1,0,0:0:0:0:
448,192,107270,1,0,0:0:0:0:
64,192,107420,1,0,0:0:0:0:
192,192,107570,1,0,0:0:0:0:
448,192,107720,1,0,0:0:0:0:
64,192,107870,1,0,0:0:0:0:
192,192,108020,1,0,0:0:0:0:
448,192,108170,1,0,0:0:0:0:
192,192,108320,1,0,0:0:0:0:
64,192,108470,1,0,0:0:0:0:
192,192,108620,1,0,0:0:0:0:
192,192,108770,128,0,109070:0:0:0:0:
448,192,108770,1,0,0:0:0:0:
320,192,109070,128,0,109370:0:0:0:0:
448,192,109070,1,0,0:0:0:0:
64,192,109370,1,0,0:0:0:0:
448,192,109370,1,0,0:0:0:0:
64,192,123770,5,0,0:0:0:0:
192,192,123845,1,0,0:0:0:0:
448,192,123920,1,0,0:0:0:0:
320,192,123995,1,0,0:0:0:0:
192,192,124070,1,0,0:0:0:0:
64,192,124145,1,0,0:0:0:0:
320,192,124220,1,0,0:0:0:0:
448,192,124295,1,0,0:0:0:0:
192,192,124370,1,0,0:0:0:0:
64,192,124445,1,0,0:0:0:0:
448,192,124520,1,0,0:0:0:0:
320,192,124595,1,0,0:0:0:0:
192,192,124670,1,0,0:0:0:0:
64,192,124745,1,0,0:0:0:0:
320,192,124820,1,0,0:0:0:0:
448,192,124895,1,0,0:0:0:0:
64,192,124970,1,0,0:0:0:0:
192,192,125045,1,0,0:0:0:0:
320,192,125120,1,0,0:0:0:0:
448,192,125195,1,0,0:0:0:0:
192,192,125270,1,0,0:0:0:0:
64,192,125345,1,0,0:0:0:0:
320,192,125420,1,0,0:0:0:0:
448,192,125495,1,0,0:0:0:0:
192,192,125570,1,0,0:0:0:0:
64,192,125645,1,0,0:0:0:0:
448,192,125720,1,0,0:0:0:0:
320,192,125795,1,0,0:0:0:0:
192,192,125870,1,0,0:0:0:0:
64,192,125945,1,0,0:0:0:0:
192,192,126020,1,0,0:0:0:0:
320,192,126095,1,0,0:0:0:0:
64,192,126170,1,0,0:0:0:0:
448,192,126170,1,0,0:0:0:0:
64,192,183170,5,0,0:0:0:0:
448,192,183170,1,0,0:0:0:0:
192,192,183320,1,0,0:0:0:0:
320,192,183395,1,0,0:0:0:0:
192,192,183470,1,0,0:0:0:0:
64,192,183620,1,0,0:0:0:0:
320,192,183620,1,0,0:0:0:0:
192,192,183770,1,0,0:0:0:0:
64,192,183920,1,0,0:0:0:0:
448,192,183920,1,0,0:0:0:0:
320,192,184070,1,0,0:0:0:0:
192,192,184220,1,0,0:0:0:0:
448,192,184220,1,0,0:0:0:0:
320,192,184370,1,0,0:0:0:0:
448,192,184520,1,0,0:0:0:0:
64,192,184520,1,0,0:0:0:0:
320,192,184670,1,0,0:0:0:0:
192,192,184670,1,0,0:0:0:0:
64,192,184820,1,0,0:0:0:0:
448,192,184820,1,0,0:0:0:0:
64,192,184970,1,0,0:0:0:0:
192,192,185045,1,0,0:0:0:0:
320,192,185120,1,0,0:0:0:0:
448,192,185195,1,0,0:0:0:0:
320,192,185270,1,0,0:0:0:0:
192,192,185345,1,0,0:0:0:0:
64,192,185420,1,0,0:0:0:0:
448,192,185495,1,0,0:0:0:0:
320,192,185570,1,0,0:0:0:0:
192,192,185645,1,0,0:0:0:0:
64,192,185720,1,0,0:0:0:0:
192,192,185795,1,0,0:0:0:0:
320,192,185870,1,0,0:0:0:0:
448,192,185945,1,0,0:0:0:0:
320,192,186020,1,0,0:0:0:0:
192,192,186095,1,0,0:0:0:0:
64,192,186170,1,0,0:0:0:0:
448,192,186170,1,0,0:0:0:0:
