osu file format v14

[General]
AudioFilename: audio.mp3
AudioLeadIn: 0
PreviewTime: 114750
Countdown: 0
SampleSet: Normal
StackLeniency: 0.5
Mode: 0
LetterboxInBreaks: 0
WidescreenStoryboard: 1

[Editor]
Bookmarks: 2506,11872,21238,39964,39969,54018,57530,58701,77433,87091,95433,96164,105530,110213,113140,114896,133628,140652,147677,152360,159384,161725
DistanceSpacing: 1.3
BeatDivisor: 4
GridSize: 4
TimelineZoom: 2.899999

[Metadata]
Title:Kali Ma
TitleUnicode:Kali Ma
Artist:Neck Deep
ArtistUnicode:Neck Deep
Creator:erodra
Version:Cemetery
Source:
Tags:Life's Not out to Get You
BeatmapID:1311921
BeatmapSetID:535845

[Difficulty]
HPDrainRate:5.8
CircleSize:4.2
OverallDifficulty:8.8
ApproachRate:9.5
SliderMultiplier:1.7
SliderTickRate:1

[Events]
//Background and Video events
0,0,"bg.jpg",0,0
//Break Periods
2,87091,94908
2,147969,151774
//Storyboard Layer 0 (Background)
//Storyboard Layer 1 (Fail)
//Storyboard Layer 2 (Pass)
//Storyboard Layer 3 (Foreground)
//Storyboard Sound Samples

[TimingPoints]
165,292.682926829268,4,1,0,65,1,0
165,-133.333333333333,4,1,0,65,0,0
457,-133.333333333333,4,1,0,55,0,0
604,-133.333333333333,4,1,0,15,0,0
750,-133.333333333333,4,1,0,55,0,0
896,-133.333333333333,4,1,0,15,0,0
1043,-133.333333333333,4,1,0,55,0,0
1189,-133.333333333333,4,1,0,15,0,0
1335,-133.333333333333,4,1,0,55,0,0
1482,-133.333333333333,4,1,0,15,0,0
1628,-133.333333333333,4,1,0,55,0,0
1774,-133.333333333333,4,1,0,15,0,0
1921,-200,4,2,0,65,0,0
1994,-133.333333333333,4,2,0,5,0,0
2506,-100,4,1,0,100,0,0
2800,-100,4,1,0,70,0,0
9530,-100,4,3,0,70,0,0
10701,-100,4,3,0,65,0,0
11286,-100,4,3,0,70,0,0
11872,-90.9090909090909,4,1,0,70,0,0
18896,-90.9090909090909,4,3,0,70,0,0
20067,-90.9090909090909,4,3,0,65,0,0
20652,-90.9090909090909,4,3,0,70,0,0
21237,-111.111111111111,4,2,0,65,0,0
30603,-111.111111111111,4,2,0,65,0,0
38945,-111.111111111111,4,1,0,65,0,0
39384,-111.111111111111,4,3,0,75,0,0
39969,-100,4,1,0,70,0,0
48311,-100,4,3,0,60,0,0
48604,-100,4,3,0,70,0,0
48896,-100,4,3,0,85,0,0
49189,-100,4,3,0,100,0,0
49335,-90.9090909090909,4,3,0,75,0,0
49628,-90.9090909090909,4,1,0,75,0,0
53140,-90.9090909090909,4,3,0,75,0,0
54018,-125,4,1,0,70,0,0
54238,-125,4,1,0,5,0,0
54311,-125,4,1,0,70,0,0
54530,-125,4,1,0,5,0,0
54604,-125,4,1,0,70,0,0
58701,-80,4,1,0,90,0,1
77433,-100,4,3,0,70,0,0
81530,-66.6666666666667,4,1,0,70,0,0
81604,-50,4,1,0,5,0,0
81677,-200,4,1,0,70,0,0
82116,-100,4,3,0,75,0,0
85555,-100,4,1,0,5,0,0
85628,-100,4,1,0,75,0,0
86067,-100,4,3,0,75,0,0
86140,-100,4,1,0,75,0,0
95433,-100,4,3,0,75,0,0
96164,-90.9090909090909,4,1,0,75,0,0
103189,-90.9090909090909,4,2,0,75,0,0
104360,-90.9090909090909,4,1,0,75,0,0
105530,-83.3333333333333,4,1,0,75,0,0
109628,-83.3333333333333,4,3,0,75,0,0
110213,-100,4,1,0,75,0,0
110433,-100,4,1,0,5,0,0
110506,-100,4,1,0,75,0,0
110725,-100,4,1,0,5,0,0
110799,-100,4,1,0,75,0,0
114896,-76.9230769230769,4,1,0,95,0,1
133628,-100,4,1,0,70,0,0
152360,-133.333333333333,4,1,0,70,0,0
161725,-100,4,1,0,70,0,0

[Colours]
Combo1 : 255,151,47
Combo2 : 128,255,128
Combo3 : 253,255,255
Combo4 : 244,209,11

[HitObjects]
151,131,165,5,0,0:0:0:0:
199,67,311,1,0,0:0:0:0:
231,163,457,6,0,P|247:211|247:243,1,63.7500024318696
175,223,750,2,0,P|159:271|159:303,1,63.7500024318696
231,135,1043,6,0,P|247:183|247:215,1,63.7500024318696
175,195,1336,2,0,P|159:243|159:275,1,63.7500024318696
231,107,1628,6,0,P|247:155|247:187,1,63.7500024318696
175,167,1921,2,0,B|159:215|160:244|160:244|184:220|220:228,1,127.5
284,244,2505,5,0,0:0:0:0:
412,152,2651,1,0,0:0:0:0:
256,116,2798,2,0,L|339:134,1,85
488,167,3090,5,0,0:0:0:0:
441,255,3237,1,0,0:0:0:0:
458,347,3383,1,0,0:0:0:0:
312,228,3529,6,0,P|296:176|312:140,1,85
305,307,3822,2,0,P|321:255|305:219,1,85
275,79,4115,5,0,0:0:0:0:
311,227,4261,1,0,0:0:0:0:
368,76,4407,1,0,0:0:0:0:
239,167,4554,2,0,L|139:195,1,85
276,96,4846,5,0,0:0:0:0:
315,247,4993,1,0,0:0:0:0:
448,172,5140,2,0,L|348:144,1,85
120,64,5433,5,0,0:0:0:0:
200,132,5578,1,0,0:0:0:0:
300,80,5724,1,0,0:0:0:0:
64,248,5871,6,0,B|52:208|52:208|64:160,1,85
62,329,6164,2,0,B|74:289|74:289|62:241,1,85
144,116,6456,5,0,0:0:0:0:
212,256,6603,1,0,0:0:0:0:
52,164,6749,1,0,0:0:0:0:
192,44,6895,2,0,P|224:108|208:156,1,85
52,148,7189,5,0,0:0:0:0:
192,28,7335,1,0,0:0:0:0:
175,190,7482,2,0,P|143:126|159:78,1,85
344,20,7774,5,0,0:0:0:0:
420,128,7920,1,0,0:0:0:0:
344,236,8067,1,0,0:0:0:0:
420,128,8212,6,0,L|336:116,1,85
504,115,8505,2,0,L|420:127,1,85
268,140,8798,5,0,0:0:0:0:
344,236,8944,1,0,0:0:0:0:
332,64,9090,1,0,0:0:0:0:
208,288,9237,2,0,B|252:300|252:300|296:296,1,85
456,256,9529,5,0,0:0:0:0:
104,168,9823,1,0,0:0:0:0:
456,272,10115,5,0,0:0:0:0:
104,152,10408,1,0,0:0:0:0:
456,288,10701,5,0,0:0:0:0:
104,136,10847,1,0,0:0:0:0:
104,120,11287,5,0,0:0:0:0:
312,320,11431,1,0,0:0:0:0:
312,336,11871,5,0,0:0:0:0:
172,248,12017,1,0,0:0:0:0:
356,220,12163,2,0,B|372:172|372:172|359:130,1,93.5000028533936
171,71,12456,5,0,0:0:0:0:
194,167,12603,1,0,0:0:0:0:
265,219,12749,1,0,0:0:0:0:
171,71,12895,6,0,P|220:92|268:88,1,93.5000028533936
82,51,13189,2,0,P|128:50|170:70,1,93.5000028533936
12,172,13481,5,0,0:0:0:0:
192,216,13627,1,0,0:0:0:0:
84,64,13773,1,0,0:0:0:0:
120,320,13921,2,0,B|168:332|168:332|212:324,1,93.5000028533936
332,180,14212,5,0,0:0:0:0:
112,232,14358,1,0,0:0:0:0:
256,280,14506,2,0,B|268:232|268:232|260:188,1,93.5000028533936
160,168,14799,5,0,0:0:0:0:
256,108,14944,1,0,0:0:0:0:
352,168,15091,1,0,0:0:0:0:
160,168,15237,6,0,B|148:224|148:224|160:276,1,93.5000028533936
156,76,15529,2,0,B|168:132|168:132|156:184,1,93.5000028533936
100,344,15822,5,0,0:0:0:0:
76,160,15968,1,0,0:0:0:0:
236,260,16115,1,0,0:0:0:0:
52,280,16261,2,0,P|100:252|152:252,1,93.5000028533936
100,372,16554,5,0,0:0:0:0:
76,188,16700,1,0,0:0:0:0:
236,288,16847,2,0,P|188:316|136:316,1,93.5000028533936
232,120,17140,5,0,0:0:0:0:
280,200,17285,1,0,0:0:0:0:
224,288,17432,1,0,0:0:0:0:
368,240,17578,6,0,L|384:144,1,93.5000028533936
383,332,17871,2,0,L|367:236,1,93.5000028533936
340,56,18163,5,0,0:0:0:0:
276,232,18310,1,0,0:0:0:0:
452,176,18456,1,0,0:0:0:0:
260,139,18603,2,0,L|276:235,1,93.5000028533936
408,256,18896,5,0,0:0:0:0:
16,164,19187,1,0,0:0:0:0:
408,272,19482,5,0,0:0:0:0:
16,148,19774,1,0,0:0:0:0:
408,288,20066,5,0,0:0:0:0:
16,132,20212,1,0,0:0:0:0:
16,116,20652,5,0,0:0:0:0:
464,308,20797,1,0,0:0:0:0:
464,308,21238,6,0,P|380:288|308:312,1,152.999995330811
240,352,21677,1,0,0:0:0:0:
315,159,21823,2,0,P|335:243|311:315,1,152.999995330811
240,352,22261,1,0,0:0:0:0:
156,200,22408,6,0,L|204:288,1,76.4999976654053
200,136,22701,2,0,P|164:120|119:131,1,76.4999976654053
88,304,22994,2,0,B|160:340|160:340|228:316,1,152.999995330811
200,136,23433,1,0,0:0:0:0:
252,240,23579,5,0,0:0:0:0:
128,125,23725,2,0,L|124:217,1,76.4999976654053
280,92,24018,1,0,0:0:0:0:
283,168,24164,1,0,0:0:0:0:
178,70,24311,2,0,P|146:114|106:130,1,76.4999976654053
284,169,24604,6,0,L|359:184,1,76.4999976654053
128,125,24896,2,0,L|48:141,1,76.4999976654053
178,70,25188,1,0,0:0:0:0:
240,232,25335,6,0,P|189:254|163:251,1,76.4999976654053
128,125,25627,1,0,0:0:0:0:
284,169,25774,1,0,0:0:0:0:
140,316,25921,6,0,P|208:320|236:304,1,76.4999976654053
304,280,26212,1,0,0:0:0:0:
256,148,26359,1,0,0:0:0:0:
335,204,26506,2,0,P|339:136|323:108,1,76.4999976654053
287,72,26798,1,0,0:0:0:0:
378,278,26945,6,0,P|310:282|282:266,1,76.4999976654053
256,148,27238,2,0,P|188:144|160:160,1,76.4999976654053
47,259,27530,1,0,0:0:0:0:
47,259,27604,1,0,0:0:0:0:
47,259,27677,6,0,P|85:266|122:258,1,76.4999976654053
124,120,27969,1,0,0:0:0:0:
200,184,28116,1,0,0:0:0:0:
124,136,28261,5,0,0:0:0:0:
200,200,28407,1,0,0:0:0:0:
48,240,28554,1,0,0:0:0:0:
164,332,28700,1,0,0:0:0:0:
20,336,28847,2,0,P|68:312|116:316,1,76.4999976654053
164,356,29140,1,0,0:0:0:0:
200,184,29285,6,0,P|248:208|296:204,1,76.4999976654053
316,104,29579,2,0,P|364:80|412:84,1,76.4999976654053
456,156,29871,1,0,0:0:0:0:
270,209,30017,1,0,0:0:0:0:
316,104,30163,1,0,0:0:0:0:
216,64,30311,6,0,P|172:88|124:76,1,76.4999976654053
63,111,30529,1,0,0:0:0:0:
64,112,30603,6,0,P|104:144|220:144,1,152.999995330811
216,40,31043,1,0,0:0:0:0:
241,289,31189,2,0,P|209:249|209:133,1,152.999995330811
216,40,31628,5,0,0:0:0:0:
324,172,31774,1,0,0:0:0:0:
352,48,31921,1,0,0:0:0:0:
202,149,32067,2,0,L|214:224,1,76.4999976654053
104,116,32359,2,0,L|120:212,2,76.4999976654053
214,224,32799,6,0,P|190:256|146:268,1,76.4999976654053
304,204,33091,2,0,P|328:236|372:248,1,76.4999976654053
186,153,33384,6,0,B|206:189|216:228|216:228|196:264|144:272,1,152.999995330811
68,292,33823,1,0,0:0:0:0:
120,112,33969,6,0,L|103:186,1,76.4999976654053
199,66,34262,2,0,L|216:140,1,76.4999976654053
251,246,34555,1,0,0:0:0:0:
308,56,34701,5,0,0:0:0:0:
216,140,34847,2,0,P|264:152|316:128,1,76.4999976654053
400,68,35140,6,0,L|384:176,1,76.4999976654053
364,293,35433,2,0,L|348:185,1,76.4999976654053
456,244,35725,1,0,0:0:0:0:
272,244,35872,1,0,0:0:0:0:
328,68,36018,6,0,L|344:176,1,76.4999976654053
364,293,36311,2,0,L|380:185,1,76.4999976654053
272,244,36604,2,0,P|208:252|208:332,1,152.999995330811
208,332,36969,1,0,0:0:0:0:
208,332,37043,1,0,0:0:0:0:
80,227,37189,2,0,P|144:219|144:139,1,152.999995330811
148,144,37554,1,0,0:0:0:0:
148,144,37627,5,0,0:0:0:0:
236,100,37773,1,0,0:0:0:0:
316,172,37920,1,0,0:0:0:0:
272,260,38066,1,0,0:0:0:0:
176,244,38212,1,0,0:0:0:0:
148,144,38359,1,0,0:0:0:0:
236,100,38505,1,0,0:0:0:0:
176,244,38651,2,0,B|168:288|184:332,1,76.4999976654053
368,168,38944,5,0,0:0:0:0:
368,168,39017,1,0,0:0:0:0:
368,168,39090,1,0,0:0:0:0:
209,72,39237,1,0,0:0:0:0:
274,259,39383,5,0,0:0:0:0:
336,68,39530,1,0,0:0:0:0:
272,288,39676,1,0,0:0:0:0:
208,40,39822,1,0,0:0:0:0:
324,164,39968,6,0,P|392:192|428:220,1,85
452,292,40262,1,0,0:0:0:0:
240,196,40407,2,0,P|172:168|136:140,1,85
352,248,40701,2,0,P|372:284|386:325,1,85
320,68,40993,1,0,0:0:0:0:
468,132,41139,6,0,L|348:152,1,85
196,175,41433,1,0,0:0:0:0:
104,84,41579,2,0,L|224:104,1,85
343,248,41872,1,0,0:0:0:0:
148,344,42018,2,0,B|191:350|191:350|231:338,1,85
313,151,42310,6,0,B|270:145|270:145|230:157,1,85
187,277,42603,1,0,0:0:0:0:
219,72,42749,2,0,L|230:156,1,85
256,320,43042,1,0,0:0:0:0:
433,261,43189,6,0,L|422:177,1,85
368,100,43407,1,0,0:0:0:0:
346,87,43482,6,0,B|302:81|302:81|262:93,1,85
64,228,43773,1,0,0:0:0:0:
248,256,43921,2,0,L|237:171,1,85
28,228,44212,1,0,0:0:0:0:
156,340,44359,1,0,0:0:0:0:
68,140,44505,1,0,0:0:0:0:
68,140,44579,1,0,0:0:0:0:
72,144,44652,6,0,P|24:128|-3:96,2,85
237,87,45091,2,0,P|161:95|149:107,1,85
282,252,45383,1,0,0:0:0:0:
72,160,45529,1,0,0:0:0:0:
336,88,45676,1,0,0:0:0:0:
132,312,45823,6,0,P|84:296|57:264,2,85
288,260,46261,1,0,0:0:0:0:
288,260,46334,1,0,0:0:0:0:
288,260,46407,5,0,0:0:0:0:
330,92,46554,1,0,0:0:0:0:
288,284,46700,1,0,0:0:0:0:
236,52,46846,1,0,0:0:0:0:
215,304,46993,6,0,B|187:304|187:304|167:312|167:312|119:312,2,85
416,160,47433,1,0,0:0:0:0:
44,136,47578,6,0,L|30:53,1,85
88,328,47871,1,0,0:0:0:0:
44,136,48018,6,0,B|44:164|44:164|36:196|36:196|36:236,1,85
212,220,48310,5,0,0:0:0:0:
336,144,48456,1,0,0:0:0:0:
180,252,48603,5,0,0:0:0:0:
412,184,48749,1,0,0:0:0:0:
144,280,48895,5,0,0:0:0:0:
468,244,49042,1,0,0:0:0:0:
108,304,49188,5,0,0:0:0:0:
492,320,49334,1,0,0:0:0:0:
240,100,49627,6,0,L|208:200,1,93.5000028533936
376,96,49920,1,0,0:0:0:0:
376,280,50066,1,0,0:0:0:0:
376,72,50212,1,0,0:0:0:0:
296,300,50359,1,0,0:0:0:0:
376,48,50505,6,0,L|461:98,2,93.5000028533936
484,200,50944,2,0,B|496:252|496:252|480:296,1,93.5000028533936
300,212,51237,2,0,B|339:175|339:175|385:167,1,93.5000028533936
252,320,51529,6,0,L|140:324,1,93.5000028533936
236,140,51822,1,0,0:0:0:0:
92,276,51968,1,0,0:0:0:0:
376,244,52115,1,0,0:0:0:0:
120,156,52261,6,0,P|64:132|16:136,1,93.5000028533936
236,96,52554,2,0,P|292:72|340:76,1,93.5000028533936
200,232,52846,2,0,L|216:348,1,93.5000028533936
336,172,53139,5,0,0:0:0:0:
104,164,53285,1,0,0:0:0:0:
360,176,53432,5,0,0:0:0:0:
60,88,53578,1,0,0:0:0:0:
384,180,53724,5,0,0:0:0:0:
52,268,53871,1,0,0:0:0:0:
412,184,54017,6,0,P|460:152|456:56,1,140.25000428009
308,96,54311,6,0,P|388:116|404:108,1,102
364,48,54604,1,0,0:0:0:0:
325,204,54750,2,0,L|197:140,1,136
204,144,55115,1,0,0:0:0:0:
204,144,55189,6,0,P|192:188|192:232,1,68
208,312,55482,1,0,0:0:0:0:
268,88,55628,2,0,P|280:132|280:176,1,68
126,114,55921,6,0,P|129:80|140:48,1,68
69,196,56213,2,0,P|47:170|32:140,1,68
85,293,56506,2,0,P|51:290|19:279,2,68
408,148,56944,5,0,0:0:0:0:
422,138,57017,1,0,0:0:0:0:
431,124,57090,1,0,0:0:0:0:
434,107,57163,1,0,0:0:0:0:
429,91,57236,1,0,0:0:0:0:
419,78,57309,1,0,0:0:0:0:
404,70,57383,1,0,0:0:0:0:
388,68,57456,1,0,0:0:0:0:
372,73,57529,1,0,0:0:0:0:
340,292,58701,6,0,B|304:316|304:316|204:300,1,106.25
148,45,58994,2,0,B|184:21|184:21|284:37,1,106.25
168,344,59286,6,0,L|176:220,1,106.25
180,132,59579,1,0,0:0:0:0:
448,68,59725,5,0,0:0:0:0:
248,32,59872,1,0,0:0:0:0:
464,88,60018,5,0,0:0:0:0:
220,128,60164,1,0,0:0:0:0:
480,112,60311,5,0,0:0:0:0:
224,248,60457,1,0,0:0:0:0:
356,40,60604,1,0,0:0:0:0:
400,316,60750,2,0,P|320:336|276:336,1,106.25
128,268,60969,1,0,0:0:0:0:
128,268,61043,6,0,B|112:212|112:212|124:128,1,106.25
296,324,61335,1,0,0:0:0:0:
388,156,61482,2,0,L|316:292,1,106.25
276,84,61774,2,0,P|232:160|292:200,1,159.375
274,198,62067,5,0,0:0:0:0:
428,68,62213,1,0,0:0:0:0:
264,248,62360,5,0,0:0:0:0:
484,128,62506,1,0,0:0:0:0:
248,288,62652,5,0,0:0:0:0:
512,216,62799,1,0,0:0:0:0:
288,152,62945,1,0,0:0:0:0:
440,356,63091,1,0,0:0:0:0:
416,148,63238,1,0,0:0:0:0:
416,148,63311,1,0,0:0:0:0:
416,148,63384,6,0,B|368:128|368:128|300:144,1,106.25
128,184,63677,1,0,0:0:0:0:
128,184,63823,2,0,P|188:156|236:156,1,106.25
416,228,64116,2,0,B|368:260|368:260|304:244,1,106.25
332,48,64408,2,0,L|352:168,1,106.25
112,284,64701,5,0,0:0:0:0:
20,72,64847,1,0,0:0:0:0:
204,292,64994,1,0,0:0:0:0:
14,174,65140,6,0,L|26:302,1,106.25
249,106,65433,1,0,0:0:0:0:
112,284,65579,1,0,0:0:0:0:
170,120,65725,5,0,0:0:0:0:
152,352,65872,1,0,0:0:0:0:
249,106,66018,5,0,0:0:0:0:
305,334,66164,1,0,0:0:0:0:
170,120,66311,5,0,0:0:0:0:
152,352,66458,1,0,0:0:0:0:
249,106,66604,5,0,0:0:0:0:
309,334,66750,1,0,0:0:0:0:
309,334,66823,1,0,0:0:0:0:
309,334,66896,5,0,0:0:0:0:
100,44,67043,1,0,0:0:0:0:
100,44,67482,5,0,0:0:0:0:
152,352,67628,1,0,0:0:0:0:
156,364,68067,5,0,0:0:0:0:
76,336,68213,1,0,0:0:0:0:
252,308,68360,2,0,P|308:296|368:256,1,106.25
276,84,68652,2,0,P|288:140|328:200,1,106.25
416,356,68945,1,0,0:0:0:0:
381,94,69091,6,0,L|257:82,1,106.25
124,260,69384,2,0,L|248:272,1,106.25
180,56,69677,5,0,0:0:0:0:
16,172,69823,1,0,0:0:0:0:
216,148,69969,1,0,0:0:0:0:
24,84,70116,1,0,0:0:0:0:
124,260,70262,1,0,0:0:0:0:
124,260,70335,1,0,0:0:0:0:
124,260,70408,6,0,B|178:278|178:278|248:256,1,106.25
420,208,70701,1,0,0:0:0:0:
216,148,70847,1,0,0:0:0:0:
360,344,70994,1,0,0:0:0:0:
332,116,71140,1,0,0:0:0:0:
252,344,71286,1,0,0:0:0:0:
128,100,71433,6,0,L|234:103,1,106.25
172,308,71725,2,0,L|65:311,1,106.25
300,224,72018,5,0,0:0:0:0:
504,80,72164,1,0,0:0:0:0:
435,224,72311,1,0,0:0:0:0:
420,36,72457,1,0,0:0:0:0:
508,312,72604,1,0,0:0:0:0:
508,312,72677,1,0,0:0:0:0:
508,312,72750,5,0,0:0:0:0:
300,224,72896,1,0,0:0:0:0:
439,117,73043,2,0,L|434:226,1,106.25
205,339,73335,2,0,B|181:291|181:291|181:239,1,106.25
360,92,73628,1,0,0:0:0:0:
110,72,73774,6,0,L|216:68,1,106.25
288,243,74066,2,0,L|181:239,1,106.25
24,232,74360,5,0,0:0:0:0:
216,67,74506,1,0,0:0:0:0:
0,232,74652,5,0,0:0:0:0:
192,328,74799,1,0,0:0:0:0:
120,139,74945,1,0,0:0:0:0:
120,139,75018,1,0,0:0:0:0:
120,139,75091,6,0,B|172:123|172:123|256:147,1,106.25
392,245,75384,2,0,B|340:261|340:261|256:237,1,106.25
152,96,75677,6,0,B|204:80|204:80|288:104,1,106.25
360,288,75969,2,0,B|308:304|308:304|224:280,1,106.25
200,60,76262,5,0,0:0:0:0:
312,324,76408,1,0,0:0:0:0:
312,324,76847,5,0,0:0:0:0:
112,349,76993,1,0,0:0:0:0:
112,349,77433,5,0,0:0:0:0:
240,236,77579,1,0,0:0:0:0:
28,324,77725,2,0,L|-10:341,2,42.5
196,324,78018,5,0,0:0:0:0:
64,220,78164,1,0,0:0:0:0:
288,176,78311,1,0,0:0:0:0:
288,176,78384,1,0,0:0:0:0:
288,176,78457,1,0,0:0:0:0:
184,56,78604,5,0,0:0:0:0:
144,220,78750,1,0,0:0:0:0:
320,104,78896,2,0,L|356:80,2,42.5
376,212,79189,5,0,0:0:0:0:
136,172,79335,1,0,0:0:0:0:
444,140,79482,5,0,0:0:0:0:
168,264,79628,1,0,0:0:0:0:
444,140,79774,5,0,0:0:0:0:
312,252,79921,1,0,0:0:0:0:
444,336,80067,1,0,0:0:0:0:
444,336,80140,1,0,0:0:0:0:
444,336,80213,1,0,0:0:0:0:
340,156,80360,5,0,0:0:0:0:
464,236,80507,1,0,0:0:0:0:
372,60,80652,2,0,L|352:21,2,42.5
284,204,80945,5,0,0:0:0:0:
444,140,81091,1,0,0:0:0:0:
288,312,81238,1,0,0:0:0:0:
288,312,81311,1,0,0:0:0:0:
288,312,81384,1,0,0:0:0:0:
104,227,81530,6,0,B|100:191|100:191|115:144,1,63.7500024318696
155,72,81677,6,0,P|124:114|108:170,1,106.25
156,328,82116,5,0,0:0:0:0:
260,208,82262,1,0,0:0:0:0:
68,328,82408,2,0,L|31:349,2,42.5
112,136,82701,5,0,0:0:0:0:
172,328,82847,1,0,0:0:0:0:
252,124,82993,1,0,0:0:0:0:
252,124,83067,1,0,0:0:0:0:
252,124,83140,1,0,0:0:0:0:
112,136,83286,5,0,0:0:0:0:
276,208,83432,1,0,0:0:0:0:
68,328,83579,2,0,L|31:349,2,42.5
384,164,83872,5,0,0:0:0:0:
128,220,84018,1,0,0:0:0:0:
432,224,84164,5,0,0:0:0:0:
80,160,84310,1,0,0:0:0:0:
368,268,84457,5,0,0:0:0:0:
256,120,84604,1,0,0:0:0:0:
496,180,84750,1,0,0:0:0:0:
496,180,84823,1,0,0:0:0:0:
496,180,84896,1,0,0:0:0:0:
288,344,85043,5,0,0:0:0:0:
256,96,85190,1,0,0:0:0:0:
464,328,85336,1,0,0:0:0:0:
464,328,85409,1,0,0:0:0:0:
464,328,85482,2,0,L|440:268,1,42.5
368,80,85628,5,8,0:0:0:0:
361,92,85701,1,0,0:0:0:0:
357,106,85774,1,0,0:0:0:0:
355,120,85847,1,0,0:0:0:0:
355,134,85920,1,0,0:0:0:0:
358,148,85993,1,0,0:0:0:0:
360,164,86067,5,8,0:0:0:0:
323,136,86140,1,0,0:0:0:0:
280,120,86213,1,0,0:0:0:0:
234,115,86286,1,0,0:0:0:0:
189,124,86359,1,0,0:0:0:0:
148,144,86432,1,0,0:0:0:0:
114,175,86506,1,0,0:0:0:0:
92,216,86579,5,8,0:0:0:0:
92,226,86652,1,0,0:0:0:0:
93,237,86725,1,0,0:0:0:0:
94,247,86798,1,0,0:0:0:0:
95,258,86871,1,4,0:0:0:0:
340,172,95433,5,0,0:0:0:0:
348,176,95506,1,0,0:0:0:0:
356,180,95579,1,0,0:0:0:0:
344,276,95725,5,0,0:0:0:0:
220,160,95872,1,0,0:0:0:0:
495,123,96018,1,0,0:0:0:0:
196,268,96164,6,0,B|152:276|152:276|80:252,1,93.5000028533936
288,204,96457,1,0,0:0:0:0:
147,327,96604,2,0,L|155:227,1,93.5000028533936
168,48,96896,1,0,0:0:0:0:
320,292,97043,1,0,0:0:0:0:
288,204,97189,6,0,B|332:212|332:212|404:188,1,93.5000028533936
208,120,97482,1,0,0:0:0:0:
240,304,97628,2,0,P|172:256|160:236,1,93.5000028533936
136,144,97847,1,0,0:0:0:0:
160,112,97921,6,0,B|204:104|204:104|276:128,1,93.5000028533936
420,204,98213,1,0,0:0:0:0:
92,204,98360,6,0,L|112:300,1,93.5000028533936
420,204,98652,2,0,L|400:300,1,93.5000028533936
153,142,98945,6,0,P|128:186|74:204,1,93.5000028533936
359,142,99238,2,0,P|383:186|437:204,1,93.5000028533936
316,248,99530,5,0,0:0:0:0:
284,172,99677,1,0,0:0:0:0:
420,203,99823,5,0,0:0:0:0:
240,280,99969,1,0,0:0:0:0:
359,142,100116,5,0,0:0:0:0:
304,360,100262,1,0,0:0:0:0:
252,156,100408,5,0,0:0:0:0:
432,360,100555,1,0,0:0:0:0:
368,96,100701,1,0,0:0:0:0:
368,96,100774,1,0,0:0:0:0:
368,96,100847,6,0,L|352:208,1,93.5000028533936
120,45,101140,2,0,B|164:64|164:64|180:88|180:88|248:88|255:175,1,187.000005706787
88,192,101579,1,0,0:0:0:0:
264,236,101725,1,0,0:0:0:0:
132,328,101872,1,0,0:0:0:0:
132,328,101945,1,0,0:0:0:0:
132,328,102018,5,0,0:0:0:0:
160,144,102164,1,0,0:0:0:0:
288,308,102311,2,0,B|332:296|332:296|396:312,1,93.5000028533936
197,307,102604,2,0,B|241:319|241:319|305:303,1,93.5000028533936
472,303,102896,2,0,L|376:307,1,93.5000028533936
96,284,103189,5,0,0:0:0:0:
44,112,103335,1,0,0:0:0:0:
0,256,103482,1,0,0:0:0:0:
140,140,103628,1,0,0:0:0:0:
96,264,103774,5,0,0:0:0:0:
44,92,103920,1,0,0:0:0:0:
0,236,104067,1,0,0:0:0:0:
140,120,104213,1,0,0:0:0:0:
96,248,104360,5,0,0:0:0:0:
42,115,104506,2,0,B|90:103|90:103|174:131,1,101.999996887207
220,204,104799,5,0,0:0:0:0:
468,96,104945,2,0,B|420:84|420:84|336:112,1,101.999996887207
124,360,105238,2,0,B|172:372|172:372|256:344,1,101.999996887207
324,36,105530,6,0,P|273:29|222:36,1,101.999996887207
20,204,105823,1,0,0:0:0:0:
224,188,105969,1,0,0:0:0:0:
52,80,106116,1,0,0:0:0:0:
104,276,106262,1,0,0:0:0:0:
178,76,106408,1,0,0:0:0:0:
20,204,106555,1,0,0:0:0:0:
200,324,106701,6,0,B|252:336|252:336|332:308,1,101.999996887207
208,208,106994,2,0,L|104:180,1,101.999996887207
304,208,107286,2,0,L|408:180,2,101.999996887207
304,48,107725,6,0,B|336:92|336:92|381:106,1,101.999996887207
208,48,108018,2,0,B|176:92|176:92|131:106,1,101.999996887207
402,181,108311,6,0,P|420:215|482:253,1,101.999996887207
110,181,108604,2,0,P|92:215|30:253,1,101.999996887207
248,224,108896,5,0,0:0:0:0:
356,280,109043,1,0,0:0:0:0:
304,156,109189,5,0,0:0:0:0:
264,332,109335,1,0,0:0:0:0:
384,180,109482,1,0,0:0:0:0:
188,284,109628,5,0,0:0:0:0:
356,312,109774,1,0,0:0:0:0:
144,284,109921,5,0,0:0:0:0:
456,204,110067,1,0,0:0:0:0:
200,128,110213,6,0,P|184:152|236:140,1,127.5
200,128,110506,2,0,P|240:176|224:252,1,127.5
168,200,110799,1,0,0:0:0:0:
296,52,110945,6,0,B|264:80|212:52|212:52|160:28|136:56,1,170
344,120,111384,2,0,L|332:208,1,85
332,35,111677,2,0,L|344:123,1,85
364,288,111969,6,0,P|288:300|256:288,1,85
148,96,112262,2,0,P|224:84|256:96,1,85
392,144,112555,5,0,0:0:0:0:
492,280,112701,1,0,0:0:0:0:
324,272,112847,1,0,0:0:0:0:
392,164,112994,5,0,0:0:0:0:
492,304,113140,1,0,0:0:0:0:
463,312,113213,1,0,0:0:0:0:
433,315,113286,1,0,0:0:0:0:
404,314,113359,1,0,0:0:0:0:
375,308,113432,1,0,0:0:0:0:
346,300,113505,1,0,0:0:0:0:
316,296,113579,1,0,0:0:0:0:
287,298,113652,1,0,0:0:0:0:
258,304,113725,1,0,0:0:0:0:
273,63,114896,6,0,B|220:48|220:48|167:64,1,110.499994941712
131,257,115189,2,0,L|140:104,1,110.499994941712
344,160,115482,6,0,L|191:151,1,110.499994941712
52,144,115774,1,0,0:0:0:0:
273,63,115921,5,0,0:0:0:0:
420,136,116067,1,0,0:0:0:0:
192,64,116213,5,0,0:0:0:0:
340,244,116360,1,0,0:0:0:0:
116,64,116506,5,0,0:0:0:0:
216,297,116652,1,0,0:0:0:0:
16,208,116799,1,0,0:0:0:0:
232,64,116945,2,0,P|256:128|228:188,1,110.499994941712
109,303,117164,1,0,0:0:0:0:
109,303,117238,6,0,B|163:285|163:285|249:304,1,110.499994941712
156,128,117530,1,0,0:0:0:0:
368,176,117677,2,0,B|364:292,1,110.499994941712
311,63,117969,2,0,P|247:67|307:147,1,165.749992412568
259,149,118262,5,0,0:0:0:0:
188,348,118408,1,0,0:0:0:0:
160,156,118555,5,0,0:0:0:0:
352,344,118701,1,0,0:0:0:0:
364,104,118847,5,0,0:0:0:0:
232,284,118994,1,0,0:0:0:0:
148,64,119140,1,0,0:0:0:0:
368,136,119286,1,0,0:0:0:0:
240,316,119433,1,0,0:0:0:0:
240,316,119506,1,0,0:0:0:0:
240,316,119579,6,0,B|184:320|184:320|120:296,1,110.499994941712
228,80,119872,1,0,0:0:0:0:
180,352,120018,2,0,L|200:236,1,110.499994941712
348,28,120311,2,0,L|368:144,1,110.499994941712
116,260,120604,2,0,B|119:224|119:224|135:180|197:150,1,110.499994941712
348,48,120896,5,0,0:0:0:0:
212,260,121043,1,0,0:0:0:0:
408,360,121189,2,0,P|436:284|420:248,1,110.499994941712
240,144,121482,5,0,0:0:0:0:
184,260,121628,1,0,0:0:0:0:
388,200,121774,1,0,0:0:0:0:
180,80,121921,5,0,0:0:0:0:
272,308,122068,1,0,0:0:0:0:
104,48,122214,5,0,0:0:0:0:
144,336,122360,1,0,0:0:0:0:
180,80,122506,5,0,0:0:0:0:
272,308,122652,1,0,0:0:0:0:
104,48,122799,5,0,0:0:0:0:
144,336,122945,1,0,0:0:0:0:
144,336,123018,1,0,0:0:0:0:
144,336,123091,5,0,0:0:0:0:
314,63,123238,1,0,0:0:0:0:
314,63,123677,5,0,0:0:0:0:
372,340,123823,1,0,0:0:0:0:
372,360,124262,5,0,0:0:0:0:
360,156,124408,1,0,0:0:0:0:
276,344,124555,2,0,B|256:292|256:292|272:236,1,110.499994941712
348,56,124847,1,0,0:0:0:0:
376,252,124994,1,0,0:0:0:0:
192,178,125140,1,0,0:0:0:0:
482,242,125286,6,0,P|486:187|468:136,1,110.499994941712
269,105,125579,2,0,P|265:160|284:212,1,110.499994941712
496,332,125872,1,0,0:0:0:0:
360,156,126018,1,0,0:0:0:0:
288,332,126164,5,0,0:0:0:0:
512,208,126311,1,0,0:0:0:0:
289,74,126457,1,0,0:0:0:0:
289,74,126530,1,0,0:0:0:0:
289,74,126604,6,0,B|236:60|236:60|177:74,1,110.499994941712
237,198,126896,1,0,0:0:0:0:
384,65,127043,1,0,0:0:0:0:
148,88,127189,1,0,0:0:0:0:
344,260,127335,1,0,0:0:0:0:
276,0,127482,1,0,0:0:0:0:
141,206,127628,6,0,P|149:278|197:334,1,110.499994941712
412,169,127921,2,0,P|404:97|356:41,1,110.499994941712
240,164,128213,1,0,0:0:0:0:
476,236,128360,1,0,0:0:0:0:
240,148,128506,1,0,0:0:0:0:
336,384,128652,1,0,0:0:0:0:
472,60,128799,1,0,0:0:0:0:
472,60,128872,1,0,0:0:0:0:
472,60,128945,5,0,0:0:0:0:
268,268,129091,1,0,0:0:0:0:
456,236,129238,2,0,B|424:192|424:192|360:164,1,110.499994941712
160,92,129530,6,0,L|184:204,1,110.499994941712
212,336,129823,1,0,0:0:0:0:
80,256,129969,6,0,L|56:144,1,110.499994941712
328,112,130262,2,0,L|352:224,1,110.499994941712
160,72,130555,1,0,0:0:0:0:
432,124,130701,1,0,0:0:0:0:
208,232,130847,1,0,0:0:0:0:
276,0,130994,1,0,0:0:0:0:
344,284,131140,1,0,0:0:0:0:
344,284,131213,1,0,0:0:0:0:
344,284,131286,6,0,B|296:304|296:304|232:296,1,110.499994941712
168,100,131579,2,0,B|216:80|216:80|280:88,1,110.499994941712
388,320,131872,6,0,B|340:340|340:340|276:332,1,110.499994941712
124,64,132164,2,0,B|172:44|172:44|236:52,1,110.499994941712
432,356,132457,5,0,0:0:0:0:
80,28,132604,1,0,0:0:0:0:
80,28,133043,5,0,0:0:0:0:
200,316,133189,1,0,0:0:0:0:
198,334,133628,6,0,B|218:294|218:294|254:270,2,85
278,342,134067,1,0,0:0:0:0:
232,197,134213,1,0,0:0:0:0:
251,271,134360,1,0,0:0:0:0:
278,342,134506,1,0,0:0:0:0:
360,332,134652,6,0,P|408:316|456:328,1,85
278,342,134945,2,0,P|230:326|182:338,1,85
232,197,135238,5,0,0:0:0:0:
360,332,135385,1,0,0:0:0:0:
342,242,135531,1,0,0:0:0:0:
278,342,135677,2,0,P|326:326|374:338,1,85
169,242,135969,6,0,P|127:237|88:253,2,85
136,308,136408,1,0,0:0:0:0:
40,196,136555,1,0,0:0:0:0:
88,252,136702,1,0,0:0:0:0:
136,308,136848,1,0,0:0:0:0:
169,242,136994,6,0,B|189:202|189:202|223:180,1,85
112,180,137286,2,0,B|92:140|92:140|58:118,1,85
208,108,137579,5,0,0:0:0:0:
169,242,137725,1,0,0:0:0:0:
112,180,137872,1,0,0:0:0:0:
223,180,138018,2,0,B|189:202|189:202|169:242,1,85
342,116,138311,6,0,B|362:76|362:76|396:54,2,85
424,140,138750,1,0,0:0:0:0:
244,91,138896,1,0,0:0:0:0:
261,159,139043,1,0,0:0:0:0:
278,228,139189,1,0,0:0:0:0:
424,140,139335,6,0,P|472:124|520:136,1,85
343,149,139628,2,0,P|295:165|247:153,1,85
88,148,139921,1,0,0:0:0:0:
204,200,140067,1,0,0:0:0:0:
172,112,140213,1,0,0:0:0:0:
104,284,140360,1,0,0:0:0:0:
67,70,140506,5,0,0:0:0:0:
67,70,140579,1,0,0:0:0:0:
67,70,140652,5,0,0:0:0:0:
104,284,140945,1,0,0:0:0:0:
445,70,141238,1,0,0:0:0:0:
408,284,141531,1,0,0:0:0:0:
116,80,141823,5,0,0:0:0:0:
260,352,141969,1,0,0:0:0:0:
396,80,142408,5,0,0:0:0:0:
260,352,142555,1,0,0:0:0:0:
256,192,142994,5,0,0:0:0:0:
256,192,143140,12,0,146799,0:0:0:0:
160,248,147091,5,0,0:0:0:0:
256,80,147384,1,0,0:0:0:0:
352,248,147677,1,0,0:0:0:0:
255,277,152360,6,0,B|195:313|183:249|127:289,1,127.500004863739
80,336,152799,1,0,0:0:0:0:
80,336,152945,2,0,P|60:292|64:252,2,63.7500024318696
192,284,153384,2,0,L|272:276,1,63.7500024318696
204,157,153677,6,0,L|189:306,1,127.500004863739
300,128,154116,2,0,L|306:191,1,63.7500024318696
216,16,154408,1,0,0:0:0:0:
204,157,154555,6,0,L|211:94,1,63.7500024318696
188,232,154847,2,0,P|148:212|132:176,1,63.7500024318696
212,304,155140,2,0,P|167:306|135:283,1,63.7500024318696
300,292,155433,6,0,P|272:256|288:176,1,127.500004863739
456,264,155872,6,0,P|424:264|392:280,1,63.7500024318696
348,182,156164,2,0,P|320:198|300:227,1,63.7500024318696
213,164,156457,1,0,0:0:0:0:
216,240,156604,1,0,0:0:0:0:
86,214,156750,2,0,P|85:246|102:278,1,63.7500024318696
112,120,157043,6,0,P|68:112|0:172,1,127.500004863739
99,274,157482,1,0,0:0:0:0:
99,274,157628,6,0,P|85:245|86:214,1,63.7500024318696
160,64,157921,2,0,B|160:160|160:160|192:224|192:224|192:320,1,255.000009727478
413,274,158652,1,0,0:0:0:0:
412,274,158798,6,0,P|426:245|425:213,1,63.7500024318696
368,40,159091,2,0,L|368:128,1,63.7500024318696
204,236,159384,5,0,0:0:0:0:
412,274,159530,1,0,0:0:0:0:
448,172,159677,5,0,0:0:0:0:
192,328,159823,1,0,0:0:0:0:
268,112,159969,5,0,0:0:0:0:
320,364,160116,1,0,0:0:0:0:
368,40,160262,5,0,0:0:0:0:
512,302,160408,1,0,0:0:0:0:
272,132,161725,6,0,P|176:128|100:172,1,170
344,164,162164,1,0,0:0:0:0:
343,164,162311,2,0,P|348:122|336:81,1,85
112,159,162604,2,0,P|106:201|119:241,1,85
119,242,163043,5,0,0:0:0:0:
248,132,163189,1,0,0:0:0:0:
212,304,163335,1,0,0:0:0:0:
268,228,163482,5,0,0:0:0:0:
188,192,163628,1,0,0:0:0:0:
212,320,163774,1,0,0:0:0:0:
248,116,163921,1,0,0:0:0:0:
268,245,164067,6,0,P|348:269|444:241,1,170
204,194,164506,1,0,0:0:0:0:
204,194,164652,2,0,P|190:242|207:300,1,85
431,250,164945,2,0,P|446:202|429:145,1,85
441,169,165384,5,0,0:0:0:0:
336,220,165530,1,0,0:0:0:0:
476,340,165677,1,0,0:0:0:0:
432,172,165823,5,0,0:0:0:0:
372,360,165969,1,0,0:0:0:0:
328,220,166116,1,0,0:0:0:0:
464,340,166262,1,0,0:0:0:0:
336,81,166408,6,0,P|256:57|160:85,1,170
400,132,166847,1,0,0:0:0:0:
400,132,166994,2,0,P|414:84|397:26,1,85
173,76,167286,2,0,P|158:124|175:181,1,85
163,157,167725,5,0,0:0:0:0:
317,233,167872,1,0,0:0:0:0:
285,65,168018,1,0,0:0:0:0:
380,144,168164,5,0,0:0:0:0:
152,160,168311,1,0,0:0:0:0:
300,236,168457,1,0,0:0:0:0:
272,64,168604,1,0,0:0:0:0:
116,288,168750,5,0,0:0:0:0:
396,220,168896,1,0,0:0:0:0:
56,240,169043,5,0,0:0:0:0:
424,316,169189,1,0,0:0:0:0:
192,296,169335,5,0,0:0:0:0:
288,64,169482,1,0,0:0:0:0:
72,240,169628,1,0,0:0:0:0:
472,120,169774,1,0,0:0:0:0:
