osu file format v14

[General]
AudioFilename: audio.mp3
AudioLeadIn: 0
PreviewTime: 42080
Countdown: 0
SampleSet: None
StackLeniency: 0.4
Mode: 0
LetterboxInBreaks: 0
WidescreenStoryboard: 0

[Editor]
Bookmarks: 26841,32905
DistanceSpacing: 1
BeatDivisor: 4
GridSize: 16
TimelineZoom: 1.9

[Metadata]
Title:Happy Judgement Day
TitleUnicode:Happy Judgement Day
Artist:Neck Deep
ArtistUnicode:Neck Deep
Creator:fstapled
Version:The Day The World Went Up In Flames
Source:
Tags:
BeatmapID:1885926
BeatmapSetID:903421

[Difficulty]
HPDrainRate:5
CircleSize:4.3
OverallDifficulty:9
ApproachRate:9.4
SliderMultiplier:2
SliderTickRate:1

[Events]
//Background and Video events
0,0,"owo.jpg",0,0
//Break Periods
2,40764,41939
2,119913,128269
//Storyboard Layer 0 (Background)
//Storyboard Layer 1 (Fail)
//Storyboard Layer 2 (Pass)
//Storyboard Layer 3 (Foreground)
//Storyboard Sound Samples

[TimingPoints]
2267,319.148936170213,4,3,0,70,1,0
8490,-100,4,3,0,70,0,0
8649,-100,4,3,0,70,0,0
10644,-100,4,3,0,70,0,0
11043,-100,4,3,0,70,0,0
22692,-133.333333333333,4,3,0,70,0,0
23171,-133.333333333333,4,3,0,70,0,0
23251,-133.333333333333,4,3,0,70,0,0
23809,-133.333333333333,4,3,0,70,0,0
23969,-133.333333333333,4,3,0,70,0,0
25165,-133.333333333333,4,3,0,70,0,0
25245,-133.333333333333,4,3,0,70,0,0
25724,-133.333333333333,4,3,0,70,0,0
25804,-133.333333333333,4,3,0,70,0,0
26442,-133.333333333333,4,3,0,70,0,0
26522,-133.333333333333,4,3,0,70,0,0
28277,-133.333333333333,4,3,0,70,0,0
28357,-133.333333333333,4,3,0,70,0,0
28995,-133.333333333333,4,3,0,70,0,0
29075,-133.333333333333,4,3,0,70,0,0
29554,-133.333333333333,4,3,0,70,0,0
29713,-133.333333333333,4,3,0,70,0,0
30272,-133.333333333333,4,3,0,70,0,0
30352,-133.333333333333,4,3,0,70,0,0
32665,-133.333333333333,4,3,0,70,0,0
32745,-100,4,3,0,70,0,0
39926,-133.333333333333,4,3,0,70,0,0
42639,-66.6666666666667,4,3,0,70,0,0
43118,-76.9230769230769,4,3,0,70,0,1
54128,-76.9230769230769,4,3,0,70,0,1
54208,-76.9230769230769,4,3,0,70,0,1
57958,-133.333333333333,4,3,0,70,0,1
58118,-133.333333333333,4,3,0,70,0,1
58437,-83.3333333333333,4,3,0,70,0,1
63543,-100,4,3,0,70,0,0
73517,-100,4,3,0,70,0,0
73596,-100,4,3,0,70,0,0
78623,-100,4,3,0,70,0,0
78703,-100,4,3,0,70,0,0
83490,-133.333333333333,4,3,0,70,0,0
83729,-100,4,3,0,70,0,0
83809,-100,4,3,0,70,0,0
91628,-400,4,3,0,70,0,0
92745,-100,4,3,0,70,0,0
93703,-66.6666666666667,4,3,0,70,0,0
94181,-76.9230769230769,4,3,0,70,0,1
109022,-250,4,3,0,70,0,1
109501,-76.9230769230769,4,3,0,70,0,1
113330,-200,4,3,0,70,0,0
128649,-100,4,3,0,70,0,0
141336,-100,4,3,0,70,0,0
141415,-100,4,3,0,70,0,0
151389,-100,4,3,0,70,0,0
151469,-100,4,3,0,70,0,0
164394,-66.6666666666667,4,3,0,70,0,1
175405,-66.6666666666667,4,3,0,70,0,1
175485,-66.6666666666667,4,3,0,70,0,1
175644,-66.6666666666667,4,3,0,70,0,1
175724,-66.6666666666667,4,3,0,70,0,1
179075,-100,4,3,0,70,0,1
179314,-100,4,3,0,70,0,1
179706,-100,4,3,0,70,0,1
184820,-133.333333333333,4,3,0,70,0,1
186495,-133.333333333333,4,3,0,70,0,1
186575,-133.333333333333,4,3,0,70,0,1
189926,-100,4,3,0,70,0,0
194953,-100,4,3,0,70,0,0
195032,-100,4,3,0,70,0,0
197267,-500,4,3,0,70,0,0
197346,-500,4,3,0,5,0,0

[HitObjects]
159,276,8171,5,8,0:1:0:0:
237,226,8330,2,0,P|249:273|225:340,1,100,4|0,0:0|0:0,0:0:0:0:
37,66,8649,6,0,P|63:11|110:91,1,200,8|8,0:0|0:0,0:0:0:0:
197,128,9128,2,0,P|151:71|135:166,1,200,8|8,0:0|0:0,0:0:0:0:
254,198,9607,2,0,B|286:164|280:115|261:68|261:68|275:98|296:119|326:125,1,200,8|0,0:0|0:0,0:0:0:0:
340,39,10086,1,8,0:0:0:0:
340,39,10245,1,8,0:0:0:0:
327,240,10405,1,8,0:0:0:0:
484,157,10564,2,0,B|429:133|314:162|314:162|359:155|404:121,1,250,8|0,0:0|0:0,0:0:0:0:
482,53,11043,5,4,0:0:0:0:
482,53,11123,1,4,0:0:0:0:
482,53,11203,1,4,0:0:0:0:
388,222,11362,1,4,0:0:0:0:
317,88,11522,1,4,0:0:0:0:
506,133,11681,1,4,0:0:0:0:
253,223,11841,1,8,0:0:0:0:
371,124,12001,2,0,P|376:52|265:41,1,200,4|0,0:0|0:0,0:0:0:0:
141,224,12479,6,0,B|132:366|132:366|126:308,1,200,4|0,0:0|0:0,0:0:0:0:
216,151,12958,1,8,0:0:0:0:
66,146,13118,2,0,L|69:256,1,100,8|0,0:0|0:0,0:0:0:0:
296,312,13437,5,4,0:0:0:0:
296,312,13596,1,0,0:0:0:0:
296,312,13756,2,0,P|355:284|441:368,1,200,4|4,0:0|0:0,0:0:0:0:
250,380,14235,2,0,P|183:382|118:275,1,200,8|0,0:0|0:0,0:0:0:0:
407,130,14713,6,0,B|432:170|406:211|406:211|424:254|389:291|389:291|392:268|379:241,1,200,4|0,0:0|0:0,0:0:0:0:
391,32,15192,1,4,0:0:0:0:
325,156,15352,1,4,0:0:0:0:
213,14,15511,1,8,0:0:0:0:
213,14,15671,2,0,B|198:49|200:81|233:112|233:112|213:138|213:138|242:156|245:203,1,200,8|0,0:0|0:0,0:0:0:0:
236,282,16149,1,4,0:0:0:0:
236,282,16229,1,4,0:0:0:0:
236,282,16309,1,4,0:0:0:0:
439,220,16469,5,8,0:0:0:0:
154,180,16628,1,4,0:0:0:0:
176,349,16788,1,4,0:0:0:0:
238,102,16947,1,8,0:0:0:0:
83,223,17107,2,0,B|75:195|75:195|79:183|79:183|77:144|77:144|70:137|70:137|67:69|67:69|81:85|81:85|83:95|83:95|97:117,1,200,4|4,0:0|0:0,0:0:0:0:
453,336,17586,6,0,B|403:293|357:312|357:312|316:356|271:320,1,200,4|0,0:0|0:0,0:0:0:0:
227,235,18064,1,4,0:0:0:0:
345,146,18224,2,0,L|355:42,2,100,8|0|4,0:0|0:0|0:0,0:0:0:0:
411,269,18703,1,0,0:0:0:0:
181,181,18862,2,0,P|160:256|257:295,1,200,4|0,0:0|0:0,0:0:0:0:
265,157,19341,2,0,B|245:115|189:98|137:106|137:106|162:81|199:78,1,200,4|0,0:0|0:0,0:0:0:0:
452,103,19820,6,0,B|435:238|435:238|425:165,1,200,4|0,0:0|0:0,0:0:0:0:
388,87,20298,1,4,0:0:0:0:
388,87,20458,1,4,0:0:0:0:
501,259,20618,1,8,0:0:0:0:
309,37,20777,2,0,B|291:90|293:139|333:184|333:184|323:160|325:136|342:118,1,200,8|0,0:0|0:0,0:0:0:0:
227,262,21256,1,4,0:0:0:0:
227,262,21336,1,4,0:0:0:0:
227,262,21415,1,4,0:0:0:0:
414,217,21575,5,4,0:0:0:0:
188,63,21735,1,8,0:0:0:0:
123,336,21894,1,4,0:0:0:0:
341,175,22054,1,8,0:0:0:0:
215,209,22213,2,0,P|191:280|294:289,1,200,4|4,0:0|0:0,0:0:0:0:
341,175,22692,5,4,0:0:0:0:
396,257,22852,1,4,0:0:0:0:
384,122,23011,2,0,P|336:106|291:130,1,75.0000028610231,8|0,0:3|0:0,0:0:0:0:
384,122,23649,6,0,P|336:106|287:150,1,112.500004291535,0|0,0:0|0:0,0:0:0:0:
119,40,23969,5,4,0:0:0:0:
119,40,24128,1,4,0:0:0:0:
77,136,24288,2,0,L|84:228,1,75.0000028610231,8|0,0:3|0:0,0:0:0:0:
77,136,24926,6,0,P|88:250|88:250,1,112.500004291535,0|0,0:0|0:0,0:0:0:0:
209,295,25245,1,4,0:0:0:0:
209,295,25405,1,4,0:0:0:0:
297,241,25564,2,0,L|305:329,1,75.0000028610231,8|0,0:0|0:0,0:0:0:0:
297,241,26203,6,0,B|311:366,1,112.500004291535,0|0,0:0|0:0,0:0:0:0:
386,312,26522,5,4,0:0:0:0:
386,312,26681,1,4,0:0:0:0:
465,126,26841,2,0,P|430:111|378:112,1,75.0000028610231,8|4,0:0|0:0,0:0:0:0:
330,193,27160,2,0,P|385:196|414:174,1,75.0000028610231,4|4,0:0|0:0,0:0:0:0:
260,156,27479,2,0,B|252:185|252:185|257:247,1,75.0000028610231,8|4,0:0|0:0,0:0:0:0:
365,65,27798,1,4,0:0:0:0:
365,65,27958,1,4,0:0:0:0:
252,63,28118,2,0,L|168:54,1,75.0000028610231,8|0,0:0|0:0,0:0:0:0:
252,63,28756,6,0,L|136:49,1,112.500004291535,0|0,0:0|0:0,0:0:0:0:
186,136,29075,1,4,0:0:0:0:
186,136,29235,1,4,0:0:0:0:
112,198,29394,2,0,P|106:242|117:289,1,75.0000028610231,8|0,0:0|0:0,0:0:0:0:
292,222,30032,6,0,B|203:231|203:231|241:244,1,112.500004291535,0|0,0:0|0:0,0:0:0:0:
413,222,30352,1,4,0:0:0:0:
413,222,30511,1,4,0:0:0:0:
484,35,30671,2,0,L|397:28,1,75.0000028610231,8|0,0:0|0:0,0:0:0:0:
217,131,31149,5,0,0:0:0:0:
109,282,31309,2,0,L|118:366,1,75.0000028610231,0|4,0:0|0:0,0:0:0:0:
116,356,31548,1,4,0:0:0:0:
116,356,31628,1,4,0:0:0:0:
159,158,31788,1,4,0:0:0:0:
50,226,31947,1,8,0:0:0:0:
225,289,32107,1,8,0:0:0:0:
199,62,32267,1,8,0:0:0:0:
156,294,32426,6,0,P|180:230|228:218,1,112.500004291535,4|0,0:0|0:0,0:0:0:0:
308,200,32745,2,0,B|321:150|321:150|316:85,1,100,4|4,0:0|0:0,0:0:0:0:
256,0,33064,2,0,B|241:79|241:79|260:49,1,100,4|8,0:0|0:0,0:0:0:0:
356,263,33384,2,0,P|304:281|259:258,1,100,4|4,0:0|0:0,0:0:0:0:
385,138,33703,1,0,0:0:0:0:
439,286,33862,2,0,B|431:369|431:369|423:350,1,100,4|0,0:0|0:0,0:0:0:0:
449,74,34181,6,0,L|343:64,2,100,4|0|4,0:0|0:0|0:0,0:0:0:0:
197,159,34660,1,0,0:0:0:0:
263,93,34820,2,0,P|284:134|274:209,1,100,4|0,0:0|0:0,0:0:0:0:
179,39,35139,1,4,0:0:0:0:
144,230,35298,2,0,P|94:241|31:220,1,100,0|4,0:0|0:0,0:0:0:0:
204,176,35618,2,0,P|226:242|213:275,1,100,0|4,0:0|0:0,0:0:0:0:
120,124,35937,2,0,P|115:66|146:22,1,100,0|4,0:0|0:0,0:0:0:0:
375,87,36256,6,0,B|316:89|316:89|264:80,1,100,0|4,0:0|0:0,0:0:0:0:
465,37,36575,2,0,L|451:144,1,100,0|4,0:0|0:0,0:0:0:0:
358,286,36894,2,0,L|372:179,1,100,0|4,0:0|0:0,0:0:0:0:
360,366,37213,2,0,B|405:346|405:346|466:356,1,100,0|4,0:0|0:0,0:0:0:0:
155,199,37532,1,0,0:0:0:0:
254,149,37692,2,0,P|267:225|253:250,1,100,4|0,0:0|0:0,0:0:0:0:
177,289,38011,1,4,0:0:0:0:
342,113,38171,1,0,0:0:0:0:
155,20,38330,6,0,L|168:134,1,100,4|0,0:0|0:0,0:0:0:0:
306,189,38649,1,4,0:0:0:0:
206,266,38809,2,0,P|150:261|123:217,2,100,0|4|0,0:0|0:0|0:0,0:0:0:0:
241,166,39288,1,4,0:0:0:0:
269,126,39367,1,4,0:0:0:0:
317,116,39447,1,4,0:0:0:0:
359,141,39527,1,4,0:0:0:0:
374,187,39607,1,4,0:0:0:0:
328,40,39767,5,4,0:0:0:0:
174,180,39926,1,4,0:0:0:0:
188,214,40005,1,4,0:0:0:0:
218,236,40085,1,4,0:0:0:0:
254,239,40165,5,4,0:0:0:0:
288,223,40245,1,4,0:0:0:0:
321,206,40325,1,4,0:0:0:0:
358,210,40405,1,4,0:0:0:0:
388,232,40485,1,4,0:0:0:0:
402,266,40564,1,8,0:0:0:0:
93,15,42479,5,8,0:0:0:0:
159,77,42639,2,0,B|160:120|136:162|136:162|158:235|158:235|131:262|136:342|219:347,1,300.000011444092,8|0,0:0|0:0,0:0:0:0:
332,176,43118,2,0,P|259:151|213:192,1,129.999994049073,8|4,0:0|0:0,0:0:0:0:
393,284,43437,1,8,0:0:0:0:
346,68,43596,1,0,0:0:0:0:
279,245,43756,1,4,0:0:0:0:
492,282,43915,1,4,0:0:0:0:
157,340,44075,1,8,0:0:0:0:
116,182,44235,6,0,B|123:138|123:138|118:101|118:101|127:50,1,129.999994049073,4|0,0:0|0:0,0:0:0:0:
286,128,44554,1,4,0:0:0:0:
185,217,44713,2,0,B|281:206|281:206|239:190,1,129.999994049073,8|0,0:0|0:0,0:0:0:0:
53,114,45032,1,0,0:0:0:0:
348,268,45192,2,0,P|377:188|354:140,1,129.999994049073,4|8,0:0|0:0,0:0:0:0:
45,321,45511,6,0,P|109:326|169:286,1,129.999994049073,4|4,0:0|0:0,0:0:0:0:
141,213,45830,2,0,P|85:193|29:233,1,129.999994049073,0|8,0:0|0:0,0:0:0:0:
239,335,46149,2,0,B|258:266|258:266|252:195,1,129.999994049073,0|0,0:0|0:0,0:0:0:0:
428,348,46469,2,0,B|336:343|336:343|385:315,1,129.999994049073,4|8,0:0|0:0,0:0:0:0:
432,253,46788,2,0,B|524:248|524:248|475:220,1,129.999994049073,4|4,0:0|0:0,0:0:0:0:
250,195,47107,1,4,0:0:0:0:
429,84,47267,1,8,0:0:0:0:
148,157,47426,5,0,0:0:0:0:
367,62,47586,2,0,B|381:125|381:125|366:190,1,129.999994049073,4|4,0:0|0:0,0:0:0:0:
477,313,47905,2,0,B|455:238|455:238|468:184,1,129.999994049073,8|4,0:0|0:0,0:0:0:0:
270,240,48224,1,4,0:0:0:0:
373,361,48384,2,0,B|331:337|331:337|224:337,2,129.999994049073,0|8|0,0:0|0:0|0:0,0:0:0:0:
185,380,48862,2,0,P|158:316|190:255,1,129.999994049073,0|4,0:0|0:0,0:0:0:0:
307,260,49181,5,8,0:0:0:0:
129,143,49341,1,4,0:0:0:0:
380,227,49501,2,0,P|386:314|344:323,1,129.999994049073,4|0,0:0|0:0,0:0:0:0:
252,128,49820,1,8,0:0:0:0:
393,62,49979,2,0,L|248:53,2,129.999994049073,0|0|4,0:0|0:0|0:0,0:0:0:0:
501,31,50458,1,8,0:0:0:0:
372,181,50618,1,4,0:0:0:0:
512,126,50777,5,4,0:0:0:0:
350,95,50937,1,4,0:0:0:0:
432,297,51096,1,8,0:0:0:0:
474,26,51256,1,8,0:0:0:0:
283,188,51415,1,4,0:0:0:0:
472,136,51575,1,4,0:0:0:0:
338,272,51735,1,4,0:0:0:0:
299,106,51894,1,4,0:0:0:0:
118,247,52054,5,4,0:0:0:0:
312,204,52213,1,4,0:0:0:0:
154,80,52373,1,8,0:0:0:0:
192,384,52532,1,8,0:0:0:0:
89,176,52692,1,4,0:0:0:0:
219,21,52852,2,0,P|230:105|207:143,1,129.999994049073,4|4,0:0|0:0,0:0:0:0:
290,270,53171,1,4,0:0:0:0:
290,270,53251,1,4,0:0:0:0:
290,270,53330,2,0,B|194:268|194:268|230:254,1,129.999994049073,4|0,0:0|0:0,0:0:0:0:
363,222,53649,6,0,P|374:300|339:351,1,129.999994049073,8|0,0:0|0:0,0:0:0:0:
277,153,53969,2,0,P|294:101|360:128,1,129.999994049073,0|4,0:0|0:0,0:0:0:0:
441,132,54208,2,0,P|428:68|373:98,1,129.999994049073,0|0,0:0|0:0,0:0:0:0:
392,217,54447,2,0,P|475:230|509:188,2,129.999994049073,4|4|0,0:0|0:0|0:0,0:0:0:0:
263,230,54926,2,0,B|234:271|232:312|232:312|241:291|254:277,1,129.999994049073,8|0,0:0|0:0,0:0:0:0:
263,370,55245,2,0,P|205:389|166:342,1,129.999994049073,0|4,0:0|0:0,0:0:0:0:
371,304,55564,1,8,0:0:0:0:
310,164,55724,2,0,B|277:147|244:146|208:163|208:163|230:141,1,129.999994049073,4|4,0:0|0:0,0:0:0:0:
438,228,56043,6,0,P|463:308|442:366,2,129.999994049073,0|8|0,0:0|0:0|0:0,0:0:0:0:
310,164,56522,2,0,B|286:136|269:98|282:66|282:66|289:84|312:102,1,129.999994049073,4|0,0:0|0:0,0:0:0:0:
488,180,56841,1,8,0:0:0:0:
195,218,57001,1,4,0:0:0:0:
195,218,57080,1,4,0:0:0:0:
195,218,57160,5,8,0:0:0:0:
297,381,57320,1,0,0:0:0:0:
361,104,57479,5,8,0:0:0:0:
166,355,57639,1,0,0:0:0:0:
43,136,57798,1,8,0:0:0:0:
199,197,57958,2,0,B|161:198|135:214|135:214|110:201|110:201|86:230|50:233|15:216,1,187.500007152558,4|0,0:0|0:0,0:0:0:0:
148,129,58437,1,4,0:0:0:0:
275,225,58596,2,0,P|264:290|218:333,1,119.999996337891,4|8,0:0|0:0,0:0:0:0:
263,80,58915,1,0,0:0:0:0:
376,157,59075,2,0,B|458:159|458:159|401:144,1,119.999996337891,0|4,0:0|0:0,0:0:0:0:
258,93,59394,5,8,0:0:0:0:
301,293,59554,1,4,0:0:0:0:
420,249,59713,1,4,0:0:0:0:
238,260,59873,2,0,P|223:319|277:363,1,119.999996337891,0|8,0:0|0:0,0:0:0:0:
324,186,60192,2,0,B|322:149|339:110|339:110|351:72|339:25|339:25|302:55|302:55|313:94,1,239.999992675781,0|4,0:0|0:0,0:0:0:0:
414,155,60671,1,8,0:0:0:0:
236,133,60830,1,4,0:0:0:0:
405,311,60990,5,8,0:0:0:0:
307,77,61149,1,4,0:0:0:0:
186,212,61309,1,8,0:0:0:0:
459,97,61469,1,4,0:0:0:0:
192,229,61628,5,8,0:0:0:0:
303,3,61788,1,4,0:0:0:0:
311,180,61947,1,8,0:0:0:0:
114,178,62107,1,4,0:0:0:0:
417,111,62267,1,8,0:0:0:0:
60,97,63543,6,0,P|51:203|137:200,1,200,8|0,0:1|0:0,0:0:0:0:
220,133,64022,1,8,0:1:0:0:
232,147,64181,2,0,L|226:254,1,100,8|0,0:1|0:0,0:0:0:0:
302,324,64501,2,0,P|345:300|410:308,1,100,4|0,0:0|0:0,0:0:0:0:
439,236,64820,2,0,B|429:180|429:180|487:148|475:80|422:70,1,200,4|0,0:0|0:0,0:0:0:0:
202,210,65298,2,0,B|349:193|349:193|274:178,1,200,8|0,0:1|0:0,0:0:0:0:
55,122,65777,2,0,B|73:172|73:172|59:235|59:235|69:268|106:289|151:256,1,200,4|0,0:0|0:0,0:0:0:0:
217,209,66256,5,4,0:0:0:0:
175,357,66415,1,4,0:0:0:0:
320,304,66575,1,4,0:0:0:0:
96,193,66735,2,0,P|54:304|109:335,1,200,8|0,0:1|0:0,0:0:0:0:
221,328,67213,1,4,0:0:0:0:
221,328,67293,1,4,0:0:0:0:
221,328,67373,1,4,0:0:0:0:
173,126,67532,1,8,0:1:0:0:
303,184,67692,6,0,L|319:64,1,100,4|4,0:0|0:0,0:0:0:0:
394,271,68011,1,8,0:1:0:0:
221,328,68171,2,0,B|242:291|219:271|179:274|153:294|165:330|134:358|101:361|58:340,1,200,4|0,0:0|0:0,0:0:0:0:
168,201,68649,2,0,B|200:186|235:189|285:218|285:218|257:184|264:127,1,200,4|0,0:0|0:0,0:0:0:0:
94,158,69128,1,4,0:0:0:0:
27,209,69288,2,0,P|10:264|45:311,1,100,8|0,0:1|0:0,0:0:0:0:
116,241,69607,1,0,0:0:0:0:
116,241,69767,1,4,0:0:0:0:
187,356,69926,6,0,B|237:316|300:316|315:332|310:351|310:351|291:345|264:306,1,200,4|0,0:0|0:0,0:0:0:0:
459,378,70405,2,0,P|483:327|380:264,1,200,4|0,0:0|0:0,0:0:0:0:
277,105,70884,2,0,B|252:168|252:168|283:210|283:210|260:299,1,200,4|0,0:0|0:0,0:0:0:0:
181,106,71362,1,4,0:0:0:0:
348,168,71522,1,4,0:0:0:0:
111,251,71681,1,8,0:1:0:0:
403,90,71841,2,0,B|421:117|429:151|432:198|394:252|394:252|400:229|393:202,1,200,8|0,0:1|0:0,0:0:0:0:
350,29,72320,5,4,0:0:0:0:
350,29,72399,1,4,0:0:0:0:
350,29,72479,1,4,0:0:0:0:
486,197,72639,1,4,0:0:0:0:
281,236,72798,1,8,0:1:0:0:
465,115,72958,1,4,0:0:0:0:
214,95,73118,1,8,0:1:0:0:
355,208,73277,2,0,P|352:286|281:315,1,150,4|0,0:0|0:0,0:0:0:0:
207,266,73596,6,0,L|217:378,1,100,0|4,0:0|0:0,0:0:0:0:
114,174,73915,2,0,L|103:282,1,100,4|8,0:0|0:0,0:0:0:0:
252,121,74235,1,0,0:0:0:0:
150,44,74394,2,0,P|104:28|35:42,1,100,0|0,0:0|0:0,0:0:0:0:
293,207,74713,1,8,0:0:0:0:
388,164,74873,2,0,P|400:219|380:279,1,100,0|4,0:0|0:0,0:0:0:0:
392,56,75192,1,4,0:0:0:0:
392,56,75352,1,8,0:0:0:0:
258,139,75511,6,0,P|192:152|153:137,1,100,0|0,0:0|0:0,0:0:0:0:
311,84,75830,2,0,P|339:139|323:187,1,100,0|8,0:0|0:0,0:0:0:0:
179,366,76149,2,0,L|172:266,2,100,0|4|4,0:0|0:0|0:0,0:0:0:0:
289,322,76628,2,0,P|345:288|388:293,1,100,8|0,0:0|0:0,0:0:0:0:
466,137,76947,2,0,P|476:186|459:232,1,100,0|0,0:0|0:0,0:0:0:0:
334,60,77267,1,8,0:0:0:0:
257,121,77426,2,0,L|144:111,1,100,0|4,0:0|0:0,0:0:0:0:
394,114,77745,5,4,0:0:0:0:
208,288,77905,2,0,P|186:234|205:185,1,100,8|4,0:0|0:0,0:0:0:0:
387,284,78224,1,4,0:0:0:0:
473,197,78384,2,0,B|457:174|433:171|433:171|407:171|393:188|393:188|367:168|328:182,1,150,4|0,0:0|0:0,0:0:0:0:
257,146,78703,6,0,L|243:30,1,100,4|4,0:0|0:0,0:0:0:0:
400,118,79022,1,0,0:0:0:0:
350,219,79181,2,0,L|364:335,1,100,8|0,0:0|0:0,0:0:0:0:
186,147,79501,1,0,0:0:0:0:
144,266,79660,2,0,L|11:248,1,100,0|8,0:0|0:0,0:0:0:0:
294,206,79979,2,0,P|316:257|301:338,2,100,0|4|4,0:0|0:0|0:0,0:0:0:0:
249,125,80458,6,0,B|324:108|324:108|292:91,1,100,8|0,0:0|0:0,0:0:0:0:
436,239,80777,2,0,B|447:299|447:299|415:351,1,100,0|0,0:0|0:0,0:0:0:0:
397,71,81096,1,8,0:0:0:0:
311,207,81256,2,0,L|207:202,1,100,0|4,0:0|0:0,0:0:0:0:
284,299,81575,2,0,L|384:295,1,100,4|8,0:0|0:0,0:0:0:0:
342,153,82213,5,0,0:0:0:0:
86,198,82373,1,8,0:0:0:0:
307,246,82532,1,4,0:0:0:0:
321,260,82612,1,4,0:0:0:0:
328,321,82692,1,4,0:0:0:0:
165,129,82852,1,4,0:0:0:0:
327,165,83011,5,8,0:0:0:0:
165,14,83171,1,4,0:0:0:0:
169,264,83330,1,4,0:0:0:0:
222,100,83490,2,0,B|243:137|243:137|231:220,1,112.500004291535,4|0,0:0|0:0,0:0:0:0:
266,294,83809,2,0,L|370:288,1,100,4|4,0:0|0:0,0:0:0:0:
461,328,84128,1,4,0:0:0:0:
376,158,84288,2,0,L|365:47,1,100,8|0,0:0|0:0,0:0:0:0:
201,364,84607,6,0,B|128:358|128:358|164:344,1,100,4|0,0:0|0:0,0:0:0:0:
54,372,84926,2,0,P|43:320|78:281,1,100,8|0,0:0|0:0,0:0:0:0:
299,289,85245,2,0,P|309:346|299:394,2,100,4|4|8,0:0|0:0|0:0,0:0:0:0:
186,177,85724,1,0,0:0:0:0:
197,93,85884,2,0,B|198:59|214:47|214:47|234:37|260:67,1,100,4|4,0:0|0:0,0:0:0:0:
65,151,86203,2,0,P|13:116|4:67,1,100,8|4,0:0|0:0,0:0:0:0:
148,258,86522,2,0,P|161:306|123:317,1,100,4|0,0:0|0:0,0:0:0:0:
267,232,86841,6,0,P|277:303|268:337,1,100,8|0,0:0|0:0,0:0:0:0:
156,95,87160,1,4,0:0:0:0:
337,171,87320,2,0,B|370:174|386:144|386:144|359:143|347:154,1,100,4|8,0:0|0:0,0:0:0:0:
267,232,87639,2,0,P|206:245|169:221,1,100,0|4,0:0|0:0,0:0:0:0:
440,193,87958,2,0,P|430:288|407:333,1,100,4|8,0:0|0:0,0:0:0:0:
337,171,88277,2,0,L|330:55,1,100,4|4,0:0|0:0,0:0:0:0:
440,193,88596,1,0,0:0:0:0:
289,306,88756,2,0,B|205:309|205:309|230:290,1,100,8|4,0:0|0:0,0:0:0:0:
434,298,89075,5,4,0:0:0:0:
434,298,89235,1,4,0:0:0:0:
324,78,89394,2,0,L|337:184,1,100,8|0,0:0|0:0,0:0:0:0:
215,141,89713,1,4,0:0:0:0:
215,141,89873,1,4,0:0:0:0:
418,206,90032,1,8,0:0:0:0:
233,282,90192,5,4,0:0:0:0:
233,282,90272,1,4,0:0:0:0:
233,282,90352,1,4,0:0:0:0:
335,84,90511,1,0,0:0:0:0:
348,339,90671,1,8,0:0:0:0:
142,179,90830,1,8,0:0:0:0:
328,109,90990,5,4,0:0:0:0:
297,133,91070,1,0,0:0:0:0:
258,139,91149,1,4,0:0:0:0:
219,133,91229,1,0,0:0:0:0:
187,109,91309,5,4,0:0:0:0:
148,101,91389,1,4,0:0:0:0:
109,109,91469,1,4,0:0:0:0:
77,131,91548,1,0,0:0:0:0:
59,166,91628,2,0,B|51:188|68:213|68:213,3,50,8|0|0|0,0:0|0:0|0:0|0:0,0:0:0:0:
130,300,92745,5,4,0:0:0:0:
194,281,92825,1,4,0:0:0:0:
195,361,92905,1,4,0:0:0:0:
299,181,93064,1,4,0:0:0:0:
69,162,93224,1,0,0:0:0:0:
313,295,93384,1,4,0:0:0:0:
246,62,93543,1,8,0:0:0:0:
180,325,93703,2,0,B|263:306|263:306|347:335|347:335|402:300|480:311,1,300.000011444092,8|0,0:0|0:0,0:0:0:0:
80,207,94181,6,0,L|70:360,1,129.999994049073,4|0,0:0|0:0,0:0:0:0:
163,47,94501,2,0,B|135:55|101:37|101:37|71:22|33:39,1,129.999994049073,8|0,0:0|0:0,0:0:0:0:
202,182,94820,1,0,0:0:0:0:
290,18,94979,1,4,0:0:0:0:
281,286,95139,1,8,0:0:0:0:
138,142,95298,2,0,P|214:103|258:132,1,129.999994049073,4|4,0:0|0:0,0:0:0:0:
97,242,95618,1,0,0:0:0:0:
358,201,95777,2,0,B|341:244|366:289|366:289|359:298|356:319|356:319|349:300|349:300,1,129.999994049073,8|0,0:0|0:0,0:0:0:0:
271,67,96096,5,0,0:0:0:0:
426,71,96256,2,0,L|279:77,1,129.999994049073,4|8,0:0|0:0,0:0:0:0:
167,204,96575,2,0,P|163:274|207:255,1,129.999994049073,4|4,0:0|0:0,0:0:0:0:
37,198,96894,2,0,P|36:284|84:331,1,129.999994049073,0|8,0:0|0:0,0:0:0:0:
109,136,97213,2,0,P|123:58|81:17,1,129.999994049073,0|0,0:0|0:0,0:0:0:0:
255,84,97532,2,0,B|294:89|322:86|347:73|347:73|322:78|315:113,1,129.999994049073,4|8,0:0|0:0,0:0:0:0:
426,140,97852,2,0,P|446:66|412:24,2,129.999994049073,4|4|4,0:0|0:0|0:0,0:0:0:0:
324,162,98330,1,8,0:0:0:0:
461,255,98490,5,4,0:0:0:0:
219,181,98649,2,0,B|215:135|215:135|202:93|202:93|205:33,1,129.999994049073,4|0,0:0|0:0,0:0:0:0:
363,265,98969,2,0,B|288:264|288:264|227:284,1,129.999994049073,8|0,0:0|0:0,0:0:0:0:
174,331,99288,1,4,0:0:0:0:
301,175,99447,2,0,P|321:100|299:38,2,129.999994049073,4|8|0,0:0|0:0|0:0,0:0:0:0:
102,185,99926,5,0,0:0:0:0:
211,12,100086,1,4,0:0:0:0:
1,95,100245,1,8,0:0:0:0:
198,169,100405,1,4,0:0:0:0:
30,224,100564,2,0,L|50:359,1,129.999994049073,4|0,0:0|0:0,0:0:0:0:
271,67,100884,5,8,0:0:0:0:
431,189,101043,2,0,B|401:142|358:128|318:149|318:149|274:171|214:157|188:72,1,259.999988098145,0|4,0:0|0:0,0:0:0:0:
446,73,101522,5,8,0:0:0:0:
187,209,101681,1,4,0:0:0:0:
461,288,101841,1,8,0:0:0:0:
461,288,102001,1,8,0:0:0:0:
241,347,102160,5,8,0:0:0:0:
240,91,102320,1,8,0:0:0:0:
357,206,102479,1,8,0:0:0:0:
357,206,102639,1,8,0:0:0:0:
105,229,102798,1,8,0:0:0:0:
352,73,102958,1,4,0:0:0:0:
57,31,103118,5,4,0:0:0:0:
57,31,103277,1,4,0:0:0:0:
283,157,103437,1,8,0:0:0:0:
19,211,103596,1,8,0:0:0:0:
114,351,103756,5,8,0:0:0:0:
168,73,103915,1,4,0:0:0:0:
43,292,104075,1,8,0:0:0:0:
292,221,104235,1,4,0:0:0:0:
292,221,104314,1,4,0:0:0:0:
292,221,104394,6,0,P|317:141|296:93,1,129.999994049073,8|0,0:0|0:0,0:0:0:0:
194,185,104713,2,0,P|186:271|231:307,1,129.999994049073,8|0,0:0|0:0,0:0:0:0:
475,121,105032,2,0,P|397:106|357:138,1,129.999994049073,4|4,0:0|0:0,0:0:0:0:
360,133,105272,2,0,P|291:153|256:113,1,129.999994049073,0|0,0:0|0:0,0:0:0:0:
427,192,105511,2,0,P|438:291|421:323,1,129.999994049073,4|8,0:0|0:0,0:0:0:0:
203,218,105830,1,0,0:0:0:0:
360,133,105990,2,0,B|321:132|321:132|270:147|270:147|217:143,1,129.999994049073,8|0,0:0|0:0,0:0:0:0:
101,150,106309,6,0,B|84:202|93:248|93:248|102:231|117:220,1,129.999994049073,4|4,0:0|0:0,0:0:0:0:
222,75,106628,1,8,0:0:0:0:
308,207,106788,2,0,P|374:222|434:184,1,129.999994049073,4|8,0:0|0:0,0:0:0:0:
175,169,107107,2,0,B|172:242|172:242|183:315,2,129.999994049073,4|8|0,0:0|0:0|0:0,0:0:0:0:
387,291,107586,1,4,0:0:0:0:
246,82,107745,2,0,B|172:71|172:71|108:91,1,129.999994049073,4|8,0:0|0:0,0:0:0:0:
385,149,108064,5,4,0:0:0:0:
385,149,108144,1,4,0:0:0:0:
385,149,108224,5,8,0:0:0:0:
87,218,108384,1,4,0:0:0:0:
366,311,108543,5,8,0:0:0:0:
303,42,108703,1,4,0:0:0:0:
120,290,108862,1,8,0:0:0:0:
228,213,109022,2,0,L|318:194,1,80,8|4,0:0|0:0,0:0:0:0:
415,117,109501,1,4,0:0:0:0:
354,306,109660,1,8,0:0:0:0:
286,53,109820,1,8,0:0:0:0:
466,197,109979,2,0,B|490:242|481:308|436:365|436:365|449:329|453:284|424:237,1,259.999988098145,0|4,0:0|0:0,0:0:0:0:
170,344,110458,5,8,0:0:0:0:
365,312,110618,1,4,0:0:0:0:
237,136,110777,1,4,0:0:0:0:
458,221,110937,2,0,L|442:360,1,129.999994049073,0|8,0:0|0:0,0:0:0:0:
348,156,111256,2,0,P|335:88|383:45,2,129.999994049073,0|0|4,0:0|0:0|0:0,0:0:0:0:
404,222,111735,1,8,0:0:0:0:
203,258,111894,5,4,0:0:0:0:
368,328,112054,1,4,0:0:0:0:
296,91,112213,1,4,0:0:0:0:
249,343,112373,1,8,0:0:0:0:
414,140,112532,1,4,0:0:0:0:
103,217,112692,1,4,0:0:0:0:
465,260,112852,1,4,0:0:0:0:
180,97,113011,1,8,0:0:0:0:
126,318,113171,1,4,0:0:0:0:
406,172,113330,5,4,0:0:0:0:
106,43,114607,6,0,L|96:105,1,50,0|0,0:0|0:0,0:0:0:0:
166,114,114926,2,0,L|171:170,1,50,0|0,0:0|0:0,0:0:0:0:
244,163,115245,2,0,L|262:218,1,50,0|0,0:0|0:0,0:0:0:0:
329,188,115564,2,0,L|376:211,1,50,0|0,0:0|0:0,0:0:0:0:
467,107,115884,6,0,L|407:116,1,50,0|0,0:0|0:0,0:0:0:0:
505,218,116203,2,0,L|441:213,1,50,0|0,0:0|0:0,0:0:0:0:
510,335,116522,2,0,L|461:311,1,50,0|0,0:0|0:0,0:0:0:0:
395,356,116841,2,0,L|381:299,1,50,0|0,0:0|0:0,0:0:0:0:
272,149,117160,2,0,L|262:221,1,50,0|0,0:0|0:0,0:0:0:0:
189,343,117479,2,0,L|177:287,1,50,0|0,0:0|0:0,0:0:0:0:
91,119,117798,2,0,L|78:182,1,50,0|0,0:0|0:0,0:0:0:0:
343,191,118118,2,0,L|288:193,1,50,0|0,0:0|0:0,0:0:0:0:
362,297,118437,6,0,L|416:304,8,50,0|0|0|0|0|0|0|0|8,0:0|0:0|0:0|0:0|0:0|0:0|0:0|0:0|0:1,0:0:0:0:
91,86,128809,5,4,0:0:0:0:
91,86,128889,1,4,0:0:0:0:
91,86,128969,2,0,L|77:17,1,50
292,55,129128,2,0,L|286:110,1,50,4|4,0:0|0:0,0:0:0:0:
315,195,129288,1,4,0:0:0:0:
356,220,129367,1,4,0:0:0:0:
404,210,129447,1,4,0:0:0:0:
434,171,129527,1,4,0:0:0:0:
429,122,129607,1,8,0:0:0:0:
512,325,129767,5,8,0:0:0:0:
461,285,129846,1,8,0:0:0:0:
441,299,129926,2,0,B|414:306|382:282|382:282|336:300|296:286|296:286|268:307|230:291,1,200,8|4,0:0|0:0,0:0:0:0:
113,203,130564,2,0,B|111:150|93:137|93:137|114:117|124:98|124:98|154:106|188:89|188:89|219:111,1,200,8|4,0:0|0:0,0:0:0:0:
407,237,131203,2,0,B|373:208|329:202|263:215|263:215|286:196|313:189,1,200,4|0,0:0|0:0,0:0:0:0:
167,342,131841,2,0,P|280:345|319:271,1,200,8|4,0:0|0:0,0:0:0:0:
199,138,132479,2,0,B|217:165|199:206|199:206|179:253|195:281|233:282|252:257|237:235,1,200,4|4,0:0|0:0,0:0:0:0:
283,38,133118,6,0,P|239:2|174:20,1,100,8|0,0:0|0:0,0:0:0:0:
361,128,133437,2,0,P|384:88|385:9,1,100,4|0,0:0|0:0,0:0:0:0:
252,136,133756,2,0,P|248:187|263:241,1,100,4|0,0:0|0:0,0:0:0:0:
426,191,134075,2,0,P|377:188|313:199,1,100,4|4,0:0|0:0,0:0:0:0:
186,295,134394,2,0,B|153:299|118:266|123:202|172:184|172:184|166:154|166:154|184:101|184:101|175:64|175:64|168:11,1,300,8|4,0:0|0:0,0:0:0:0:
375,148,135032,2,0,B|365:186|385:211|385:211|365:251|365:251|401:276|400:310|381:344,1,200,4|4,0:0|0:0,0:0:0:0:
241,106,135671,2,0,B|276:109|299:131|299:131|305:91|338:57|385:51|423:91,1,200,8|0,0:0|0:0,0:0:0:0:
139,135,136309,2,0,B|129:93|152:53|152:53|118:37|118:37|96:1|96:1|75:17|42:15,1,200,4|4,0:0|0:0,0:0:0:0:
203,235,136947,6,0,B|256:247|305:229|348:195|348:195|326:217|319:249,1,200,8|4,0:0|0:0,0:0:0:0:
48,348,137586,5,8,0:0:0:0:
205,367,137745,1,8,0:0:0:0:
63,240,137905,1,8,0:0:0:0:
299,275,138064,1,8,0:0:0:0:
92,115,138224,1,8,0:0:0:0:
400,143,138384,1,8,0:0:0:0:
72,4,138543,1,8,0:0:0:0:
477,26,138703,1,8,0:0:0:0:
147,187,138862,5,8,0:0:0:0:
403,33,139022,1,8,0:0:0:0:
64,62,139181,1,8,0:0:0:0:
385,202,139341,1,8,0:0:0:0:
208,5,139501,1,8,0:0:0:0:
165,309,139660,1,8,0:0:0:0:
392,78,139820,1,8,0:0:0:0:
120,36,139979,1,8,0:0:0:0:
279,220,140139,1,8,0:0:0:0:
308,68,141096,6,0,B|313:99|304:107|304:107|301:117|301:117|309:140|309:140|297:155|297:155|300:170|300:170|280:187|287:238,1,150,8|0,0:0|0:0,0:0:0:0:
220,270,141415,2,0,B|164:252|104:290|104:290|60:313|4:295,1,200,8|0,0:0|0:0,0:0:0:0:
201,156,141894,1,4,0:0:0:0:
164,371,142054,1,8,0:0:0:0:
317,291,142213,1,4,0:0:0:0:
74,221,142373,1,8,0:0:0:0:
74,221,142532,1,8,0:0:0:0:
387,126,142692,6,0,B|396:164|378:188|378:188|402:210|402:233|402:233|392:248|392:248|404:277|393:319,1,200,8|0,0:0|0:0,0:0:0:0:
245,103,143171,2,0,B|279:88|279:88|313:100|313:100|335:53|384:33|429:59,1,200,4|4,0:0|0:0,0:0:0:0:
125,0,143649,2,0,B|161:16|170:75|170:75|146:128|146:128|165:146|174:183,1,200,4|0,0:0|0:0,0:0:0:0:
291,151,144128,1,4,0:0:0:0:
129,311,144288,1,4,0:0:0:0:
372,201,144447,1,8,0:0:0:0:
372,201,144607,2,0,B|402:143|372:102|372:102|414:78|423:6,1,200,8|4,0:0|0:0,0:0:0:0:
245,180,145086,5,4,0:0:0:0:
250,204,145165,1,0,0:0:0:0:
255,228,145245,1,4,0:0:0:0:
479,190,145405,1,8,0:0:0:0:
203,303,145564,5,4,0:0:0:0:
337,66,145724,1,4,0:0:0:0:
119,104,145884,1,8,0:0:0:0:
347,162,146043,2,0,B|377:139|449:147|438:110|438:110|410:125|402:162|408:214,1,200,8|0,0:0|0:0,0:0:0:0:
459,282,146522,2,0,B|413:286|413:286|408:294|408:294|307:293|307:293|360:266,1,200,4|0,0:0|0:0,0:0:0:0:
490,209,147001,1,4,0:0:0:0:
237,345,147160,2,0,P|217:303|229:230,1,100,8|0,0:0|0:0,0:0:0:0:
316,153,147479,5,4,0:0:0:0:
125,100,147639,1,0,0:0:0:0:
387,253,147798,2,0,B|368:210|398:164|398:164|410:161|410:161|401:155|401:155|413:102|371:66,1,200,4|0,0:0|0:0,0:0:0:0:
259,218,148277,2,0,B|219:168|183:175|183:175|168:164|168:164|172:180|172:180|159:214|177:289,1,200,4|0,0:0|0:0,0:0:0:0:
333,171,148756,2,0,B|308:99|308:99|325:45|325:45|312:7|312:7|300:47,1,200,4|0,0:0|0:0,0:0:0:0:
136,115,149235,1,4,0:0:0:0:
440,84,149394,1,4,0:0:0:0:
139,122,149554,1,4,0:0:0:0:
392,158,149713,5,4,0:0:0:0:
223,46,149873,1,8,0:0:0:0:
174,258,150032,1,0,0:0:0:0:
392,34,150192,1,8,0:0:0:0:
101,140,150352,5,4,0:0:0:0:
392,34,150511,1,4,0:0:0:0:
408,55,150591,1,0,0:0:0:0:
377,94,150671,1,8,0:0:0:0:
305,162,150830,1,8,0:0:0:0:
361,290,150990,1,4,0:0:0:0:
178,221,151149,2,0,B|152:253|152:253|146:230|159:205|159:205|163:191|163:191|155:156|172:115,1,150,8|0,0:0|0:0,0:0:0:0:
245,80,151469,5,4,0:0:0:0:
245,80,151548,1,4,0:0:0:0:
245,80,151628,2,0,B|305:64|305:64|357:67|357:67|308:84|308:84|270:124,1,200,8|4,0:0|0:0,0:0:0:0:
292,261,152107,2,0,B|234:241|192:257|192:257|166:231|126:226|126:226|138:215|176:216,1,200,4|0,0:0|0:0,0:0:0:0:
379,155,152586,1,4,0:0:0:0:
322,371,152745,1,0,0:0:0:0:
227,143,152905,6,0,P|266:53|347:96,1,200,8|4,0:0|0:0,0:0:0:0:
86,119,153384,2,0,B|149:132|161:181|161:181|207:175|223:157|229:120|222:85,1,200,4|0,0:0|0:0,0:0:0:0:
39,274,153862,2,0,P|56:210|178:182,1,200,4|0,0:0|0:0,0:0:0:0:
260,242,154341,1,4,0:0:0:0:
43,126,154501,1,4,0:0:0:0:
237,18,154660,1,8,0:0:0:0:
172,183,154820,2,0,B|168:224|168:224|174:262|174:262|158:308|158:308|175:329|177:360|165:397,1,200,8|0,0:0|0:0,0:0:0:0:
356,306,155298,5,4,0:0:0:0:
356,306,155378,1,4,0:0:0:0:
356,306,155458,1,4,0:0:0:0:
94,248,155618,1,8,0:0:0:0:
395,162,155777,6,0,P|426:246|413:269,1,100,4|4,0:0|0:0,0:0:0:0:
283,220,156096,1,8,0:0:0:0:
338,83,156256,2,0,P|394:74|492:173,1,200,4|8,0:0|0:0,0:0:0:0:
256,142,156735,2,0,B|237:111|230:52|248:28|248:28|247:51|213:74|213:74|165:84,1,200,4|0,0:0|0:0,0:0:0:0:
92,69,157213,5,4,0:0:0:0:
150,239,157373,1,4,0:0:0:0:
150,239,157532,1,0,0:0:0:0:
332,197,157692,1,4,0:0:0:0:
294,382,157852,1,8,0:0:0:0:
271,120,158011,2,0,B|296:87|346:75|384:89|384:89|394:132|448:138,1,200,8|4,0:0|0:0,0:0:0:0:
193,71,158490,2,0,B|183:130|183:130|214:189|214:189|203:282,1,200,4|0,0:0|0:0,0:0:0:0:
118,194,158969,2,0,B|-16:190|-16:190|70:218,1,200,4|0,0:0|0:0,0:0:0:0:
312,207,159447,5,4,0:0:0:0:
312,207,159607,1,4,0:0:0:0:
110,329,159767,1,8,0:0:0:0:
243,164,159926,2,0,P|304:124|390:206,1,200,8|0,0:0|0:0,0:0:0:0:
371,302,160405,1,4,0:0:0:0:
371,302,160485,1,4,0:0:0:0:
371,302,160564,1,4,0:0:0:0:
401,77,160724,1,8,0:0:0:0:
197,229,160884,6,0,P|165:190|172:140,1,100,4|4,0:0|0:0,0:0:0:0:
329,175,161203,1,8,0:0:0:0:
191,322,161362,2,0,B|146:307|146:307|102:324|102:324|40:309|40:309|89:299,1,200,4|4,0:0|0:0,0:0:0:0:
217,248,161761,1,0,0:0:0:0:
217,248,161841,5,8,0:0:0:0:
420,188,162001,1,4,0:0:0:0:
124,144,162160,1,8,0:0:0:0:
251,342,162320,1,4,0:0:0:0:
266,52,162479,1,8,0:0:0:0:
77,237,162639,1,4,0:0:0:0:
350,294,162798,1,8,0:0:0:0:
81,228,162958,1,4,0:0:0:0:
354,101,163118,1,8,0:0:0:0:
94,53,164394,6,0,B|105:88|105:88|88:217,1,150.000005722046,8|0,0:0|0:0,0:0:0:0:
77,302,164713,1,8,0:0:0:0:
310,149,164873,1,0,0:0:0:0:
512,235,165032,2,0,B|474:217|474:217|429:232|429:232|395:221|347:229,1,150.000005722046,4|4,0:0|0:0,0:0:0:0:
197,229,165352,1,8,0:0:0:0:
437,8,165511,6,0,B|448:102|448:102|419:159,2,150.000005722046,4|0|0,0:0|0:0|0:0,0:0:0:0:
210,241,165990,1,8,0:0:0:0:
195,103,166149,2,0,P|277:85|326:131,1,150.000005722046,4|0,0:0|0:0,0:0:0:0:
125,187,166469,2,0,P|26:184|0:137,1,150.000005722046,4|8,0:0|0:0,0:0:0:0:
227,330,166788,6,0,B|324:311|324:311|394:322,1,150.000005722046,4|4,0:0|0:0,0:0:0:0:
452,219,167107,2,0,B|355:200|355:200|285:211,1,150.000005722046,0|8,0:0|0:0,0:0:0:0:
214,97,167426,2,0,B|197:152|197:152|206:264,1,150.000005722046,0|0,0:0|0:0,0:0:0:0:
352,89,167745,2,0,P|265:70|198:115,1,150.000005722046,4|8,0:0|0:0,0:0:0:0:
448,217,168064,2,0,L|457:50,2,150.000005722046,4|4|0,0:0|0:0|0:0,0:0:0:0:
308,326,168543,1,8,0:0:0:0:
278,127,168703,1,0,0:0:0:0:
164,213,168862,6,0,P|72:207|30:262,1,150.000005722046,0|4,0:0|0:0,0:0:0:0:
247,253,169181,2,0,P|236:167|171:131,1,150.000005722046,8|4,0:0|0:0,0:0:0:0:
171,315,169501,1,4,0:0:0:0:
394,109,169660,1,0,0:0:0:0:
382,131,169820,2,0,B|391:174|374:228|374:228|401:295|401:295|388:366|388:366|347:291,1,300.000011444092,8|0,0:0|0:0,0:0:0:0:
212,135,170458,5,8,0:0:0:0:
472,200,170618,1,4,0:0:0:0:
270,295,170777,2,0,B|208:233|141:231|94:257|94:257|164:255|203:229,1,300.000011444092,4|8,0:0|0:0,0:0:0:0:
289,132,171256,2,0,B|351:70|418:68|465:94|465:94|395:92|356:66,1,300.000011444092,0|4,0:0|0:0,0:0:0:0:
159,45,171735,1,8,0:0:0:0:
383,164,171894,1,4,0:0:0:0:
212,234,172054,5,4,0:0:0:0:
212,234,172213,1,4,0:0:0:0:
79,126,172373,1,8,0:0:0:0:
308,38,172532,1,8,0:0:0:0:
112,217,172692,5,4,0:0:0:0:
112,217,172852,1,4,0:0:0:0:
291,159,173011,1,4,0:0:0:0:
266,348,173171,1,4,0:0:0:0:
196,91,173330,5,4,0:0:0:0:
196,91,173490,1,4,0:0:0:0:
182,300,173649,1,8,0:0:0:0:
410,243,173809,1,8,0:0:0:0:
83,198,173969,2,0,L|90:347,1,150.000005722046,4|4,0:0|0:0,0:0:0:0:
123,120,174288,5,4,0:0:0:0:
163,60,174367,1,0,0:0:0:0:
235,57,174447,1,4,0:0:0:0:
280,114,174527,1,4,0:0:0:0:
260,183,174607,2,0,P|267:267|330:298,1,150.000005722046,4|4,0:0|0:0,0:0:0:0:
495,181,174926,2,0,B|393:186|393:186|456:171,1,150.000005722046,8|0,0:0|0:0,0:0:0:0:
384,75,175245,6,0,P|318:62|310:128,1,150.000005722046,0|4,0:0|0:0,0:0:0:0:
309,128,175485,2,0,P|291:64|228:87,1,150.000005722046,0|0,0:0|0:0,0:0:0:0:
249,197,175724,2,0,P|340:205|388:164,2,150.000005722046,4|4|0,0:0|0:0|0:0,0:0:0:0:
459,93,176203,2,0,P|461:172|410:243,1,150.000005722046,8|0,0:0|0:0,0:0:0:0:
245,88,176522,2,0,P|316:38|386:60,1,150.000005722046,0|4,0:0|0:0,0:0:0:0:
159,178,176841,1,8,0:0:0:0:
388,214,177001,2,0,B|346:222|346:222|297:206|297:206|225:218,1,150.000005722046,4|4,0:0|0:0,0:0:0:0:
466,126,177320,2,0,B|472:182|472:182|462:220|462:220|473:293,2,150.000005722046,0|8|0,0:0|0:0|0:0,0:0:0:0:
316,75,177798,5,0,0:0:0:0:
293,89,177958,2,0,B|243:68|243:68|194:93|140:77,1,150.000005722046,4|8,0:0|0:0,0:0:0:0:
60,42,178277,1,8,0:0:0:0:
385,207,178437,5,8,0:0:0:0:
102,326,178596,1,4,0:0:0:0:
172,38,178756,1,8,0:0:0:0:
356,296,178915,1,4,0:0:0:0:
33,243,179075,1,8,0:0:0:0:
277,27,179235,2,0,P|341:68|234:130,1,250,8|0,0:0|0:0,0:0:0:0:
238,134,179713,1,8,0:0:0:0:
445,174,179873,1,4,0:0:0:0:
222,140,180032,6,0,L|208:262,1,100,8|0,0:0|0:0,0:0:0:0:
299,320,180352,1,0,0:0:0:0:
93,223,180511,1,4,0:0:0:0:
284,123,180671,1,8,0:0:0:0:
207,366,180830,1,4,0:0:0:0:
149,64,180990,1,4,0:0:0:0:
163,45,181149,2,0,L|280:37,1,100,0|8,0:0|0:0,0:0:0:0:
377,111,181469,2,0,B|358:274|358:274|339:220,1,200,0|4,0:0|0:0,0:0:0:0:
274,132,181947,5,8,0:0:0:0:
455,193,182107,1,4,0:0:0:0:
155,226,182267,1,4,0:0:0:0:
155,226,182426,1,4,0:0:0:0:
404,128,182586,1,8,0:0:0:0:
257,356,182745,1,4,0:0:0:0:
191,111,182905,1,4,0:0:0:0:
191,111,183064,1,4,0:0:0:0:
334,237,183224,5,8,0:0:0:0:
62,247,183384,1,4,0:0:0:0:
383,138,183543,1,4,0:0:0:0:
394,349,183703,1,4,0:0:0:0:
263,84,183862,2,0,L|379:65,1,100,8|4,0:0|0:0,0:0:0:0:
241,177,184181,2,0,P|183:153|167:108,1,100,4|4,0:0|0:0,0:0:0:0:
330,196,184501,2,0,P|355:260|336:320,1,100,8|4,0:0|0:0,0:0:0:0:
301,360,184820,1,8,0:0:0:0:
199,283,184979,5,4,0:0:0:0:
130,348,185139,1,4,0:0:0:0:
57,266,185298,2,0,B|79:209|79:209|55:173|55:173|66:115,1,150.000005722046,8|8,0:0|0:0,0:0:0:0:
94,35,185777,1,8,0:0:0:0:
176,146,185937,1,4,0:0:0:0:
312,52,186096,1,8,0:0:0:0:
418,117,186256,2,0,P|379:99|289:113,1,112.500004291535,4|0,0:0|0:0,0:0:0:0:
285,179,186575,2,0,L|299:340,1,150.000005722046,8|8,0:0|0:0,0:0:0:0:
172,282,187054,5,8,0:0:0:0:
410,244,187213,1,4,0:0:0:0:
410,244,187293,1,0,0:0:0:0:
410,244,187373,1,8,0:0:0:0:
165,156,187532,1,8,0:0:0:0:
400,324,187692,1,8,0:0:0:0:
40,280,187852,1,8,0:0:0:0:
302,133,188011,5,8,0:0:0:0:
186,368,188171,1,8,0:0:0:0:
175,30,188330,1,8,0:0:0:0:
319,258,188490,1,8,0:0:0:0:
22,237,188649,1,8,0:0:0:0:
113,135,189926,6,0,P|161:68|255:114,1,200,8|0,0:0|0:0,0:0:0:0:
110,124,190405,1,8,0:0:0:0:
269,198,190564,2,0,P|276:280|257:327,1,100,8|0,0:0|0:0,0:0:0:0:
112,108,190884,1,4,0:0:0:0:
121,90,191043,1,8,0:0:0:0:
336,187,191203,6,0,P|305:133|199:181,1,200,8|0,0:0|0:0,0:0:0:0:
413,93,191681,2,0,P|331:91|342:191,1,200,8|0,0:0|0:0,0:0:0:0:
237,95,192160,2,0,P|326:94|321:194,1,200,8|0,0:0|0:0,0:0:0:0:
258,240,192639,1,8,0:0:0:0:
398,68,192798,1,8,0:0:0:0:
398,68,192958,1,8,0:0:0:0:
174,182,193118,2,0,B|163:248|208:298|208:298|215:355|197:381,1,200,8|4,0:0|0:0,0:0:0:0:
350,246,193596,5,8,0:0:0:0:
350,246,193676,1,0,0:0:0:0:
350,246,193756,2,0,P|285:251|258:233,1,100,8|8,0:0|0:0,0:0:0:0:
440,198,194075,2,0,P|454:269|438:300,1,100,4|4,0:0|0:0,0:0:0:0:
360,126,194394,1,8,0:0:0:0:
259,158,194713,6,0,P|170:149|168:88,1,150,0|0,0:0|0:0,0:0:0:0:
220,31,195032,2,0,L|321:29,1,100,8|4,0:0|0:0,0:0:0:0:
429,51,195352,5,4,0:0:0:0:
427,70,195431,1,0,0:0:0:0:
425,90,195511,1,0,0:0:0:0:
423,110,195591,1,0,0:0:0:0:
421,129,195671,5,8,0:0:0:0:
394,171,195751,1,8,0:0:0:0:
356,203,195830,1,8,0:0:0:0:
306,208,195910,1,8,0:0:0:0:
260,186,195990,1,8,0:0:0:0:
216,137,196070,5,8,0:0:0:0:
151,137,196149,1,8,0:0:0:0:
110,187,196229,1,8,0:0:0:0:
118,251,196309,2,0,P|182:287|237:183,1,200,8|8,0:0|0:0,0:0:0:0:
52,191,196788,2,0,P|29:267|108:351,1,200,4|4,0:0|0:0,0:0:0:0:
0,114,197267,6,0,B|28:101|90:121|90:121|125:142|180:105|205:51|168:-4|98:-32|50:15|33:60|55:124|139:133|199:142|199:142|229:151|284:144|315:165|363:176|329:277|259:328|174:270|167:180|198:141|278:156|278:156|322:141|358:164|358:164|397:183|457:166,1,1090,4|0,0:0|0:0,0:0:0:0:
