osu file format v14

[General]
AudioFilename: audio.mp3
AudioLeadIn: 0
PreviewTime: 42080
Countdown: 0
SampleSet: None
StackLeniency: 0.4
Mode: 0
LetterboxInBreaks: 0
WidescreenStoryboard: 1

[Editor]
Bookmarks: 26841,32905,189926
DistanceSpacing: 0.7
BeatDivisor: 4
GridSize: 16
TimelineZoom: 1.9

[Metadata]
Title:Happy Judgement Day
TitleUnicode:Happy Judgement Day
Artist:Neck Deep
ArtistUnicode:Neck Deep
Creator:fstapled
Version:Insane
Source:
Tags:
BeatmapID:1899858
BeatmapSetID:903421

[Difficulty]
HPDrainRate:5
CircleSize:3.8
OverallDifficulty:7.4
ApproachRate:9
SliderMultiplier:1.7
SliderTickRate:1

[Events]
//Background and Video events
0,0,"owo.jpg",0,0
//Break Periods
2,40764,41560
2,119913,128209
//Storyboard Layer 0 (Background)
//Storyboard Layer 1 (Fail)
//Storyboard Layer 2 (Pass)
//Storyboard Layer 3 (Foreground)
//Storyboard Sound Samples

[TimingPoints]
2267,319.148936170213,4,3,0,70,1,0
26442,-100,4,3,0,5,0,0
26522,-100,4,3,0,70,0,0
42719,-100,4,3,0,5,0,0
43118,-83.3333333333333,4,3,0,70,0,1
60112,-83.3333333333333,4,3,0,5,0,1
60192,-83.3333333333333,4,3,0,70,0,1
62267,-100,4,3,0,70,0,0
73517,-100,4,3,0,5,0,0
73596,-100,4,3,0,70,0,0
86761,-100,4,3,0,5,0,0
86841,-100,4,3,0,70,0,0
94181,-83.3333333333333,4,3,0,70,0,1
105192,-83.3333333333333,4,3,0,5,0,1
105272,-83.3333333333333,4,3,0,70,0,1
113330,-100,4,3,0,70,0,0
114607,-200,4,3,0,70,0,0
128649,-100,4,3,0,70,0,0
141336,-100,4,3,0,5,0,0
141415,-133.333333333333,4,3,0,70,0,0
142453,-133.333333333333,4,3,0,5,0,0
142532,-133.333333333333,4,3,0,60,0,0
142612,-133.333333333333,4,3,0,5,0,0
142692,-133.333333333333,4,3,0,60,0,0
145644,-133.333333333333,4,3,0,5,0,0
145724,-100,4,3,0,60,0,0
145804,-100,4,3,0,5,0,0
145884,-83.3333333333333,4,3,0,60,0,0
145963,-83.3333333333333,4,3,0,5,0,0
146043,-55.5555555555556,4,3,0,60,0,0
146522,-100,4,3,0,60,0,0
155697,-100,4,3,0,5,0,0
155777,-100,4,3,0,70,0,0
162160,-83.3333333333333,4,3,0,70,0,0
162479,-71.4285714285714,4,3,0,70,0,0
164394,-76.9230769230769,4,3,0,70,0,1
188649,-100,4,3,0,70,0,0
197267,-222.222222222221,4,3,0,70,0,0
197346,-222.222222222221,4,3,0,5,0,0

[HitObjects]
113,98,8171,5,0,0:0:0:0:
131,229,8331,1,0,0:0:0:0:
185,43,8649,6,0,P|97:12|25:60,1,170
41,155,9128,2,0,P|129:186|201:138,1,170
265,64,9607,2,0,L|274:249,1,170
273,337,10086,1,0,0:0:0:0:
375,216,10245,1,0,0:0:0:0:
393,363,10405,1,0,0:0:0:0:
451,185,10564,6,0,P|397:135|309:170,1,170
234,263,11043,2,0,L|239:323,2,42.5
150,177,11362,1,0,0:0:0:0:
46,240,11522,2,0,L|37:148,1,85
140,300,11841,1,0,0:0:0:0:
254,212,12001,2,0,L|239:398,1,170
337,183,12479,6,0,P|298:136|187:155,1,170
153,215,12958,1,0,0:0:0:0:
406,265,13118,2,0,P|431:230|441:174,1,85
299,278,13437,2,0,P|323:312|334:353,1,85
184,199,13756,6,0,B|245:172|245:172|358:197,1,170
131,135,14235,2,0,P|109:239|158:285,1,170
210,52,14713,2,0,B|118:37|118:37|52:77,1,170
306,101,15192,1,0,0:0:0:0:
221,168,15352,2,0,L|230:279,1,85
326,364,15671,2,0,L|311:186,1,170
472,297,16149,6,0,L|418:305,2,42.5
234,336,16469,1,0,0:0:0:0:
299,147,16628,1,0,0:0:0:0:
313,269,16788,1,0,0:0:0:0:
194,215,16947,1,0,0:0:0:0:
384,132,17107,2,0,P|350:81|240:83,1,170
104,163,17586,6,0,L|115:339,1,170
194,215,18064,1,0,0:0:0:0:
275,162,18224,2,0,L|375:153,1,85
221,29,18543,2,0,P|195:86|191:117,1,85
362,212,18862,6,0,P|367:145|303:67,1,170
321,300,19341,2,0,P|388:305|466:241,1,170
279,159,19820,2,0,P|212:154|134:218,1,170
121,321,20298,1,0,0:0:0:0:
109,96,20458,1,0,0:0:0:0:
227,244,20618,1,0,0:0:0:0:
28,111,20777,2,0,P|43:46|136:17,1,170
130,197,21256,6,0,L|120:252,2,42.5
195,112,21575,1,0,0:0:0:0:
245,214,21735,2,0,P|291:202|335:206,1,85
470,305,22054,2,0,P|434:317|385:312,1,85
293,286,22373,2,0,P|289:328|302:369,1,85
388,162,22692,6,0,L|295:144,2,85
452,242,23330,1,0,0:0:0:0:
427,70,23649,1,0,0:0:0:0:
155,251,23969,6,0,L|164:345,2,85
146,93,24607,1,0,0:0:0:0:
279,180,24926,1,0,0:0:0:0:
59,139,25245,2,0,L|73:37,2,85
137,318,26203,6,0,L|265:304,1,127.5
328,258,26522,2,0,L|315:153,1,85
438,60,26841,6,0,P|439:125|432:150,1,85
235,211,27160,2,0,P|234:146|241:121,1,85
479,310,27479,2,0,P|423:329|391:322,1,85
416,111,27798,6,0,L|425:206,2,85
285,192,28437,1,0,0:0:0:0:
317,39,28756,1,0,0:0:0:0:
179,225,29075,6,0,L|192:333,2,85
263,86,29713,1,0,0:0:0:0:
45,233,30032,1,0,0:0:0:0:
358,113,30352,6,0,L|338:14,2,85
239,226,31149,1,0,0:0:0:0:
330,336,31309,1,0,0:0:0:0:
338,107,31469,2,0,L|332:57,2,42.5
197,229,31788,6,0,L|111:226,1,85
63,136,32107,2,0,L|147:138,1,85
261,324,32426,2,0,L|176:321,1,85
345,283,32745,6,0,P|355:340|341:381,1,85
272,142,33064,2,0,P|262:199|276:240,1,85
427,84,33384,2,0,P|437:141|334:172,1,170
215,55,33862,2,0,L|321:48,1,85
99,50,34181,6,0,B|113:182|113:182|120:133,1,170
209,249,34660,1,0,0:0:0:0:
31,154,34819,2,0,L|45:255,1,85
146,340,35139,1,0,0:0:0:0:
220,164,35298,2,0,L|206:265,1,85
391,226,35618,6,0,P|345:238|304:231,1,85
179,94,35937,2,0,P|225:82|266:89,1,85
449,297,36256,2,0,P|461:343|454:384,1,85
337,166,36575,2,0,P|395:136|470:206,2,170
90,0,37532,5,0,0:0:0:0:
14,78,37692,2,0,L|23:181,1,85
139,229,38011,2,0,L|130:329,2,85
261,119,38649,5,0,0:0:0:0:
339,224,38809,2,0,L|439:213,1,85
236,322,39128,1,0,0:0:0:0:
141,159,39288,5,0,0:0:0:0:
140,137,39368,1,0,0:0:0:0:
139,115,39447,1,0,0:0:0:0:
138,93,39527,1,0,0:0:0:0:
138,71,39607,1,0,0:0:0:0:
292,174,39767,1,0,0:0:0:0:
120,291,39926,6,0,L|68:284,3,42.5
202,234,40245,2,0,L|254:227,3,42.5
209,352,40564,1,0,0:0:0:0:
224,156,42160,6,0,L|228:250,1,85
88,97,42479,1,0,0:0:0:0:
290,108,42639,2,0,B|259:71|203:57|163:98|163:98|162:63|135:35,1,212.5
136,36,43118,5,0,0:0:0:0:
115,244,43277,1,0,0:0:0:0:
194,183,43437,2,0,P|249:167|302:185,1,101.999996887207
334,275,43756,1,0,0:0:0:0:
288,82,43915,1,0,0:0:0:0:
219,324,44075,1,0,0:0:0:0:
393,222,44235,2,0,P|420:300|319:352,1,203.999993774414
310,155,44713,6,0,P|366:120|423:127,1,101.999996887207
212,82,45032,1,0,0:0:0:0:
214,242,45192,2,0,P|158:207|101:214,1,101.999996887207
294,347,45511,6,0,P|309:302|308:236,1,101.999996887207
249,161,45830,2,0,P|228:111|235:50,1,101.999996887207
396,306,46149,2,0,P|447:288|507:292,1,101.999996887207
128,357,46469,2,0,P|75:353|30:331,1,101.999996887207
203,205,46788,2,0,P|219:266|219:312,2,101.999996887207
53,181,47267,1,0,0:0:0:0:
245,100,47426,1,0,0:0:0:0:
12,346,47586,6,0,P|63:375|72:335,1,101.999996887207
148,226,47905,2,0,P|177:175|137:166,1,101.999996887207
48,165,48224,1,0,0:0:0:0:
77,282,48384,2,0,P|158:307|256:248,1,203.999993774414
308,152,49022,1,0,0:0:0:0:
398,257,49181,2,0,L|380:384,1,101.999996887207
235,210,49501,6,0,B|223:43|223:43|242:88,1,203.999993774414
129,177,49979,2,0,B|141:344|141:344|122:299,1,203.999993774414
266,295,50458,1,0,0:0:0:0:
36,211,50618,1,0,0:0:0:0:
354,214,50777,6,0,L|361:334,1,101.999996887207
257,152,51096,2,0,B|242:103|242:103|250:32,1,101.999996887207
201,333,51415,2,0,P|130:341|96:329,1,101.999996887207
111,249,51735,2,0,P|160:261|210:251,1,101.999996887207
332,85,52054,2,0,P|340:146|329:200,1,101.999996887207
63,78,52373,2,0,B|117:64|117:64|162:71,1,101.999996887207
225,177,52692,5,0,0:0:0:0:
259,40,52852,1,0,0:0:0:0:
408,164,53011,2,0,L|395:249,3,50.9999984436036
185,266,53330,6,0,L|290:259,1,101.999996887207
111,220,53649,2,0,P|100:282|123:323,1,101.999996887207,0|0,2:0|2:0,2:0:0:0:
206,178,53969,1,0,0:0:0:0:
83,84,54208,1,0,0:0:0:0:
328,142,54447,1,0,0:0:0:0:
337,255,54607,2,0,L|353:155,1,101.999996887207
175,284,54926,2,0,L|190:384,1,101.999996887207
230,227,55245,6,0,P|161:205|103:312,1,203.999993774414
291,308,55724,2,0,P|322:255|323:198,1,101.999996887207
167,19,56043,2,0,P|185:75|320:110,1,203.999993774414
412,60,56522,5,0,0:0:0:0:
187,232,56681,2,0,L|195:351,1,101.999996887207
294,366,57001,1,0,0:0:0:0:
46,79,57160,6,0,L|36:191,1,101.999996887207
512,337,57479,2,0,L|503:236,1,101.999996887207
177,264,57798,1,0,0:0:0:0:
243,198,57958,2,0,P|274:285|195:364,1,203.999993774414
101,155,58437,1,0,0:0:0:0:
246,111,58596,2,0,B|281:107|312:118|333:164|333:164|349:195|388:208|439:192,1,203.999993774414
167,33,59235,6,0,L|158:150,1,101.999996887207
279,254,59554,1,0,0:0:0:0:
87,322,59713,1,0,0:0:0:0:
87,322,59873,2,0,P|73:257|163:235,1,152.999995330811
239,335,60192,2,0,P|321:343|375:237,1,203.999993774414
336,131,60671,5,0,0:0:0:0:
433,343,60830,1,0,0:0:0:0:
196,257,60990,6,0,L|75:246,1,101.999996887207
401,230,61309,2,0,L|280:219,1,101.999996887207
111,159,61628,6,0,L|-10:148,1,101.999996887207
260,26,61947,2,0,L|249:147,1,101.999996887207
222,357,62267,1,0,0:0:0:0:
25,258,63543,6,0,P|45:171|112:184,1,170
55,133,64022,1,0,0:0:0:0:
216,169,64181,2,0,L|208:269,1,85
383,372,64501,2,0,L|376:287,1,85
415,104,64820,2,0,B|345:91|288:105|288:105|314:90|323:71,1,170
166,26,65298,2,0,B|185:53|195:101|167:153|167:153|159:132|133:118,1,170
103,215,65777,6,0,P|176:248|247:191,1,170
271,105,66256,1,0,0:0:0:0:
154,70,66415,1,0,0:0:0:0:
207,274,66575,1,0,0:0:0:0:
74,318,66735,2,0,P|161:284|250:299,1,170
310,354,67213,2,0,L|319:303,1,42.5
171,166,67373,6,0,B|197:208|246:209|275:195|275:195|307:178|344:198,1,170
150,69,68011,1,0,0:0:0:0:
86,132,68171,2,0,B|70:170|73:206|101:231|101:231|96:271|96:271|108:303,1,170
237,149,68649,2,0,B|206:120|170:129|170:129|184:90|155:53|155:53|144:82,1,170
181,207,69128,1,0,0:0:0:0:
279,32,69288,2,0,P|287:87|274:129,1,85
389,344,69607,2,0,P|382:302|391:261,1,85
461,193,69926,6,0,B|420:167|359:169|322:192|322:192|345:164,1,170
234,94,70405,2,0,P|251:160|192:252,1,170
106,168,70884,2,0,P|104:110|127:171,1,170
120,79,71362,1,0,0:0:0:0:
82,271,71522,1,0,0:0:0:0:
214,186,71681,1,0,0:0:0:0:
67,286,71841,2,0,L|251:273,1,170
369,304,72320,2,0,L|365:375,2,42.5
411,171,72639,5,0,0:0:0:0:
258,186,72798,1,0,0:0:0:0:
316,55,72958,1,0,0:0:0:0:
337,213,73118,1,0,0:0:0:0:
221,104,73277,2,0,B|180:102|155:82|155:82|125:98|88:91,1,127.5
53,30,73596,6,0,P|24:103|30:118,1,85
89,335,73915,2,0,P|118:262|112:247,1,85
57,188,74235,1,0,0:0:0:0:
233,236,74394,2,0,L|320:231,1,85
387,150,74713,1,0,0:0:0:0:
149,207,74873,2,0,P|149:265|168:298,2,85
241,148,75352,1,0,0:0:0:0:
300,70,75511,6,0,P|239:52|223:18,1,85
403,76,75830,2,0,P|385:137|351:153,1,85
251,253,76149,2,0,P|319:253|337:349,1,170
200,171,76628,2,0,P|170:200|129:208,1,85
25,80,76947,2,0,P|55:108|96:116,1,85
194,75,77267,1,0,0:0:0:0:
38,199,77426,2,0,L|45:297,2,85
209,343,77905,6,0,B|158:351|158:351|109:341,1,85
266,238,78224,1,0,0:0:0:0:
364,356,78384,2,0,B|361:332|380:292|380:292|358:309,1,85
181,224,78703,2,0,B|176:179|217:142|277:152|277:152|255:136|246:108,1,170
74,257,79181,2,0,B|109:313|109:313|228:320,1,170
28,344,79660,1,0,0:0:0:0:
204,112,79979,2,0,P|231:171|153:230,1,170
143,62,80458,6,0,P|214:34|241:48,1,85
300,88,80777,2,0,P|328:159|314:186,1,85
160,231,81096,1,0,0:0:0:0:
255,315,81256,2,0,L|346:303,1,85
436,316,81575,1,0,0:0:0:0:
326,162,81735,1,0,0:0:0:0:
208,262,82213,5,0,0:0:0:0:
287,60,82372,1,0,0:0:0:0:
420,138,82532,2,0,L|417:200,2,42.5
406,293,82852,1,0,0:0:0:0:
289,194,83011,1,0,0:0:0:0:
277,355,83171,2,0,L|186:347,1,85
132,284,83490,2,0,L|47:282,1,85
112,63,83809,6,0,P|57:118|81:198,1,170
201,173,84288,2,0,P|158:135|132:142,1,85
285,144,84607,2,0,P|231:101|204:177,1,170
285,144,85245,2,0,B|273:79|207:80|168:140|206:178|206:178|192:153|152:146|128:151,1,255
177,252,85884,6,0,P|242:255|276:233,1,85
117,384,86203,2,0,P|120:319|98:285,1,85
34,141,86522,2,0,B|64:163|64:163|183:136,1,127.5
231,65,86841,2,0,B|227:100|227:100|237:125|237:125|236:170,1,85
54,49,87160,1,0,0:0:0:0:
137,263,87320,2,0,L|254:251,1,85
399,327,87639,6,0,B|331:320|331:320|352:312,1,85
455,232,87958,2,0,B|462:164|462:164|470:185,1,85
420,91,88277,2,0,B|382:56|339:66|317:107|317:107|281:100|281:100|240:115,1,170
182,128,88756,1,0,0:0:0:0:
373,180,89075,6,0,P|374:245|272:274,1,170
37,152,90032,6,0,L|45:242,1,85
132,300,90272,1,0,0:0:0:0:
139,286,90352,2,0,L|132:194,1,85
112,74,90671,1,0,0:0:0:0:
237,204,90830,1,0,0:0:0:0:
338,71,90990,2,0,L|285:68,3,42.5
205,38,91309,5,0,0:0:0:0:
205,60,91389,1,0,0:0:0:0:
205,82,91469,1,0,0:0:0:0:
205,104,91548,1,0,0:0:0:0:
206,126,91628,1,0,0:0:0:0:
76,106,92745,6,0,L|123:100,2,42.5
201,169,93064,1,0,0:0:0:0:
105,254,93224,1,0,0:0:0:0:
215,304,93384,1,0,0:0:0:0:
54,327,93543,1,0,0:0:0:0:
68,336,93703,2,0,B|21:312|21:312|7:271|7:271|20:217|20:217|8:147,1,212.5
106,70,94181,6,0,L|-4:58,1,101.999996887207
150,178,94501,1,0,0:0:0:0:
232,31,94660,1,0,0:0:0:0:
279,222,94820,1,0,0:0:0:0:
184,102,94979,1,0,0:0:0:0:
170,280,95139,1,0,0:0:0:0:
334,171,95298,2,0,P|357:226|253:295,1,203.999993774414
401,356,95777,6,0,P|437:309|450:256,1,101.999996887207
283,227,96096,1,0,0:0:0:0:
185,102,96256,2,0,B|257:93|257:93|217:84,1,101.999996887207
90,167,96575,2,0,B|79:218|79:218|83:286,1,101.999996887207
256,267,96894,2,0,P|207:225|158:220,1,101.999996887207
210,345,97213,2,0,B|267:358|267:358|322:340,1,101.999996887207
101,269,97532,6,0,L|112:373,1,101.999996887207
146,112,97852,2,0,P|108:91|36:101,2,101.999996887207
214,215,98330,1,0,0:0:0:0:
248,21,98490,1,0,0:0:0:0:
309,159,98649,2,0,L|296:281,1,101.999996887207
439,112,98969,2,0,L|426:234,1,101.999996887207
130,245,99288,1,0,0:0:0:0:
227,102,99447,6,0,B|216:181|216:181|244:241|244:241|231:297,1,203.999993774414
199,368,100086,1,0,0:0:0:0:
375,176,100245,1,0,0:0:0:0:
461,304,100405,1,0,0:0:0:0:
470,99,100564,2,0,B|414:50|352:59|352:59|314:94|251:80,1,203.999993774414
306,311,101043,2,0,P|367:274|347:154,1,203.999993774414
195,238,101522,5,0,0:0:0:0:
215,371,101681,1,0,0:0:0:0:
82,245,101841,2,0,L|98:141,1,101.999996887207
368,260,102160,1,0,0:0:0:0:
195,238,102320,1,0,0:0:0:0:
432,202,102479,2,0,P|460:251|446:303,1,101.999996887207
346,178,102798,2,0,P|373:128|425:113,1,101.999996887207
319,302,103118,6,0,L|212:297,1,101.999996887207
76,201,103437,1,0,0:0:0:0:
107,360,103596,1,0,0:0:0:0:
8,126,103756,2,0,L|129:112,1,101.999996887207
191,46,104075,1,0,0:0:0:0:
195,81,104155,1,0,0:0:0:0:
199,116,104235,1,0,0:0:0:0:
203,151,104314,1,0,0:0:0:0:
208,186,104394,6,0,L|319:170,1,101.999996887207
429,258,104713,2,0,L|301:280,1,101.999996887207
43,264,105032,2,0,L|51:380,1,101.999996887207
128,288,105272,2,0,L|120:172,1,101.999996887207
59,32,105511,2,0,B|56:108|56:108|76:81,2,101.999996887207
305,214,105990,2,0,P|228:208|199:234,1,101.999996887207
385,332,106309,6,0,P|410:246|409:213,1,101.999996887207
275,339,106628,1,0,0:0:0:0:
308,77,106788,2,0,L|165:66,1,101.999996887207
138,269,107107,2,0,P|220:245|184:137,1,203.999993774414
51,227,107586,1,0,0:0:0:0:
51,227,107745,2,0,P|47:279|61:330,1,101.999996887207
148,367,108064,2,0,L|196:351,1,50.9999984436036
356,280,108224,5,0,0:0:0:0:
172,206,108384,1,0,0:0:0:0:
290,34,108543,5,0,0:0:0:0:
285,246,108703,1,0,0:0:0:0:
109,112,108862,1,0,0:0:0:0:
109,112,109022,2,0,B|172:84|212:123|212:123|266:127|297:91,1,203.999993774414
79,27,109501,5,0,0:0:0:0:
61,263,109660,1,0,0:0:0:0:
115,108,109820,2,0,B|94:125|53:112|53:112|10:113|-37:153|-37:153|-6:145|16:155,1,203.999993774414
192,170,110298,1,0,0:0:0:0:
110,15,110458,5,0,0:0:0:0:
67,250,110618,1,0,0:0:0:0:
278,128,110777,1,0,0:0:0:0:
296,135,110937,2,0,L|408:117,1,101.999996887207
358,220,111256,2,0,B|293:230|293:230|228:205|228:205|150:218,1,203.999993774414
65,238,111735,5,0,0:0:0:0:
331,139,111894,1,0,0:0:0:0:
57,120,112054,2,0,L|58:223,1,101.999996887207
264,382,112373,2,0,L|263:279,1,101.999996887207
170,23,112692,2,0,L|171:126,1,101.999996887207
277,168,113011,6,0,P|309:156|348:155,1,50.9999984436036
422,160,113171,2,0,P|451:168|471:184,1,50.9999984436036
188,225,113330,1,0,0:0:0:0:
117,197,114607,6,0,L|108:144,1,42.5
151,249,114926,2,0,L|142:196,1,42.5
191,302,115245,2,0,L|182:249,1,42.5
238,349,115564,2,0,L|229:296,1,42.5
430,95,115884,6,0,L|439:42,1,42.5
396,147,116203,2,0,L|405:94,1,42.5
356,200,116522,2,0,L|365:147,1,42.5
309,247,116841,2,0,L|318:194,1,42.5
213,256,117160,6,0,L|204:309,1,42.5
247,204,117479,2,0,L|238:257,1,42.5
287,151,117798,2,0,L|278:204,1,42.5
334,104,118117,2,0,L|325:157,1,42.5
182,77,118437,6,0,L|129:68,1,42.5
234,111,118756,2,0,L|181:102,1,42.5
287,151,119075,2,0,L|234:142,1,42.5
334,198,119394,2,0,L|281:189,1,42.5
356,239,119713,1,0,0:0:0:0:
131,165,128809,5,0,0:0:0:0:
136,123,128888,1,0,0:0:0:0:
166,95,128968,1,0,0:0:0:0:
208,94,129048,1,0,0:0:0:0:
240,119,129128,1,0,0:0:0:0:
339,233,129288,6,0,L|335:187,1,42.5
433,296,129447,2,0,L|437:250,1,42.5
326,358,129607,1,0,0:0:0:0:
172,284,129767,2,0,L|108:288,1,42.5
66,358,129926,6,0,B|45:298|45:298|52:182,1,170
135,93,130564,2,0,B|175:118|226:102|226:102|210:148|249:187,1,170
382,241,131203,2,0,B|329:229|289:254|289:254|252:276|211:268,1,170
347,326,131841,2,0,B|399:314|439:339|439:339|476:361|517:353,1,170
277,384,132479,2,0,B|259:330|259:330|271:277|271:277|250:203,1,170
172,140,133118,6,0,L|76:149,1,85
261,182,133437,2,0,P|265:136|250:92,1,85
161,251,133756,2,0,P|157:297|172:341,1,85
323,283,134075,2,0,P|279:270|241:287,1,85
444,353,134394,2,0,B|416:316|411:279|424:255|424:255|456:234|455:191,1,170
436,116,134873,1,0,0:0:0:0:
293,57,135032,6,0,B|265:123|295:193|295:193|321:150,1,170
354,328,135671,2,0,B|369:353|369:353|399:283|371:217,1,170
477,295,136309,2,0,B|445:311|411:292|411:292|374:282|339:313|339:313|346:326|346:326|382:333,1,170
240,384,136947,2,0,L|222:198,1,170
191,109,137586,5,0,0:0:0:0:
264,146,137745,1,0,0:0:0:0:
165,188,137905,1,0,0:0:0:0:
268,75,138064,1,0,0:0:0:0:
192,102,138224,5,0,0:0:0:0:
265,154,138383,1,0,0:0:0:0:
150,183,138543,1,0,0:0:0:0:
282,78,138702,1,0,0:0:0:0:
193,97,138862,5,0,0:0:0:0:
283,154,139021,1,0,0:0:0:0:
150,183,139181,1,0,0:0:0:0:
289,67,139340,1,0,0:0:0:0:
115,73,139501,5,0,0:0:0:0:
223,203,139660,1,0,0:0:0:0:
201,23,139820,1,0,0:0:0:0:
140,178,139979,1,0,0:0:0:0:
294,153,140139,1,0,0:0:0:0:
109,318,141096,6,0,B|145:295|145:295|166:302|166:302|192:291|192:291|245:289,1,127.5
310,342,141415,2,0,P|324:279|279:217,1,127.500004863739
223,192,141894,1,0,0:0:0:0:
484,297,142054,2,0,L|400:303,1,63.7500024318696
348,144,142373,2,0,L|345:110,1,31.8750012159348
246,63,142532,2,0,L|243:31,1,31.8750012159348
435,180,142692,6,0,P|380:222|295:221,1,127.500004863739
218,201,143171,1,0,0:0:0:0:
303,317,143330,2,0,P|280:315|228:304,1,63.7500024318696
134,168,143649,2,0,P|178:119|245:122,1,127.500004863739
103,278,144128,1,0,0:0:0:0:
36,97,144288,2,0,L|47:20,1,63.7500024318696
212,218,144607,6,0,B|225:277|225:277|220:353,1,127.500004863739
328,305,145086,1,0,0:0:0:0:
326,327,145165,1,0,0:0:0:0:
324,349,145245,1,0,0:0:0:0:
254,149,145405,1,0,0:0:0:0:
376,52,145564,2,0,L|428:41,1,31.8750012159348
253,161,145724,2,0,L|261:221,1,42.5
369,61,145884,2,0,L|440:46,1,50.9999984436036
0,187,146043,6,0,B|30:139|107:137|144:215|144:215|179:195|179:195|223:224|271:198,1,305.999990661621
339,137,146522,6,0,P|359:213|312:300,1,170
239,98,147001,1,0,0:0:0:0:
409,66,147160,2,0,P|438:131|442:156,1,85
270,215,147479,1,0,0:0:0:0:
444,264,147639,1,0,0:0:0:0:
298,306,147798,6,0,B|206:315|206:315|141:362,1,170
415,269,148277,2,0,B|352:223|352:223|260:214,1,170
172,85,148756,2,0,B|194:130|167:172|167:172|144:210|165:269,1,170
90,126,149235,1,0,0:0:0:0:
274,226,149394,5,0,0:0:0:0:
174,337,149554,1,0,0:0:0:0:
405,304,149713,1,0,0:0:0:0:
274,226,149873,2,0,B|282:167|282:167|259:89|259:89|305:129,1,170
409,296,150352,1,0,0:0:0:0:
166,191,150511,6,0,L|110:201,1,42.5
44,212,150671,1,0,0:0:0:0:
379,155,150830,1,0,0:0:0:0:
270,173,150990,1,0,0:0:0:0:
465,144,151149,2,0,P|452:193|409:221,1,85
341,261,151389,5,0,0:0:0:0:
343,278,151469,2,0,L|352:334,1,42.5
180,242,151628,2,0,L|195:51,1,170
343,295,152107,2,0,L|328:104,1,170
166,252,152586,2,0,L|171:158,1,85
253,357,152905,6,0,B|162:338|162:338|79:347,1,170
330,287,153384,2,0,B|360:336|356:391|356:391|381:361|382:321,1,170
380,228,153862,2,0,P|293:206|254:281,1,170
452,282,154341,1,0,0:0:0:0:
372,222,154501,2,0,L|367:137,1,85
258,64,154820,2,0,L|267:240,1,170
217,333,155298,5,0,0:0:0:0:
233,330,155378,1,0,0:0:0:0:
249,327,155458,2,0,L|310:314,1,42.5
114,224,155618,2,0,P|145:218|174:222,1,42.5
46,85,155777,5,0,0:0:0:0:
106,214,155937,1,0,0:0:0:0:
170,33,156096,1,0,0:0:0:0:
99,214,156256,2,0,B|142:185|182:201|182:201|228:217|284:199,1,170
354,115,156735,2,0,L|350:305,1,170
446,353,157213,1,0,0:0:0:0:
276,334,157373,2,0,L|170:352,1,85
103,362,157692,5,0,0:0:0:0:
362,314,157852,1,0,0:0:0:0:
89,363,158011,2,0,L|67:183,1,170
186,212,158490,2,0,L|192:30,1,170
269,227,158969,6,0,P|249:288|136:270,1,170
355,313,159447,1,0,0:0:0:0:
266,216,159607,2,0,L|270:114,1,85
429,47,159926,2,0,B|399:104|399:104|395:221,1,170
445,313,160405,1,0,0:0:0:0:
428,316,160485,1,0,0:0:0:0:
411,318,160564,5,0,0:0:0:0:
497,158,160724,1,0,0:0:0:0:
299,331,160884,1,0,0:0:0:0:
299,331,161043,1,0,0:0:0:0:
114,206,161203,1,0,0:0:0:0:
65,111,161362,6,0,B|63:76|137:90|137:90|178:120|178:120|240:136,1,170
226,124,161761,1,0,0:0:0:0:
225,124,161841,2,0,L|222:226,1,85
401,331,162160,2,0,L|403:230,1,101.999996887207
156,327,162479,6,0,L|295:306,1,118.999996368408
339,124,162798,1,0,0:0:0:0:
151,320,162958,1,0,0:0:0:0:
70,55,163118,1,0,0:0:0:0:
439,137,164394,6,0,P|454:179|443:250,1,110.499994941712
369,309,164713,1,0,0:0:0:0:
337,70,164873,1,0,0:0:0:0:
177,171,165032,2,0,P|225:154|295:156,1,110.499994941712
134,254,165352,1,0,0:0:0:0:
155,0,165511,2,0,P|206:45|172:180,1,220.999989883423
227,25,165990,1,0,0:0:0:0:
34,140,166149,6,0,L|52:260,1,110.499994941712
148,30,166469,2,0,P|86:50|112:90,1,110.499994941712
288,203,166788,2,0,P|314:156|308:92,1,110.499994941712
182,207,167107,2,0,P|182:260|220:313,1,110.499994941712
452,301,167426,2,0,L|323:315,1,110.499994941712
170,218,167745,2,0,L|60:206,1,110.499994941712
388,177,168064,6,0,B|386:146|402:118|402:118|392:69|371:38|371:38|350:92|366:128,1,220.999989883423
469,245,168543,1,0,0:0:0:0:
226,278,168703,1,0,0:0:0:0:
408,362,168862,2,0,P|433:308|435:242,1,110.499994941712
512,232,169181,2,0,P|477:183|421:148,1,110.499994941712
345,146,169501,1,0,0:0:0:0:
136,60,169660,6,0,B|204:40|242:51|242:51|296:72|368:38,1,220.999989883423
90,135,170139,2,0,P|74:188|92:265,1,110.499994941712
199,280,170458,1,0,0:0:0:0:
83,334,170618,1,0,0:0:0:0:
266,344,170777,2,0,L|386:327,1,110.499994941712
188,272,171096,1,0,0:0:0:0:
458,306,171256,2,0,B|475:225|475:225|406:70,1,220.999989883423
359,26,171735,5,0,0:0:0:0:
363,238,171894,1,0,0:0:0:0:
115,146,172054,2,0,L|77:28,1,110.499994941712
248,200,172373,1,0,0:0:0:0:
65,287,172532,1,0,0:0:0:0:
369,274,172692,6,0,P|426:279|386:324,1,110.499994941712
428,85,173011,2,0,P|371:90|411:135,1,110.499994941712
248,200,173330,2,0,L|121:189,1,110.499994941712
254,337,173649,5,0,0:0:0:0:
234,70,173809,1,0,0:0:0:0:
126,356,173969,2,0,L|243:345,1,110.499994941712
418,235,174288,1,0,0:0:0:0:
362,240,174367,1,0,0:0:0:0:
307,245,174447,1,0,0:0:0:0:
252,250,174527,1,0,0:0:0:0:
197,255,174607,5,0,0:0:0:0:
320,157,174767,1,0,0:0:0:0:
160,137,174926,2,0,L|180:260,1,110.499994941712
20,44,175245,2,0,L|151:34,1,110.499994941712
213,57,175485,2,0,L|82:47,1,110.499994941712
43,136,175724,5,0,0:0:0:0:
238,71,175884,1,0,0:0:0:0:
35,153,176043,1,0,0:0:0:0:
334,26,176203,2,0,P|344:80|325:139,1,110.499994941712
195,235,176522,2,0,L|323:221,1,110.499994941712
128,331,176841,1,0,0:0:0:0:
388,165,177001,2,0,P|403:251|392:290,1,110.499994941712
261,100,177320,6,0,B|426:61|426:61|352:52,1,220.999989883423
172,50,177798,1,0,0:0:0:0:
256,199,177958,2,0,L|245:341,1,110.499994941712
70,172,178277,1,0,0:0:0:0:
387,187,178437,6,0,B|328:212|328:212|276:203,1,110.499994941712
142,326,178756,2,0,B|187:333|187:333|246:308,1,110.499994941712
59,235,179075,1,0,0:0:0:0:
338,353,179235,2,0,B|354:280|354:280|333:120,1,220.999989883423
147,75,179713,6,0,L|269:56,1,110.499994941712
75,129,180032,1,0,0:0:0:0:
232,168,180192,2,0,P|200:298|286:333,1,220.999989883423
366,341,180671,5,0,0:0:0:0:
168,278,180830,1,0,0:0:0:0:
419,252,180990,1,0,0:0:0:0:
426,242,181149,2,0,L|413:113,1,110.499994941712
168,278,181469,2,0,P|239:291|224:172,1,220.999989883423
150,140,181947,1,0,0:0:0:0:
408,260,182107,1,0,0:0:0:0:
56,198,182267,6,0,L|70:88,1,110.499994941712
216,338,182586,2,0,L|202:228,1,110.499994941712
299,148,182905,1,0,0:0:0:0:
299,148,183064,1,0,0:0:0:0:
410,150,183224,2,0,B|361:140|361:140|325:152|325:152|288:139,1,110.499994941712
231,247,183543,2,0,B|209:254|209:254|173:242|173:242|124:252,1,110.499994941712
397,353,183862,1,0,0:0:0:0:
238,104,184022,1,0,0:0:0:0:
195,330,184181,6,0,P|250:333|312:308,1,110.499994941712
123,245,184501,2,0,P|68:248|6:223,1,110.499994941712
246,164,184820,2,0,P|280:233|169:328,1,220.999989883423
148,67,185298,2,0,L|267:45,1,110.499994941712
89,155,185618,1,0,0:0:0:0:
357,71,185777,2,0,L|364:186,1,110.499994941712
372,286,186096,5,0,0:0:0:0:
352,300,186256,2,0,L|234:309,1,110.499994941712
23,340,186575,2,0,P|95:282|146:388,1,220.999989883423
56,158,187054,1,0,0:0:0:0:
88,349,187213,1,0,0:0:0:0:
254,235,187373,6,0,L|134:224,1,110.499994941712
247,149,187692,2,0,L|367:138,1,110.499994941712
512,294,188011,2,0,L|392:283,1,110.499994941712
300,275,188330,1,0,0:0:0:0:
300,275,188490,1,0,0:0:0:0:
465,186,188649,1,0,0:0:0:0:
40,322,189926,6,0,L|213:304,1,170
336,335,190405,1,0,0:0:0:0:
141,230,190564,2,0,L|241:217,1,85
361,221,190884,2,0,L|445:231,1,85
283,40,191203,2,0,B|309:86|300:144|300:144|287:108|266:83,1,170
225,218,191681,2,0,B|209:238|196:274|196:274|187:216|213:170,1,170
451,283,192160,6,0,L|272:288,1,170
503,208,192639,1,0,0:0:0:0:
413,95,192798,2,0,L|421:195,1,85
390,328,193118,2,0,B|356:299|356:299|339:174,1,170
241,135,193596,2,0,L|247:198,1,42.5
127,118,193756,2,0,L|116:12,1,85
257,264,194075,2,0,L|270:375,1,85
331,104,194394,6,0,L|402:183,1,85
151,213,194713,2,0,L|80:292,1,85
341,325,195032,2,0,P|410:306|438:291,1,85
315,195,195352,2,0,L|268:186,3,42.5
138,96,195671,6,0,L|149:151,1,42.5
241,324,195830,2,0,L|249:282,1,42.5
175,222,195990,2,0,L|133:230,1,42.5
232,93,196149,2,0,L|273:101,1,42.5
452,125,196309,2,0,P|406:48|308:61,1,170
276,294,196788,2,0,P|288:205|383:178,1,170
252,101,197267,6,0,B|204:101|161:52|161:52|207:47|210:130|160:210|160:210|167:173|250:159|308:213|287:285|287:285|321:360|404:368|472:307|427:218|427:218|358:143|448:69|532:160|489:216|428:220|428:220|377:175|320:187|291:231,1,1185.74996381378
