osu file format v14

[General]
AudioFilename: audio.mp3
AudioLeadIn: 0
PreviewTime: 42080
Countdown: 0
SampleSet: None
StackLeniency: 0.4
Mode: 0
LetterboxInBreaks: 0
WidescreenStoryboard: 1

[Editor]
Bookmarks: 10485,26841,32905,189926
DistanceSpacing: 0.8
BeatDivisor: 4
GridSize: 16
TimelineZoom: 1.9

[Metadata]
Title:Happy Judgement Day
TitleUnicode:Happy Judgement Day
Artist:Neck Deep
ArtistUnicode:Neck Deep
Creator:fstapled
Version:Extra
Source:
Tags:what to put here
BeatmapID:1899856
BeatmapSetID:903421

[Difficulty]
HPDrainRate:5
CircleSize:4
OverallDifficulty:8.4
ApproachRate:9.3
SliderMultiplier:1.85
SliderTickRate:1

[Events]
//Background and Video events
0,0,"owo.jpg",0,0
//Break Periods
2,40764,41841
2,119913,128255
//Storyboard Layer 0 (Background)
//Storyboard Layer 1 (Fail)
//Storyboard Layer 2 (Pass)
//Storyboard Layer 3 (Foreground)
//Storyboard Sound Samples

[TimingPoints]
2267,319.148936170213,4,3,0,70,1,0
8570,-100,4,3,0,5,0,0
8649,-100,4,3,0,70,0,0
22293,-100,4,3,0,5,0,0
22692,-133.333333333333,4,3,0,70,0,0
23889,-133.333333333333,4,3,0,5,0,0
23969,-133.333333333333,4,3,0,70,0,0
25165,-133.333333333333,4,3,0,5,0,0
25245,-133.333333333333,4,3,0,70,0,0
26442,-133.333333333333,4,3,0,5,0,0
26522,-133.333333333333,4,3,0,70,0,0
28995,-133.333333333333,4,3,0,5,0,0
29075,-133.333333333333,4,3,0,70,0,0
30272,-133.333333333333,4,3,0,5,0,0
30352,-133.333333333333,4,3,0,70,0,0
31947,-100,4,3,0,70,0,0
32665,-100,4,3,0,5,0,0
32745,-100,4,3,0,70,0,0
43118,-76.9230769230769,4,3,0,70,0,1
54128,-76.9230769230769,4,3,0,5,0,1
54208,-76.9230769230769,4,3,0,70,0,1
57798,-133.333333333333,4,3,0,70,0,1
58038,-133.333333333333,4,3,0,5,0,1
58437,-76.9230769230769,4,3,0,70,0,1
62267,-100,4,3,0,70,0,0
73517,-100,4,3,0,5,0,0
73596,-133.333333333333,4,3,0,70,0,0
83729,-133.333333333333,4,3,0,5,0,0
83809,-100,4,3,0,70,0,0
90112,-100,4,3,0,5,0,0
90192,-100,4,3,0,70,0,0
91628,-250,4,3,0,70,0,0
92586,-250,4,3,0,5,0,0
92665,-100,4,3,0,70,0,0
93782,-100,4,3,0,5,0,0
94181,-76.9230769230769,4,3,0,70,0,1
105192,-76.9230769230769,4,3,0,5,0,1
105272,-76.9230769230769,4,3,0,70,0,1
109022,-133.333333333333,4,3,0,70,0,1
109341,-133.333333333333,4,3,0,5,0,1
109421,-79.9999999999999,4,3,0,70,0,1
113330,-222.222222222221,4,3,0,30,0,0
128809,-100,4,3,0,70,0,0
129767,-133.333333333333,4,3,0,70,0,0
141336,-133.333333333333,4,3,0,5,0,0
141415,-100,4,3,0,70,0,0
164394,-71.4285714285714,4,3,0,70,0,1
169979,-71.4285714285714,4,3,0,5,0,1
170059,-71.4285714285714,4,3,0,70,0,1
175405,-71.4285714285714,4,3,0,5,0,1
175485,-71.4285714285714,4,3,0,70,0,1
175644,-71.4285714285714,4,3,0,5,0,1
175724,-71.4285714285714,4,3,0,70,0,1
184820,-133.333333333333,4,3,0,70,0,0
186495,-133.333333333333,4,3,0,5,0,0
186575,-133.333333333333,4,3,0,70,0,0
187373,-133.333333333333,4,3,0,70,0,1
188649,-100,4,3,0,70,0,0
195272,-100,4,3,0,5,0,0
195352,-100,4,3,0,70,0,0
197267,-1000,4,3,0,70,0,0
197346,-1000,4,3,0,5,0,0

[HitObjects]
66,152,8171,5,0,0:0:0:0:
176,104,8330,2,0,L|164:266,1,138.75
247,267,8649,2,0,P|189:326|97:297,1,185
347,121,9128,2,0,B|355:178|355:178|332:235|332:235|337:308,1,185
421,105,9607,2,0,P|376:45|283:75,1,185
234,144,10086,5,0,0:0:0:0:
351,121,10245,1,0,0:0:0:0:
351,121,10405,1,0,0:0:0:0:
60,220,10564,2,0,B|33:163|33:163|48:37,1,185
250,90,11043,1,0,0:0:0:0:
247,117,11123,1,0,0:0:0:0:
244,144,11203,1,0,0:0:0:0:
401,153,11362,5,0,0:0:0:0:
123,120,11522,1,0,0:0:0:0:
232,271,11681,1,0,0:0:0:0:
257,7,11841,1,0,0:0:0:0:
278,346,12001,2,0,B|241:363|184:357|161:308|161:308|140:322|113:322,1,185
140,157,12479,6,0,P|207:168|222:284,1,185
74,193,12958,1,0,0:0:0:0:
232,239,13118,2,0,L|324:233,1,92.5
64,346,13437,1,0,0:0:0:0:
220,251,13596,1,0,0:0:0:0:
205,358,13756,6,0,L|191:170,1,185
323,175,14235,2,0,B|191:174|191:174|250:156,1,185
401,363,14713,6,0,P|387:290|280:263,1,185
149,262,15192,1,0,0:0:0:0:
265,64,15352,1,0,0:0:0:0:
280,186,15511,1,0,0:0:0:0:
491,114,15671,2,0,P|439:97|405:201,1,185
472,255,16149,1,0,0:0:0:0:
472,255,16229,1,0,0:0:0:0:
472,255,16309,1,0,0:0:0:0:
291,55,16469,5,0,0:0:0:0:
242,188,16628,2,0,L|134:173,1,92.5
367,174,16947,1,0,0:0:0:0:
73,221,17107,2,0,B|53:185|59:137|88:115|88:115|114:89|107:52|95:23,1,185
228,71,17586,2,0,P|238:148|142:170,1,185
148,27,18064,1,0,0:0:0:0:
319,164,18224,2,0,P|317:204|283:242,1,92.5
189,268,18543,5,0,0:0:0:0:
234,94,18703,1,0,0:0:0:0:
299,358,18862,2,0,B|320:302|320:302|317:172,1,185
318,67,19341,1,0,0:0:0:0:
194,144,19501,2,0,P|188:197|202:256,1,92.5
367,318,19820,2,0,B|397:329|448:306|448:306|472:320|508:319|508:319|475:285,1,185
253,299,20298,5,0,0:0:0:0:
334,164,20458,1,0,0:0:0:0:
186,109,20618,1,0,0:0:0:0:
381,103,20777,2,0,P|412:163|325:240,1,185
241,228,21256,1,0,0:0:0:0:
241,228,21336,1,0,0:0:0:0:
241,228,21415,1,0,0:0:0:0:
159,41,21575,5,0,0:0:0:0:
57,161,21735,1,0,0:0:0:0:
230,227,21894,1,0,0:0:0:0:
58,308,22054,1,0,0:0:0:0:
196,152,22213,2,0,B|235:137|276:146|309:196|309:196|341:233|400:217,1,231.25
465,161,22692,5,0,0:0:0:0:
467,279,22852,1,0,0:0:0:0:
465,150,23011,1,0,0:0:0:0:
467,291,23649,6,0,L|352:300,1,104.06250396967
279,313,23969,1,0,0:0:0:0:
256,132,24128,1,0,0:0:0:0:
278,299,24288,1,0,0:0:0:0:
84,91,24926,6,0,P|86:126|128:97,1,104.06250396967
137,27,25245,1,0,0:0:0:0:
198,194,25405,1,0,0:0:0:0:
270,97,25564,1,0,0:0:0:0:
65,231,26203,6,0,P|81:288|123:313,1,104.06250396967
148,312,26522,1,0,0:0:0:0:
8,370,26681,1,0,0:0:0:0:
215,376,26841,6,0,L|305:369,1,69.3750026464463
337,353,27160,2,0,L|247:346,1,69.3750026464463
121,301,27479,2,0,L|190:295,1,69.3750026464463
420,269,27798,5,0,0:0:0:0:
420,269,27958,1,0,0:0:0:0:
331,125,28118,1,0,0:0:0:0:
234,218,28756,6,0,L|129:211,1,104.06250396967
57,208,29075,1,0,0:0:0:0:
250,219,29235,1,0,0:0:0:0:
44,206,29394,1,0,0:0:0:0:
324,173,30032,6,0,B|330:221|330:221|320:292,1,104.06250396967
301,353,30352,1,0,0:0:0:0:
185,224,30511,1,0,0:0:0:0:
336,164,30671,1,0,0:0:0:0:
152,108,31149,5,0,0:0:0:0:
59,197,31309,2,0,L|48:111,1,69.3750026464463
38,44,31548,1,0,0:0:0:0:
38,44,31628,1,0,0:0:0:0:
138,269,31788,5,0,0:0:0:0:
147,113,31948,1,0,0:0:0:0:
251,207,32107,1,0,0:0:0:0:
66,188,32267,1,0,0:0:0:0:
323,143,32426,2,0,L|332:301,1,138.75
283,353,32745,6,0,L|177:362,1,92.5
76,283,33064,2,0,P|59:226|70:180,1,92.5
149,119,33384,2,0,P|166:176|155:222,1,92.5
166,9,33703,1,0,0:0:0:0:
333,177,33862,6,0,P|282:172|234:196,1,92.5
413,33,34181,1,0,0:0:0:0:
333,177,34341,1,0,0:0:0:0:
495,131,34501,1,0,0:0:0:0:
328,58,34660,1,0,0:0:0:0:
393,261,34820,6,0,L|289:268,1,92.5
216,126,35139,1,0,0:0:0:0:
160,60,35298,2,0,P|201:40|246:48,1,92.5
75,133,35618,2,0,L|64:23,1,92.5
157,198,35937,2,0,L|146:308,1,92.5
6,373,36256,2,0,P|59:359|115:366,1,92.5
329,300,36575,6,0,P|257:306|233:300,1,92.5
405,260,36894,2,0,P|421:316|412:360,1,92.5
277,225,37213,2,0,P|274:177|292:132,1,92.5
360,89,37532,1,0,0:0:0:0:
179,130,37692,2,0,L|83:122,1,92.5
39,46,38011,5,0,0:0:0:0:
82,239,38171,1,0,0:0:0:0:
199,247,38330,2,0,L|92:258,1,92.5
277,171,38649,1,0,0:0:0:0:
123,60,38809,2,0,B|125:98|125:98|128:121|128:121|126:163,1,92.5
142,328,39128,1,0,0:0:0:0:
240,100,39288,5,0,0:0:0:0:
262,93,39368,1,0,0:0:0:0:
284,92,39447,1,0,0:0:0:0:
306,96,39527,1,0,0:0:0:0:
327,105,39607,1,0,0:0:0:0:
358,266,39767,1,0,0:0:0:0:
144,340,39926,5,0,0:0:0:0:
118,301,40005,1,0,0:0:0:0:
111,256,40085,1,0,0:0:0:0:
122,211,40165,1,0,0:0:0:0:
151,176,40245,2,0,P|172:161|206:161,4,46.25
73,77,42479,5,0,0:0:0:0:
197,80,42639,2,0,B|198:135|176:160|176:160|181:200|181:200|167:239|169:283,1,185
270,188,43118,6,0,L|396:185,1,120.249994495392
237,297,43437,1,0,0:0:0:0:
285,69,43596,1,0,0:0:0:0:
397,253,43756,1,0,0:0:0:0:
170,142,43915,1,0,0:0:0:0:
415,94,44075,5,0,0:0:0:0:
103,233,44235,2,0,P|73:164|80:96,1,120.249994495392
260,224,44554,1,0,0:0:0:0:
125,345,44713,1,0,0:0:0:0:
163,134,44873,1,0,0:0:0:0:
310,325,45032,5,0,0:0:0:0:
178,58,45192,2,0,P|121:64|81:114,1,120.249994495392
321,149,45511,2,0,L|330:24,1,120.249994495392
212,204,45830,2,0,B|257:209|257:209|290:232|290:232|348:238,1,120.249994495392
145,257,46149,6,0,P|125:192|164:129,1,120.249994495392
121,343,46469,2,0,B|57:339|57:339|-13:351,1,120.249994495392
41,166,46788,2,0,P|59:108|45:38,1,120.249994495392
171,91,47107,1,0,0:0:0:0:
300,206,47267,6,0,L|287:332,1,120.249994495392
366,139,47586,2,0,P|312:115|256:132,1,120.249994495392
80,270,47905,2,0,P|134:293|190:277,1,120.249994495392
37,169,48224,1,0,0:0:0:0:
290,213,48384,2,0,L|277:338,1,120.249994495392
228,145,48703,6,0,B|227:120|229:87|279:62|325:80|341:120|341:120|382:114|382:114|405:135|454:142,1,240.499988990784
149,51,49181,5,0,0:0:0:0:
168,273,49341,1,0,0:0:0:0:
50,125,49501,2,0,L|60:3,1,120.249994495392
264,91,49820,1,0,0:0:0:0:
103,200,49979,2,0,B|167:190|167:190|228:212|228:212|355:192,1,240.499988990784
185,68,50458,1,0,0:0:0:0:
221,322,50618,1,0,0:0:0:0:
390,220,50777,5,0,0:0:0:0:
390,220,50937,1,0,0:0:0:0:
141,151,51096,1,0,0:0:0:0:
335,44,51256,1,0,0:0:0:0:
285,302,51415,5,0,0:0:0:0:
285,302,51575,1,0,0:0:0:0:
234,72,51735,1,0,0:0:0:0:
161,264,51894,1,0,0:0:0:0:
389,153,52054,5,0,0:0:0:0:
389,153,52213,1,0,0:0:0:0:
121,121,52373,1,0,0:0:0:0:
438,257,52532,1,0,0:0:0:0:
246,349,52692,5,0,0:0:0:0:
246,349,52852,1,0,0:0:0:0:
280,164,53011,1,0,0:0:0:0:
250,159,53091,1,0,0:0:0:0:
220,155,53171,1,0,0:0:0:0:
190,151,53251,1,0,0:0:0:0:
160,147,53330,2,0,L|165:23,1,120.249994495392
391,118,53649,6,0,P|389:194|362:231,1,120.249994495392
243,97,53969,2,0,P|307:52|356:80,1,120.249994495392
313,152,54208,2,0,P|249:197|200:169,1,120.249994495392
104,123,54447,2,0,L|91:269,2,120.249994495392
40,311,54926,6,0,P|98:320|174:299,1,120.249994495392
0,35,55245,2,0,L|1:167,1,120.249994495392
186,117,55564,1,0,0:0:0:0:
97,72,55724,2,0,L|98:204,1,120.249994495392
297,285,56043,6,0,P|225:233|172:237,2,120.249994495392
218,322,56522,1,0,0:0:0:0:
323,184,56681,2,0,L|317:51,1,120.249994495392
156,169,57001,5,0,0:0:0:0:
156,169,57080,1,0,0:0:0:0:
156,169,57160,5,0,0:0:0:0:
400,117,57320,1,0,0:0:0:0:
246,295,57479,5,0,0:0:0:0:
217,43,57639,1,0,0:0:0:0:
387,224,57798,5,0,0:0:0:0:
164,247,57958,2,0,P|102:231|90:125,1,173.437506616116
100,110,58437,1,0,0:0:0:0:
126,327,58596,1,0,0:0:0:0:
211,171,58756,2,0,B|378:162|378:162|293:153,1,240.499988990784
292,274,59235,5,0,0:0:0:0:
304,265,59394,1,0,0:0:0:0:
274,28,59554,1,0,0:0:0:0:
102,133,59713,1,0,0:0:0:0:
412,61,59873,2,0,L|283:55,1,120.249994495392
201,133,60192,6,0,B|382:145|382:145|309:152,1,240.499988990784
126,57,60671,1,0,0:0:0:0:
129,232,60830,1,0,0:0:0:0:
129,232,60910,1,0,0:0:0:0:
129,232,60990,5,0,0:0:0:0:
256,93,61149,1,0,0:0:0:0:
35,49,61309,5,0,0:0:0:0:
260,233,61469,1,0,0:0:0:0:
141,23,61628,5,0,0:0:0:0:
68,291,61788,1,0,0:0:0:0:
319,145,61947,5,0,0:0:0:0:
12,89,62107,1,0,0:0:0:0:
338,325,62267,5,0,0:0:0:0:
94,64,63543,6,0,B|145:75|177:53|177:53|193:60|193:60|235:39|278:55,1,185
345,95,64022,1,0,0:0:0:0:
257,217,64181,2,0,P|237:166|246:121,1,92.5
405,193,64501,1,0,0:0:0:0:
349,333,64660,1,0,0:0:0:0:
249,210,64820,6,0,B|205:193|146:213|121:251|121:251|146:238|174:242,1,185
342,227,65298,2,0,B|359:183|339:124|301:99|301:99|314:124|310:152,1,185
228,117,65777,2,0,P|241:50|349:34,1,185
404,126,66256,1,0,0:0:0:0:
152,199,66415,5,0,0:0:0:0:
302,332,66575,1,0,0:0:0:0:
298,235,66735,2,0,B|258:225|226:258|226:258|200:290|127:286,1,185
396,280,67213,1,0,0:0:0:0:
397,261,67293,1,0,0:0:0:0:
397,242,67373,6,0,L|401:146,1,92.5
321,31,67692,2,0,L|317:127,1,92.5
311,221,68011,1,0,0:0:0:0:
121,221,68171,2,0,B|146:199|152:174|152:174|130:231|134:271|156:301,1,185
28,156,68649,6,0,B|47:130|51:90|28:33|28:33|34:58|60:80,1,185
45,284,69128,1,0,0:0:0:0:
154,141,69288,2,0,L|255:131,1,92.5
20,167,69607,2,0,L|29:283,1,92.5
127,353,69926,2,0,B|114:211|114:211|142:255,1,185
77,67,70405,5,0,0:0:0:0:
173,146,70564,2,0,L|267:143,1,92.5
326,68,70884,2,0,B|358:119|358:119|360:261,1,185
363,337,71362,5,0,0:0:0:0:
455,175,71522,1,0,0:0:0:0:
271,255,71681,1,0,0:0:0:0:
335,93,71841,2,0,B|371:95|385:134|385:134|411:96|455:86|489:111,1,185
260,168,72320,1,0,0:0:0:0:
260,168,72399,1,0,0:0:0:0:
260,168,72479,1,0,0:0:0:0:
228,49,72639,5,0,0:0:0:0:
227,287,72798,1,0,0:0:0:0:
366,158,72958,1,0,0:0:0:0:
111,153,73118,1,0,0:0:0:0:
296,255,73277,2,0,P|301:326|230:361,1,138.75
166,346,73596,6,0,L|92:337,1,69.3750026464463
226,267,73915,2,0,L|152:258,1,69.3750026464463
48,225,74235,1,0,0:0:0:0:
310,252,74394,2,0,P|306:295|289:327,1,69.3750026464463
239,131,74713,5,0,0:0:0:0:
323,58,74873,2,0,L|406:48,1,69.3750026464463
484,28,75192,1,0,0:0:0:0:
415,216,75352,1,0,0:0:0:0:
480,127,75511,6,0,P|443:115|401:123,1,69.3750026464463
189,242,75830,2,0,L|269:237,1,69.3750026464463
494,331,76149,2,0,L|339:324,1,138.750005292893
12,356,76628,6,0,L|86:351,1,69.3750026464463
239,271,76947,2,0,L|160:276,1,69.3750026464463
80,195,77267,1,0,0:0:0:0:
314,309,77426,2,0,P|321:269|309:222,1,69.3750026464463
280,144,77745,5,0,0:0:0:0:
230,287,77905,2,0,L|243:369,1,69.3750026464463
141,127,78224,1,0,0:0:0:0:
85,200,78384,2,0,B|41:200|41:200|7:190,1,69.3750026464463
152,144,78703,2,0,P|174:187|174:213,1,69.3750026464463
139,36,79022,5,0,0:0:0:0:
230,110,79181,2,0,P|267:130|299:130,1,69.3750026464463
379,84,79501,1,0,0:0:0:0:
273,263,79660,2,0,P|270:323|284:356,1,69.3750026464463
425,291,79979,2,0,L|341:298,2,69.3750026464463
306,122,80458,6,0,L|231:113,1,69.3750026464463
373,63,80777,2,0,L|441:54,1,69.3750026464463
272,24,81096,1,0,0:0:0:0:
512,122,81256,2,0,L|500:214,1,69.3750026464463
457,263,81575,2,0,L|469:355,1,69.3750026464463
21,20,82213,5,0,0:0:0:0:
97,124,82373,1,0,0:0:0:0:
85,272,82532,1,0,0:0:0:0:
85,272,82612,1,0,0:0:0:0:
85,272,82692,1,0,0:0:0:0:
99,110,82852,1,0,0:0:0:0:
223,214,83011,5,0,0:0:0:0:
360,162,83171,2,0,P|373:202|371:237,1,69.3750026464463
289,81,83490,2,0,L|397:69,1,104.06250396967
475,136,83809,6,0,L|383:146,1,92.5
224,169,84128,1,0,0:0:0:0:
369,234,84288,2,0,P|380:288|380:345,1,92.5
187,67,84607,2,0,B|237:63|237:63|295:89,1,92.5
274,290,84926,2,0,B|224:294|224:294|166:268,1,92.5
48,153,85245,6,0,L|56:263,2,92.5
141,320,85724,1,0,0:0:0:0:
141,320,85884,2,0,L|133:210,1,92.5
326,259,86203,2,0,B|267:259|267:259|220:278,1,92.5
379,192,86522,6,0,P|418:263|399:306,1,92.5
305,141,86841,2,0,P|376:102|419:121,1,92.5
466,137,87160,1,0,0:0:0:0:
215,96,87320,2,0,L|208:4,1,92.5
161,186,87639,6,0,B|88:186|88:186|111:175,1,92.5
13,139,87958,2,0,P|4:186|16:238,1,92.5
238,351,88277,2,0,P|246:305|237:260,1,92.5
161,186,88596,1,0,0:0:0:0:
425,299,88756,2,0,L|318:299,1,92.5
172,300,89075,5,0,0:0:0:0:
472,228,89235,1,0,0:0:0:0:
451,117,89394,2,0,L|456:230,1,92.5
166,193,89713,1,0,0:0:0:0:
338,167,89873,1,0,0:0:0:0:
47,107,90032,6,0,L|112:120,1,46.25
257,240,90192,1,0,0:0:0:0:
259,258,90272,1,0,0:0:0:0:
262,276,90352,5,0,0:0:0:0:
432,218,90511,1,0,0:0:0:0:
269,84,90671,1,0,0:0:0:0:
187,323,90830,1,0,0:0:0:0:
328,196,90990,1,0,0:0:0:0:
109,175,91149,5,0,0:0:0:0:
111,193,91229,1,0,0:0:0:0:
114,211,91309,1,0,0:0:0:0:
117,229,91389,1,0,0:0:0:0:
120,247,91469,1,0,0:0:0:0:
123,264,91548,1,0,0:0:0:0:
125,281,91628,6,0,B|168:298|213:286|230:235|213:197|213:197|252:218|278:200,1,222
365,160,92745,1,0,0:0:0:0:
366,171,92825,1,0,0:0:0:0:
367,182,92905,1,0,0:0:0:0:
281,106,93064,1,0,0:0:0:0:
461,90,93224,5,0,0:0:0:0:
461,90,93384,1,0,0:0:0:0:
83,140,93543,5,0,0:0:0:0:
186,49,93703,2,0,B|186:79|169:108|169:108|183:148|183:148|159:170|157:211|198:246|241:215,1,231.25,8|0,0:0|0:0,0:0:0:0:
320,150,94181,6,0,L|308:273,1,120.249994495392
511,202,94501,2,0,P|453:188|395:204,1,120.249994495392
457,294,94820,1,0,0:0:0:0:
434,110,94979,1,0,0:0:0:0:
306,237,95139,1,0,0:0:0:0:
390,37,95298,2,0,P|469:35|504:66,2,120.249994495392
336,121,95777,6,0,B|273:135|273:135|199:114,1,120.249994495392
436,104,96096,1,0,0:0:0:0:
313,244,96256,2,0,L|319:377,1,120.249994495392
127,182,96575,6,0,L|121:49,1,120.249994495392
211,222,96894,2,0,P|151:271|111:273,1,120.249994495392
206,119,97213,2,0,B|267:111|267:111|328:148,1,120.249994495392
42,192,97532,6,0,L|30:62,1,120.249994495392
304,255,97852,2,0,L|291:378,1,120.249994495392
195,133,98171,1,0,0:0:0:0:
304,255,98330,1,0,0:0:0:0:
389,108,98490,1,0,0:0:0:0:
128,86,98649,6,0,P|184:53|243:68,1,120.249994495392
26,45,98969,2,0,L|57:161,1,120.249994495392
115,274,99288,1,0,0:0:0:0:
221,188,99447,1,0,0:0:0:0:
215,299,99607,2,0,B|268:306|299:280|299:280|319:286|319:286|351:274|413:284|413:284|391:272|380:253,1,240.499988990784
328,187,100086,5,0,0:0:0:0:
347,360,100245,1,0,0:0:0:0:
327,173,100405,1,0,0:0:0:0:
205,306,100564,2,0,P|147:313|82:292,1,120.249994495392
328,173,100884,1,0,0:0:0:0:
442,241,101043,2,0,P|467:155|365:52,1,240.499988990784
115,228,101522,5,0,0:0:0:0:
328,173,101681,1,0,0:0:0:0:
55,295,101841,2,0,P|35:243|43:170,1,120.249994495392
317,250,102160,5,0,0:0:0:0:
115,228,102320,1,0,0:0:0:0:
390,204,102479,2,0,P|397:284|362:324,1,120.249994495392
279,86,102798,2,0,L|403:65,1,120.249994495392
222,157,103118,6,0,P|189:98|204:31,1,120.249994495392
349,161,103437,1,0,0:0:0:0:
285,345,103596,1,0,0:0:0:0:
433,282,103756,5,0,0:0:0:0:
145,282,103915,1,0,0:0:0:0:
308,118,104075,1,0,0:0:0:0:
274,107,104154,1,0,0:0:0:0:
239,113,104234,1,0,0:0:0:0:
209,132,104314,1,0,0:0:0:0:
188,161,104394,6,0,P|119:186|71:163,1,120.249994495392
396,76,104713,2,0,L|383:200,1,120.249994495392
350,312,105032,2,0,L|196:305,1,120.249994495392
203,304,105272,1,0,0:0:0:0:
444,262,105511,2,0,P|448:343|418:396,2,120.249994495392
357,191,105990,6,0,B|346:127|346:127|359:55,1,120.249994495392
175,210,106309,2,0,L|46:218,1,120.249994495392
239,64,106628,5,0,0:0:0:0:
185,316,106788,2,0,L|56:324,1,120.249994495392
291,259,107107,2,0,P|308:338|289:397,2,120.249994495392
184,181,107586,1,0,0:0:0:0:
364,173,107745,2,0,B|430:165|430:165|485:143,1,120.249994495392
261,56,108064,5,0,0:0:0:0:
261,56,108144,1,0,0:0:0:0:
261,56,108224,5,0,0:0:0:0:
467,136,108384,1,0,0:0:0:0:
182,197,108543,5,0,0:0:0:0:
458,14,108703,1,0,0:0:0:0:
163,193,108862,5,0,0:0:0:0:
303,167,109022,2,0,B|311:239|311:239|267:299,1,138.750005292893
192,104,109501,1,0,0:0:0:0:
384,65,109660,1,0,0:0:0:0:
221,182,109820,2,0,B|197:188|163:195|125:172|111:127|111:127|74:113|36:126|17:155,1,231.25
418,188,110298,1,0,0:0:0:0:
310,296,110458,5,0,0:0:0:0:
274,111,110618,1,0,0:0:0:0:
425,182,110777,1,0,0:0:0:0:
194,65,110937,2,0,P|185:126|215:180,1,115.625
350,163,111256,6,0,B|393:200|403:273|377:313|377:313|374:266|345:237,1,231.25
230,158,111735,5,0,0:0:0:0:
385,110,111894,1,0,0:0:0:0:
188,62,112054,5,0,0:0:0:0:
382,188,112213,1,0,0:0:0:0:
138,216,112373,5,0,0:0:0:0:
332,90,112532,1,0,0:0:0:0:
155,127,112692,5,0,0:0:0:0:
282,300,112852,1,0,0:0:0:0:
276,81,113011,5,0,0:0:0:0:
150,272,113171,1,0,0:0:0:0:
358,197,113330,5,0,0:0:0:0:
419,64,114607,6,0,L|430:5,7,41.6249987297059
334,146,115884,2,0,L|323:87,7,41.6249987297059
432,191,117160,2,0,L|424:231,7,41.6249987297059
336,294,118437,2,0,L|343:334,7,41.6249987297059
356,342,119713,1,0,0:0:0:0:
93,95,128809,6,0,L|154:80,1,46.25
331,148,128969,2,0,L|260:143,1,46.25
179,244,129128,2,0,L|188:295,1,46.25
242,76,129288,2,0,L|236:29,3,46.25
136,143,129607,1,0,0:0:0:0:
295,234,129767,5,0,0:0:0:0:
295,234,129846,1,0,0:0:0:0:
295,234,129926,6,0,B|346:233|377:225|395:180|395:180|417:211,1,138.750005292893
190,318,130564,2,0,B|158:292|144:259|144:259|162:227|160:173,1,138.750005292893
275,82,131203,2,0,B|299:113|301:147|282:187|282:187|301:168,1,138.750005292893
351,245,131841,2,0,P|274:269|216:249,1,138.750005292893
470,198,132479,2,0,B|488:216|490:249|474:276|474:276|463:291|465:326|477:346,1,138.750005292893
196,47,133118,6,0,P|157:38|114:58,1,69.3750026464463
226,157,133437,2,0,P|258:175|308:168,1,69.3750026464463
275,75,133756,2,0,P|289:46|286:-7,1,69.3750026464463
142,138,134075,2,0,P|128:167|131:220,1,69.3750026464463
192,284,134394,2,0,B|243:278|243:278|283:297|283:297|342:290,1,138.750005292893
305,198,134873,5,0,0:0:0:0:
398,331,135032,2,0,B|410:229|410:229|389:269,1,138.750005292893
292,182,135671,2,0,B|280:80|280:80|301:120,1,138.750005292893
429,84,136309,2,0,B|441:-18|441:-18|420:22,1,138.750005292893
487,154,136947,2,0,B|421:172|421:172|356:144,1,138.750005292893
208,74,137586,5,0,0:0:0:0:
286,228,137745,1,0,0:0:0:0:
313,107,137905,5,0,0:0:0:0:
128,176,138064,1,0,0:0:0:0:
362,197,138224,5,0,0:0:0:0:
165,78,138384,1,0,0:0:0:0:
188,286,138543,5,0,0:0:0:0:
268,75,138703,1,0,0:0:0:0:
59,179,138862,5,0,0:0:0:0:
344,231,139022,1,0,0:0:0:0:
90,278,139181,5,0,0:0:0:0:
309,119,139341,1,0,0:0:0:0:
213,325,139501,5,0,0:0:0:0:
163,87,139660,1,0,0:0:0:0:
285,271,139820,5,0,0:0:0:0:
84,141,139979,1,0,0:0:0:0:
325,139,140139,5,0,0:0:0:0:
499,308,141096,6,0,B|464:312|464:312|447:307|447:307|417:304|417:304|390:310,1,104.06250396967
360,375,141415,2,0,P|320:325|380:236,1,185
456,239,141894,1,0,0:0:0:0:
252,244,142054,2,0,P|235:293|241:338,1,92.5
361,202,142373,1,0,0:0:0:0:
243,98,142532,1,0,0:0:0:0:
467,166,142692,6,0,B|439:303|439:303|431:249,1,185
22,186,143171,2,0,P|62:151|168:211,1,185
201,300,143649,2,0,B|251:260|251:260|270:130,1,185
282,44,144128,1,0,0:0:0:0:
397,165,144288,1,0,0:0:0:0:
172,205,144447,1,0,0:0:0:0:
405,160,144607,2,0,P|435:237|349:291,1,185
273,285,145086,5,0,0:0:0:0:
273,285,145165,1,0,0:0:0:0:
273,285,145245,1,0,0:0:0:0:
363,62,145405,1,0,0:0:0:0:
92,190,145564,5,0,0:0:0:0:
172,340,145724,1,0,0:0:0:0:
235,117,145884,1,0,0:0:0:0:
215,274,146043,2,0,B|190:252|143:250|114:275|105:301|105:301|86:275|51:276,1,185
323,171,146522,6,0,L|332:365,1,185
233,137,147001,1,0,0:0:0:0:
402,176,147160,2,0,L|407:294,1,92.5
316,66,147479,1,0,0:0:0:0:
241,220,147639,1,0,0:0:0:0:
512,325,147798,2,0,B|495:334|462:322|462:322|439:353|400:359|356:342|341:303,1,185
427,119,148277,6,0,B|409:271|409:271|393:222,1,185
164,146,148756,2,0,B|234:144|234:144|286:169|286:169|363:168,1,185
211,234,149235,1,0,0:0:0:0:
321,55,149394,1,0,0:0:0:0:
337,271,149554,1,0,0:0:0:0:
159,160,149713,5,0,0:0:0:0:
417,118,149873,1,0,0:0:0:0:
222,249,150032,5,0,0:0:0:0:
225,63,150192,1,0,0:0:0:0:
330,188,150352,1,0,0:0:0:0:
120,246,150511,1,0,0:0:0:0:
120,246,150591,1,0,0:0:0:0:
120,246,150671,1,0,0:0:0:0:
330,188,150830,5,0,0:0:0:0:
330,188,150990,1,0,0:0:0:0:
224,225,151149,2,0,L|232:348,1,92.5
312,107,151469,1,0,0:0:0:0:
309,93,151548,1,0,0:0:0:0:
306,79,151628,2,0,B|248:90|206:67|206:67|171:106|116:95,1,185
405,142,152107,5,0,0:0:0:0:
338,207,152267,2,0,L|349:312,1,92.5
436,252,152586,1,0,0:0:0:0:
272,276,152745,1,0,0:0:0:0:
478,375,152905,6,0,B|452:347|401:345|380:368|380:368|350:379|312:375|284:343,1,185
216,243,153384,2,0,P|297:213|338:296,1,185
200,329,153862,2,0,P|129:262|160:170,1,185
295,284,154341,1,0,0:0:0:0:
311,295,154501,2,0,L|303:399,1,92.5
401,309,154820,6,0,L|415:122,1,185
426,32,155298,1,0,0:0:0:0:
426,32,155378,1,0,0:0:0:0:
426,32,155458,1,0,0:0:0:0:
305,149,155618,1,0,0:0:0:0:
474,128,155777,5,0,0:0:0:0:
262,53,155937,1,0,0:0:0:0:
430,211,156096,1,0,0:0:0:0:
221,162,156256,2,0,B|187:193|179:259|233:302|233:302|226:254,1,185
127,352,156735,2,0,P|185:371|224:270,1,185
63,288,157213,1,0,0:0:0:0:
184,73,157373,6,0,L|283:85,1,92.5
367,140,157692,2,0,L|459:129,1,92.5
397,242,158011,2,0,P|315:231|203:227,1,185
7,334,158490,2,0,P|99:315|201:319,1,185
348,366,158969,6,0,B|346:216|346:216|324:284,1,185
335,358,159447,1,0,0:0:0:0:
419,223,159607,1,0,0:0:0:0:
254,158,159767,1,0,0:0:0:0:
476,178,159926,2,0,P|496:249|404:297,1,185
327,266,160405,1,0,0:0:0:0:
327,266,160485,1,0,0:0:0:0:
327,266,160564,5,0,0:0:0:0:
268,97,160724,1,0,0:0:0:0:
174,232,160884,2,0,P|116:242|61:224,1,92.5
365,132,161203,1,0,0:0:0:0:
198,63,161362,2,0,P|196:131|302:173,1,185
375,138,161841,5,0,0:0:0:0:
290,285,162001,1,0,0:0:0:0:
248,75,162160,5,0,0:0:0:0:
348,221,162320,1,0,0:0:0:0:
370,13,162479,5,0,0:0:0:0:
257,148,162639,1,0,0:0:0:0:
465,147,162798,5,0,0:0:0:0:
132,217,162958,1,0,0:0:0:0:
375,285,163118,5,0,0:0:0:0:
48,150,164394,6,0,L|41:288,1,129.499996047974
202,162,164713,1,0,0:0:0:0:
115,33,164873,1,0,0:0:0:0:
154,257,165032,2,0,B|218:272|218:272|303:261,1,129.499996047974
449,189,165352,1,0,0:0:0:0:
337,80,165511,2,0,B|339:144|339:144|369:230|369:230|368:353,1,258.999992095948
251,108,165990,5,0,0:0:0:0:
251,108,166149,2,0,P|195:137|125:118,1,129.499996047974
35,272,166469,2,0,P|91:243|161:262,1,129.499996047974
248,346,166788,2,0,L|261:208,1,129.499996047974
363,112,167107,2,0,L|375:240,1,129.499996047974
0,219,167426,2,0,L|148:211,1,129.499996047974
277,360,167745,2,0,L|144:347,1,129.499996047974
276,255,168064,2,0,L|425:240,2,129.499996047974
249,103,168543,5,0,0:0:0:0:
191,318,168703,1,0,0:0:0:0:
332,186,168862,2,0,P|353:237|338:322,1,129.499996047974
249,103,169181,2,0,P|256:37|282:-21,1,129.499996047974
378,86,169501,1,0,0:0:0:0:
240,218,169660,2,0,B|216:241|174:247|146:228|146:228|104:249|104:249|34:214|34:214|76:215,1,258.999992095948
310,160,170139,6,0,P|326:233|301:287,1,129.499996047974
401,102,170458,1,0,0:0:0:0:
298,293,170618,1,0,0:0:0:0:
233,129,170777,2,0,L|238:-3,1,129.499996047974
330,216,171096,1,0,0:0:0:0:
131,178,171256,2,0,B|103:213|89:253|90:313|122:361|122:361|131:321|164:290,1,258.999992095948
65,91,171735,1,0,0:0:0:0:
241,244,171894,1,0,0:0:0:0:
261,47,172054,6,0,L|390:38,1,129.499996047974
352,271,172373,1,0,0:0:0:0:
346,137,172532,1,0,0:0:0:0:
425,353,172692,2,0,L|292:359,1,129.499996047974
94,293,173011,2,0,L|223:287,1,129.499996047974
19,257,173330,2,0,P|24:336|76:371,1,129.499996047974
183,197,173649,1,0,0:0:0:0:
57,62,173809,1,0,0:0:0:0:
287,115,173969,5,0,0:0:0:0:
44,154,174128,1,0,0:0:0:0:
197,50,174288,1,0,0:0:0:0:
199,88,174368,1,0,0:0:0:0:
201,126,174447,1,0,0:0:0:0:
204,164,174527,1,0,0:0:0:0:
208,202,174607,6,0,L|347:191,1,129.499996047974
195,282,174926,2,0,P|132:249|130:182,1,129.499996047974
379,80,175245,2,0,L|363:232,1,129.499996047974
449,196,175485,2,0,L|433:348,1,129.499996047974
428,354,175724,2,0,P|363:308|297:306,2,129.499996047974
242,366,176203,2,0,B|215:333|215:333|224:225,1,129.499996047974
3,274,176522,6,0,L|133:281,1,129.499996047974
340,289,176841,1,0,0:0:0:0:
241,184,177001,2,0,P|236:117|268:58,1,129.499996047974
447,223,177320,2,0,P|450:301|426:358,2,129.499996047974
365,148,177798,5,0,0:0:0:0:
167,231,177958,2,0,L|135:90,1,129.499996047974
319,280,178277,1,0,0:0:0:0:
248,75,178437,5,0,0:0:0:0:
230,337,178596,1,0,0:0:0:0:
336,28,178756,5,0,0:0:0:0:
148,219,178915,1,0,0:0:0:0:
408,251,179075,5,0,0:0:0:0:
213,154,179235,2,0,P|79:155|76:273,1,258.999992095948
313,73,179713,1,0,0:0:0:0:
270,242,179873,1,0,0:0:0:0:
135,205,180032,1,0,0:0:0:0:
402,149,180511,5,0,0:0:0:0:
352,302,180671,1,0,0:0:0:0:
246,197,180830,1,0,0:0:0:0:
467,243,180990,1,0,0:0:0:0:
296,60,181149,2,0,B|343:57|343:57|380:42|380:42|432:41,1,129.499996047974
161,91,181469,2,0,B|187:131|184:209|166:264|166:264|183:209|200:188,1,258.999992095948
268,104,181947,5,0,0:0:0:0:
46,164,182107,1,0,0:0:0:0:
338,158,182267,2,0,P|347:73|323:41,1,129.499996047974
108,68,182586,1,0,0:0:0:0:
125,268,182745,1,0,0:0:0:0:
258,188,182905,6,0,L|265:333,1,129.499996047974
325,57,183224,2,0,B|294:45|271:54|271:54|246:37|246:37|218:48|194:38,1,129.499996047974
369,169,183543,2,0,B|384:176|412:165|412:165|437:182|437:182|460:173|491:185,1,129.499996047974
171,126,183862,1,0,0:0:0:0:
347,263,184022,1,0,0:0:0:0:
194,348,184181,2,0,B|147:338|147:338|107:344|107:344|54:334,1,129.499996047974
203,259,184501,2,0,B|156:249|156:249|116:255|116:255|75:247,1,129.499996047974
200,139,184820,5,0,0:0:0:0:
93,86,184979,1,0,0:0:0:0:
116,177,185139,1,0,0:0:0:0:
169,55,185298,2,0,B|217:45|217:45|305:88,1,138.750005292893
338,181,185777,1,0,0:0:0:0:
403,58,185937,1,0,0:0:0:0:
403,235,186096,5,0,0:0:0:0:
393,254,186256,2,0,P|323:268|285:255,1,104.06250396967
212,195,186575,2,0,P|134:183|94:239,1,138.750005292893
80,306,187054,1,0,0:0:0:0:
153,53,187213,2,0,L|159:106,1,34.6875013232232
201,275,187373,5,0,0:0:0:0:
298,132,187532,1,0,0:0:0:0:
125,196,187692,5,0,0:0:0:0:
375,234,187852,1,0,0:0:0:0:
180,97,188011,5,0,0:0:0:0:
246,313,188171,1,0,0:0:0:0:
302,30,188330,5,0,0:0:0:0:
104,250,188490,1,0,0:0:0:0:
381,126,188649,5,0,0:0:0:0:
70,279,189926,6,0,P|115:339|208:309,1,185
213,215,190405,1,0,0:0:0:0:
304,159,190564,2,0,B|297:178|303:211|334:227|334:227|325:247|322:269,1,92.5
300,85,190884,2,0,B|268:82|240:99|232:115|232:115|211:106|190:103,1,92.5
84,29,191203,6,0,P|74:118|135:194,1,185
234,109,191681,2,0,P|196:43|166:125,1,185
285,201,192160,2,0,B|342:225|342:225|361:206|386:198|386:198|386:174|397:154|397:154|388:113,1,185
325,66,192639,5,0,0:0:0:0:
389,286,192798,1,0,0:0:0:0:
463,95,192958,1,0,0:0:0:0:
176,182,193118,2,0,B|228:170|260:191|260:191|296:219|368:204,1,185
222,319,193596,2,0,L|212:256,2,46.25
322,129,193915,5,0,0:0:0:0:
389,54,194075,2,0,P|342:35|290:37,1,92.5
451,117,194394,2,0,P|470:70|468:18,1,92.5
370,187,194713,2,0,P|351:234|353:286,1,92.5
455,338,195032,2,0,L|296:346,1,138.75
212,353,195352,6,0,L|201:298,3,46.25
233,233,195671,1,0,0:0:0:0:
259,196,195750,1,0,0:0:0:0:
304,190,195830,1,0,0:0:0:0:
340,217,195910,1,0,0:0:0:0:
345,261,195990,5,0,0:0:0:0:
350,305,196070,1,0,0:0:0:0:
386,332,196150,1,0,0:0:0:0:
431,326,196230,1,0,0:0:0:0:
457,289,196309,6,0,P|430:245|341:306,1,185
270,57,196788,2,0,P|296:13|386:74,1,185
183,276,197267,6,0,B|119:212|119:85|225:-21|331:42|310:148|255:191|255:191|264:167|253:129,1,499.5
