osu file format v14

[General]
AudioFilename: audio.mp3
AudioLeadIn: 0
PreviewTime: 100783
Countdown: 1
SampleSet: None
StackLeniency: 0.7
Mode: 1
LetterboxInBreaks: 0
WidescreenStoryboard: 1

[Editor]
Bookmarks: 7783,25783,37783,49783,61783,73783,88783,100783,112783,124783
DistanceSpacing: 0.5
BeatDivisor: 4
GridSize: 32
TimelineZoom: 1.6

[Metadata]
Title:GATORIX
TitleUnicode:GATORIX
Artist:NeLiME vs Presti
ArtistUnicode:NeLiME vs Presti
Creator:Lno
Version:Ura Oni
Source:Cytus
Tags:
BeatmapID:1428496
BeatmapSetID:675235

[Difficulty]
HPDrainRate:5
CircleSize:5
OverallDifficulty:6
ApproachRate:5
SliderMultiplier:1.4
SliderTickRate:1

[Events]
//Background and Video events
0,0,"10-10.jpg",0,0
//Break Periods
//Storyboard Layer 0 (Background)
//Storyboard Layer 1 (Fail)
//Storyboard Layer 2 (Pass)
//Storyboard Layer 3 (Foreground)
//Storyboard Sound Samples

[TimingPoints]
1783,375,4,1,0,100,1,0
7783,-80,4,1,0,100,0,0
25408,-25,4,1,0,100,0,0
25783,-66.6666666666667,4,1,0,100,0,0
37783,-80,4,1,0,100,0,0
49783,-80,4,1,0,100,0,0
49876,-81.3008130081301,4,1,0,100,0,0
49970,-82.6446280991736,4,1,0,100,0,0
50064,-84.0336134453781,4,1,0,100,0,0
50158,-85.4700854700855,4,1,0,100,0,0
50251,-86.9565217391304,4,1,0,100,0,0
50345,-88.4955752212389,4,1,0,100,0,0
50439,-90.0900900900901,4,1,0,100,0,0
50533,-91.743119266055,4,1,0,100,0,0
50626,-93.4579439252336,4,1,0,100,0,0
50720,-97.0873786407767,4,1,0,100,0,0
50814,-99.009900990099,4,1,0,100,0,0
50908,-101.010101010101,4,1,0,100,0,0
51001,-103.092783505155,4,1,0,100,0,0
51095,-105.263157894737,4,1,0,100,0,0
51189,-107.52688172043,4,1,0,100,0,0
51283,-109.89010989011,4,1,0,100,0,0
51376,-112.359550561798,4,1,0,100,0,0
51470,-114.942528735632,4,1,0,100,0,0
51564,-117.647058823529,4,1,0,100,0,0
51658,-120.481927710843,4,1,0,100,0,0
51751,-123.456790123457,4,1,0,100,0,0
51845,-126.582278481013,4,1,0,100,0,0
51939,-129.87012987013,4,1,0,100,0,0
52033,-133.333333333333,4,1,0,100,0,0
52126,-136.986301369863,4,1,0,100,0,0
52220,-140.845070422535,4,1,0,100,0,0
52314,-144.927536231884,4,1,0,100,0,0
52408,-149.253731343284,4,1,0,100,0,0
52501,-153.846153846154,4,1,0,100,0,0
52595,-158.730158730159,4,1,0,100,0,0
52689,-163.934426229508,4,1,0,100,0,0
52783,-169.491525423729,4,1,0,100,0,0
52876,-163.934426229508,4,1,0,100,0,0
52970,-158.730158730159,4,1,0,100,0,0
53064,-153.846153846154,4,1,0,100,0,0
53158,-149.253731343284,4,1,0,100,0,0
53251,-144.927536231884,4,1,0,100,0,0
53345,-140.845070422535,4,1,0,100,0,0
53439,-136.986301369863,4,1,0,100,0,0
53533,-133.333333333333,4,1,0,100,0,0
53626,-129.87012987013,4,1,0,100,0,0
53720,-126.582278481013,4,1,0,100,0,0
53814,-123.456790123457,4,1,0,100,0,0
53908,-120.481927710843,4,1,0,100,0,0
54001,-117.647058823529,4,1,0,100,0,0
54095,-114.942528735632,4,1,0,100,0,0
54189,-112.359550561798,4,1,0,100,0,0
54283,-109.89010989011,4,1,0,100,0,0
54376,-107.52688172043,4,1,0,100,0,0
54470,-105.263157894737,4,1,0,100,0,0
54564,-103.092783505155,4,1,0,100,0,0
54658,-101.010101010101,4,1,0,100,0,0
54751,-99.009900990099,4,1,0,100,0,0
54845,-97.0873786407767,4,1,0,100,0,0
54939,-95.2380952380952,4,1,0,100,0,0
55033,-93.4579439252336,4,1,0,100,0,0
55126,-91.743119266055,4,1,0,100,0,0
55220,-90.0900900900901,4,1,0,100,0,0
55314,-88.4955752212389,4,1,0,100,0,0
55408,-86.9565217391304,4,1,0,100,0,0
55501,-85.4700854700855,4,1,0,100,0,0
55595,-84.0336134453781,4,1,0,100,0,0
55689,-82.6446280991736,4,1,0,100,0,0
55783,-80,4,1,0,100,0,0
55876,-81.3008130081301,4,1,0,100,0,0
55970,-82.6446280991736,4,1,0,100,0,0
56064,-84.0336134453781,4,1,0,100,0,0
56158,-85.4700854700855,4,1,0,100,0,0
56251,-86.9565217391304,4,1,0,100,0,0
56345,-88.4955752212389,4,1,0,100,0,0
56439,-90.0900900900901,4,1,0,100,0,0
56533,-91.743119266055,4,1,0,100,0,0
56626,-93.4579439252336,4,1,0,100,0,0
56720,-97.0873786407767,4,1,0,100,0,0
56814,-99.009900990099,4,1,0,100,0,0
56908,-101.010101010101,4,1,0,100,0,0
57001,-103.092783505155,4,1,0,100,0,0
57095,-105.263157894737,4,1,0,100,0,0
57189,-107.52688172043,4,1,0,100,0,0
57283,-109.89010989011,4,1,0,100,0,0
57376,-112.359550561798,4,1,0,100,0,0
57470,-114.942528735632,4,1,0,100,0,0
57564,-117.647058823529,4,1,0,100,0,0
57658,-120.481927710843,4,1,0,100,0,0
57751,-123.456790123457,4,1,0,100,0,0
57845,-126.582278481013,4,1,0,100,0,0
57939,-129.87012987013,4,1,0,100,0,0
58033,-133.333333333333,4,1,0,100,0,0
58126,-136.986301369863,4,1,0,100,0,0
58220,-140.845070422535,4,1,0,100,0,0
58314,-144.927536231884,4,1,0,100,0,0
58408,-149.253731343284,4,1,0,100,0,0
58501,-153.846153846154,4,1,0,100,0,0
58595,-158.730158730159,4,1,0,100,0,0
58689,-163.934426229508,4,1,0,100,0,0
58783,-169.491525423729,4,1,0,100,0,0
58876,-163.934426229508,4,1,0,100,0,0
58970,-158.730158730159,4,1,0,100,0,0
59064,-153.846153846154,4,1,0,100,0,0
59158,-149.253731343284,4,1,0,100,0,0
59251,-144.927536231884,4,1,0,100,0,0
59345,-140.845070422535,4,1,0,100,0,0
59439,-136.986301369863,4,1,0,100,0,0
59533,-133.333333333333,4,1,0,100,0,0
59626,-129.87012987013,4,1,0,100,0,0
59720,-126.582278481013,4,1,0,100,0,0
59814,-123.456790123457,4,1,0,100,0,0
59908,-120.481927710843,4,1,0,100,0,0
60001,-117.647058823529,4,1,0,100,0,0
60095,-114.942528735632,4,1,0,100,0,0
60189,-112.359550561798,4,1,0,100,0,0
60283,-109.89010989011,4,1,0,100,0,0
60376,-107.52688172043,4,1,0,100,0,0
60470,-105.263157894737,4,1,0,100,0,0
60564,-103.092783505155,4,1,0,100,0,0
60658,-101.010101010101,4,1,0,100,0,0
60751,-99.009900990099,4,1,0,100,0,0
60845,-97.0873786407767,4,1,0,100,0,0
60939,-95.2380952380952,4,1,0,100,0,0
61033,-93.4579439252336,4,1,0,100,0,0
61126,-91.743119266055,4,1,0,100,0,0
61220,-90.0900900900901,4,1,0,100,0,0
61314,-88.4955752212389,4,1,0,100,0,0
61408,-86.9565217391304,4,1,0,100,0,0
61501,-85.4700854700855,4,1,0,100,0,0
61595,-84.0336134453781,4,1,0,100,0,0
61689,-82.6446280991736,4,1,0,100,0,0
61970,-111.111111111111,4,1,0,80,0,0
62158,-125,4,1,0,60,0,0
62345,-142.857142857143,4,1,0,40,0,0
62533,-166.666666666667,4,1,0,20,0,0
62720,-200,4,1,0,5,0,0
64783,-100,4,1,0,100,0,0
64970,-111.111111111111,4,1,0,80,0,0
65158,-125,4,1,0,60,0,0
65345,-142.857142857143,4,1,0,40,0,0
65533,-166.666666666667,4,1,0,20,0,0
65720,-200,4,1,0,5,0,0
66283,-100,4,1,0,100,0,0
66470,-90.9090909090909,4,1,0,5,0,0
66658,-83.3333333333333,4,1,0,20,0,0
66845,-76.9230769230769,4,1,0,40,0,0
67033,-71.4285714285714,4,1,0,60,0,0
67220,-66.6666666666667,4,1,0,80,0,0
67783,-66.6666666666667,4,1,0,100,0,0
67970,-66.6666666666667,4,1,0,90,0,0
68158,-66.6666666666667,4,1,0,80,0,0
68345,-66.6666666666667,4,1,0,70,0,0
68533,-66.6666666666667,4,1,0,60,0,0
68908,-66.6666666666667,4,1,0,50,0,0
69283,-66.6666666666667,4,1,0,40,0,0
69658,-66.6666666666667,4,1,0,30,0,0
70033,-66.6666666666667,4,1,0,20,0,0
70408,-66.6666666666667,4,1,0,10,0,0
70783,-66.6666666666667,4,1,0,5,0,0
71533,-66.6666666666667,4,1,0,11,0,0
71908,-66.6666666666667,4,1,0,22,0,0
72283,-66.6666666666667,4,1,0,33,0,0
72658,-66.6666666666667,4,1,0,44,0,0
73033,-66.6666666666667,4,1,0,55,0,0
73220,-66.6666666666667,4,1,0,66,0,0
73408,-66.6666666666667,4,1,0,77,0,0
73595,-66.6666666666667,4,1,0,88,0,0
73783,-66.6666666666667,4,1,0,100,0,0
76783,-80,4,1,0,100,0,0
88783,-86.9565217391304,4,1,0,100,0,0
100783,-80,4,1,0,100,0,0
112783,-66.6666666666667,4,1,0,100,0,1
124783,-66.6666666666667,4,1,0,100,0,0

[HitObjects]
224,160,1783,5,4,0:0:0:0:
224,224,1970,1,0,0:0:0:0:
224,224,2064,1,0,0:0:0:0:
224,224,2345,1,0,0:0:0:0:
224,224,2533,1,0,0:0:0:0:
224,224,2720,1,0,0:0:0:0:
224,224,2814,1,0,0:0:0:0:
224,224,3095,1,0,0:0:0:0:
224,224,3283,1,0,0:0:0:0:
224,224,3470,1,0,0:0:0:0:
224,224,3564,1,0,0:0:0:0:
224,224,3845,1,0,0:0:0:0:
288,224,4033,1,8,0:0:0:0:
288,224,4220,1,8,0:0:0:0:
288,224,4314,1,8,0:0:0:0:
288,224,4501,1,8,0:0:0:0:
288,224,4595,1,8,0:0:0:0:
224,224,4783,1,0,0:0:0:0:
224,224,4970,1,0,0:0:0:0:
224,224,5064,1,0,0:0:0:0:
224,224,5345,1,0,0:0:0:0:
224,224,5533,1,0,0:0:0:0:
224,224,5720,1,0,0:0:0:0:
224,224,5814,1,0,0:0:0:0:
224,224,6095,1,0,0:0:0:0:
224,224,6283,1,0,0:0:0:0:
224,224,6470,1,0,0:0:0:0:
224,224,6564,1,0,0:0:0:0:
224,224,6845,5,0,0:0:0:0:
288,224,7033,1,8,0:0:0:0:
288,224,7220,1,8,0:0:0:0:
288,224,7314,1,8,0:0:0:0:
288,224,7501,1,8,0:0:0:0:
288,224,7595,1,8,0:0:0:0:
224,160,7783,5,4,0:0:0:0:
288,224,7970,1,8,0:0:0:0:
288,224,8064,1,8,0:0:0:0:
224,224,8158,1,0,0:0:0:0:
288,224,8345,1,8,0:0:0:0:
224,224,8533,1,0,0:0:0:0:
288,224,8720,1,8,0:0:0:0:
288,224,8814,1,8,0:0:0:0:
224,224,8908,1,0,0:0:0:0:
288,224,9095,1,8,0:0:0:0:
224,224,9283,1,0,0:0:0:0:
288,224,9470,1,8,0:0:0:0:
288,224,9564,1,8,0:0:0:0:
224,224,9658,1,0,0:0:0:0:
288,224,9845,1,8,0:0:0:0:
224,224,10033,1,0,0:0:0:0:
288,224,10220,1,8,0:0:0:0:
288,224,10408,1,8,0:0:0:0:
288,224,10501,1,8,0:0:0:0:
288,224,10595,1,8,0:0:0:0:
288,224,10689,1,8,0:0:0:0:
224,224,10783,1,0,0:0:0:0:
288,224,10970,1,8,0:0:0:0:
288,224,11064,1,8,0:0:0:0:
224,224,11158,1,0,0:0:0:0:
288,224,11345,1,8,0:0:0:0:
224,224,11533,1,0,0:0:0:0:
288,224,11720,1,8,0:0:0:0:
288,224,11814,1,8,0:0:0:0:
224,224,11908,1,0,0:0:0:0:
288,224,12095,1,8,0:0:0:0:
224,224,12283,1,0,0:0:0:0:
288,224,12470,1,8,0:0:0:0:
288,224,12564,1,8,0:0:0:0:
224,224,12658,1,0,0:0:0:0:
288,224,12845,1,8,0:0:0:0:
224,224,13033,1,0,0:0:0:0:
288,224,13220,1,8,0:0:0:0:
224,224,13408,1,0,0:0:0:0:
224,224,13501,1,0,0:0:0:0:
288,224,13595,1,8,0:0:0:0:
288,160,13783,1,12,0:0:0:0:
288,224,13970,1,8,0:0:0:0:
288,224,14064,1,8,0:0:0:0:
224,224,14158,1,0,0:0:0:0:
288,224,14345,1,8,0:0:0:0:
224,224,14533,1,0,0:0:0:0:
288,224,14720,1,8,0:0:0:0:
288,224,14814,1,8,0:0:0:0:
224,224,14908,1,0,0:0:0:0:
288,224,15095,1,8,0:0:0:0:
224,224,15283,1,0,0:0:0:0:
288,224,15470,1,8,0:0:0:0:
288,224,15564,1,8,0:0:0:0:
224,224,15658,1,0,0:0:0:0:
288,224,15845,1,8,0:0:0:0:
224,224,16033,1,0,0:0:0:0:
224,224,16220,1,0,0:0:0:0:
224,224,16408,1,0,0:0:0:0:
224,224,16501,1,0,0:0:0:0:
288,224,16595,1,8,0:0:0:0:
288,224,16689,1,8,0:0:0:0:
224,224,16783,1,0,0:0:0:0:
288,224,16970,1,8,0:0:0:0:
288,224,17064,1,8,0:0:0:0:
224,224,17158,1,0,0:0:0:0:
288,224,17345,1,8,0:0:0:0:
224,224,17533,1,0,0:0:0:0:
288,224,17720,1,8,0:0:0:0:
288,224,17814,1,8,0:0:0:0:
224,224,17908,1,0,0:0:0:0:
288,224,18095,1,8,0:0:0:0:
224,224,18283,1,0,0:0:0:0:
288,224,18470,1,8,0:0:0:0:
288,224,18564,1,8,0:0:0:0:
224,224,18658,1,0,0:0:0:0:
288,224,18845,1,8,0:0:0:0:
224,224,19033,1,0,0:0:0:0:
224,224,19220,1,0,0:0:0:0:
224,224,19314,1,0,0:0:0:0:
288,224,19408,1,8,0:0:0:0:
288,224,19595,1,8,0:0:0:0:
288,224,19689,1,8,0:0:0:0:
224,224,19783,1,0,0:0:0:0:
288,224,19970,1,8,0:0:0:0:
224,224,20158,1,0,0:0:0:0:
224,224,20251,1,0,0:0:0:0:
288,224,20345,1,8,0:0:0:0:
224,224,20533,1,0,0:0:0:0:
288,224,20720,1,8,0:0:0:0:
288,224,20814,1,8,0:0:0:0:
224,224,20908,1,0,0:0:0:0:
288,224,21095,1,8,0:0:0:0:
288,224,21189,1,8,0:0:0:0:
224,224,21283,1,0,0:0:0:0:
288,224,21470,1,8,0:0:0:0:
224,224,21658,1,0,0:0:0:0:
224,224,21751,1,0,0:0:0:0:
288,224,21845,1,8,0:0:0:0:
224,224,22033,1,0,0:0:0:0:
288,224,22220,1,8,0:0:0:0:
288,224,22314,1,8,0:0:0:0:
224,224,22408,1,0,0:0:0:0:
288,224,22595,1,8,0:0:0:0:
288,224,22689,1,8,0:0:0:0:
224,224,22783,1,0,0:0:0:0:
288,224,22970,1,8,0:0:0:0:
224,224,23158,1,0,0:0:0:0:
224,224,23251,1,0,0:0:0:0:
288,224,23345,1,8,0:0:0:0:
224,224,23533,1,0,0:0:0:0:
288,224,23720,1,8,0:0:0:0:
288,224,23814,1,8,0:0:0:0:
224,224,23908,1,0,0:0:0:0:
288,224,24095,1,8,0:0:0:0:
288,224,24189,1,8,0:0:0:0:
224,224,24283,1,0,0:0:0:0:
224,224,24376,1,0,0:0:0:0:
288,224,24470,1,8,0:0:0:0:
288,224,24564,1,8,0:0:0:0:
224,224,24658,1,0,0:0:0:0:
224,224,24751,1,0,0:0:0:0:
288,224,24845,1,8,0:0:0:0:
288,224,24939,1,8,0:0:0:0:
224,224,25033,1,0,0:0:0:0:
288,160,25408,1,12,0:0:0:0:
224,224,25783,5,0,0:0:0:0:
288,224,25970,1,8,0:0:0:0:
224,224,26064,1,0,0:0:0:0:
224,224,26251,1,0,0:0:0:0:
288,224,26345,1,8,0:0:0:0:
288,224,26439,1,8,0:0:0:0:
224,224,26533,1,0,0:0:0:0:
288,224,26720,1,8,0:0:0:0:
224,224,26908,1,0,0:0:0:0:
288,224,27001,1,8,0:0:0:0:
224,224,27095,1,0,0:0:0:0:
224,224,27283,1,0,0:0:0:0:
288,224,27470,1,8,0:0:0:0:
224,224,27658,1,0,0:0:0:0:
288,224,27751,1,8,0:0:0:0:
224,224,27939,1,0,0:0:0:0:
288,224,28033,1,8,0:0:0:0:
288,224,28220,1,8,0:0:0:0:
224,224,28314,1,0,0:0:0:0:
288,224,28408,1,8,0:0:0:0:
288,224,28595,1,8,0:0:0:0:
224,224,28783,1,0,0:0:0:0:
288,224,28970,1,8,0:0:0:0:
224,224,29064,1,0,0:0:0:0:
224,224,29251,1,0,0:0:0:0:
288,224,29345,1,8,0:0:0:0:
224,224,29439,1,0,0:0:0:0:
288,224,29533,1,8,0:0:0:0:
288,224,29720,1,8,0:0:0:0:
224,224,29908,1,0,0:0:0:0:
288,224,30001,1,8,0:0:0:0:
224,224,30095,1,0,0:0:0:0:
224,224,30283,1,0,0:0:0:0:
288,224,30470,1,8,0:0:0:0:
224,224,30658,1,0,0:0:0:0:
288,224,30751,1,8,0:0:0:0:
224,224,30939,1,0,0:0:0:0:
288,224,31033,1,8,0:0:0:0:
288,224,31220,1,8,0:0:0:0:
224,224,31314,1,0,0:0:0:0:
288,224,31408,1,8,0:0:0:0:
288,224,31501,1,8,0:0:0:0:
288,224,31595,1,8,0:0:0:0:
224,224,31689,1,0,0:0:0:0:
224,224,31783,1,0,0:0:0:0:
288,224,31970,1,8,0:0:0:0:
224,224,32064,1,0,0:0:0:0:
224,224,32251,1,0,0:0:0:0:
288,224,32345,1,8,0:0:0:0:
288,224,32439,1,8,0:0:0:0:
224,224,32533,1,0,0:0:0:0:
288,224,32720,1,8,0:0:0:0:
224,224,32908,1,0,0:0:0:0:
288,224,33001,1,8,0:0:0:0:
224,224,33095,1,0,0:0:0:0:
224,224,33283,1,0,0:0:0:0:
288,224,33470,1,8,0:0:0:0:
224,224,33658,1,0,0:0:0:0:
288,224,33751,1,8,0:0:0:0:
224,224,33939,1,0,0:0:0:0:
288,224,34033,1,8,0:0:0:0:
288,224,34220,1,8,0:0:0:0:
288,224,34408,1,8,0:0:0:0:
224,224,34501,1,0,0:0:0:0:
288,224,34595,1,8,0:0:0:0:
288,224,34689,1,8,0:0:0:0:
224,224,34783,1,0,0:0:0:0:
288,224,34970,1,8,0:0:0:0:
224,224,35064,1,0,0:0:0:0:
224,224,35251,1,0,0:0:0:0:
288,224,35345,1,8,0:0:0:0:
224,224,35439,1,0,0:0:0:0:
288,224,35533,1,8,0:0:0:0:
288,224,35720,1,8,0:0:0:0:
224,224,35908,1,0,0:0:0:0:
224,224,36001,1,0,0:0:0:0:
288,224,36095,1,8,0:0:0:0:
224,224,36283,1,0,0:0:0:0:
288,224,36470,1,8,0:0:0:0:
288,224,36564,1,8,0:0:0:0:
224,224,36658,1,0,0:0:0:0:
288,224,36751,1,8,0:0:0:0:
224,224,36939,1,0,0:0:0:0:
288,224,37033,1,8,0:0:0:0:
288,224,37126,1,8,0:0:0:0:
288,224,37220,1,8,0:0:0:0:
224,224,37314,1,0,0:0:0:0:
288,224,37408,1,8,0:0:0:0:
288,224,37501,1,8,0:0:0:0:
288,224,37595,1,8,0:0:0:0:
224,160,37783,1,4,0:0:0:0:
288,224,37970,1,8,0:0:0:0:
288,224,38064,1,8,0:0:0:0:
288,224,38251,1,8,0:0:0:0:
288,224,38345,1,8,0:0:0:0:
288,224,38533,1,8,0:0:0:0:
288,224,38626,1,8,0:0:0:0:
224,224,38720,1,0,0:0:0:0:
288,160,38908,1,12,0:0:0:0:
224,224,39095,1,0,0:0:0:0:
224,224,39189,1,0,0:0:0:0:
224,224,39283,1,0,0:0:0:0:
288,224,39470,1,8,0:0:0:0:
224,224,39658,1,0,0:0:0:0:
288,224,39751,1,8,0:0:0:0:
224,224,39845,1,0,0:0:0:0:
288,224,39939,1,8,0:0:0:0:
288,224,40033,1,8,0:0:0:0:
288,224,40220,1,8,0:0:0:0:
288,224,40408,1,8,0:0:0:0:
288,224,40501,1,8,0:0:0:0:
288,224,40595,1,8,0:0:0:0:
288,224,40689,1,8,0:0:0:0:
224,224,40783,1,0,0:0:0:0:
288,224,40970,1,8,0:0:0:0:
224,224,41064,1,0,0:0:0:0:
224,224,41251,1,0,0:0:0:0:
288,224,41345,1,8,0:0:0:0:
288,224,41533,1,8,0:0:0:0:
288,224,41626,1,8,0:0:0:0:
224,224,41720,1,0,0:0:0:0:
288,160,41908,1,12,0:0:0:0:
224,224,42095,1,0,0:0:0:0:
224,224,42189,1,0,0:0:0:0:
224,224,42283,1,0,0:0:0:0:
288,224,42470,1,8,0:0:0:0:
224,224,42658,1,0,0:0:0:0:
288,224,42751,1,8,0:0:0:0:
224,224,42845,1,0,0:0:0:0:
288,224,42939,1,8,0:0:0:0:
224,224,43033,1,0,0:0:0:0:
224,224,43220,1,0,0:0:0:0:
288,224,43408,1,8,0:0:0:0:
288,224,43595,1,8,0:0:0:0:
288,224,43689,1,8,0:0:0:0:
224,224,43783,1,0,0:0:0:0:
288,224,43970,1,8,0:0:0:0:
224,224,44064,1,0,0:0:0:0:
224,224,44251,1,0,0:0:0:0:
288,224,44345,1,8,0:0:0:0:
288,224,44533,1,8,0:0:0:0:
288,224,44626,1,8,0:0:0:0:
224,224,44720,1,0,0:0:0:0:
288,160,44908,1,12,0:0:0:0:
224,224,45095,1,0,0:0:0:0:
224,224,45189,1,0,0:0:0:0:
224,224,45283,1,0,0:0:0:0:
288,224,45470,1,8,0:0:0:0:
224,224,45658,1,0,0:0:0:0:
288,224,45751,1,8,0:0:0:0:
224,224,45845,1,0,0:0:0:0:
288,224,45939,1,8,0:0:0:0:
224,224,46033,1,0,0:0:0:0:
224,224,46220,1,0,0:0:0:0:
224,224,46408,1,0,0:0:0:0:
288,224,46501,1,8,0:0:0:0:
224,224,46595,1,0,0:0:0:0:
224,224,46689,1,0,0:0:0:0:
224,224,46783,1,0,0:0:0:0:
224,224,46970,1,0,0:0:0:0:
288,224,47064,1,8,0:0:0:0:
288,224,47251,1,8,0:0:0:0:
288,224,47345,1,8,0:0:0:0:
288,224,47533,1,8,0:0:0:0:
288,224,47626,1,8,0:0:0:0:
224,224,47720,1,0,0:0:0:0:
288,160,47908,1,12,0:0:0:0:
224,224,48095,1,0,0:0:0:0:
224,224,48189,1,0,0:0:0:0:
224,224,48283,1,0,0:0:0:0:
288,224,48470,1,8,0:0:0:0:
224,224,48658,1,0,0:0:0:0:
288,224,48751,1,8,0:0:0:0:
224,224,48845,1,0,0:0:0:0:
288,224,48939,1,8,0:0:0:0:
224,224,49033,1,0,0:0:0:0:
224,224,49220,1,0,0:0:0:0:
224,224,49408,1,0,0:0:0:0:
224,224,49501,1,0,0:0:0:0:
224,224,49595,1,0,0:0:0:0:
224,224,49689,1,0,0:0:0:0:
288,224,49783,1,8,0:0:0:0:
224,224,49876,1,0,0:0:0:0:
288,224,49970,1,8,0:0:0:0:
224,224,50064,1,0,0:0:0:0:
288,224,50158,1,8,0:0:0:0:
224,224,50251,1,0,0:0:0:0:
224,224,50345,1,0,0:0:0:0:
224,224,50439,1,0,0:0:0:0:
288,224,50533,1,8,0:0:0:0:
224,224,50626,1,0,0:0:0:0:
288,224,50720,1,8,0:0:0:0:
224,224,50814,1,0,0:0:0:0:
288,224,50908,1,8,0:0:0:0:
224,224,51001,1,0,0:0:0:0:
224,224,51095,1,0,0:0:0:0:
224,224,51189,1,0,0:0:0:0:
288,224,51283,1,8,0:0:0:0:
288,224,51376,1,8,0:0:0:0:
224,224,51470,1,0,0:0:0:0:
224,224,51564,1,0,0:0:0:0:
288,224,51658,1,8,0:0:0:0:
224,224,51751,1,0,0:0:0:0:
224,224,51845,1,0,0:0:0:0:
224,224,51939,1,0,0:0:0:0:
288,224,52033,1,8,0:0:0:0:
288,224,52126,1,8,0:0:0:0:
224,224,52220,1,0,0:0:0:0:
224,224,52314,1,0,0:0:0:0:
288,224,52408,1,8,0:0:0:0:
224,224,52501,1,0,0:0:0:0:
288,224,52595,1,8,0:0:0:0:
288,224,52689,1,8,0:0:0:0:
224,224,52783,1,0,0:0:0:0:
224,224,52876,1,0,0:0:0:0:
288,224,52970,1,8,0:0:0:0:
288,224,53064,1,8,0:0:0:0:
224,224,53158,1,0,0:0:0:0:
224,224,53251,1,0,0:0:0:0:
288,224,53345,1,8,0:0:0:0:
288,224,53439,1,8,0:0:0:0:
224,224,53533,1,0,0:0:0:0:
288,224,53626,1,8,0:0:0:0:
288,224,53720,1,8,0:0:0:0:
288,224,53814,1,8,0:0:0:0:
224,224,53908,1,0,0:0:0:0:
224,224,54001,1,0,0:0:0:0:
288,224,54095,1,8,0:0:0:0:
288,224,54189,1,8,0:0:0:0:
288,224,54283,1,8,0:0:0:0:
224,224,54376,1,0,0:0:0:0:
288,224,54470,1,8,0:0:0:0:
288,224,54564,1,8,0:0:0:0:
224,224,54658,1,0,0:0:0:0:
224,224,54751,1,0,0:0:0:0:
288,224,54845,1,8,0:0:0:0:
224,224,54939,1,0,0:0:0:0:
288,224,55033,1,8,0:0:0:0:
224,224,55126,1,0,0:0:0:0:
288,224,55220,1,8,0:0:0:0:
288,224,55314,1,8,0:0:0:0:
224,224,55408,1,0,0:0:0:0:
224,224,55501,1,0,0:0:0:0:
288,224,55595,1,8,0:0:0:0:
224,224,55689,1,0,0:0:0:0:
288,224,55783,1,8,0:0:0:0:
224,224,55876,1,0,0:0:0:0:
288,224,55970,1,8,0:0:0:0:
224,224,56064,1,0,0:0:0:0:
288,224,56158,1,8,0:0:0:0:
224,224,56251,1,0,0:0:0:0:
224,224,56345,1,0,0:0:0:0:
224,224,56439,1,0,0:0:0:0:
288,224,56533,1,8,0:0:0:0:
224,224,56626,1,0,0:0:0:0:
288,224,56720,1,8,0:0:0:0:
224,224,56814,1,0,0:0:0:0:
288,224,56908,1,8,0:0:0:0:
224,224,57001,1,0,0:0:0:0:
224,224,57095,1,0,0:0:0:0:
224,224,57189,1,0,0:0:0:0:
288,224,57283,1,8,0:0:0:0:
288,224,57376,1,8,0:0:0:0:
224,224,57470,1,0,0:0:0:0:
224,224,57564,1,0,0:0:0:0:
288,224,57658,1,8,0:0:0:0:
224,224,57751,1,0,0:0:0:0:
224,224,57845,1,0,0:0:0:0:
224,224,57939,1,0,0:0:0:0:
288,224,58033,1,8,0:0:0:0:
288,224,58126,1,8,0:0:0:0:
224,224,58220,1,0,0:0:0:0:
224,224,58314,1,0,0:0:0:0:
288,224,58408,1,8,0:0:0:0:
224,224,58501,1,0,0:0:0:0:
288,224,58595,1,8,0:0:0:0:
288,224,58689,1,8,0:0:0:0:
224,224,58783,1,0,0:0:0:0:
224,224,58876,1,0,0:0:0:0:
288,224,58970,1,8,0:0:0:0:
288,224,59064,1,8,0:0:0:0:
224,224,59158,1,0,0:0:0:0:
224,224,59251,1,0,0:0:0:0:
288,224,59345,1,8,0:0:0:0:
288,224,59439,1,8,0:0:0:0:
224,224,59533,1,0,0:0:0:0:
288,224,59626,1,8,0:0:0:0:
288,224,59720,1,8,0:0:0:0:
288,224,59814,1,8,0:0:0:0:
224,224,59908,1,0,0:0:0:0:
224,224,60001,1,0,0:0:0:0:
288,224,60095,5,8,0:0:0:0:
288,224,60189,1,8,0:0:0:0:
288,224,60283,1,8,0:0:0:0:
224,224,60376,1,0,0:0:0:0:
288,224,60470,1,8,0:0:0:0:
288,224,60564,1,8,0:0:0:0:
224,224,60658,1,0,0:0:0:0:
224,224,60751,1,0,0:0:0:0:
288,224,60845,1,8,0:0:0:0:
224,224,60939,1,0,0:0:0:0:
288,224,61033,1,8,0:0:0:0:
288,224,61220,1,8,0:0:0:0:
288,224,61408,1,8,0:0:0:0:
288,224,61501,1,8,0:0:0:0:
288,224,61595,1,8,0:0:0:0:
288,224,61689,1,8,0:0:0:0:
224,160,61783,1,4,0:0:0:0:
224,224,61970,1,0,0:0:0:0:
224,224,62158,1,0,0:0:0:0:
224,224,62345,1,0,0:0:0:0:
224,224,62533,1,0,0:0:0:0:
224,224,62720,1,0,0:0:0:0:
224,160,64783,1,4,0:0:0:0:
224,224,64970,1,0,0:0:0:0:
224,224,65158,1,0,0:0:0:0:
224,224,65345,1,0,0:0:0:0:
224,224,65533,1,0,0:0:0:0:
224,224,65720,1,0,0:0:0:0:
224,160,66283,1,4,0:0:0:0:
288,224,66470,1,8,0:0:0:0:
288,224,66658,1,8,0:0:0:0:
288,224,66845,1,8,0:0:0:0:
288,224,67033,1,8,0:0:0:0:
288,224,67220,1,8,0:0:0:0:
288,224,67408,1,8,0:0:0:0:
288,224,67595,1,8,0:0:0:0:
288,224,67658,1,8,0:0:0:0:
288,224,67720,1,8,0:0:0:0:
224,224,67783,1,0,0:0:0:0:
224,224,67970,1,0,0:0:0:0:
288,224,68158,1,8,0:0:0:0:
224,224,68345,1,0,0:0:0:0:
288,224,68439,1,8,0:0:0:0:
224,224,68533,1,0,0:0:0:0:
224,224,68720,1,0,0:0:0:0:
288,224,68908,1,8,0:0:0:0:
224,224,69095,1,0,0:0:0:0:
288,224,69189,1,8,0:0:0:0:
224,224,69283,1,0,0:0:0:0:
224,224,69470,1,0,0:0:0:0:
288,224,69658,1,8,0:0:0:0:
224,224,69845,1,0,0:0:0:0:
288,224,69939,1,8,0:0:0:0:
224,224,70033,1,0,0:0:0:0:
224,224,70220,1,0,0:0:0:0:
288,224,70408,1,8,0:0:0:0:
288,224,70595,1,8,0:0:0:0:
288,224,70689,1,8,0:0:0:0:
224,224,70783,1,0,0:0:0:0:
288,224,70876,1,8,0:0:0:0:
224,224,70970,1,0,0:0:0:0:
288,224,71158,1,8,0:0:0:0:
224,224,71345,1,0,0:0:0:0:
288,224,71439,1,8,0:0:0:0:
224,224,71533,1,0,0:0:0:0:
288,224,71720,1,8,0:0:0:0:
288,224,71908,1,8,0:0:0:0:
224,224,72095,1,0,0:0:0:0:
288,224,72189,1,8,0:0:0:0:
224,224,72283,1,0,0:0:0:0:
288,224,72470,1,8,0:0:0:0:
288,224,72658,5,8,0:0:0:0:
288,224,72845,1,8,0:0:0:0:
288,224,72939,1,8,0:0:0:0:
224,224,73033,1,0,0:0:0:0:
224,224,73126,1,0,0:0:0:0:
288,224,73220,1,8,0:0:0:0:
224,224,73408,1,0,0:0:0:0:
288,224,73595,1,8,0:0:0:0:
288,224,73689,1,8,0:0:0:0:
256,192,73783,12,0,76408,0:0:0:0:
224,160,76783,5,4,0:0:0:0:
288,224,76970,1,8,0:0:0:0:
224,224,77064,1,0,0:0:0:0:
288,224,77251,1,8,0:0:0:0:
224,224,77345,1,0,0:0:0:0:
224,224,77439,1,0,0:0:0:0:
288,224,77533,1,8,0:0:0:0:
224,224,77720,1,0,0:0:0:0:
288,224,77814,1,8,0:0:0:0:
288,224,78001,1,8,0:0:0:0:
224,224,78095,1,0,0:0:0:0:
224,224,78189,1,0,0:0:0:0:
288,224,78283,1,8,0:0:0:0:
224,224,78470,1,0,0:0:0:0:
288,224,78564,1,8,0:0:0:0:
224,224,78751,1,0,0:0:0:0:
288,224,78845,1,8,0:0:0:0:
224,224,78939,1,0,0:0:0:0:
288,224,79033,1,8,0:0:0:0:
288,224,79220,1,8,0:0:0:0:
288,224,79408,1,8,0:0:0:0:
224,224,79501,1,0,0:0:0:0:
288,224,79595,1,8,0:0:0:0:
224,224,79689,1,0,0:0:0:0:
288,224,79783,1,8,0:0:0:0:
224,224,79970,1,0,0:0:0:0:
288,224,80064,1,8,0:0:0:0:
288,224,80345,1,8,0:0:0:0:
224,224,80439,1,0,0:0:0:0:
288,224,80533,1,8,0:0:0:0:
224,224,80720,1,0,0:0:0:0:
288,224,80814,1,8,0:0:0:0:
288,224,81095,1,8,0:0:0:0:
224,224,81189,1,0,0:0:0:0:
288,224,81283,1,8,0:0:0:0:
224,224,81470,1,0,0:0:0:0:
288,224,81564,1,8,0:0:0:0:
288,224,81845,1,8,0:0:0:0:
288,224,81939,1,8,0:0:0:0:
224,224,82033,1,0,0:0:0:0:
224,224,82220,1,0,0:0:0:0:
224,224,82314,1,0,0:0:0:0:
288,224,82408,1,8,0:0:0:0:
224,224,82501,1,0,0:0:0:0:
288,224,82595,1,8,0:0:0:0:
288,224,82689,1,8,0:0:0:0:
224,224,82783,1,0,0:0:0:0:
288,224,82970,1,8,0:0:0:0:
224,224,83064,1,0,0:0:0:0:
288,224,83251,1,8,0:0:0:0:
224,224,83345,1,0,0:0:0:0:
224,224,83439,1,0,0:0:0:0:
288,224,83533,1,8,0:0:0:0:
224,224,83720,1,0,0:0:0:0:
288,224,83814,1,8,0:0:0:0:
288,224,84001,1,8,0:0:0:0:
224,224,84095,1,0,0:0:0:0:
224,224,84189,1,0,0:0:0:0:
288,224,84283,1,8,0:0:0:0:
224,224,84470,1,0,0:0:0:0:
288,224,84564,1,8,0:0:0:0:
224,224,84751,1,0,0:0:0:0:
288,224,84845,1,8,0:0:0:0:
224,224,84939,1,0,0:0:0:0:
288,224,85033,1,8,0:0:0:0:
288,224,85220,1,8,0:0:0:0:
288,224,85408,1,8,0:0:0:0:
224,224,85501,1,0,0:0:0:0:
288,224,85595,1,8,0:0:0:0:
224,224,85689,1,0,0:0:0:0:
288,224,85783,1,8,0:0:0:0:
224,224,85970,1,0,0:0:0:0:
288,224,86064,1,8,0:0:0:0:
288,224,86251,1,8,0:0:0:0:
224,224,86345,1,0,0:0:0:0:
224,224,86439,1,0,0:0:0:0:
288,224,86533,1,8,0:0:0:0:
224,224,86720,1,0,0:0:0:0:
288,224,86814,1,8,0:0:0:0:
224,224,87001,1,0,0:0:0:0:
288,224,87095,1,8,0:0:0:0:
224,224,87189,1,0,0:0:0:0:
288,224,87283,1,8,0:0:0:0:
224,224,87470,1,0,0:0:0:0:
288,224,87564,1,8,0:0:0:0:
224,224,87751,1,0,0:0:0:0:
288,224,87845,1,8,0:0:0:0:
288,224,87939,1,8,0:0:0:0:
224,224,88033,1,0,0:0:0:0:
224,224,88220,1,0,0:0:0:0:
224,224,88314,1,0,0:0:0:0:
288,224,88408,1,8,0:0:0:0:
224,224,88501,1,0,0:0:0:0:
288,224,88595,1,8,0:0:0:0:
224,160,88783,1,4,0:0:0:0:
288,224,89064,1,8,0:0:0:0:
288,224,89158,1,8,0:0:0:0:
224,224,89345,1,0,0:0:0:0:
224,224,89533,1,0,0:0:0:0:
288,224,89814,1,8,0:0:0:0:
288,224,89908,1,8,0:0:0:0:
224,224,90095,1,0,0:0:0:0:
288,224,90283,1,8,0:0:0:0:
288,224,90564,1,8,0:0:0:0:
288,224,90658,1,8,0:0:0:0:
224,224,90845,1,0,0:0:0:0:
288,224,91033,1,8,0:0:0:0:
288,224,91126,1,8,0:0:0:0:
224,224,91220,1,0,0:0:0:0:
288,224,91408,1,8,0:0:0:0:
224,224,91501,1,0,0:0:0:0:
288,224,91595,1,8,0:0:0:0:
224,160,91783,1,4,0:0:0:0:
224,224,92064,1,0,0:0:0:0:
288,224,92158,1,8,0:0:0:0:
224,224,92345,1,0,0:0:0:0:
224,224,92533,1,0,0:0:0:0:
224,224,92814,1,0,0:0:0:0:
288,224,92908,1,8,0:0:0:0:
288,224,93095,1,8,0:0:0:0:
224,224,93283,1,0,0:0:0:0:
224,224,93564,1,0,0:0:0:0:
288,224,93658,1,8,0:0:0:0:
288,224,93845,1,8,0:0:0:0:
288,224,93939,1,8,0:0:0:0:
224,224,94033,1,0,0:0:0:0:
224,224,94220,1,0,0:0:0:0:
224,224,94314,1,0,0:0:0:0:
288,224,94408,1,8,0:0:0:0:
224,224,94501,1,0,0:0:0:0:
288,224,94595,1,8,0:0:0:0:
224,160,94783,1,4,0:0:0:0:
288,224,95064,1,8,0:0:0:0:
288,224,95158,1,8,0:0:0:0:
224,224,95345,1,0,0:0:0:0:
288,224,95533,1,8,0:0:0:0:
288,224,95814,1,8,0:0:0:0:
288,224,95908,1,8,0:0:0:0:
224,224,96095,1,0,0:0:0:0:
224,224,96283,1,0,0:0:0:0:
224,224,96564,1,0,0:0:0:0:
288,224,96658,1,8,0:0:0:0:
224,224,96845,1,0,0:0:0:0:
224,224,96939,1,0,0:0:0:0:
288,224,97033,1,8,0:0:0:0:
288,224,97220,1,8,0:0:0:0:
288,224,97408,1,8,0:0:0:0:
224,224,97501,1,0,0:0:0:0:
288,224,97595,1,8,0:0:0:0:
224,224,97689,1,0,0:0:0:0:
224,224,97783,1,0,0:0:0:0:
224,224,98064,1,0,0:0:0:0:
288,224,98158,1,8,0:0:0:0:
224,224,98345,1,0,0:0:0:0:
224,224,98439,1,0,0:0:0:0:
288,224,98533,1,8,0:0:0:0:
288,224,98814,1,8,0:0:0:0:
288,224,98908,1,8,0:0:0:0:
288,224,99095,1,8,0:0:0:0:
256,192,99283,12,0,100408,0:0:0:0:
224,224,100783,5,0,0:0:0:0:
288,224,100970,1,8,0:0:0:0:
224,224,101064,1,0,0:0:0:0:
224,224,101251,1,0,0:0:0:0:
288,224,101345,1,8,0:0:0:0:
288,224,101439,1,8,0:0:0:0:
224,224,101533,1,0,0:0:0:0:
288,224,101720,1,8,0:0:0:0:
224,224,101908,1,0,0:0:0:0:
288,224,102001,1,8,0:0:0:0:
224,224,102095,1,0,0:0:0:0:
224,224,102283,1,0,0:0:0:0:
288,224,102470,1,8,0:0:0:0:
224,224,102658,1,0,0:0:0:0:
288,224,102751,1,8,0:0:0:0:
224,224,102939,1,0,0:0:0:0:
288,224,103033,1,8,0:0:0:0:
288,224,103220,1,8,0:0:0:0:
224,224,103314,1,0,0:0:0:0:
288,224,103408,1,8,0:0:0:0:
288,224,103595,1,8,0:0:0:0:
224,224,103783,1,0,0:0:0:0:
288,224,103970,1,8,0:0:0:0:
224,224,104064,1,0,0:0:0:0:
224,224,104251,1,0,0:0:0:0:
288,224,104345,1,8,0:0:0:0:
224,224,104439,1,0,0:0:0:0:
288,224,104533,1,8,0:0:0:0:
288,224,104720,1,8,0:0:0:0:
224,224,104908,1,0,0:0:0:0:
288,224,105001,1,8,0:0:0:0:
224,224,105095,1,0,0:0:0:0:
224,224,105283,1,0,0:0:0:0:
288,224,105470,1,8,0:0:0:0:
224,224,105658,1,0,0:0:0:0:
288,224,105751,1,8,0:0:0:0:
224,224,105939,1,0,0:0:0:0:
288,224,106033,1,8,0:0:0:0:
288,224,106220,1,8,0:0:0:0:
224,224,106314,1,0,0:0:0:0:
288,224,106408,1,8,0:0:0:0:
288,224,106501,1,8,0:0:0:0:
288,224,106595,1,8,0:0:0:0:
224,224,106689,1,0,0:0:0:0:
224,224,106783,1,0,0:0:0:0:
288,224,106970,1,8,0:0:0:0:
224,224,107064,1,0,0:0:0:0:
224,224,107251,1,0,0:0:0:0:
288,224,107345,1,8,0:0:0:0:
288,224,107439,1,8,0:0:0:0:
224,224,107533,1,0,0:0:0:0:
288,224,107720,1,8,0:0:0:0:
224,224,107908,1,0,0:0:0:0:
288,224,108001,1,8,0:0:0:0:
224,224,108095,1,0,0:0:0:0:
224,224,108283,1,0,0:0:0:0:
288,224,108470,1,8,0:0:0:0:
224,224,108658,1,0,0:0:0:0:
288,224,108751,1,8,0:0:0:0:
224,224,108939,1,0,0:0:0:0:
288,224,109033,1,8,0:0:0:0:
288,224,109220,1,8,0:0:0:0:
288,224,109408,1,8,0:0:0:0:
224,224,109501,1,0,0:0:0:0:
288,224,109595,1,8,0:0:0:0:
288,224,109689,1,8,0:0:0:0:
224,224,109783,1,0,0:0:0:0:
288,224,109970,1,8,0:0:0:0:
224,224,110064,1,0,0:0:0:0:
224,224,110251,1,0,0:0:0:0:
288,224,110345,1,8,0:0:0:0:
224,224,110439,1,0,0:0:0:0:
288,224,110533,1,8,0:0:0:0:
288,224,110720,1,8,0:0:0:0:
224,224,110908,1,0,0:0:0:0:
224,224,111001,1,0,0:0:0:0:
288,224,111095,1,8,0:0:0:0:
224,224,111283,1,0,0:0:0:0:
288,224,111470,1,8,0:0:0:0:
288,224,111564,1,8,0:0:0:0:
224,224,111658,5,0,0:0:0:0:
288,224,111751,1,8,0:0:0:0:
224,224,111939,1,0,0:0:0:0:
288,224,112033,1,8,0:0:0:0:
288,224,112220,1,8,0:0:0:0:
288,224,112408,1,8,0:0:0:0:
288,224,112501,1,8,0:0:0:0:
288,224,112595,1,8,0:0:0:0:
224,224,112783,1,0,0:0:0:0:
224,224,112970,1,0,0:0:0:0:
288,224,113064,1,8,0:0:0:0:
288,224,113251,1,8,0:0:0:0:
288,224,113345,1,8,0:0:0:0:
288,224,113533,1,8,0:0:0:0:
288,224,113626,1,8,0:0:0:0:
224,224,113720,1,0,0:0:0:0:
288,224,113814,1,8,0:0:0:0:
288,224,114001,1,8,0:0:0:0:
288,224,114095,1,8,0:0:0:0:
224,224,114283,1,0,0:0:0:0:
224,224,114470,1,0,0:0:0:0:
288,224,114564,1,8,0:0:0:0:
288,224,114751,1,8,0:0:0:0:
288,224,114845,1,8,0:0:0:0:
288,224,115033,1,8,0:0:0:0:
224,224,115126,1,0,0:0:0:0:
288,224,115220,1,8,0:0:0:0:
224,224,115314,1,0,0:0:0:0:
224,224,115501,1,0,0:0:0:0:
224,224,115595,1,0,0:0:0:0:
224,224,115783,1,0,0:0:0:0:
224,224,115970,1,0,0:0:0:0:
288,224,116064,1,8,0:0:0:0:
288,224,116251,1,8,0:0:0:0:
288,224,116345,1,8,0:0:0:0:
288,224,116533,1,8,0:0:0:0:
288,224,116626,1,8,0:0:0:0:
224,224,116720,1,0,0:0:0:0:
288,224,116814,1,8,0:0:0:0:
288,224,117001,1,8,0:0:0:0:
288,224,117095,1,8,0:0:0:0:
224,224,117283,1,0,0:0:0:0:
224,224,117470,1,0,0:0:0:0:
288,224,117564,1,8,0:0:0:0:
288,224,117751,1,8,0:0:0:0:
288,224,117845,1,8,0:0:0:0:
288,224,118033,1,8,0:0:0:0:
224,224,118126,1,0,0:0:0:0:
224,224,118220,1,0,0:0:0:0:
288,224,118314,1,8,0:0:0:0:
288,224,118501,1,8,0:0:0:0:
288,224,118595,1,8,0:0:0:0:
224,224,118783,1,0,0:0:0:0:
224,224,118970,1,0,0:0:0:0:
288,224,119064,1,8,0:0:0:0:
288,224,119251,1,8,0:0:0:0:
288,224,119345,1,8,0:0:0:0:
288,224,119533,1,8,0:0:0:0:
288,224,119626,1,8,0:0:0:0:
224,224,119720,1,0,0:0:0:0:
288,224,119814,1,8,0:0:0:0:
288,224,120001,1,8,0:0:0:0:
288,224,120095,1,8,0:0:0:0:
224,224,120283,1,0,0:0:0:0:
224,224,120470,1,0,0:0:0:0:
288,224,120564,1,8,0:0:0:0:
288,224,120751,1,8,0:0:0:0:
288,224,120845,1,8,0:0:0:0:
288,224,121033,1,8,0:0:0:0:
224,224,121126,1,0,0:0:0:0:
288,224,121220,1,8,0:0:0:0:
224,224,121314,1,0,0:0:0:0:
224,224,121501,1,0,0:0:0:0:
224,224,121595,1,0,0:0:0:0:
224,224,121783,1,0,0:0:0:0:
224,224,121970,1,0,0:0:0:0:
288,224,122064,1,8,0:0:0:0:
288,224,122251,1,8,0:0:0:0:
288,224,122345,1,8,0:0:0:0:
288,224,122533,1,8,0:0:0:0:
288,224,122626,1,8,0:0:0:0:
224,224,122720,1,0,0:0:0:0:
288,224,122814,1,8,0:0:0:0:
288,224,123001,1,8,0:0:0:0:
288,224,123095,1,8,0:0:0:0:
224,224,123283,1,0,0:0:0:0:
288,224,123470,1,8,0:0:0:0:
224,224,123658,1,0,0:0:0:0:
288,224,123751,1,8,0:0:0:0:
224,224,123845,1,0,0:0:0:0:
288,224,123939,1,8,0:0:0:0:
288,224,124033,1,8,0:0:0:0:
288,224,124126,1,8,0:0:0:0:
288,224,124220,1,8,0:0:0:0:
288,224,124314,1,8,0:0:0:0:
288,224,124408,1,8,0:0:0:0:
288,224,124470,1,8,0:0:0:0:
288,224,124533,1,8,0:0:0:0:
288,224,124595,1,8,0:0:0:0:
288,224,124658,1,8,0:0:0:0:
288,224,124720,1,8,0:0:0:0:
224,224,124783,1,0,0:0:0:0:
