osu file format v14

[General]
AudioFilename: audio.mp3
AudioLeadIn: 0
PreviewTime: 23440
Countdown: 0
SampleSet: Soft
StackLeniency: 0.7
Mode: 0
LetterboxInBreaks: 0
WidescreenStoryboard: 0

[Editor]
Bookmarks: 2683,13061,18250,54575,64953,96088
DistanceSpacing: 1.2
BeatDivisor: 4
GridSize: 8
TimelineZoom: 1.58

[Metadata]
Title:HYPER-NOVA
TitleUnicode:HYPER-NOVA
Artist:NeLiME
ArtistUnicode:NeLiME
Creator:Aiseca
Version:Normal (+ Mini Firetruck)
Source:
Tags:
BeatmapID:2002066
BeatmapSetID:956318

[Difficulty]
HPDrainRate:4.4
CircleSize:3.1
OverallDifficulty:4.2
ApproachRate:5.1
SliderMultiplier:1
SliderTickRate:1

[Events]
//Background and Video events
0,0,"610.jpg",0,0
//Break Periods
2,44071,53390
//Storyboard Layer 0 (Background)
//Storyboard Layer 1 (Fail)
//Storyboard Layer 2 (Pass)
//Storyboard Layer 3 (Foreground)
//Storyboard Sound Samples

[TimingPoints]
1386,324.324324324324,4,2,0,50,1,0
23440,-100,4,2,0,50,0,1
44196,-100,4,2,0,50,0,0
54575,-100,4,2,0,50,0,0
75331,-100,4,2,0,50,0,1
106467,-100,4,2,0,50,0,0

[Colours]
Combo1 : 255,0,128
Combo2 : 128,0,255
Combo3 : 255,255,0
Combo4 : 0,128,0
Combo5 : 0,128,255

[HitObjects]
38,109,1386,5,0,0:0:0:0:
130,184,1710,1,0,0:0:0:0:
233,116,2034,2,0,L|332:110,1,100
435,34,2683,5,0,0:0:0:0:
505,131,3007,1,0,0:0:0:0:
411,205,3331,2,0,L|382:313,1,100
272,344,3980,2,0,B|219:279|219:279|133:243|133:243|162:197|162:197|139:130,1,300
52,50,5277,5,0,0:0:0:0:
23,166,5602,1,0,0:0:0:0:
140,132,5926,2,0,L|243:100,1,100
341,44,6575,2,0,B|386:113|386:113|270:177|313:294,1,300
425,361,7872,5,0,0:0:0:0:
425,241,8196,1,0,0:0:0:0:
313,294,8521,2,0,P|265:309|216:301,1,100
104,258,9169,2,0,B|100:175|22:105|22:105|84:79|124:20,1,300
237,24,10467,5,0,0:0:0:0:
337,89,10791,1,0,0:0:0:0:
244,164,11115,2,0,L|168:248,1,100
97,319,11764,2,0,B|155:283|155:283|325:288|325:288|389:318,1,300
497,361,13061,6,0,L|497:261,1,100
396,198,13710,1,0,0:0:0:0:
318,289,14034,1,0,0:0:0:0:
234,202,14358,2,0,B|180:99,1,100
70,85,15007,2,0,L|114:175,1,100
59,282,15656,5,0,0:0:0:0:
163,340,15980,1,0,0:0:0:0:
226,238,16304,2,0,L|326:200,1,100
424,143,16953,2,0,P|428:93|419:44,1,100
299,40,17602,2,0,P|290:89|295:139,1,100
355,241,18250,6,0,B|236:251|236:251|159:226,1,200
77,138,19223,1,0,0:0:0:0:
43,253,19548,2,0,L|-3:356,2,100
159,226,20521,1,0,0:0:0:0:
259,160,20845,6,0,P|277:109|260:53,1,100
386,46,21494,2,0,L|485:42,1,100
504,161,22142,2,0,B|468:268|468:268|406:342,1,200
296,366,23115,1,0,0:0:0:0:
233,263,23440,6,0,P|183:238|118:239,1,100
40,302,24088,1,0,0:0:0:0:
147,356,24413,1,0,0:0:0:0:
139,234,24737,2,0,L|142:115,1,100
57,48,25385,1,0,0:0:0:0:
22,163,25710,1,0,0:0:0:0:
141,134,26034,6,0,L|250:136,1,100
332,57,26683,1,0,0:0:0:0:
354,174,27007,1,0,0:0:0:0:
240,135,27331,2,0,L|123:133,1,100
34,191,27980,2,0,L|19:298,1,100
121,355,28629,6,0,P|172:362|224:355,1,100
276,250,29277,1,0,0:0:0:0:
155,253,29602,1,0,0:0:0:0:
219,356,29926,2,0,P|270:363|322:356,1,100
377,252,30575,1,0,0:0:0:0:
436,355,30899,1,0,0:0:0:0:
317,357,31223,6,0,P|277:327|246:288,1,100
198,178,31872,2,0,L|177:56,1,100
74,24,32521,2,0,B|92:84|92:84|34:268|34:268|54:330,1,300
152,368,33818,5,0,0:0:0:0:
245,293,34142,2,0,L|349:293,2,100
133,246,35115,2,0,L|96:149,1,100
7,72,35764,1,0,0:0:0:0:
121,36,36088,1,0,0:0:0:0:
97,152,36413,6,0,L|42:243,1,100
97,345,37061,1,0,0:0:0:0:
188,267,37385,1,0,0:0:0:0:
275,349,37710,2,0,P|328:337|391:349,1,100
456,256,38358,2,0,L|481:146,1,100
411,58,39007,6,0,P|256:84|122:18,1,300
39,104,40304,2,0,P|141:222|153:371,1,300
276,366,41602,2,0,P|349:238|483:175,1,300
493,55,42899,5,0,0:0:0:0:
377,87,43223,2,0,B|317:99|317:99|178:89,1,200
163,263,54575,6,0,L|77:332,2,100
252,183,55548,1,0,0:0:0:0:
355,243,55872,2,0,L|454:297,1,100
452,170,56521,2,0,L|345:122,1,100
252,183,57169,5,0,0:0:0:0:
156,110,57494,2,0,L|81:40,2,100
267,65,58467,2,0,L|373:65,1,100
473,119,59115,1,0,0:0:0:0:
389,205,59440,1,0,0:0:0:0:
302,287,59764,6,0,P|186:158|73:180,1,300
80,298,61061,2,0,P|185:352|153:238,1,300
52,172,62358,2,0,P|32:55|131:120,1,300
153,238,63656,2,0,B|224:265|224:265|456:267,1,300
360,348,64953,6,0,L|241:348,1,100
153,292,65602,1,0,0:0:0:0:
153,292,66250,6,0,L|160:181,1,100
86,96,66899,2,0,L|200:97,1,100
291,39,67548,6,0,L|289:152,1,100
284,258,68196,1,0,0:0:0:0:
284,258,68845,6,0,L|174:259,1,100
99,344,69494,2,0,L|210:345,1,100
318,342,70142,1,0,0:0:0:0:
372,234,70467,1,0,0:0:0:0:
302,136,70791,2,0,L|198:135,1,100
113,53,71440,6,0,L|218:49,1,100
330,27,72088,1,0,0:0:0:0:
400,124,72413,1,0,0:0:0:0:
343,229,72737,2,0,B|259:235|207:281|207:281|145:245|51:251,1,300
54,130,74034,2,0,B|54:40|54:40|169:40|169:40|169:142,1,300
195,252,75331,6,0,L|300:251,1,100
410,218,75979,1,0,0:0:0:0:
377,333,76304,1,0,0:0:0:0:
294,251,76628,2,0,L|296:151,1,100
217,61,77276,1,0,0:0:0:0:
336,44,77601,1,0,0:0:0:0:
296,151,77925,6,0,L|196:149,1,100
94,214,78574,1,0,0:0:0:0:
200,268,78898,1,0,0:0:0:0:
196,149,79223,2,0,L|181:36,1,100
77,115,79872,2,0,L|95:223,1,100
200,268,80521,6,0,L|303:268,1,100
412,309,81168,1,0,0:0:0:0:
396,189,81493,1,0,0:0:0:0:
300,268,81817,2,0,L|248:174,1,100
179,84,82466,1,0,0:0:0:0:
297,67,82790,1,0,0:0:0:0:
251,180,83115,6,0,L|143:180,1,100
42,127,83764,2,0,L|51:226,1,100
132,314,84412,2,0,B|212:315|272:277|272:277|340:324|428:336,1,300
488,240,85709,5,0,0:0:0:0:
416,143,86034,2,0,L|410:36,2,100
339,235,87007,2,0,L|242:272,1,100
128,242,87655,1,0,0:0:0:0:
163,356,87979,1,0,0:0:0:0:
245,270,88304,6,0,L|296:184,1,100
244,76,88952,1,0,0:0:0:0:
363,84,89276,1,0,0:0:0:0:
296,184,89601,6,0,L|202:183,2,75
416,184,90413,2,0,L|407:286,1,100
388,340,90899,6,0,B|319:297|319:297|99:300,1,300
12,217,92196,2,0,B|123:214|123:214|195:103|120:33,1,300
247,57,93494,2,0,B|339:80|339:80|408:45|408:45|415:106|415:106|453:170,1,300
498,272,94790,5,0,0:0:0:0:
385,230,95115,2,0,P|286:214|186:232,1,200
101,314,96088,6,0,L|52:211,1,100
143,139,96737,2,0,L|165:32,1,100
280,16,97385,1,0,0:0:0:0:
374,90,97710,1,0,0:0:0:0:
490,61,98034,2,0,L|468:172,1,100
448,277,98683,6,0,P|395:263|349:276,1,100
263,355,99331,2,0,P|204:364|157:354,1,100
82,268,99980,1,0,0:0:0:0:
178,197,100304,1,0,0:0:0:0:
108,98,100629,2,0,L|209:73,1,100
309,133,101277,6,0,L|342:237,1,100
448,277,101926,2,0,L|417:173,1,100
379,67,102575,2,0,P|326:35|289:37,1,100
203,119,103223,2,0,P|151:127|96:112,1,100
31,21,103872,5,0,0:0:0:0:
150,34,104196,1,0,0:0:0:0:
129,152,104521,1,0,0:0:0:0:
11,130,104845,1,0,0:0:0:0:
1,249,105169,2,0,L|-3:351,1,100
116,339,105818,2,0,B|169:327|169:327|262:355|262:355|323:348,1,200
423,310,106791,6,0,B|518:204|241:119|364:20|416:-75|573:-37|637:145|677:242|360:328|118:247|5:308|-62:148|-26:14|103:-29|178:-2|188:98|149:103,1,1100
