osu file format v14

[General]
AudioFilename: CODE+NAME_ZERO.mp3
AudioLeadIn: 0
PreviewTime: 89850
Countdown: 0
SampleSet: Normal
StackLeniency: 0.7
Mode: 3
LetterboxInBreaks: 0
SpecialStyle: 0
WidescreenStoryboard: 0

[Editor]
Bookmarks: 42900
DistanceSpacing: 1.1
BeatDivisor: 4
GridSize: 8
TimelineZoom: 2.300001

[Metadata]
Title:CODE NAME : ZERO
TitleUnicode:CODE NAME : ZERO
Artist:NeLiME
ArtistUnicode:NeLiME
Creator:Frizu
Version:MX
Source:Cytus
Tags:DrawdeX Gabberstep DkAngelS Chapter 9 nine Track 10 ten 9-10 Buried Rayark
BeatmapID:943434
BeatmapSetID:307602

[Difficulty]
HPDrainRate:8
CircleSize:4
OverallDifficulty:8
ApproachRate:5
SliderMultiplier:1.4
SliderTickRate:1

[Events]
//Background and Video events
0,0,"codename_zero.jpg",0,0
//Break Periods
//Storyboard Layer 0 (Background)
//Storyboard Layer 1 (Fail)
//Storyboard Layer 2 (Pass)
//Storyboard Layer 3 (Foreground)
//Storyboard Sound Samples

[TimingPoints]
906,300,4,1,1,25,1,0
39306,-100,4,1,1,25,0,1
58506,-100,4,1,1,25,0,0
91206,300,4,1,1,25,1,0
92406,-100,4,1,1,25,0,1
111606,-100,4,1,1,25,0,0

[HitObjects]
64,192,906,5,0,0:0:0:0:
192,192,906,1,0,0:0:0:0:
320,192,906,1,0,0:0:0:0:
448,192,1056,1,0,0:0:0:0:
64,192,1206,1,0,0:0:0:0:
192,192,1206,1,0,0:0:0:0:
448,192,1356,1,0,0:0:0:0:
192,192,1506,1,0,0:0:0:0:
320,192,1506,1,0,0:0:0:0:
64,192,1656,1,0,0:0:0:0:
448,192,1806,1,0,0:0:0:0:
192,192,1806,1,0,0:0:0:0:
64,192,1956,1,0,0:0:0:0:
320,192,1956,1,0,0:0:0:0:
192,192,2256,1,0,0:0:0:0:
320,192,2256,1,0,0:0:0:0:
64,192,2406,1,0,0:0:0:0:
448,192,2406,1,0,0:0:0:0:
320,192,2556,1,0,0:0:0:0:
192,192,2706,1,0,0:0:0:0:
64,192,2706,1,0,0:0:0:0:
320,192,2781,1,0,0:0:0:0:
192,192,2856,1,0,0:0:0:0:
448,192,2931,1,0,0:0:0:0:
320,192,3006,1,0,0:0:0:0:
64,192,3006,1,0,0:0:0:0:
192,192,3156,1,0,0:0:0:0:
64,192,3306,1,0,0:0:0:0:
448,192,3306,1,0,0:0:0:0:
320,192,3456,1,0,0:0:0:0:
192,192,3606,1,0,0:0:0:0:
64,192,3606,1,0,0:0:0:0:
320,192,3756,1,0,0:0:0:0:
64,192,3906,1,0,0:0:0:0:
448,192,3906,1,0,0:0:0:0:
320,192,4056,1,0,0:0:0:0:
64,192,4206,1,0,0:0:0:0:
192,192,4206,1,0,0:0:0:0:
320,192,4281,1,0,0:0:0:0:
448,192,4356,1,0,0:0:0:0:
64,192,4506,1,0,0:0:0:0:
192,192,4506,1,0,0:0:0:0:
448,192,4656,1,0,0:0:0:0:
64,192,4656,1,0,0:0:0:0:
448,192,4806,1,0,0:0:0:0:
320,192,4806,1,0,0:0:0:0:
192,192,4956,1,0,0:0:0:0:
64,192,5106,1,0,0:0:0:0:
448,192,5106,1,0,0:0:0:0:
320,192,5256,1,0,0:0:0:0:
64,192,5406,1,0,0:0:0:0:
448,192,5406,1,0,0:0:0:0:
192,192,5556,1,0,0:0:0:0:
64,192,5706,1,0,0:0:0:0:
448,192,5706,1,0,0:0:0:0:
320,192,5856,1,0,0:0:0:0:
192,192,6006,1,0,0:0:0:0:
64,192,6006,1,0,0:0:0:0:
320,192,6156,1,0,0:0:0:0:
448,192,6306,1,0,0:0:0:0:
192,192,6306,1,0,0:0:0:0:
64,192,6456,1,0,0:0:0:0:
192,192,6531,1,0,0:0:0:0:
320,192,6606,1,0,0:0:0:0:
448,192,6606,1,0,0:0:0:0:
192,192,6681,1,0,0:0:0:0:
448,192,6756,1,0,0:0:0:0:
64,192,6756,1,0,0:0:0:0:
320,192,6906,1,0,0:0:0:0:
448,192,7056,1,0,0:0:0:0:
192,192,7056,1,0,0:0:0:0:
64,192,7206,1,0,0:0:0:0:
320,192,7206,1,0,0:0:0:0:
192,192,7356,1,0,0:0:0:0:
320,192,7506,1,0,0:0:0:0:
448,192,7506,1,0,0:0:0:0:
192,192,7581,1,0,0:0:0:0:
320,192,7656,1,0,0:0:0:0:
64,192,7731,1,0,0:0:0:0:
192,192,7806,1,0,0:0:0:0:
448,192,7806,1,0,0:0:0:0:
320,192,7956,1,0,0:0:0:0:
192,192,8031,1,0,0:0:0:0:
320,192,8106,1,0,0:0:0:0:
64,192,8106,1,0,0:0:0:0:
192,192,8256,1,0,0:0:0:0:
64,192,8406,1,0,0:0:0:0:
448,192,8406,1,0,0:0:0:0:
192,192,8556,1,0,0:0:0:0:
64,192,8706,1,0,0:0:0:0:
320,192,8706,1,0,0:0:0:0:
64,192,8856,1,0,0:0:0:0:
448,192,8856,1,0,0:0:0:0:
192,192,9006,128,0,9156:0:0:0:0:
448,192,9006,1,0,0:0:0:0:
320,192,9156,128,0,9306:0:0:0:0:
448,192,9306,128,0,10506:0:0:0:0:
64,192,9306,1,0,0:0:0:0:
320,192,9456,1,0,0:0:0:0:
192,192,9606,1,0,0:0:0:0:
64,192,9606,1,0,0:0:0:0:
320,192,9756,1,0,0:0:0:0:
64,192,9906,1,0,0:0:0:0:
192,192,9906,1,0,0:0:0:0:
64,192,10056,1,0,0:0:0:0:
192,192,10206,1,0,0:0:0:0:
320,192,10206,1,0,0:0:0:0:
192,192,10356,1,0,0:0:0:0:
64,192,10506,1,0,0:0:0:0:
192,192,10506,1,0,0:0:0:0:
320,192,10506,1,0,0:0:0:0:
448,192,10806,1,0,0:0:0:0:
64,192,10806,1,0,0:0:0:0:
192,192,10806,1,0,0:0:0:0:
64,192,11106,1,0,0:0:0:0:
448,192,11106,1,0,0:0:0:0:
320,192,11106,1,0,0:0:0:0:
320,192,11406,1,0,0:0:0:0:
448,192,11406,1,0,0:0:0:0:
192,192,11406,1,0,0:0:0:0:
192,192,11706,1,0,0:0:0:0:
64,192,11706,1,0,0:0:0:0:
320,192,11856,1,0,0:0:0:0:
192,192,12006,1,0,0:0:0:0:
448,192,12006,1,0,0:0:0:0:
64,192,12156,1,0,0:0:0:0:
320,192,12306,1,0,0:0:0:0:
192,192,12306,1,0,0:0:0:0:
448,192,12456,1,0,0:0:0:0:
320,192,12606,1,0,0:0:0:0:
64,192,12606,1,0,0:0:0:0:
192,192,12756,1,0,0:0:0:0:
64,192,12906,1,0,0:0:0:0:
320,192,12906,1,0,0:0:0:0:
448,192,12906,1,0,0:0:0:0:
192,192,13206,1,0,0:0:0:0:
448,192,13206,1,0,0:0:0:0:
320,192,13206,1,0,0:0:0:0:
64,192,13506,1,0,0:0:0:0:
320,192,13506,1,0,0:0:0:0:
192,192,13506,1,0,0:0:0:0:
64,192,13806,1,0,0:0:0:0:
192,192,13806,1,0,0:0:0:0:
448,192,13806,1,0,0:0:0:0:
192,192,14106,1,0,0:0:0:0:
320,192,14106,1,0,0:0:0:0:
448,192,14256,1,0,0:0:0:0:
320,192,14406,1,0,0:0:0:0:
64,192,14406,1,0,0:0:0:0:
448,192,14556,1,0,0:0:0:0:
320,192,14706,1,0,0:0:0:0:
192,192,14706,1,0,0:0:0:0:
64,192,14856,1,0,0:0:0:0:
192,192,15006,1,0,0:0:0:0:
448,192,15006,1,0,0:0:0:0:
64,192,15156,1,0,0:0:0:0:
192,192,15306,1,0,0:0:0:0:
448,192,15306,1,0,0:0:0:0:
320,192,15306,1,0,0:0:0:0:
64,192,15606,1,0,0:0:0:0:
320,192,15606,1,0,0:0:0:0:
448,192,15606,1,0,0:0:0:0:
320,192,15906,1,0,0:0:0:0:
192,192,15906,1,0,0:0:0:0:
64,192,15906,1,0,0:0:0:0:
448,192,16206,1,0,0:0:0:0:
64,192,16206,1,0,0:0:0:0:
192,192,16206,1,0,0:0:0:0:
448,192,16506,1,0,0:0:0:0:
64,192,16506,1,0,0:0:0:0:
320,192,16656,1,0,0:0:0:0:
192,192,16656,1,0,0:0:0:0:
64,192,16806,1,0,0:0:0:0:
448,192,16806,1,0,0:0:0:0:
192,192,16956,1,0,0:0:0:0:
320,192,17106,1,0,0:0:0:0:
448,192,17106,128,0,18606:0:0:0:0:
192,192,17256,1,0,0:0:0:0:
320,192,17406,1,0,0:0:0:0:
64,192,17406,1,0,0:0:0:0:
192,192,17556,1,0,0:0:0:0:
64,192,17706,1,0,0:0:0:0:
320,192,17706,1,0,0:0:0:0:
192,192,18006,1,0,0:0:0:0:
320,192,18006,1,0,0:0:0:0:
192,192,18306,1,0,0:0:0:0:
64,192,18306,1,0,0:0:0:0:
192,192,18456,1,0,0:0:0:0:
64,192,18456,1,0,0:0:0:0:
64,192,18606,1,0,0:0:0:0:
192,192,18643,1,0,0:0:0:0:
320,192,18681,1,0,0:0:0:0:
448,192,18718,1,0,0:0:0:0:
64,192,18756,1,0,0:0:0:0:
192,192,18793,1,0,0:0:0:0:
320,192,18831,1,0,0:0:0:0:
448,192,18868,1,0,0:0:0:0:
64,192,18906,1,0,0:0:0:0:
192,192,18906,1,0,0:0:0:0:
64,192,19806,1,0,0:0:0:0:
192,192,19843,1,0,0:0:0:0:
320,192,19881,1,0,0:0:0:0:
448,192,19918,1,0,0:0:0:0:
64,192,19956,1,0,0:0:0:0:
192,192,19993,1,0,0:0:0:0:
320,192,20031,1,0,0:0:0:0:
448,192,20068,1,0,0:0:0:0:
64,192,20106,1,0,0:0:0:0:
192,192,20106,1,0,0:0:0:0:
320,192,20256,1,0,0:0:0:0:
192,192,20406,1,0,0:0:0:0:
448,192,20406,1,0,0:0:0:0:
64,192,20556,1,0,0:0:0:0:
192,192,20706,1,0,0:0:0:0:
448,192,20706,1,0,0:0:0:0:
320,192,20856,1,0,0:0:0:0:
192,192,21006,1,0,0:0:0:0:
64,192,21006,1,0,0:0:0:0:
320,192,21156,1,0,0:0:0:0:
448,192,21156,1,0,0:0:0:0:
64,192,21306,1,0,0:0:0:0:
192,192,21306,1,0,0:0:0:0:
320,192,21456,1,0,0:0:0:0:
64,192,21606,1,0,0:0:0:0:
448,192,21606,1,0,0:0:0:0:
320,192,21756,1,0,0:0:0:0:
192,192,21906,128,0,22056:0:0:0:0:
448,192,21906,1,0,0:0:0:0:
320,192,22056,128,0,22206:0:0:0:0:
64,192,22056,1,0,0:0:0:0:
192,192,22206,128,0,22356:0:0:0:0:
448,192,22206,1,0,0:0:0:0:
64,192,22356,1,0,0:0:0:0:
320,192,22356,1,0,0:0:0:0:
448,192,22506,1,0,0:0:0:0:
192,192,22506,1,0,0:0:0:0:
320,192,22656,1,0,0:0:0:0:
448,192,22806,1,0,0:0:0:0:
64,192,22806,1,0,0:0:0:0:
192,192,22956,1,0,0:0:0:0:
320,192,23106,1,0,0:0:0:0:
448,192,23106,1,0,0:0:0:0:
192,192,23256,1,0,0:0:0:0:
448,192,23406,1,0,0:0:0:0:
64,192,23406,1,0,0:0:0:0:
192,192,23556,1,0,0:0:0:0:
320,192,23556,1,0,0:0:0:0:
448,192,23706,1,0,0:0:0:0:
64,192,23706,1,0,0:0:0:0:
192,192,23856,1,0,0:0:0:0:
448,192,24006,1,0,0:0:0:0:
320,192,24006,1,0,0:0:0:0:
192,192,24156,1,0,0:0:0:0:
320,192,24306,128,0,24456:0:0:0:0:
64,192,24306,1,0,0:0:0:0:
192,192,24456,128,0,24606:0:0:0:0:
448,192,24456,1,0,0:0:0:0:
320,192,24606,128,0,24756:0:0:0:0:
64,192,24606,1,0,0:0:0:0:
448,192,24756,1,0,0:0:0:0:
192,192,24756,1,0,0:0:0:0:
64,192,24906,1,0,0:0:0:0:
320,192,24906,1,0,0:0:0:0:
192,192,25056,1,0,0:0:0:0:
448,192,25206,1,0,0:0:0:0:
64,192,25206,1,0,0:0:0:0:
320,192,25356,1,0,0:0:0:0:
448,192,25506,1,0,0:0:0:0:
192,192,25506,1,0,0:0:0:0:
64,192,25656,1,0,0:0:0:0:
320,192,25806,1,0,0:0:0:0:
448,192,25806,1,0,0:0:0:0:
64,192,25956,1,0,0:0:0:0:
192,192,25956,1,0,0:0:0:0:
448,192,26106,1,0,0:0:0:0:
320,192,26106,1,0,0:0:0:0:
64,192,26256,1,0,0:0:0:0:
448,192,26406,1,0,0:0:0:0:
192,192,26406,1,0,0:0:0:0:
64,192,26556,1,0,0:0:0:0:
320,192,26706,128,0,26856:0:0:0:0:
448,192,26706,1,0,0:0:0:0:
192,192,26856,128,0,27006:0:0:0:0:
64,192,26856,1,0,0:0:0:0:
320,192,27006,128,0,27156:0:0:0:0:
448,192,27006,1,0,0:0:0:0:
192,192,27156,1,0,0:0:0:0:
64,192,27156,1,0,0:0:0:0:
320,192,27306,1,0,0:0:0:0:
448,192,27306,1,0,0:0:0:0:
192,192,27456,1,0,0:0:0:0:
64,192,27606,1,0,0:0:0:0:
448,192,27606,1,0,0:0:0:0:
320,192,27756,1,0,0:0:0:0:
64,192,27906,1,0,0:0:0:0:
192,192,27906,1,0,0:0:0:0:
320,192,28056,1,0,0:0:0:0:
64,192,28206,1,0,0:0:0:0:
448,192,28206,1,0,0:0:0:0:
192,192,28356,1,0,0:0:0:0:
320,192,28356,1,0,0:0:0:0:
64,192,28506,1,0,0:0:0:0:
448,192,28506,1,0,0:0:0:0:
320,192,28656,1,0,0:0:0:0:
192,192,28806,1,0,0:0:0:0:
448,192,28806,1,0,0:0:0:0:
320,192,28956,1,0,0:0:0:0:
192,192,29106,128,0,29256:0:0:0:0:
64,192,29106,1,0,0:0:0:0:
320,192,29256,128,0,29406:0:0:0:0:
448,192,29256,1,0,0:0:0:0:
64,192,29406,1,0,0:0:0:0:
192,192,29443,1,0,0:0:0:0:
320,192,29481,1,0,0:0:0:0:
448,192,29518,1,0,0:0:0:0:
64,192,29556,1,0,0:0:0:0:
192,192,29593,1,0,0:0:0:0:
320,192,29631,1,0,0:0:0:0:
448,192,29668,1,0,0:0:0:0:
64,192,29706,1,0,0:0:0:0:
192,192,29706,1,0,0:0:0:0:
448,192,29856,1,0,0:0:0:0:
64,192,30006,1,0,0:0:0:0:
320,192,30006,1,0,0:0:0:0:
192,192,30156,1,0,0:0:0:0:
64,192,30306,1,0,0:0:0:0:
448,192,30306,1,0,0:0:0:0:
320,192,30456,1,0,0:0:0:0:
64,192,30606,1,0,0:0:0:0:
192,192,30606,1,0,0:0:0:0:
320,192,30756,1,0,0:0:0:0:
448,192,30756,1,0,0:0:0:0:
64,192,30906,1,0,0:0:0:0:
192,192,30906,1,0,0:0:0:0:
320,192,31056,1,0,0:0:0:0:
64,192,31206,1,0,0:0:0:0:
448,192,31206,1,0,0:0:0:0:
320,192,31356,1,0,0:0:0:0:
64,192,31506,128,0,31656:0:0:0:0:
192,192,31506,1,0,0:0:0:0:
448,192,31656,128,0,31806:0:0:0:0:
320,192,31656,1,0,0:0:0:0:
64,192,31806,128,0,31956:0:0:0:0:
192,192,31806,1,0,0:0:0:0:
320,192,31956,1,0,0:0:0:0:
448,192,31956,1,0,0:0:0:0:
64,192,32106,1,0,0:0:0:0:
192,192,32106,1,0,0:0:0:0:
320,192,32256,1,0,0:0:0:0:
64,192,32406,1,0,0:0:0:0:
448,192,32406,1,0,0:0:0:0:
192,192,32556,1,0,0:0:0:0:
64,192,32706,1,0,0:0:0:0:
320,192,32706,1,0,0:0:0:0:
192,192,32856,1,0,0:0:0:0:
64,192,33006,1,0,0:0:0:0:
448,192,33006,1,0,0:0:0:0:
320,192,33156,1,0,0:0:0:0:
192,192,33156,1,0,0:0:0:0:
64,192,33306,1,0,0:0:0:0:
448,192,33306,1,0,0:0:0:0:
320,192,33456,1,0,0:0:0:0:
192,192,33606,1,0,0:0:0:0:
448,192,33606,1,0,0:0:0:0:
64,192,33756,1,0,0:0:0:0:
448,192,33906,128,0,34056:0:0:0:0:
320,192,33906,1,0,0:0:0:0:
64,192,34056,128,0,34206:0:0:0:0:
192,192,34056,1,0,0:0:0:0:
448,192,34206,128,0,34356:0:0:0:0:
320,192,34206,1,0,0:0:0:0:
64,192,34356,1,0,0:0:0:0:
192,192,34356,1,0,0:0:0:0:
448,192,34506,1,0,0:0:0:0:
320,192,34506,1,0,0:0:0:0:
192,192,34656,1,0,0:0:0:0:
448,192,34806,1,0,0:0:0:0:
64,192,34806,1,0,0:0:0:0:
320,192,34956,1,0,0:0:0:0:
448,192,35106,1,0,0:0:0:0:
192,192,35106,1,0,0:0:0:0:
64,192,35256,1,0,0:0:0:0:
448,192,35406,1,0,0:0:0:0:
320,192,35406,1,0,0:0:0:0:
192,192,35556,1,0,0:0:0:0:
64,192,35556,1,0,0:0:0:0:
448,192,35706,1,0,0:0:0:0:
320,192,35706,1,0,0:0:0:0:
192,192,35856,1,0,0:0:0:0:
448,192,36006,1,0,0:0:0:0:
64,192,36006,1,0,0:0:0:0:
320,192,36156,1,0,0:0:0:0:
192,192,36306,1,0,0:0:0:0:
64,192,36306,128,0,36456:0:0:0:0:
448,192,36456,128,0,36606:0:0:0:0:
320,192,36456,1,0,0:0:0:0:
64,192,36606,128,0,36756:0:0:0:0:
192,192,36606,1,0,0:0:0:0:
448,192,36756,1,0,0:0:0:0:
320,192,36756,1,0,0:0:0:0:
64,192,36906,1,0,0:0:0:0:
448,192,36906,1,0,0:0:0:0:
64,192,37056,1,0,0:0:0:0:
320,192,37056,1,0,0:0:0:0:
192,192,37206,1,0,0:0:0:0:
448,192,37206,1,0,0:0:0:0:
448,192,37356,1,0,0:0:0:0:
64,192,37356,1,0,0:0:0:0:
64,192,37506,1,0,0:0:0:0:
192,192,37506,1,0,0:0:0:0:
320,192,37581,1,0,0:0:0:0:
448,192,37581,1,0,0:0:0:0:
64,192,37656,1,0,0:0:0:0:
192,192,37656,1,0,0:0:0:0:
320,192,37731,1,0,0:0:0:0:
448,192,37731,1,0,0:0:0:0:
192,192,37806,1,0,0:0:0:0:
64,192,37806,1,0,0:0:0:0:
448,192,37881,1,0,0:0:0:0:
320,192,37881,1,0,0:0:0:0:
192,192,37956,1,0,0:0:0:0:
64,192,37956,1,0,0:0:0:0:
448,192,38031,1,0,0:0:0:0:
320,192,38031,1,0,0:0:0:0:
64,192,38106,128,0,38406:0:0:0:0:
192,192,38106,128,0,38406:0:0:0:0:
448,192,38406,128,0,38706:0:0:0:0:
320,192,38406,1,0,0:0:0:0:
192,192,38706,128,0,39006:0:0:0:0:
64,192,38706,1,0,0:0:0:0:
320,192,39006,128,0,39306:0:0:0:0:
448,192,39006,1,0,0:0:0:0:
192,192,39306,1,0,0:0:0:0:
64,192,39306,1,0,0:0:0:0:
448,192,39306,1,0,0:0:0:0:
192,192,39456,1,0,0:0:0:0:
320,192,39606,1,0,0:0:0:0:
64,192,39606,1,0,0:0:0:0:
448,192,39756,1,0,0:0:0:0:
448,192,39906,1,0,0:0:0:0:
64,192,39906,1,0,0:0:0:0:
320,192,40056,1,0,0:0:0:0:
192,192,40206,1,0,0:0:0:0:
448,192,40206,1,0,0:0:0:0:
320,192,40356,1,0,0:0:0:0:
192,192,40356,1,0,0:0:0:0:
64,192,40506,1,0,0:0:0:0:
320,192,40506,1,0,0:0:0:0:
192,192,40656,1,0,0:0:0:0:
448,192,40806,1,0,0:0:0:0:
64,192,40806,1,0,0:0:0:0:
320,192,40956,1,0,0:0:0:0:
192,192,41106,1,0,0:0:0:0:
448,192,41106,1,0,0:0:0:0:
64,192,41256,1,0,0:0:0:0:
192,192,41406,1,0,0:0:0:0:
320,192,41406,1,0,0:0:0:0:
192,192,41556,1,0,0:0:0:0:
448,192,41556,1,0,0:0:0:0:
448,192,41706,1,0,0:0:0:0:
64,192,41706,1,0,0:0:0:0:
64,192,41856,1,0,0:0:0:0:
448,192,42006,1,0,0:0:0:0:
192,192,42006,1,0,0:0:0:0:
320,192,42156,1,0,0:0:0:0:
320,192,42306,1,0,0:0:0:0:
64,192,42306,1,0,0:0:0:0:
448,192,42456,1,0,0:0:0:0:
64,192,42456,1,0,0:0:0:0:
320,192,42606,1,0,0:0:0:0:
192,192,42606,1,0,0:0:0:0:
320,192,42756,1,0,0:0:0:0:
64,192,42756,1,0,0:0:0:0:
448,192,42906,1,0,0:0:0:0:
64,192,42906,1,0,0:0:0:0:
320,192,43056,1,0,0:0:0:0:
64,192,43206,1,0,0:0:0:0:
192,192,43206,1,0,0:0:0:0:
320,192,43356,1,0,0:0:0:0:
64,192,43506,1,0,0:0:0:0:
448,192,43506,1,0,0:0:0:0:
448,192,43656,1,0,0:0:0:0:
192,192,43656,1,0,0:0:0:0:
320,192,43806,1,0,0:0:0:0:
64,192,43806,1,0,0:0:0:0:
64,192,43956,1,0,0:0:0:0:
448,192,43956,1,0,0:0:0:0:
192,192,44106,1,0,0:0:0:0:
448,192,44106,1,0,0:0:0:0:
192,192,44256,1,0,0:0:0:0:
320,192,44406,1,0,0:0:0:0:
448,192,44406,1,0,0:0:0:0:
64,192,44556,1,0,0:0:0:0:
64,192,44706,1,0,0:0:0:0:
320,192,44706,1,0,0:0:0:0:
192,192,44856,1,0,0:0:0:0:
320,192,44856,1,0,0:0:0:0:
448,192,45006,1,0,0:0:0:0:
64,192,45006,1,0,0:0:0:0:
192,192,45156,1,0,0:0:0:0:
448,192,45156,1,0,0:0:0:0:
320,192,45306,1,0,0:0:0:0:
192,192,45306,1,0,0:0:0:0:
448,192,45456,1,0,0:0:0:0:
64,192,45606,1,0,0:0:0:0:
192,192,45606,1,0,0:0:0:0:
448,192,45756,1,0,0:0:0:0:
192,192,45906,1,0,0:0:0:0:
64,192,46056,1,0,0:0:0:0:
320,192,46056,1,0,0:0:0:0:
192,192,46206,1,0,0:0:0:0:
448,192,46206,1,0,0:0:0:0:
192,192,46356,1,0,0:0:0:0:
320,192,46356,1,0,0:0:0:0:
64,192,46506,1,0,0:0:0:0:
320,192,46506,1,0,0:0:0:0:
64,192,46656,1,0,0:0:0:0:
320,192,46806,1,0,0:0:0:0:
448,192,46806,1,0,0:0:0:0:
192,192,46956,1,0,0:0:0:0:
192,192,47106,1,0,0:0:0:0:
448,192,47256,1,0,0:0:0:0:
64,192,47256,1,0,0:0:0:0:
192,192,47406,1,0,0:0:0:0:
320,192,47406,1,0,0:0:0:0:
320,192,47556,1,0,0:0:0:0:
64,192,47556,1,0,0:0:0:0:
448,192,47706,1,0,0:0:0:0:
64,192,47706,1,0,0:0:0:0:
320,192,47856,1,0,0:0:0:0:
64,192,48006,1,0,0:0:0:0:
192,192,48006,1,0,0:0:0:0:
448,192,48156,1,0,0:0:0:0:
192,192,48306,1,0,0:0:0:0:
64,192,48456,1,0,0:0:0:0:
320,192,48456,1,0,0:0:0:0:
448,192,48606,1,0,0:0:0:0:
320,192,48643,1,0,0:0:0:0:
192,192,48681,1,0,0:0:0:0:
64,192,48718,1,0,0:0:0:0:
448,192,48756,1,0,0:0:0:0:
320,192,48793,1,0,0:0:0:0:
192,192,48831,1,0,0:0:0:0:
64,192,48868,1,0,0:0:0:0:
320,192,48906,1,0,0:0:0:0:
448,192,48906,1,0,0:0:0:0:
320,192,49056,1,0,0:0:0:0:
448,192,49206,1,0,0:0:0:0:
192,192,49206,1,0,0:0:0:0:
64,192,49356,1,0,0:0:0:0:
64,192,49506,1,0,0:0:0:0:
192,192,49656,1,0,0:0:0:0:
320,192,49656,1,0,0:0:0:0:
448,192,49806,1,0,0:0:0:0:
64,192,49806,1,0,0:0:0:0:
192,192,49956,1,0,0:0:0:0:
448,192,49956,1,0,0:0:0:0:
192,192,50106,1,0,0:0:0:0:
320,192,50106,1,0,0:0:0:0:
448,192,50256,1,0,0:0:0:0:
192,192,50406,1,0,0:0:0:0:
64,192,50406,1,0,0:0:0:0:
320,192,50556,1,0,0:0:0:0:
192,192,50706,1,0,0:0:0:0:
64,192,50856,1,0,0:0:0:0:
448,192,50856,1,0,0:0:0:0:
320,192,51006,1,0,0:0:0:0:
192,192,51006,1,0,0:0:0:0:
64,192,51156,1,0,0:0:0:0:
320,192,51156,1,0,0:0:0:0:
64,192,51306,1,0,0:0:0:0:
448,192,51306,1,0,0:0:0:0:
448,192,51456,1,0,0:0:0:0:
64,192,51606,1,0,0:0:0:0:
192,192,51606,1,0,0:0:0:0:
320,192,51756,1,0,0:0:0:0:
320,192,51906,1,0,0:0:0:0:
448,192,52056,1,0,0:0:0:0:
192,192,52056,1,0,0:0:0:0:
64,192,52206,1,0,0:0:0:0:
320,192,52206,1,0,0:0:0:0:
192,192,52356,1,0,0:0:0:0:
320,192,52356,1,0,0:0:0:0:
448,192,52506,1,0,0:0:0:0:
192,192,52506,1,0,0:0:0:0:
320,192,52656,1,0,0:0:0:0:
192,192,52806,1,0,0:0:0:0:
64,192,52806,1,0,0:0:0:0:
320,192,52956,1,0,0:0:0:0:
192,192,53106,1,0,0:0:0:0:
64,192,53256,1,0,0:0:0:0:
448,192,53256,1,0,0:0:0:0:
320,192,53406,1,0,0:0:0:0:
192,192,53406,1,0,0:0:0:0:
320,192,53556,1,0,0:0:0:0:
64,192,53556,1,0,0:0:0:0:
64,192,53706,1,0,0:0:0:0:
448,192,53706,1,0,0:0:0:0:
448,192,53856,1,0,0:0:0:0:
64,192,54006,1,0,0:0:0:0:
192,192,54006,1,0,0:0:0:0:
448,192,54156,1,0,0:0:0:0:
448,192,54306,1,0,0:0:0:0:
320,192,54456,1,0,0:0:0:0:
64,192,54456,1,0,0:0:0:0:
192,192,54606,1,0,0:0:0:0:
448,192,54606,1,0,0:0:0:0:
192,192,54756,1,0,0:0:0:0:
320,192,54756,1,0,0:0:0:0:
64,192,54906,1,0,0:0:0:0:
320,192,54906,1,0,0:0:0:0:
192,192,55056,1,0,0:0:0:0:
320,192,55206,1,0,0:0:0:0:
448,192,55206,1,0,0:0:0:0:
192,192,55356,1,0,0:0:0:0:
448,192,55506,1,0,0:0:0:0:
320,192,55656,1,0,0:0:0:0:
64,192,55656,1,0,0:0:0:0:
448,192,55806,1,0,0:0:0:0:
192,192,55806,1,0,0:0:0:0:
192,192,55956,1,0,0:0:0:0:
320,192,55956,1,0,0:0:0:0:
64,192,56106,1,0,0:0:0:0:
320,192,56106,1,0,0:0:0:0:
64,192,56256,1,0,0:0:0:0:
448,192,56406,1,0,0:0:0:0:
320,192,56406,1,0,0:0:0:0:
192,192,56556,1,0,0:0:0:0:
192,192,56706,1,0,0:0:0:0:
320,192,56856,1,0,0:0:0:0:
448,192,56856,1,0,0:0:0:0:
64,192,57006,1,0,0:0:0:0:
192,192,57043,1,0,0:0:0:0:
320,192,57081,1,0,0:0:0:0:
448,192,57118,1,0,0:0:0:0:
64,192,57156,1,0,0:0:0:0:
192,192,57193,1,0,0:0:0:0:
320,192,57231,1,0,0:0:0:0:
448,192,57268,1,0,0:0:0:0:
192,192,57306,128,0,57606:0:0:0:0:
64,192,57306,1,0,0:0:0:0:
320,192,57606,128,0,57906:0:0:0:0:
448,192,57606,1,0,0:0:0:0:
64,192,57906,128,0,58206:0:0:0:0:
192,192,57906,1,0,0:0:0:0:
448,192,58206,128,0,58506:0:0:0:0:
320,192,58206,1,0,0:0:0:0:
64,192,58506,128,0,58656:0:0:0:0:
192,192,58506,1,0,0:0:0:0:
320,192,58656,128,0,58806:0:0:0:0:
64,192,58806,128,0,58956:0:0:0:0:
320,192,58956,128,0,59106:0:0:0:0:
448,192,58956,1,0,0:0:0:0:
64,192,59106,128,0,59406:0:0:0:0:
192,192,59106,1,0,0:0:0:0:
192,192,59406,128,0,59556:0:0:0:0:
448,192,59406,1,0,0:0:0:0:
320,192,59556,128,0,59706:0:0:0:0:
64,192,59556,1,0,0:0:0:0:
192,192,59856,128,0,59931:0:0:0:0:
448,192,59856,1,0,0:0:0:0:
192,192,60006,128,0,60081:0:0:0:0:
320,192,60156,128,0,60231:0:0:0:0:
448,192,60156,1,0,0:0:0:0:
192,192,60306,1,0,0:0:0:0:
448,192,60306,1,0,0:0:0:0:
64,192,60306,1,0,0:0:0:0:
64,192,60568,1,0,0:0:0:0:
64,192,60793,1,0,0:0:0:0:
320,192,60906,1,0,0:0:0:0:
448,192,60906,1,0,0:0:0:0:
448,192,61168,1,0,0:0:0:0:
448,192,61393,1,0,0:0:0:0:
64,192,61506,1,0,0:0:0:0:
320,192,61506,1,0,0:0:0:0:
320,192,61806,128,0,61956:0:0:0:0:
448,192,61806,1,0,0:0:0:0:
64,192,61956,128,0,62106:0:0:0:0:
192,192,61956,1,0,0:0:0:0:
448,192,62256,128,0,62406:0:0:0:0:
192,192,62406,128,0,62556:0:0:0:0:
320,192,62556,128,0,62706:0:0:0:0:
64,192,62706,128,0,63306:0:0:0:0:
448,192,62706,1,0,0:0:0:0:
192,192,62706,1,0,0:0:0:0:
448,192,63306,128,0,63456:0:0:0:0:
320,192,63306,1,0,0:0:0:0:
192,192,63456,128,0,63606:0:0:0:0:
448,192,63606,128,0,63756:0:0:0:0:
192,192,63756,128,0,63906:0:0:0:0:
64,192,63756,1,0,0:0:0:0:
448,192,63906,128,0,64206:0:0:0:0:
320,192,63906,1,0,0:0:0:0:
64,192,63906,1,0,0:0:0:0:
320,192,64206,128,0,64356:0:0:0:0:
64,192,64206,1,0,0:0:0:0:
192,192,64356,128,0,64506:0:0:0:0:
448,192,64356,1,0,0:0:0:0:
448,192,64656,128,0,64731:0:0:0:0:
320,192,64806,128,0,64881:0:0:0:0:
192,192,64956,128,0,65031:0:0:0:0:
64,192,64956,1,0,0:0:0:0:
320,192,65106,1,0,0:0:0:0:
64,192,65106,1,0,0:0:0:0:
448,192,65106,1,0,0:0:0:0:
448,192,65368,1,0,0:0:0:0:
448,192,65593,1,0,0:0:0:0:
64,192,65706,128,0,65781:0:0:0:0:
192,192,65706,128,0,65781:0:0:0:0:
64,192,65856,128,0,65931:0:0:0:0:
192,192,65856,128,0,65931:0:0:0:0:
448,192,66006,128,0,66081:0:0:0:0:
320,192,66006,128,0,66081:0:0:0:0:
448,192,66156,128,0,66231:0:0:0:0:
320,192,66156,128,0,66231:0:0:0:0:
64,192,66306,1,0,0:0:0:0:
192,192,66306,1,0,0:0:0:0:
320,192,66381,1,0,0:0:0:0:
448,192,66456,1,0,0:0:0:0:
64,192,66531,1,0,0:0:0:0:
192,192,66606,128,0,66906:0:0:0:0:
448,192,66606,128,0,66906:0:0:0:0:
64,192,66906,1,0,0:0:0:0:
320,192,66906,1,0,0:0:0:0:
64,192,67056,128,0,67206:0:0:0:0:
192,192,67056,1,0,0:0:0:0:
448,192,67206,128,0,67356:0:0:0:0:
320,192,67206,1,0,0:0:0:0:
64,192,67356,1,0,0:0:0:0:
192,192,67356,128,0,67506:0:0:0:0:
448,192,67506,128,0,68106:0:0:0:0:
64,192,67506,1,0,0:0:0:0:
320,192,67506,1,0,0:0:0:0:
320,192,68106,1,0,0:0:0:0:
192,192,68106,1,0,0:0:0:0:
64,192,68106,128,0,68256:0:0:0:0:
448,192,68256,128,0,68406:0:0:0:0:
64,192,68406,128,0,68556:0:0:0:0:
448,192,68556,128,0,68706:0:0:0:0:
192,192,68556,1,0,0:0:0:0:
320,192,68706,128,0,69006:0:0:0:0:
64,192,68706,1,0,0:0:0:0:
192,192,68706,1,0,0:0:0:0:
64,192,69006,128,0,69156:0:0:0:0:
192,192,69006,1,0,0:0:0:0:
448,192,69156,128,0,69306:0:0:0:0:
320,192,69156,1,0,0:0:0:0:
64,192,69456,128,0,69606:0:0:0:0:
192,192,69456,1,0,0:0:0:0:
448,192,69606,128,0,69756:0:0:0:0:
192,192,69756,128,0,69906:0:0:0:0:
64,192,69756,1,0,0:0:0:0:
320,192,69906,1,0,0:0:0:0:
448,192,69906,128,0,69981:0:0:0:0:
64,192,69906,1,0,0:0:0:0:
448,192,70056,128,0,70131:0:0:0:0:
64,192,70206,128,0,70281:0:0:0:0:
64,192,70356,128,0,70431:0:0:0:0:
320,192,70506,1,0,0:0:0:0:
448,192,70506,1,0,0:0:0:0:
320,192,70768,1,0,0:0:0:0:
320,192,70993,1,0,0:0:0:0:
64,192,71106,128,0,71256:0:0:0:0:
192,192,71106,1,0,0:0:0:0:
448,192,71256,128,0,71406:0:0:0:0:
192,192,71406,128,0,71556:0:0:0:0:
320,192,71406,1,0,0:0:0:0:
64,192,71556,128,0,71706:0:0:0:0:
448,192,71556,1,0,0:0:0:0:
448,192,71856,128,0,72006:0:0:0:0:
64,192,72006,128,0,72156:0:0:0:0:
192,192,72156,128,0,72306:0:0:0:0:
320,192,72306,128,0,72906:0:0:0:0:
64,192,72306,1,0,0:0:0:0:
448,192,72306,1,0,0:0:0:0:
192,192,72906,1,0,0:0:0:0:
448,192,72906,128,0,73056:0:0:0:0:
64,192,72906,1,0,0:0:0:0:
64,192,73056,128,0,73206:0:0:0:0:
448,192,73206,128,0,73356:0:0:0:0:
320,192,73356,1,0,0:0:0:0:
64,192,73356,128,0,73506:0:0:0:0:
192,192,73506,128,0,73806:0:0:0:0:
448,192,73506,1,0,0:0:0:0:
320,192,73506,1,0,0:0:0:0:
320,192,73806,128,0,73956:0:0:0:0:
448,192,73806,1,0,0:0:0:0:
64,192,73956,128,0,74106:0:0:0:0:
192,192,73956,1,0,0:0:0:0:
448,192,74256,128,0,74406:0:0:0:0:
64,192,74406,128,0,74556:0:0:0:0:
448,192,74556,128,0,74706:0:0:0:0:
192,192,74556,1,0,0:0:0:0:
64,192,74706,1,0,0:0:0:0:
192,192,74706,1,0,0:0:0:0:
320,192,74706,1,0,0:0:0:0:
320,192,74968,128,0,74968:0:0:0:0:
320,192,75193,1,0,0:0:0:0:
64,192,75306,1,0,0:0:0:0:
192,192,75306,1,0,0:0:0:0:
64,192,75568,1,0,0:0:0:0:
64,192,75793,1,0,0:0:0:0:
448,192,75906,1,0,0:0:0:0:
192,192,75906,1,0,0:0:0:0:
64,192,76206,1,0,0:0:0:0:
192,192,76206,128,0,76356:0:0:0:0:
320,192,76356,1,0,0:0:0:0:
448,192,76356,128,0,76506:0:0:0:0:
64,192,76506,1,0,0:0:0:0:
192,192,76506,1,0,0:0:0:0:
64,192,76656,1,0,0:0:0:0:
320,192,76656,128,0,76806:0:0:0:0:
448,192,76806,128,0,76956:0:0:0:0:
192,192,76806,1,0,0:0:0:0:
64,192,76956,128,0,77106:0:0:0:0:
192,192,77106,128,0,77706:0:0:0:0:
320,192,77106,1,0,0:0:0:0:
448,192,77106,1,0,0:0:0:0:
64,192,77706,1,0,0:0:0:0:
448,192,77706,1,0,0:0:0:0:
320,192,77706,1,0,0:0:0:0:
192,192,77856,1,0,0:0:0:0:
448,192,78006,1,0,0:0:0:0:
320,192,78156,1,0,0:0:0:0:
192,192,78306,1,0,0:0:0:0:
320,192,78456,1,0,0:0:0:0:
192,192,78606,1,0,0:0:0:0:
64,192,78606,1,0,0:0:0:0:
448,192,78606,1,0,0:0:0:0:
448,192,78756,1,0,0:0:0:0:
320,192,78756,1,0,0:0:0:0:
64,192,78756,1,0,0:0:0:0:
192,192,78906,1,0,0:0:0:0:
320,192,79056,1,0,0:0:0:0:
448,192,79056,1,0,0:0:0:0:
64,192,79056,1,0,0:0:0:0:
192,192,79206,1,0,0:0:0:0:
448,192,79356,1,0,0:0:0:0:
320,192,79356,1,0,0:0:0:0:
64,192,79356,1,0,0:0:0:0:
192,192,79506,1,0,0:0:0:0:
448,192,79656,1,0,0:0:0:0:
320,192,79806,1,0,0:0:0:0:
192,192,79956,1,0,0:0:0:0:
64,192,80106,1,0,0:0:0:0:
320,192,80106,1,0,0:0:0:0:
448,192,80106,1,0,0:0:0:0:
192,192,80256,1,0,0:0:0:0:
320,192,80406,1,0,0:0:0:0:
64,192,80556,1,0,0:0:0:0:
448,192,80706,1,0,0:0:0:0:
192,192,80856,1,0,0:0:0:0:
320,192,81006,1,0,0:0:0:0:
448,192,81006,1,0,0:0:0:0:
64,192,81006,1,0,0:0:0:0:
64,192,81156,1,0,0:0:0:0:
192,192,81156,1,0,0:0:0:0:
448,192,81156,1,0,0:0:0:0:
320,192,81306,1,0,0:0:0:0:
192,192,81456,1,0,0:0:0:0:
64,192,81456,1,0,0:0:0:0:
448,192,81456,1,0,0:0:0:0:
320,192,81606,1,0,0:0:0:0:
64,192,81756,1,0,0:0:0:0:
192,192,81756,1,0,0:0:0:0:
448,192,81756,1,0,0:0:0:0:
192,192,81906,128,0,82206:0:0:0:0:
320,192,81906,128,0,82206:0:0:0:0:
448,192,82206,1,0,0:0:0:0:
64,192,82206,128,0,82506:0:0:0:0:
320,192,82506,1,0,0:0:0:0:
448,192,82506,1,0,0:0:0:0:
192,192,82506,1,0,0:0:0:0:
64,192,82656,1,0,0:0:0:0:
320,192,82806,1,0,0:0:0:0:
192,192,82956,1,0,0:0:0:0:
448,192,83106,1,0,0:0:0:0:
192,192,83256,1,0,0:0:0:0:
320,192,83406,1,0,0:0:0:0:
448,192,83406,1,0,0:0:0:0:
64,192,83406,1,0,0:0:0:0:
64,192,83556,1,0,0:0:0:0:
448,192,83556,1,0,0:0:0:0:
192,192,83556,1,0,0:0:0:0:
320,192,83706,1,0,0:0:0:0:
192,192,83856,1,0,0:0:0:0:
64,192,83856,1,0,0:0:0:0:
448,192,83856,1,0,0:0:0:0:
320,192,84006,1,0,0:0:0:0:
192,192,84156,1,0,0:0:0:0:
64,192,84156,1,0,0:0:0:0:
448,192,84156,1,0,0:0:0:0:
320,192,84306,1,0,0:0:0:0:
64,192,84456,1,0,0:0:0:0:
192,192,84606,1,0,0:0:0:0:
448,192,84756,1,0,0:0:0:0:
192,192,84906,1,0,0:0:0:0:
64,192,84906,1,0,0:0:0:0:
320,192,84906,1,0,0:0:0:0:
448,192,85056,1,0,0:0:0:0:
192,192,85206,1,0,0:0:0:0:
320,192,85356,1,0,0:0:0:0:
64,192,85506,1,0,0:0:0:0:
192,192,85656,1,0,0:0:0:0:
64,192,85806,1,0,0:0:0:0:
320,192,85806,1,0,0:0:0:0:
448,192,85806,1,0,0:0:0:0:
448,192,85956,1,0,0:0:0:0:
192,192,85956,1,0,0:0:0:0:
64,192,85956,1,0,0:0:0:0:
320,192,86106,1,0,0:0:0:0:
448,192,86256,1,0,0:0:0:0:
64,192,86256,1,0,0:0:0:0:
192,192,86256,1,0,0:0:0:0:
320,192,86406,1,0,0:0:0:0:
192,192,86556,1,0,0:0:0:0:
448,192,86556,1,0,0:0:0:0:
64,192,86556,1,0,0:0:0:0:
448,192,86706,128,0,87306:0:0:0:0:
320,192,86706,128,0,87006:0:0:0:0:
64,192,87006,128,0,87306:0:0:0:0:
192,192,87306,1,0,0:0:0:0:
320,192,87306,1,0,0:0:0:0:
320,192,87906,128,0,88206:0:0:0:0:
192,192,88656,1,0,0:0:0:0:
448,192,88881,1,0,0:0:0:0:
64,192,89106,1,0,0:0:0:0:
320,192,89331,1,0,0:0:0:0:
192,192,90006,1,0,0:0:0:0:
320,192,90006,1,0,0:0:0:0:
448,192,90606,1,0,0:0:0:0:
64,192,90606,1,0,0:0:0:0:
64,192,91206,1,0,0:0:0:0:
320,192,91206,1,0,0:0:0:0:
448,192,91206,1,0,0:0:0:0:
192,192,91656,1,0,0:0:0:0:
320,192,91731,1,0,0:0:0:0:
64,192,91806,128,0,92406:0:0:0:0:
192,192,91806,128,0,92406:0:0:0:0:
448,192,92106,1,0,0:0:0:0:
448,192,92406,1,0,0:0:0:0:
320,192,92406,1,0,0:0:0:0:
192,192,92556,1,0,0:0:0:0:
64,192,92706,1,0,0:0:0:0:
448,192,92706,1,0,0:0:0:0:
320,192,92856,1,0,0:0:0:0:
64,192,93006,1,0,0:0:0:0:
192,192,93006,1,0,0:0:0:0:
448,192,93156,1,0,0:0:0:0:
64,192,93306,1,0,0:0:0:0:
192,192,93306,1,0,0:0:0:0:
320,192,93456,1,0,0:0:0:0:
448,192,93456,1,0,0:0:0:0:
64,192,93606,1,0,0:0:0:0:
192,192,93606,1,0,0:0:0:0:
320,192,93756,1,0,0:0:0:0:
64,192,93906,1,0,0:0:0:0:
448,192,93906,1,0,0:0:0:0:
320,192,94056,1,0,0:0:0:0:
64,192,94206,128,0,94356:0:0:0:0:
192,192,94206,1,0,0:0:0:0:
448,192,94356,128,0,94506:0:0:0:0:
320,192,94356,1,0,0:0:0:0:
64,192,94506,128,0,94656:0:0:0:0:
192,192,94506,1,0,0:0:0:0:
320,192,94656,1,0,0:0:0:0:
448,192,94656,1,0,0:0:0:0:
64,192,94806,1,0,0:0:0:0:
192,192,94806,1,0,0:0:0:0:
448,192,94956,1,0,0:0:0:0:
64,192,95106,1,0,0:0:0:0:
320,192,95106,1,0,0:0:0:0:
192,192,95256,1,0,0:0:0:0:
64,192,95406,1,0,0:0:0:0:
448,192,95406,1,0,0:0:0:0:
320,192,95556,1,0,0:0:0:0:
64,192,95706,1,0,0:0:0:0:
448,192,95706,1,0,0:0:0:0:
320,192,95856,1,0,0:0:0:0:
192,192,95856,1,0,0:0:0:0:
64,192,96006,1,0,0:0:0:0:
448,192,96006,1,0,0:0:0:0:
192,192,96156,1,0,0:0:0:0:
448,192,96306,1,0,0:0:0:0:
320,192,96306,1,0,0:0:0:0:
64,192,96456,1,0,0:0:0:0:
448,192,96606,128,0,96756:0:0:0:0:
320,192,96606,1,0,0:0:0:0:
64,192,96756,128,0,96906:0:0:0:0:
192,192,96756,1,0,0:0:0:0:
448,192,96906,128,0,97056:0:0:0:0:
320,192,96906,1,0,0:0:0:0:
192,192,97056,1,0,0:0:0:0:
64,192,97056,1,0,0:0:0:0:
448,192,97206,1,0,0:0:0:0:
320,192,97206,1,0,0:0:0:0:
192,192,97356,1,0,0:0:0:0:
448,192,97506,1,0,0:0:0:0:
64,192,97506,1,0,0:0:0:0:
320,192,97656,1,0,0:0:0:0:
448,192,97806,1,0,0:0:0:0:
64,192,97806,1,0,0:0:0:0:
192,192,97956,1,0,0:0:0:0:
448,192,98106,1,0,0:0:0:0:
320,192,98106,1,0,0:0:0:0:
64,192,98256,1,0,0:0:0:0:
192,192,98256,1,0,0:0:0:0:
448,192,98406,1,0,0:0:0:0:
320,192,98406,1,0,0:0:0:0:
192,192,98556,1,0,0:0:0:0:
448,192,98706,1,0,0:0:0:0:
64,192,98706,1,0,0:0:0:0:
192,192,98856,1,0,0:0:0:0:
320,192,99006,128,0,99156:0:0:0:0:
448,192,99006,1,0,0:0:0:0:
192,192,99156,128,0,99306:0:0:0:0:
64,192,99156,1,0,0:0:0:0:
320,192,99306,128,0,99456:0:0:0:0:
448,192,99306,1,0,0:0:0:0:
64,192,99456,1,0,0:0:0:0:
192,192,99456,1,0,0:0:0:0:
448,192,99606,1,0,0:0:0:0:
320,192,99606,1,0,0:0:0:0:
64,192,99756,1,0,0:0:0:0:
448,192,99906,1,0,0:0:0:0:
192,192,99906,1,0,0:0:0:0:
320,192,100056,1,0,0:0:0:0:
448,192,100206,1,0,0:0:0:0:
64,192,100206,1,0,0:0:0:0:
192,192,100356,1,0,0:0:0:0:
448,192,100506,1,0,0:0:0:0:
64,192,100506,1,0,0:0:0:0:
192,192,100656,1,0,0:0:0:0:
320,192,100656,1,0,0:0:0:0:
448,192,100806,1,0,0:0:0:0:
64,192,100806,1,0,0:0:0:0:
320,192,100956,1,0,0:0:0:0:
192,192,101106,1,0,0:0:0:0:
64,192,101106,1,0,0:0:0:0:
448,192,101256,1,0,0:0:0:0:
320,192,101406,128,0,101556:0:0:0:0:
64,192,101406,1,0,0:0:0:0:
192,192,101556,128,0,101706:0:0:0:0:
448,192,101556,1,0,0:0:0:0:
64,192,101706,128,0,102006:0:0:0:0:
448,192,101706,128,0,102006:0:0:0:0:
320,192,102006,1,0,0:0:0:0:
192,192,102006,1,0,0:0:0:0:
64,192,102156,1,0,0:0:0:0:
320,192,102156,1,0,0:0:0:0:
192,192,102306,1,0,0:0:0:0:
448,192,102306,1,0,0:0:0:0:
64,192,102456,1,0,0:0:0:0:
320,192,102456,1,0,0:0:0:0:
192,192,102606,1,0,0:0:0:0:
320,192,102606,1,0,0:0:0:0:
448,192,102756,1,0,0:0:0:0:
64,192,102756,1,0,0:0:0:0:
192,192,102906,1,0,0:0:0:0:
320,192,102906,1,0,0:0:0:0:
192,192,103056,1,0,0:0:0:0:
448,192,103056,1,0,0:0:0:0:
64,192,103206,1,0,0:0:0:0:
320,192,103206,1,0,0:0:0:0:
448,192,103206,1,0,0:0:0:0:
64,192,103356,1,0,0:0:0:0:
192,192,103356,1,0,0:0:0:0:
320,192,103506,1,0,0:0:0:0:
448,192,103506,1,0,0:0:0:0:
64,192,103656,1,0,0:0:0:0:
192,192,103656,1,0,0:0:0:0:
320,192,103806,1,0,0:0:0:0:
192,192,103806,1,0,0:0:0:0:
64,192,103956,1,0,0:0:0:0:
448,192,103956,1,0,0:0:0:0:
192,192,104106,1,0,0:0:0:0:
320,192,104106,1,0,0:0:0:0:
64,192,104256,1,0,0:0:0:0:
320,192,104256,1,0,0:0:0:0:
448,192,104406,1,0,0:0:0:0:
192,192,104406,1,0,0:0:0:0:
64,192,104406,1,0,0:0:0:0:
448,192,104556,1,0,0:0:0:0:
320,192,104556,1,0,0:0:0:0:
192,192,104706,1,0,0:0:0:0:
64,192,104706,1,0,0:0:0:0:
448,192,104856,1,0,0:0:0:0:
320,192,104856,1,0,0:0:0:0:
448,192,105006,1,0,0:0:0:0:
192,192,105006,1,0,0:0:0:0:
320,192,105156,1,0,0:0:0:0:
64,192,105156,1,0,0:0:0:0:
192,192,105306,1,0,0:0:0:0:
448,192,105306,1,0,0:0:0:0:
192,192,105456,1,0,0:0:0:0:
320,192,105456,1,0,0:0:0:0:
448,192,105606,1,0,0:0:0:0:
64,192,105606,1,0,0:0:0:0:
320,192,105606,1,0,0:0:0:0:
64,192,105756,1,0,0:0:0:0:
192,192,105756,1,0,0:0:0:0:
448,192,105906,1,0,0:0:0:0:
320,192,105906,1,0,0:0:0:0:
192,192,106056,1,0,0:0:0:0:
64,192,106056,1,0,0:0:0:0:
320,192,106206,1,0,0:0:0:0:
192,192,106206,1,0,0:0:0:0:
448,192,106356,1,0,0:0:0:0:
64,192,106356,1,0,0:0:0:0:
192,192,106506,1,0,0:0:0:0:
320,192,106506,1,0,0:0:0:0:
320,192,106656,1,0,0:0:0:0:
64,192,106656,1,0,0:0:0:0:
192,192,106806,1,0,0:0:0:0:
448,192,106806,1,0,0:0:0:0:
64,192,106806,1,0,0:0:0:0:
320,192,106956,1,0,0:0:0:0:
192,192,106956,1,0,0:0:0:0:
64,192,107106,1,0,0:0:0:0:
448,192,107106,1,0,0:0:0:0:
192,192,107256,1,0,0:0:0:0:
320,192,107256,1,0,0:0:0:0:
320,192,107406,1,0,0:0:0:0:
448,192,107406,1,0,0:0:0:0:
64,192,107556,1,0,0:0:0:0:
192,192,107556,1,0,0:0:0:0:
320,192,107706,1,0,0:0:0:0:
448,192,107706,1,0,0:0:0:0:
448,192,107856,1,0,0:0:0:0:
192,192,107856,1,0,0:0:0:0:
320,192,108006,1,0,0:0:0:0:
64,192,108006,1,0,0:0:0:0:
192,192,108006,1,0,0:0:0:0:
320,192,108156,1,0,0:0:0:0:
448,192,108156,1,0,0:0:0:0:
64,192,108306,1,0,0:0:0:0:
192,192,108306,1,0,0:0:0:0:
320,192,108456,1,0,0:0:0:0:
448,192,108456,1,0,0:0:0:0:
192,192,108606,1,0,0:0:0:0:
448,192,108606,1,0,0:0:0:0:
64,192,108756,1,0,0:0:0:0:
320,192,108756,1,0,0:0:0:0:
192,192,108906,1,0,0:0:0:0:
448,192,108906,1,0,0:0:0:0:
192,192,109056,1,0,0:0:0:0:
320,192,109056,1,0,0:0:0:0:
64,192,109206,1,0,0:0:0:0:
448,192,109206,1,0,0:0:0:0:
320,192,109206,1,0,0:0:0:0:
192,192,109356,1,0,0:0:0:0:
64,192,109356,1,0,0:0:0:0:
192,192,109506,1,0,0:0:0:0:
448,192,109506,1,0,0:0:0:0:
320,192,109656,1,0,0:0:0:0:
448,192,109656,1,0,0:0:0:0:
64,192,109806,1,0,0:0:0:0:
192,192,109806,1,0,0:0:0:0:
320,192,109881,1,0,0:0:0:0:
448,192,109881,1,0,0:0:0:0:
192,192,109956,1,0,0:0:0:0:
64,192,109956,1,0,0:0:0:0:
320,192,110031,1,0,0:0:0:0:
448,192,110031,1,0,0:0:0:0:
64,192,110106,1,0,0:0:0:0:
192,192,110143,1,0,0:0:0:0:
320,192,110181,1,0,0:0:0:0:
448,192,110218,1,0,0:0:0:0:
64,192,110256,1,0,0:0:0:0:
192,192,110293,1,0,0:0:0:0:
320,192,110331,1,0,0:0:0:0:
448,192,110368,1,0,0:0:0:0:
64,192,110406,128,0,110706:0:0:0:0:
192,192,110406,1,0,0:0:0:0:
320,192,110706,128,0,111006:0:0:0:0:
448,192,110706,1,0,0:0:0:0:
192,192,111006,128,0,111306:0:0:0:0:
64,192,111006,1,0,0:0:0:0:
448,192,111306,128,0,111606:0:0:0:0:
320,192,111306,1,0,0:0:0:0:
192,192,111606,1,0,0:0:0:0:
64,192,111606,1,0,0:0:0:0:
320,192,111606,1,0,0:0:0:0:
448,192,111756,1,0,0:0:0:0:
320,192,111906,1,0,0:0:0:0:
64,192,111906,128,0,112056:0:0:0:0:
192,192,112056,1,0,0:0:0:0:
320,192,112206,128,0,112956:0:0:0:0:
448,192,112206,1,0,0:0:0:0:
192,192,112356,1,0,0:0:0:0:
64,192,112506,1,0,0:0:0:0:
448,192,112506,1,0,0:0:0:0:
192,192,112656,1,0,0:0:0:0:
64,192,112806,1,0,0:0:0:0:
448,192,112806,1,0,0:0:0:0:
192,192,112956,128,0,113106:0:0:0:0:
320,192,113106,128,0,113256:0:0:0:0:
448,192,113106,1,0,0:0:0:0:
64,192,113256,1,0,0:0:0:0:
192,192,113406,128,0,114156:0:0:0:0:
448,192,113406,1,0,0:0:0:0:
320,192,113481,1,0,0:0:0:0:
64,192,113556,1,0,0:0:0:0:
448,192,113706,1,0,0:0:0:0:
320,192,113706,1,0,0:0:0:0:
64,192,113856,1,0,0:0:0:0:
320,192,114006,1,0,0:0:0:0:
448,192,114006,1,0,0:0:0:0:
64,192,114156,128,0,114306:0:0:0:0:
448,192,114306,1,0,0:0:0:0:
192,192,114306,128,0,114456:0:0:0:0:
64,192,114456,1,0,0:0:0:0:
448,192,114606,128,0,115356:0:0:0:0:
192,192,114606,1,0,0:0:0:0:
320,192,114756,1,0,0:0:0:0:
64,192,114906,1,0,0:0:0:0:
192,192,114906,1,0,0:0:0:0:
320,192,115056,1,0,0:0:0:0:
64,192,115206,1,0,0:0:0:0:
192,192,115206,1,0,0:0:0:0:
320,192,115356,128,0,115506:0:0:0:0:
64,192,115506,1,0,0:0:0:0:
448,192,115506,128,0,115656:0:0:0:0:
192,192,115656,1,0,0:0:0:0:
64,192,115806,128,0,116556:0:0:0:0:
320,192,115806,1,0,0:0:0:0:
192,192,115956,1,0,0:0:0:0:
320,192,116106,1,0,0:0:0:0:
448,192,116106,1,0,0:0:0:0:
192,192,116256,1,0,0:0:0:0:
320,192,116406,1,0,0:0:0:0:
448,192,116406,1,0,0:0:0:0:
192,192,116556,128,0,116706:0:0:0:0:
64,192,116706,128,0,116856:0:0:0:0:
448,192,116706,1,0,0:0:0:0:
192,192,116856,1,0,0:0:0:0:
448,192,117006,1,0,0:0:0:0:
320,192,117006,128,0,117756:0:0:0:0:
64,192,117156,1,0,0:0:0:0:
192,192,117306,1,0,0:0:0:0:
448,192,117306,1,0,0:0:0:0:
64,192,117456,1,0,0:0:0:0:
192,192,117606,1,0,0:0:0:0:
448,192,117606,1,0,0:0:0:0:
64,192,117756,128,0,117906:0:0:0:0:
448,192,117906,128,0,118056:0:0:0:0:
192,192,117906,1,0,0:0:0:0:
320,192,118056,1,0,0:0:0:0:
192,192,118206,128,0,118956:0:0:0:0:
64,192,118206,1,0,0:0:0:0:
320,192,118281,1,0,0:0:0:0:
448,192,118356,1,0,0:0:0:0:
64,192,118506,1,0,0:0:0:0:
320,192,118506,1,0,0:0:0:0:
448,192,118656,1,0,0:0:0:0:
64,192,118806,1,0,0:0:0:0:
320,192,118806,1,0,0:0:0:0:
448,192,118956,128,0,119106:0:0:0:0:
64,192,119106,128,0,119256:0:0:0:0:
192,192,119106,1,0,0:0:0:0:
320,192,119256,1,0,0:0:0:0:
192,192,119406,1,0,0:0:0:0:
448,192,119406,128,0,120156:0:0:0:0:
64,192,119556,1,0,0:0:0:0:
192,192,119706,1,0,0:0:0:0:
320,192,119706,1,0,0:0:0:0:
64,192,119856,1,0,0:0:0:0:
192,192,120006,1,0,0:0:0:0:
320,192,120006,1,0,0:0:0:0:
64,192,120156,128,0,120306:0:0:0:0:
320,192,120306,1,0,0:0:0:0:
192,192,120306,128,0,120456:0:0:0:0:
448,192,120456,1,0,0:0:0:0:
192,192,120606,128,0,120756:0:0:0:0:
320,192,120606,1,0,0:0:0:0:
64,192,120756,1,0,0:0:0:0:
448,192,120906,1,0,0:0:0:0:
320,192,120943,1,0,0:0:0:0:
192,192,120981,1,0,0:0:0:0:
64,192,121018,1,0,0:0:0:0:
448,192,121056,1,0,0:0:0:0:
320,192,121093,1,0,0:0:0:0:
192,192,121131,1,0,0:0:0:0:
64,192,121168,1,0,0:0:0:0:
320,192,121206,128,0,121506:0:0:0:0:
448,192,121206,128,0,121506:0:0:0:0:
