osu file format v14

[General]
AudioFilename: audio.mp3
AudioLeadIn: 0
PreviewTime: 548292
Countdown: 0
SampleSet: Drum
StackLeniency: 0.4
Mode: 0
LetterboxInBreaks: 0
WidescreenStoryboard: 1

[Editor]
Bookmarks: 27330,37377,47423,74214,92074,109934,127795,136725,145655,154586,163516,172446,181376,191422,201469,211515,221562,231608,241655,251701,273034,283700,296322,305531,314461,323391,332321,341252,350182,363577,376972,390368,403763,423698,442929,466929,490201,513474,525110,548383,594929,617517,634458,654929,715301,732367,766499,783566,817699,834766,851833,869067,883446,897867,912267,926667,969066
DistanceSpacing: 0.7
BeatDivisor: 16
GridSize: 32
TimelineZoom: 4.659998

[Metadata]
Title:Painters of the Tempest (Part II): Triptych Lux
TitleUnicode:Painters of the Tempest (Part II): Triptych Lux
Artist:Ne Obliviscaris
ArtistUnicode:Ne Obliviscaris
Creator:ItsWinter
Version:Blinding Horizon
Source:
Tags:SILENCE PLAYER ghouru val kiwies english wyrmholes reveries from the stained glass womb creator cynosure curator citadel progressive metal rsi deathstream movement marathon featured artist fa extreme melodic violin
BeatmapID:3111877
BeatmapSetID:1520466

[Difficulty]
HPDrainRate:5
CircleSize:4.2
OverallDifficulty:9.5
ApproachRate:9.7
SliderMultiplier:2
SliderTickRate:1

[Events]
//Background and Video events
0,0,"Citadel Text.jpg",0,0
//Break Periods
2,102030,107196
2,254570,260541
2,423898,442434
//Storyboard Layer 0 (Background)
//Storyboard Layer 1 (Fail)
//Storyboard Layer 2 (Pass)
//Storyboard Layer 3 (Foreground)
//Storyboard Layer 4 (Overlay)
//Storyboard Sound Samples

[TimingPoints]
540,279.06976744186,3,2,69,40,1,0
540,-166.666666666667,3,2,69,40,0,0
888,-166.666666666667,3,2,69,5,0,0
958,-166.666666666667,3,2,69,40,0,0
1656,250,3,2,69,40,1,0
2031,319.148936170213,3,2,69,40,1,0
2190,295.566502463054,3,2,69,40,1,0
2190,-166.666666666667,3,2,69,40,0,0
2559,-166.666666666667,3,2,69,5,0,0
2633,279.06976744186,3,2,69,40,1,0
3051,279.06976744186,3,2,69,40,1,0
3888,-166.666666666667,3,2,69,40,0,0
5981,250,3,2,69,40,1,0
6231,300,3,2,69,40,1,0
6381,289.855072463768,3,2,1,45,1,0
6381,-133.333333333333,3,2,1,45,0,0
6815,272.727272727273,3,2,1,45,1,0
6815,-133.333333333333,3,2,1,45,0,0
7087,300,3,2,1,45,1,0
7237,279.06976744186,3,2,1,50,1,0
7237,-133.333333333333,3,2,1,50,0,0
7585,-133.333333333333,3,2,1,5,0,0
7655,-133.333333333333,3,2,69,50,0,0
9330,-133.333333333333,3,2,1,50,0,0
10575,279.06976744186,3,2,1,65,1,0
27319,-83.3333333333333,3,2,1,65,0,0
27667,-83.3333333333333,3,2,1,5,0,0
27737,-83.3333333333333,3,2,1,60,0,0
28156,-90.9090909090909,3,2,1,60,0,0
28504,-90.9090909090909,3,2,1,5,0,0
28574,-90.9090909090909,3,2,1,60,0,0
28993,-125,3,2,1,60,0,0
29341,-125,3,2,1,5,0,0
29412,-125,3,2,1,60,0,0
30668,-111.111111111111,3,2,1,60,0,0
31016,-111.111111111111,3,2,1,5,0,0
31086,-111.111111111111,3,2,1,70,0,0
32761,-83.3333333333333,3,2,1,70,0,0
33877,-100,3,2,1,70,0,0
35691,-76.9230769230769,3,2,1,70,0,0
37226,-100,3,2,1,70,0,0
37365,-111.111111111111,3,2,1,60,0,0
37644,-111.111111111111,3,2,1,5,0,0
37784,-111.111111111111,3,2,1,60,0,0
38202,-100,3,2,1,60,0,0
38550,-100,3,2,1,5,0,0
38621,-100,3,2,1,60,0,0
39388,-100,3,2,1,5,0,0
39458,-100,3,2,1,60,0,0
40714,-90.9090909090909,3,2,1,60,0,0
40993,-90.9090909090909,3,2,1,5,0,0
41133,-90.9090909090909,3,2,1,70,0,0
44063,-66.6666666666667,3,2,1,70,0,0
45737,-90.9090909090909,3,2,1,70,0,0
47202,-90.9090909090909,3,2,1,5,0,0
47272,-90.9090909090909,3,2,1,55,0,0
47970,-100,3,2,1,55,0,0
53551,-133.333333333333,3,2,3,55,0,0
53830,-133.333333333333,3,2,1,55,0,0
59970,-133.333333333333,3,2,3,55,0,0
60040,-133.333333333333,3,2,3,55,0,0
60109,-133.333333333333,3,2,3,55,0,0
60179,-133.333333333333,3,2,3,55,0,0
60249,-133.333333333333,3,2,3,55,0,0
60319,-133.333333333333,3,2,3,55,0,0
60388,-133.333333333333,3,2,3,55,0,0
60458,-133.333333333333,3,2,3,55,0,0
60528,-133.333333333333,3,2,3,55,0,0
60598,-133.333333333333,3,2,3,55,0,0
60668,-133.333333333333,3,2,3,55,0,0
60737,-133.333333333333,3,2,3,55,0,0
60807,-133.333333333333,3,2,1,55,0,0
60877,-133.333333333333,3,2,1,55,0,0
61923,-133.333333333333,3,2,7,55,0,0
62202,-133.333333333333,3,2,8,55,0,0
62481,-133.333333333333,3,2,9,55,0,0
63598,-133.333333333333,3,2,7,55,0,0
63877,-133.333333333333,3,2,8,55,0,0
64156,-133.333333333333,3,2,9,55,0,0
65272,-133.333333333333,3,2,7,55,0,0
65551,-133.333333333333,3,2,8,55,0,0
65830,-133.333333333333,3,2,9,55,0,0
66947,-133.333333333333,3,2,3,55,0,0
67226,-133.333333333333,3,2,1,55,0,0
71970,-133.333333333333,3,2,3,55,0,0
72249,-133.333333333333,3,2,1,55,0,0
72528,-133.333333333333,3,2,1,55,0,0
72807,-133.333333333333,3,2,7,55,0,0
73086,-133.333333333333,3,2,8,55,0,0
73365,-133.333333333333,3,2,1,55,0,0
73644,-133.333333333333,3,2,7,55,0,0
73923,-133.333333333333,3,2,1,55,0,0
74203,279.06976744186,4,2,1,55,1,0
74900,-111.111111111111,4,2,1,55,0,0
75248,-111.111111111111,4,2,1,5,0,0
75319,-111.111111111111,4,2,1,55,0,0
76435,-111.111111111111,4,2,1,65,0,0
77551,-100,4,2,1,65,0,0
79365,-111.111111111111,4,2,1,65,0,0
79713,-111.111111111111,4,2,1,5,0,0
79784,-111.111111111111,4,2,1,65,0,0
82016,-100,4,2,1,65,0,0
83830,-111.111111111111,4,2,1,65,0,0
84178,-111.111111111111,4,2,1,5,0,0
84249,-111.111111111111,4,2,1,65,0,0
86202,-100,4,2,1,65,0,0
88296,-111.111111111111,4,2,1,65,0,0
88644,-111.111111111111,4,2,1,5,0,0
88714,-111.111111111111,4,2,1,65,0,0
90668,-100,4,2,1,65,0,0
92063,-100,4,2,1,70,0,0
100993,-133.333333333333,4,2,1,70,0,0
101063,-133.333333333333,4,2,69,5,0,0
107691,-133.333333333333,4,3,1,30,0,0
107970,-133.333333333333,4,3,1,50,0,0
108947,-133.333333333333,4,3,9,50,0,0
109086,-133.333333333333,4,3,7,50,0,0
109365,-133.333333333333,4,3,1,50,0,0
109505,-133.333333333333,4,3,7,50,0,0
109644,-133.333333333333,4,3,8,50,0,0
109784,-133.333333333333,4,3,1,50,0,0
109853,-133.333333333333,4,3,1,5,0,0
109923,-125,4,3,1,50,0,0
110621,-125,4,3,3,50,0,0
112644,-125,4,3,3,5,0,0
112714,-125,4,3,3,50,0,0
114877,-125,4,3,3,5,0,0
114947,-125,4,3,3,50,0,0
118993,-125,4,3,6,50,0,0
119272,-200,4,3,1,50,0,0
119551,-100,4,3,7,50,0,0
119830,-125,4,3,7,50,0,0
120109,-125,4,3,8,50,0,0
120389,-200,4,3,8,50,0,0
120528,-200,4,3,1,50,0,0
120668,-100,4,3,8,50,0,0
121365,-100,4,3,3,50,0,0
123737,-125,4,3,3,50,0,0
124296,-100,4,3,3,45,0,0
124505,-100,4,3,3,5,0,0
124575,-100,4,3,3,45,0,0
127784,-100,4,3,1,55,0,0
127923,-100,4,3,7,55,0,0
128063,-100,4,3,9,55,0,0
128342,-100,4,3,3,55,0,0
128482,-100,4,3,7,55,0,0
128621,-90.9090909090909,4,3,9,55,0,0
128760,-90.9090909090909,4,3,8,55,0,0
128900,-90.9090909090909,4,3,3,55,0,0
129040,-90.9090909090909,4,3,9,55,0,0
129179,-90.9090909090909,4,3,7,55,0,0
129458,-90.9090909090909,4,3,3,55,0,0
129598,-90.9090909090909,4,3,7,55,0,0
129737,-90.9090909090909,4,3,8,55,0,0
130016,-90.9090909090909,4,3,3,55,0,0
130156,-90.9090909090909,4,3,9,55,0,0
130296,-90.9090909090909,4,3,7,55,0,0
130575,-90.9090909090909,4,3,3,55,0,0
130714,-90.9090909090909,4,3,7,55,0,0
130854,-90.9090909090909,4,3,8,55,0,0
131133,-76.9230769230769,4,3,3,55,0,0
131272,-76.9230769230769,4,3,9,55,0,0
131412,-76.9230769230769,4,3,7,55,0,0
131691,-76.9230769230769,4,3,3,55,0,0
131830,-76.9230769230769,4,3,7,55,0,0
131970,-76.9230769230769,4,3,8,55,0,0
132249,-90.9090909090909,4,3,1,55,0,0
132388,-90.9090909090909,4,3,7,55,0,0
132528,-90.9090909090909,4,3,9,55,0,0
132807,-90.9090909090909,4,3,3,55,0,0
132947,-90.9090909090909,4,3,7,55,0,0
133086,-100,4,3,9,55,0,0
133365,-100,4,3,3,55,0,0
133505,-100,4,3,9,55,0,0
133644,-100,4,3,7,55,0,0
133923,-100,4,3,3,55,0,0
134063,-100,4,3,7,55,0,0
134202,-100,4,3,8,55,0,0
134482,-100,4,3,3,55,0,0
134621,-100,4,3,9,55,0,0
134761,-100,4,3,7,55,0,0
135040,-100,4,3,3,55,0,0
135179,-100,4,3,7,55,0,0
135319,-100,4,3,8,55,0,0
135598,-100,4,3,3,55,0,0
135737,-100,4,3,9,55,0,0
135877,-100,4,3,7,55,0,0
136156,-100,4,3,3,55,0,0
136296,-100,4,3,7,55,0,0
136435,-100,4,3,8,55,0,0
136714,-100,4,3,3,55,0,0
136853,-100,4,3,7,55,0,0
136993,-100,4,3,9,55,0,0
137272,-100,4,3,3,55,0,0
137412,-100,4,3,7,55,0,0
137551,-100,4,3,9,55,0,0
138109,-100,4,3,7,55,0,0
138389,-100,4,3,3,55,0,0
138528,-100,4,3,7,55,0,0
138668,-100,4,3,9,55,0,0
138807,-100,4,3,8,55,0,0
138947,-100,4,3,3,55,0,0
139086,-100,4,3,9,55,0,0
139226,-100,4,3,7,55,0,0
139505,-100,4,3,3,55,0,0
139644,-100,4,3,7,55,0,0
139784,-100,4,3,9,55,0,0
139923,-100,4,3,8,55,0,0
140063,-100,4,3,3,55,0,0
140342,-100,4,3,7,55,0,0
140900,-100,4,3,8,55,0,0
141179,-100,4,3,3,55,0,0
141319,-100,4,3,7,55,0,0
141458,-100,4,3,9,55,0,0
141737,-100,4,3,3,55,0,0
141876,-100,4,3,7,55,0,0
142016,-100,4,3,9,55,0,0
142155,-100,4,3,8,55,0,0
142296,-100,4,3,3,55,0,0
142435,-100,4,3,9,55,0,0
142575,-100,4,3,7,55,0,0
142854,-100,4,3,3,55,0,0
142993,-100,4,3,7,55,0,0
143133,-100,4,3,9,55,0,0
143272,-100,4,3,8,55,0,0
143412,-100,4,3,3,55,0,0
143691,-100,4,3,7,55,0,0
143970,-100,4,3,3,55,0,0
144109,-100,4,3,7,55,0,0
144249,-100,4,3,9,55,0,0
144528,-100,4,3,3,55,0,0
144668,-100,4,3,9,55,0,0
144807,-100,4,3,7,55,0,0
145086,-100,4,3,3,55,0,0
145644,-100,4,3,1,70,0,1
152621,-100,4,3,7,70,0,1
152900,-100,4,3,1,70,0,1
153458,-100,4,3,7,70,0,1
153737,-100,4,3,8,70,0,1
154016,-100,4,3,1,70,0,1
154575,-250,4,3,1,70,0,1
154784,-250,4,3,1,5,0,1
154854,-90.9090909090909,4,3,1,65,0,1
155063,-90.9090909090909,4,3,1,5,0,1
155133,-90.9090909090909,4,3,1,60,0,1
156249,-100,4,3,1,60,0,1
162668,-100,4,3,7,60,0,1
162947,-100,4,3,8,60,0,1
163226,-100,4,3,9,60,0,1
163505,-100,4,3,9,70,0,1
163784,-100,4,3,1,70,0,1
170202,-100,4,3,7,70,0,1
170482,-100,4,3,8,70,0,1
170761,-100,4,3,1,70,0,1
171319,-100,4,3,7,70,0,1
171598,-100,4,3,8,70,0,1
171877,-100,4,3,1,70,0,1
172435,-250,4,3,1,70,0,1
172644,-250,4,3,1,5,0,1
172714,-100,4,3,1,65,0,1
172923,-100,4,3,1,5,0,1
172993,-100,4,3,1,60,0,1
174389,-100,4,3,3,60,0,1
174668,-100,4,3,1,60,0,1
180528,-100,4,3,7,60,0,1
180807,-100,4,3,8,60,0,1
181086,-100,4,3,9,60,0,1
181365,279.06976744186,3,3,1,60,1,0
181713,-100,3,3,1,5,0,0
181783,-100,3,3,1,60,0,0
182550,-100,3,3,1,5,0,0
182620,-100,3,3,1,60,0,0
183039,-90.9090909090909,3,3,1,60,0,0
183387,-90.9090909090909,3,3,1,5,0,0
183458,-90.9090909090909,3,3,1,60,0,0
184713,-111.111111111111,3,3,1,60,0,0
185061,-111.111111111111,3,3,1,5,0,0
185132,-111.111111111111,3,3,1,70,0,0
187225,-100,3,3,1,70,0,0
192596,-100,3,3,1,5,0,0
192667,-100,3,3,1,70,0,0
193433,-100,3,3,1,5,0,0
193504,-100,3,3,1,70,0,0
195108,-100,3,3,1,5,0,0
195178,-100,3,3,1,70,0,0
201039,-83.3333333333333,3,3,1,70,0,0
201248,-83.3333333333333,3,3,1,5,0,0
201318,-83.3333333333333,3,3,1,70,0,0
201458,-100,3,3,1,70,0,0
201737,-100,3,3,1,5,0,0
201876,-100,3,3,1,70,0,0
202574,-100,3,3,1,5,0,0
202713,-100,3,3,1,70,0,0
203411,-100,3,3,1,5,0,0
203551,-100,3,3,1,70,0,0
205085,-100,3,3,1,5,0,0
205225,-100,3,3,1,70,0,0
211644,-90.9090909090909,3,3,3,70,0,0
213178,-125,3,3,3,70,0,0
213526,-125,3,3,3,5,0,0
213597,-100,3,3,7,70,0,0
213806,-100,3,3,7,5,0,0
213876,-100,3,3,7,70,0,0
214434,-100,3,3,8,70,0,0
214713,-100,3,3,9,70,0,0
214853,-125,3,3,9,70,0,0
215271,-125,3,3,1,70,0,0
216527,-100,3,3,1,70,0,0
217085,-90.9090909090909,3,3,1,70,0,0
218202,-76.9230769230769,3,3,3,70,0,0
218481,-100,3,3,3,70,0,0
219876,-200,3,3,3,70,0,0
220224,-200,3,3,3,5,0,0
220295,-100,3,3,7,70,0,0
220504,-100,3,3,7,5,0,0
220574,-100,3,3,7,70,0,0
220713,-100,3,3,3,70,0,0
221132,-100,3,3,8,70,0,0
221411,-100,3,3,9,70,0,0
221551,-100,3,3,1,70,0,0
224481,-83.3333333333333,3,3,1,70,0,0
231597,-100,3,3,1,70,0,0
238295,-500,3,3,1,70,0,0
239062,-500,3,3,1,5,0,0
239132,-133.333333333333,3,3,1,70,0,0
239201,-133.333333333333,3,3,8,70,0,0
239551,-133.333333333333,3,3,1,70,0,0
239620,-133.333333333333,3,3,9,70,0,0
239969,-500,3,3,1,70,0,0
240736,-500,3,3,1,5,0,0
240806,-500,3,3,1,70,0,0
241225,-500,3,3,8,70,0,0
241644,-76.9230769230769,3,3,1,70,0,0
241923,-100,3,3,1,70,0,0
242062,-76.9230769230769,3,3,1,70,0,0
243318,-83.3333333333333,3,3,1,70,0,0
243458,-90.9090909090909,3,3,1,70,0,0
243597,-100,3,3,1,70,0,0
244295,-90.9090909090909,3,3,1,70,0,0
244434,-111.111111111111,3,3,1,70,0,0
244574,-90.9090909090909,3,3,1,70,0,0
244713,-83.3333333333333,3,3,1,70,0,0
244853,-76.9230769230769,3,3,1,70,0,0
245271,-100,3,3,1,70,0,0
245411,-76.9230769230769,3,3,1,70,0,0
245690,-100,3,3,1,70,0,0
245969,-76.9230769230769,3,3,1,70,0,0
246109,-100,3,3,1,70,0,0
246248,-76.9230769230769,3,3,1,70,0,0
246388,-100,3,3,1,70,0,0
246527,-90.9090909090909,3,3,1,70,0,0
246667,-76.9230769230769,3,3,1,70,0,0
246946,-100,3,3,1,70,0,0
247085,-76.9230769230769,3,3,1,70,0,0
247364,-100,3,3,1,70,0,0
247644,-76.9230769230769,3,3,1,70,0,0
247783,-100,3,3,1,70,0,0
247923,-76.9230769230769,3,3,1,70,0,0
248062,-100,3,3,1,70,0,0
248202,-90.9090909090909,3,3,1,70,0,0
248341,-76.9230769230769,3,3,1,70,0,0
248620,-100,3,3,1,70,0,0
248760,-76.9230769230769,3,3,1,70,0,0
250155,-86.9565217391303,3,3,1,70,0,0
250295,-100,3,3,1,70,0,0
250853,-83.3333333333333,3,3,1,70,0,0
250992,-100,3,3,1,70,0,0
251132,-83.3333333333333,3,3,1,70,0,0
251271,-76.9230769230769,3,3,1,70,0,0
251411,-71.4285714285714,3,3,1,70,0,0
251551,-66.6666666666667,3,3,1,70,0,0
251701,333.333333333333,4,3,1,45,1,0
251701,-333.333333333333,4,3,1,45,0,0
252867,-333.333333333333,4,3,1,5,0,0
253034,326.086956521739,4,3,3,45,1,0
253686,344.827586206897,4,3,3,45,1,0
253858,324.324324324324,4,3,8,45,1,0
254020,350.877192982456,4,3,8,45,1,0
254370,333.333333333333,4,3,9,45,1,0
261036,-100,4,3,3,45,0,0
261731,-500,4,3,3,45,0,0
262286,-500,4,3,3,5,0,0
262370,-333.333333333333,4,2,69,45,0,0
262703,-250,4,2,69,45,0,0
263036,-200,4,2,69,45,0,0
263370,-142.857142857143,4,2,69,45,0,0
265953,-142.857142857143,4,2,69,5,0,0
266023,307.692307692308,4,2,69,45,1,0
266023,-142.857142857143,4,2,69,45,0,0
266367,333.333333333333,4,2,69,45,1,0
266367,-142.857142857143,4,2,69,45,0,0
269033,-142.857142857143,4,2,69,5,0,0
269184,307.692307692308,4,2,69,45,1,0
269184,-142.857142857143,4,2,69,45,0,0
269491,389.61038961039,4,2,69,45,1,0
269685,307.692307692308,4,2,69,45,1,0
269685,-142.857142857143,4,2,69,45,0,0
270200,333.333333333333,4,2,69,45,1,0
270200,-166.666666666667,4,2,69,45,0,0
270366,333.333333333333,4,2,69,45,1,0
270533,-166.666666666667,4,2,69,5,0,0
270700,-200,4,2,69,45,0,0
271033,-200,4,2,69,5,0,0
271200,-250.000000000001,4,2,69,45,0,0
271533,-250.000000000001,4,2,69,5,0,0
271700,-333.333333333336,4,2,69,45,0,0
272200,-333.333333333336,4,2,69,5,0,0
272366,-500.000000000005,4,2,69,45,0,0
272949,-500.000000000005,4,2,69,5,0,0
273033,-500.000000000005,4,3,1,45,0,0
273199,-500.000000000005,4,3,4,5,0,0
273366,-133.333333333333,4,3,3,45,0,0
273532,-133.333333333333,4,3,3,5,0,0
273700,-200,4,3,3,45,0,0
273783,-200,4,3,3,5,0,0
273866,-200,4,3,3,45,0,0
273949,-200,4,3,3,5,0,0
274200,-200,4,3,3,45,0,0
274699,-200,4,3,3,5,0,0
274866,-200,4,3,3,45,0,0
275199,-200,4,3,3,5,0,0
275366,-200,4,3,3,45,0,0
275616,-200,4,3,3,5,0,0
275700,-200,4,3,3,45,0,0
275866,-200,4,3,3,5,0,0
276033,-200,4,3,3,45,0,0
279116,-200,4,3,3,5,0,0
279200,-200,4,3,3,45,0,0
279283,-200,4,3,3,5,0,0
279533,-200,4,3,3,45,0,0
280449,-200,4,3,3,5,0,0
280533,-200,4,3,3,45,0,0
281199,-200,4,3,3,5,0,0
281366,-200,4,3,3,45,0,0
281783,-200,4,3,3,5,0,0
281866,-200,4,3,3,45,0,0
281949,-200,4,3,3,5,0,0
282200,-200,4,3,3,45,0,0
283616,-200,4,3,3,5,0,0
283700,-142.857142857143,4,3,1,45,0,0
283950,-142.857142857143,4,3,1,5,0,0
284033,-142.857142857143,4,3,3,45,0,0
284700,-200,4,3,3,45,0,0
286700,-142.857142857143,4,3,3,45,0,0
287366,-125,4,3,3,45,0,0
287866,-111.111111111111,4,3,3,45,0,0
288366,-125,4,3,3,45,0,0
288866,-125,4,3,1,45,0,0
289866,-125,4,3,3,45,0,0
291533,-125,4,3,1,45,0,0
292533,-125,4,3,3,45,0,0
293034,548.195523069895,4,3,1,45,1,0
293034,-202.020202020202,4,3,1,45,0,0
296186,-202.020202020202,4,3,1,5,0,0
296322,-100,4,3,1,45,0,0
296601,279.06976744186,4,3,1,75,1,1
303577,-100,4,3,7,75,0,1
303856,-100,4,3,1,75,0,1
304135,-100,4,3,6,75,0,1
304414,-100,4,3,7,75,0,1
304694,-100,4,3,1,75,0,1
304973,-100,4,3,7,75,0,1
305252,-100,4,3,8,75,0,1
305531,-250,4,3,1,75,0,1
305740,-250,4,3,1,5,0,1
305810,-100,4,3,1,75,0,1
306019,-100,4,3,1,5,0,1
306089,-100,4,3,1,75,0,1
313624,-100,4,3,7,75,0,1
313903,-100,4,3,8,75,0,1
314182,-100,4,3,9,75,0,1
314461,-83.3333333333333,4,3,9,75,0,1
314740,-83.3333333333333,4,3,1,75,0,1
317810,-100,4,3,1,75,0,1
321438,-100,4,3,8,75,0,1
321717,-100,4,3,1,75,0,1
321996,-100,4,3,7,75,0,1
322275,-100,4,3,8,75,0,1
322554,-100,4,3,1,75,0,1
322833,-100,4,3,8,75,0,1
323112,-100,4,3,9,75,0,1
323391,-166.666666666667,4,3,1,75,0,1
323600,-166.666666666667,4,3,1,45,0,1
323670,-100,4,3,1,75,0,1
323880,-100,4,3,1,5,0,1
323949,-100,4,3,1,75,0,1
331484,-100,4,3,7,75,0,1
331763,-100,4,3,8,75,0,1
332042,-100,4,3,9,75,0,1
332321,-80,4,3,1,75,0,1
335391,-100,4,3,1,75,0,1
336089,-80,4,3,1,75,0,1
342926,-100,4,3,1,75,0,1
350182,279.06976744186,3,3,1,60,1,0
351019,-250,3,3,1,60,0,0
352693,-66.6666666666667,3,3,1,60,0,0
354368,-250,3,3,1,60,0,0
356879,-100,3,3,1,60,0,0
357716,-250,3,3,1,60,0,0
359391,-66.6666666666667,3,3,1,60,0,0
361065,-250,3,3,1,60,0,0
363856,-100,3,3,1,60,0,0
364414,-66.6666666666667,3,3,1,60,0,0
364693,-100,3,3,1,60,0,0
366088,-66.6666666666667,3,3,1,60,0,0
367065,-100,3,3,1,60,0,0
367763,-66.6666666666667,3,3,1,60,0,0
368042,-200,3,3,1,60,0,0
368321,-133.333333333333,3,3,1,60,0,0
370833,-100,3,3,1,60,0,0
371112,-66.6666666666667,3,3,1,60,0,0
371391,-200,3,3,1,60,0,0
372786,-66.6666666666667,3,3,1,60,0,0
375019,-100,3,3,1,60,0,0
376135,-66.6666666666667,3,3,1,60,0,0
379065,-142.857142857143,3,3,1,60,0,0
379205,-133.333333333333,3,3,1,60,0,0
379344,-125,3,3,1,60,0,0
379484,-117.647058823529,3,3,1,60,0,0
379623,-111.111111111111,3,3,1,60,0,0
379763,-105.263157894737,3,3,1,60,0,0
380740,-100,3,3,1,60,0,0
383659,279.06976744186,3,3,1,60,1,0
384775,-125,3,3,1,60,0,0
384914,-117.647058823529,3,3,1,60,0,0
385054,-111.111111111111,3,3,1,60,0,0
385193,-105.263157894737,3,3,1,60,0,0
387426,-100,3,3,1,60,0,0
388674,266.666666666667,3,3,1,60,1,0
389101,279.06976744186,3,3,7,60,1,0
389519,283.018867924528,3,3,8,60,1,0
389949,279.06976744186,3,3,8,60,1,0
389949,-83.3333333333333,3,3,8,60,0,0
390228,-83.3333333333333,3,3,8,5,0,0
390368,279.06976744186,3,3,9,55,1,0
390368,-133.333333333333,3,3,9,55,0,0
390786,-133.333333333333,3,3,10,55,0,0
391205,-133.333333333333,3,3,9,55,0,0
391623,-133.333333333333,3,3,10,55,0,0
392042,-133.333333333333,3,3,9,55,0,0
392461,-133.333333333333,3,3,10,55,0,0
392879,-133.333333333333,3,3,1,55,0,0
402368,-133.333333333333,3,3,8,55,0,0
402647,-133.333333333333,3,3,1,55,0,0
403763,-133.333333333333,3,3,9,55,0,0
404181,-133.333333333333,3,3,10,55,0,0
404600,-133.333333333333,3,3,9,55,0,0
405019,-133.333333333333,3,3,10,55,0,0
405437,-133.333333333333,3,3,9,55,0,0
405856,-133.333333333333,3,3,10,55,0,0
406264,279.06976744186,3,3,1,55,1,0
406264,-133.333333333333,3,3,1,55,0,0
407101,-133.333333333333,3,3,9,55,0,0
407519,-133.333333333333,3,3,10,55,0,0
407938,-133.333333333333,3,3,9,55,0,0
408357,-133.333333333333,3,3,10,55,0,0
408775,-133.333333333333,3,3,9,55,0,0
409194,-133.333333333333,3,3,10,55,0,0
409612,-133.333333333333,3,3,1,55,0,0
410450,-133.333333333333,3,3,9,55,0,0
410868,-133.333333333333,3,3,10,55,0,0
411287,-133.333333333333,3,3,9,55,0,0
411705,-133.333333333333,3,3,10,55,0,0
412124,-133.333333333333,3,3,9,55,0,0
412543,-133.333333333333,3,3,10,55,0,0
412961,-133.333333333333,3,3,1,55,0,0
413798,-133.333333333333,3,3,9,55,0,0
414217,-133.333333333333,3,3,10,55,0,0
414636,-133.333333333333,3,3,9,55,0,0
415054,-133.333333333333,3,3,10,55,0,0
415473,-133.333333333333,3,3,9,55,0,0
415891,-133.333333333333,3,3,10,55,0,0
416310,-133.333333333333,3,3,9,55,0,0
416729,-133.333333333333,3,3,10,55,0,0
417158,-133.333333333333,3,3,10,50,0,0
417437,-133.333333333333,3,3,10,45,0,0
417716,-133.333333333333,3,3,10,40,0,0
417995,-133.333333333333,3,3,10,35,0,0
418275,-133.333333333333,3,3,10,30,0,0
418554,-133.333333333333,3,3,10,25,0,0
418833,-133.333333333333,3,3,10,20,0,0
419112,-133.333333333333,3,3,10,15,0,0
419391,-133.333333333333,3,3,10,10,0,0
423698,533.333333333333,4,3,10,12,1,0
424764,511.727078891258,4,3,10,12,1,0
425787,489.795918367347,4,3,10,12,1,0
426766,510.63829787234,4,3,10,12,1,0
427787,493.827160493827,4,3,10,12,1,0
429762,477.4,4,3,10,12,1,0
430716,495.867768595041,4,3,10,12,1,0
431707,504.201680672269,4,3,10,12,1,0
432715,487.80487804878,4,3,10,12,1,0
433690,487.80487804878,4,3,10,12,1,0
435641,491.803278688525,4,3,10,12,1,0
437609,512.820512820513,4,3,10,12,1,0
438378,615.384615384615,4,3,10,12,1,0
439301,725.772727272727,4,3,10,12,1,0
442929,375,4,3,3,45,1,0
443116,-100,4,3,3,30,0,0
443304,-100,4,3,3,45,0,0
444804,-100,4,3,3,30,0,0
444991,-100,4,3,3,45,0,0
445179,-166.666666666667,4,3,3,45,0,0
445741,-166.666666666667,4,3,3,30,0,0
445929,-166.666666666667,4,3,3,45,0,0
446304,-166.666666666667,4,3,3,30,0,0
446491,-166.666666666667,4,3,3,45,0,0
446866,-166.666666666667,4,3,3,30,0,0
447053,-166.666666666667,4,3,3,45,0,0
447241,-166.666666666667,4,3,3,30,0,0
447429,-166.666666666667,4,3,3,45,0,0
447804,-166.666666666667,4,3,3,30,0,0
447991,-166.666666666667,4,3,3,45,0,0
449304,-125,4,3,3,45,0,0
449491,-125,4,3,3,30,0,0
449679,-166.666666666667,4,3,3,45,0,0
450241,-166.666666666667,4,3,3,30,0,0
450429,-166.666666666667,4,3,3,45,0,0
450804,-166.666666666667,4,3,3,30,0,0
450991,-166.666666666667,4,3,3,45,0,0
451741,-125,4,3,3,30,0,0
451928,-125,4,3,3,45,0,0
452304,-125,4,3,3,30,0,0
452491,-125,4,3,3,45,0,0
452866,-166.666666666667,4,3,3,45,0,0
453241,-166.666666666667,4,3,3,30,0,0
453429,-166.666666666667,4,3,3,45,0,0
453804,-166.666666666667,4,3,3,30,0,0
453991,-166.666666666667,4,3,3,45,0,0
454179,-83.3333333333334,4,3,3,45,0,0
454429,-100,4,3,3,30,0,0
454679,-125,4,3,3,15,0,0
454929,-200,4,3,3,45,0,0
455304,-142.857142857143,4,3,3,45,0,0
456429,-100,4,3,3,45,0,0
456804,-100,4,3,3,30,0,0
456991,-100,4,3,3,45,0,0
457179,-83.3333333333333,4,3,3,45,0,0
457741,-83.3333333333333,4,3,3,30,0,0
457929,-100,4,3,3,45,0,0
458116,-100,4,3,1,45,0,0
458304,-100,4,3,1,20,0,0
458491,-100,4,3,1,45,0,0
458679,-166.666666666667,4,3,3,45,0,0
459616,-166.666666666667,4,3,1,45,0,0
459804,-166.666666666667,4,3,1,30,0,0
459991,-166.666666666667,4,3,1,45,0,0
460366,-166.666666666667,4,3,3,45,0,0
461116,-166.666666666667,4,3,3,30,0,0
461304,-166.666666666667,4,3,3,45,0,0
462241,-166.666666666667,4,3,3,30,0,0
462429,-166.666666666667,4,3,3,45,0,0
462804,-166.666666666667,4,3,3,30,0,0
462991,-166.666666666667,4,3,3,45,0,0
463366,-125,4,3,3,45,0,0
463741,-125,4,3,3,30,0,0
463929,-125,4,3,3,45,0,0
464304,-125,4,3,3,30,0,0
464491,-125,4,3,3,45,0,0
465241,-125,4,3,3,30,0,0
465429,-125,4,3,3,45,0,0
465804,-125,4,3,3,30,0,0
465991,-125,4,3,3,45,0,0
466554,-250,4,3,3,45,0,0
466835,-250,4,3,3,5,0,0
466929,363.636363636364,4,3,1,45,1,0
467292,-200,4,3,2,45,0,0
471928,-200,4,3,2,5,0,0
472019,-200,4,3,2,45,0,0
472291,-200,4,3,2,5,0,0
472383,-200,4,3,2,45,0,0
477746,-200,4,3,2,5,0,0
477838,-200,4,3,2,45,0,0
478109,-200,4,3,2,5,0,0
478201,-200,4,3,2,45,0,0
483928,-200,4,3,2,5,0,0
484019,-200,4,3,2,45,0,0
484291,-200,4,3,2,5,0,0
484383,-200,4,3,2,45,0,0
490201,-200,4,3,3,45,0,0
490473,-200,4,3,3,5,0,0
490565,-100,4,3,3,45,0,0
490837,-100,4,3,3,5,0,0
490929,-100,4,3,3,45,0,0
491656,-133.333333333333,4,3,3,45,0,0
493110,-200,4,3,3,45,0,0
493474,-200,4,3,3,30,0,0
493656,-200,4,3,3,45,0,0
493838,-133.333333333333,4,3,3,45,0,0
494383,-133.333333333333,4,3,3,30,0,0
494565,-133.333333333333,4,3,3,45,0,0
494929,-133.333333333333,4,3,3,30,0,0
495110,-133.333333333333,4,3,3,45,0,0
495474,-200,4,3,3,45,0,0
495838,-100,4,3,3,45,0,0
495928,-100,4,3,3,5,0,0
496019,-133.333333333333,4,3,3,45,0,0
496291,-133.333333333333,4,3,3,5,0,0
496383,-133.333333333333,4,3,3,45,0,0
497291,-133.333333333333,4,3,3,30,0,0
497474,-133.333333333333,4,3,3,45,0,0
497838,-133.333333333333,4,3,3,30,0,0
498019,-133.333333333333,4,3,3,45,0,0
498747,-133.333333333333,4,3,3,30,0,0
498929,-133.333333333333,4,3,3,45,0,0
499656,-100,4,3,3,45,0,0
500019,-133.333333333333,4,3,3,45,0,0
500200,-133.333333333333,4,3,3,30,0,0
500383,-133.333333333333,4,3,3,45,0,0
500747,-133.333333333333,4,3,3,30,0,0
500929,-133.333333333333,4,3,3,45,0,0
501656,-133.333333333333,4,3,3,30,0,0
501838,-133.333333333333,4,3,3,45,0,0
502201,-100,4,3,1,45,0,0
502565,-133.333333333333,4,3,1,45,0,0
502655,-133.333333333333,4,3,1,5,0,0
502747,-100,4,3,1,45,0,0
502928,-100,4,3,3,45,0,0
503110,-100,4,3,1,45,0,0
503474,-100,4,3,3,45,0,0
503656,-100,4,3,1,45,0,0
504019,-133.333333333333,4,3,3,45,0,0
504565,-133.333333333333,4,3,3,30,0,0
504747,-133.333333333333,4,3,3,45,0,0
504929,-100,4,3,1,45,0,0
505110,-100,4,3,3,45,0,0
505474,-133.333333333333,4,3,3,45,0,0
505838,-100,4,3,1,45,0,0
506019,-100,4,3,1,30,0,0
506201,-100,4,3,3,45,0,0
506565,-100,4,3,3,30,0,0
506747,-100,4,3,3,45,0,0
507474,-133.333333333333,4,3,3,45,0,0
507564,-133.333333333333,4,3,3,5,0,0
507656,-100,4,3,3,45,0,0
507928,-100,4,3,3,5,0,0
508019,-133.333333333333,4,3,3,45,0,0
508291,-133.333333333333,4,3,3,5,0,0
508383,-100,4,3,3,45,0,0
508929,-100,4,3,3,30,0,0
509110,-100,4,3,3,45,0,0
509474,-100,4,3,3,30,0,0
509656,-100,4,3,3,45,0,0
510383,-100,4,3,3,30,0,0
510565,-100,4,3,3,45,0,0
510837,-100,4,3,3,5,0,0
510929,-133.333333333333,4,3,3,30,0,0
511110,-133.333333333333,4,3,3,45,0,0
511838,-133.333333333333,4,3,3,30,0,0
512019,-133.333333333333,4,3,3,45,0,0
512383,-133.333333333333,4,3,3,30,0,0
512565,-133.333333333333,4,3,3,45,0,0
513655,-133.333333333333,4,3,3,5,0,0
513838,-133.333333333333,4,3,2,45,0,0
514929,-166.666666666667,4,3,2,45,0,0
515292,-100,4,3,2,45,0,0
516383,-125,4,3,2,45,0,0
516747,-166.666666666667,4,3,2,45,0,0
517110,-111.111111111111,4,3,2,45,0,0
517838,-125,4,3,2,45,0,0
518383,-111.111111111111,4,3,2,45,0,0
519292,-166.666666666667,4,3,2,45,0,0
521838,-142.857142857143,4,3,2,45,0,0
522201,-111.111111111111,4,3,2,45,0,0
522565,-142.857142857143,4,3,2,45,0,0
522929,-111.111111111111,4,3,2,45,0,0
523292,-333.333333333333,4,3,2,45,0,0
523928,-333.333333333333,4,3,2,5,0,0
524019,-166.666666666667,4,3,0,45,0,0
525019,-166.666666666667,4,3,0,5,0,0
525110,-200,4,3,1,45,0,0
526837,-200,4,3,1,5,0,0
526929,-200,4,3,10,12,0,0
527019,-200,4,3,10,14,0,0
527110,-200,4,3,10,16,0,0
527201,-200,4,3,10,18,0,0
527292,-200,4,3,10,20,0,0
527383,-200,4,3,10,22,0,0
527474,-200,4,3,10,24,0,0
527565,-200,4,3,10,28,0,0
527656,-200,4,3,10,31,0,0
527747,-200,4,3,10,34,0,0
527838,-200,4,3,10,37,0,0
527929,-200,4,3,10,39,0,0
528019,-200,4,3,10,42,0,0
528042,-200,4,3,1,42,0,0
529291,-200,4,3,10,5,0,0
529474,-200,4,3,1,25,0,0
532656,-200,4,3,1,5,0,0
532747,-200,4,3,10,12,0,0
532838,-200,4,3,10,14,0,0
532929,-200,4,3,10,16,0,0
533019,-200,4,3,10,18,0,0
533110,-200,4,3,10,20,0,0
533201,-200,4,3,10,22,0,0
533292,-200,4,3,10,24,0,0
533383,-200,4,3,10,28,0,0
533474,-200,4,3,10,31,0,0
533565,-200,4,3,10,34,0,0
533656,-200,4,3,10,37,0,0
533747,-200,4,3,10,39,0,0
533838,-200,4,3,10,42,0,0
533860,-200,4,3,1,42,0,0
534565,-200,4,3,10,11,0,0
535838,-200,4,3,1,11,0,0
535883,-200,4,3,1,5,0,0
536019,-200,4,3,1,32,0,0
536655,-200,4,3,1,5,0,0
536747,-200,4,3,1,45,0,0
538474,-200,4,3,1,5,0,0
538565,-200,4,3,10,12,0,0
538656,-200,4,3,10,14,0,0
538747,-200,4,3,10,16,0,0
538838,-200,4,3,10,18,0,0
538929,-200,4,3,10,20,0,0
539019,-200,4,3,10,22,0,0
539110,-200,4,3,10,24,0,0
539201,-200,4,3,10,28,0,0
539292,-200,4,3,10,31,0,0
539383,-200,4,3,10,34,0,0
539474,-200,4,3,10,37,0,0
539565,-200,4,3,10,39,0,0
539656,-200,4,3,10,42,0,0
539679,-200,4,3,1,42,0,0
540746,-200,4,3,10,14,0,0
541088,-200,4,3,1,14,0,0
542929,-200,4,3,0,14,0,0
544383,-200,4,3,10,12,0,0
544474,-200,4,3,10,14,0,0
544565,-200,4,3,10,16,0,0
544656,-200,4,3,10,18,0,0
544747,-200,4,3,10,20,0,0
544838,-200,4,3,10,22,0,0
544929,-200,4,3,10,24,0,0
545019,-200,4,3,10,28,0,0
545110,-200,4,3,10,31,0,0
545201,-200,4,3,10,34,0,0
545292,-200,4,3,10,37,0,0
545383,-200,4,3,10,39,0,0
545474,-200,4,3,10,42,0,0
545497,-200,4,3,1,42,0,0
546564,-200,4,3,10,5,0,0
546838,-200,4,3,10,25,0,0
548383,-90.9090909090909,4,3,1,45,0,0
548746,-90.9090909090909,4,3,3,45,0,0
549110,-100,4,3,3,45,0,0
549474,-133.333333333333,4,3,3,45,0,0
549655,-133.333333333333,4,3,3,30,0,0
549838,-133.333333333333,4,3,3,45,0,0
550200,-133.333333333333,4,3,3,30,0,0
550383,-133.333333333333,4,3,3,45,0,0
550565,-100,4,3,3,45,0,0
550929,-133.333333333333,4,3,3,45,0,0
551110,-133.333333333333,4,3,3,30,0,0
551292,-79.9999999999999,4,3,3,45,0,0
552019,-100,4,3,3,45,0,0
552383,-133.333333333333,4,3,3,45,0,0
552564,-133.333333333333,4,3,3,30,0,0
552747,-133.333333333333,4,3,3,45,0,0
553110,-133.333333333333,4,3,3,30,0,0
553292,-133.333333333333,4,3,3,45,0,0
553474,-100,4,3,3,45,0,0
553746,-100,4,3,3,5,0,0
553838,-90.9090909090909,4,3,3,45,0,0
554201,-80,4,3,3,45,0,0
554473,-80,4,3,3,5,0,0
554565,-200,4,3,3,45,0,0
554837,-200,4,3,3,5,0,0
554929,-80,4,3,3,45,0,0
555292,-100,4,3,3,45,0,0
555473,-100,4,3,3,30,0,0
555656,-100,4,3,3,45,0,0
556019,-133.333333333333,4,3,3,30,0,0
556200,-133.333333333333,4,3,3,45,0,0
556383,-80,4,3,3,45,0,0
556747,-80,4,3,3,30,0,0
557110,-80,4,3,3,45,0,0
557292,-100,4,3,7,45,0,0
557473,-100,4,3,3,45,0,0
557838,-79.9999999999999,4,3,3,45,0,0
558201,-133.333333333333,4,3,8,45,0,0
558382,-133.333333333333,4,3,3,45,0,0
558747,-153.846153846153,4,3,9,45,0,0
558928,-153.846153846153,4,3,3,45,0,0
559292,-79.9999999999997,4,3,3,45,0,0
559656,-79.9999999999997,4,3,10,45,0,0
559838,-79.9999999999997,4,3,3,45,0,0
561110,-133.333333333333,4,3,3,45,0,0
561474,-153.846153846153,4,3,3,45,0,0
561838,-100,4,3,3,30,0,0
562019,-100,4,3,3,45,0,0
562201,-80,4,3,3,45,0,0
562655,-80,4,3,3,5,0,0
562747,-80,4,3,3,30,0,0
562837,-80,4,3,3,5,0,0
562929,-74.0740740740741,4,3,3,45,0,0
563382,-74.0740740740741,4,3,3,5,0,0
563474,-74.0740740740741,4,3,3,45,0,0
563564,-74.0740740740741,4,3,3,5,0,0
563656,-74.0740740740741,4,3,3,45,0,0
564201,-74.0740740740741,4,3,3,30,0,0
564383,-66.6666666666667,4,3,3,45,0,0
564746,-66.6666666666667,4,3,3,30,0,0
564929,-66.6666666666667,4,3,3,45,0,0
565292,-100,4,3,3,30,0,0
565746,-100,4,3,3,5,0,0
565838,-80,4,3,3,45,0,0
566110,-80,4,3,3,5,0,0
566201,-133.333333333333,4,3,3,45,0,0
566473,-133.333333333333,4,3,3,5,0,0
566565,-79.9999999999999,4,3,3,45,0,0
566929,-66.6666666666667,4,3,3,45,0,0
567110,-66.6666666666667,4,3,3,30,0,0
567292,-100,4,3,3,45,0,0
567656,-133.333333333333,4,3,3,30,0,0
567837,-133.333333333333,4,3,3,45,0,0
568201,-100,4,3,3,45,0,0
568655,-100,4,3,3,5,0,0
568747,-100,4,3,3,45,0,0
568929,-100,4,3,7,45,0,0
569110,-100,4,3,3,45,0,0
569474,-80,4,3,3,45,0,0
569838,-66.6666666666667,4,3,8,45,0,0
570110,-66.6666666666667,4,3,8,5,0,0
570201,-66.6666666666667,4,3,3,45,0,0
570383,-80,4,3,9,45,0,0
570564,-80,4,3,3,45,0,0
570929,-66.6666666666667,4,3,3,45,0,0
571292,-100,4,3,10,45,0,0
571473,-100,4,3,3,45,0,0
571656,-80,4,3,3,45,0,0
571928,-80,4,3,3,5,0,0
572019,-80,4,3,3,45,0,0
573474,-80,4,3,3,30,0,0
573564,-80,4,3,3,45,0,0
574382,-80,4,3,3,30,0,0
574565,-80,4,3,3,45,0,0
574929,-80,4,3,3,30,0,0
575019,-80,4,3,3,45,0,0
575838,-80,4,3,3,30,0,0
575929,-80,4,3,3,45,0,0
576383,-80,4,3,3,30,0,0
576474,-80,4,3,3,45,0,0
577110,-80,4,3,3,30,0,0
577292,-80,4,3,3,45,0,0
577474,-100,4,3,3,45,0,0
577747,-90.9090909090909,4,3,3,45,0,0
578747,-90.9090909090909,4,3,3,30,0,0
578838,-90.9090909090909,4,3,3,45,0,0
579292,-90.9090909090909,4,3,3,30,0,0
579383,-90.9090909090909,4,3,3,45,0,0
580201,-90.9090909090909,4,3,3,30,0,0
580292,-90.9090909090909,4,3,3,45,0,0
580565,-90.9090909090909,4,3,7,45,0,0
580747,-90.9090909090909,4,3,3,45,0,0
581474,-80,4,3,8,45,0,0
581564,-80,4,3,8,5,0,0
581656,-80,4,3,3,45,0,0
581746,-80,4,3,3,5,0,0
581838,-80,4,3,3,45,0,0
582019,-80,4,3,9,45,0,0
582201,-80,4,3,3,45,0,0
582747,-80,4,3,3,30,0,0
582929,-80,4,3,10,45,0,0
583110,-80,4,3,3,45,0,0
583292,-66.6666666666667,4,3,3,45,0,0
584201,-80,4,3,3,45,0,0
584565,-74.0740740740741,4,3,3,45,0,0
585110,-74.0740740740741,4,3,3,30,0,0
585473,-74.0740740740741,4,3,3,45,0,0
585746,-74.0740740740741,4,3,3,5,0,0
585838,-74.0740740740741,4,3,3,45,0,0
585928,-74.0740740740741,4,3,3,5,0,0
586019,-66.6666666666667,4,3,3,30,0,0
586382,-66.6666666666667,4,3,3,45,0,0
587019,-66.6666666666667,4,3,3,5,0,0
587110,-66.6666666666667,4,3,1,45,0,0
587200,-66.6666666666667,4,3,1,5,0,0
587292,-66.6666666666667,4,3,3,45,0,0
587382,-66.6666666666667,4,3,3,5,0,0
587474,-66.6666666666667,4,3,1,45,0,0
587564,-66.6666666666667,4,3,1,5,0,0
587656,-80,4,3,3,45,0,0
588383,-66.6666666666667,4,3,3,45,0,0
588656,-80,4,3,3,45,0,0
588837,-80,4,3,3,5,0,0
588929,-100,4,3,3,45,0,0
589019,-100,4,3,3,5,0,0
589110,-80,4,3,3,45,0,0
589383,-100,4,3,3,45,0,0
589564,-100,4,3,3,5,0,0
589656,-100,4,3,3,45,0,0
589838,-66.6666666666667,4,3,3,45,0,0
590110,-80,4,3,3,45,0,0
590291,-80,4,3,3,5,0,0
590383,-100,4,3,3,30,0,0
590473,-100,4,3,3,5,0,0
590565,-80,4,3,3,45,0,0
590838,-100,4,3,3,45,0,0
591019,-100,4,3,3,5,0,0
591110,-100,4,3,3,45,0,0
591292,-80,4,3,3,45,0,0
591565,-100,4,3,3,45,0,0
591746,-100,4,3,3,5,0,0
591838,-133.333333333333,4,3,3,30,0,0
591928,-133.333333333333,4,3,3,5,0,0
592019,-133.333333333333,4,3,3,45,0,0
594929,352.941176470588,4,3,1,70,1,1
594929,-71.4285714285714,4,3,1,70,0,1
595017,-71.4285714285714,4,3,1,5,0,1
595105,-86.9565217391303,4,3,1,70,0,1
595193,-86.9565217391303,4,3,1,5,0,1
595281,-100,4,3,1,70,0,1
595369,-100,4,3,1,5,0,1
595458,-125,4,3,1,70,0,1
595546,-125,4,3,1,5,0,1
595634,-125,4,3,1,70,0,1
596340,-76.9230769230769,4,3,1,70,0,1
596428,-76.9230769230769,4,3,1,5,0,1
596517,-100,4,3,1,70,0,1
596605,-100,4,3,1,5,0,1
596693,-100,4,3,1,70,0,1
597046,-83.3333333333333,4,3,1,70,0,1
597399,-100,4,3,1,70,0,1
597487,-100,4,3,1,5,0,1
597576,-125,4,3,1,70,0,1
597664,-125,4,3,1,5,0,1
597752,-125,4,3,1,70,0,1
598458,-100,4,3,1,70,0,1
598546,-100,4,3,1,5,0,1
598634,-111.111111111111,4,3,1,70,0,1
598722,-111.111111111111,4,3,1,5,0,1
598811,-125,4,3,1,70,0,1
598899,-125,4,3,1,5,0,1
598987,-142.857142857143,4,3,1,70,0,1
599075,-142.857142857143,4,3,1,5,0,1
599164,-142.857142857143,4,3,1,70,0,1
599517,-83.3333333333333,4,3,1,70,0,1
599605,-83.3333333333333,4,3,1,5,0,1
599693,-83.3333333333333,4,3,1,70,0,1
599781,-83.3333333333333,4,3,1,5,0,1
599870,-71.4285714285714,4,3,1,70,0,1
600223,-83.3333333333333,4,3,1,70,0,1
600311,-83.3333333333333,4,3,1,5,0,1
600399,-100,4,3,1,70,0,1
600487,-100,4,3,1,5,0,1
600576,-100,4,3,1,70,0,1
605517,-83.3333333333333,4,3,1,70,0,1
605870,-71.4285714285714,4,3,1,70,0,1
611164,-90.9090909090909,4,3,1,70,0,1
611252,-90.9090909090909,4,3,1,5,0,1
611340,-111.111111111111,4,3,1,70,0,1
611428,-111.111111111111,4,3,1,5,0,1
611517,-90.9090909090909,4,3,1,70,0,1
611605,-90.9090909090909,4,3,1,5,0,1
611693,-76.9230769230769,4,3,1,70,0,1
611781,-76.9230769230769,4,3,1,5,0,1
611870,-76.9230769230769,4,3,9,70,0,1
612223,-76.9230769230769,4,3,8,70,0,1
612576,-100,4,3,1,70,0,1
613281,-90.9090909090909,4,3,1,70,0,1
613634,-76.9230769230769,4,3,1,70,0,1
614693,-76.9230769230769,4,3,7,70,0,1
615046,-76.9230769230769,4,3,8,70,0,1
615399,-83.3333333333333,4,3,1,70,0,1
615663,-83.3333333333333,4,3,1,5,0,1
615752,-83.3333333333333,4,3,1,70,0,1
616811,-100,4,3,1,70,0,1
617164,-76.9230769230769,4,3,1,70,0,1
618223,-100,4,3,1,70,0,1
623164,-100,4,3,7,70,0,1
623517,-100,4,3,8,70,0,1
623870,-100,4,3,1,70,0,1
625987,-100,4,3,7,70,0,1
626340,-100,4,3,8,70,0,1
626693,-100,4,3,1,70,0,1
631105,-83.3333333333333,4,3,1,70,0,1
631370,-66.6666666666667,4,3,1,70,0,1
631546,-66.6666666666667,4,3,1,5,0,1
631634,-66.6666666666667,4,3,1,70,0,1
634458,-80,4,3,1,70,0,1
635605,-80,4,3,1,5,0,1
635693,-80,4,3,1,70,0,1
635781,-80,4,3,1,5,0,1
635870,-66.6666666666667,4,3,1,70,0,1
636576,-80,4,3,1,70,0,1
638517,-133.333333333333,4,3,1,70,0,1
638781,-133.333333333333,4,3,1,5,0,1
638870,-133.333333333333,4,3,1,70,0,1
639929,-79.9999999999999,4,3,1,70,0,1
640017,-79.9999999999999,4,3,1,5,0,1
640105,-79.9999999999999,4,3,1,70,0,1
641605,-79.9999999999999,4,3,1,5,0,1
641693,-79.9999999999999,4,3,1,70,0,1
641958,-79.9999999999999,4,3,1,45,0,1
642046,-79.9999999999999,4,3,1,70,0,1
646458,-66.6666666666667,4,3,1,70,0,1
646546,-66.6666666666667,4,3,1,5,0,1
646634,-66.6666666666667,4,3,1,70,0,1
649987,-80,4,3,1,70,0,1
650340,-100,4,3,1,70,0,1
651310,-100,4,3,1,5,0,1
651399,-100,4,3,1,70,0,1
652105,-66.6666666666667,4,3,1,70,0,1
652458,-80,4,3,1,70,0,1
652546,-80,4,3,1,5,0,1
652634,-80,4,3,1,70,0,1
652898,-80,4,3,1,5,0,1
652987,-80,4,3,1,70,0,1
655017,-80,4,3,1,70,0,0
657046,-80,4,3,1,50,0,0
658458,-80,4,3,1,40,0,0
659870,-80,4,3,1,30,0,0
661281,-80,4,3,1,20,0,0
662693,-80,4,3,1,10,0,0
664017,-80,4,3,1,5,0,0
664101,266.666666666667,4,2,69,35,1,0
664101,-400,4,2,69,35,0,0
665967,-400,4,2,69,30,0,0
666234,-400,4,3,1,35,0,0
668367,-266.666666666667,4,3,1,35,0,0
668767,-266.666666666667,4,2,69,35,0,0
669634,-266.666666666667,4,2,69,5,0,0
669701,-266.666666666667,4,3,3,35,0,0
672101,-666.666666666667,4,3,3,35,0,0
672567,-666.666666666667,4,3,3,5,0,0
672634,-200,4,3,1,35,0,0
672767,-200,4,3,1,5,0,0
672901,-200,4,3,1,35,0,0
673167,-200,4,3,1,5,0,0
673301,-200,4,3,1,35,0,0
673567,-200,4,3,1,5,0,0
673701,-200,4,3,1,35,0,0
676901,-266.666666666667,4,3,1,35,0,0
677301,-266.666666666667,4,2,69,35,0,0
678167,-266.666666666667,4,2,69,5,0,0
678234,-266.666666666667,4,3,3,35,0,0
680967,-266.666666666667,4,2,69,35,0,0
682234,-1000,4,2,69,35,0,0
682301,-1000,4,2,69,5,0,0
685434,-266.666666666667,4,2,69,35,0,0
686501,-1000,4,2,69,35,0,0
686567,-1000,4,2,69,5,0,0
689701,-266.666666666667,4,2,69,35,0,0
690767,-1000,4,2,69,35,0,0
690834,-1000,4,2,69,5,0,0
692367,-285.714285714286,4,2,69,5,0,0
692633,-285.714285714286,4,2,69,8,0,0
692900,-285.714285714286,4,2,69,12,0,0
693167,-285.714285714286,4,2,69,16,0,0
693433,-285.714285714286,4,2,69,20,0,0
693700,-285.714285714286,4,2,69,24,0,0
693967,-285.714285714286,4,2,69,35,0,0
695034,-1000,4,2,69,35,0,0
695101,-1000,4,2,69,5,0,0
697167,-266.666666666667,4,2,69,7,0,0
697433,-266.666666666667,4,2,69,8,0,0
697700,-266.666666666667,4,2,69,12,0,0
697967,-266.666666666667,4,2,69,16,0,0
699301,-500,4,2,69,35,0,0
700301,-500,4,2,69,5,0,0
700367,-500,4,2,69,35,0,0
702501,-266.666666666667,4,2,69,7,0,0
702767,-266.666666666667,4,2,69,10,0,0
703034,-266.666666666667,4,2,69,14,0,0
703301,-266.666666666667,4,2,69,21,0,0
703567,-500,4,2,69,35,0,0
704567,-500,4,2,69,5,0,0
704634,-500,4,2,69,35,0,0
706767,-266.666666666667,4,2,69,7,0,0
707033,-266.666666666667,4,2,69,12,0,0
707300,-266.666666666667,4,2,69,17,0,0
707567,-266.666666666667,4,2,69,23,0,0
707834,-266.666666666667,4,2,69,27,0,0
715301,-266.666666666667,4,2,69,45,0,0
715834,-200,4,2,69,45,0,0
716367,-285.714285714286,4,2,69,45,0,0
716901,-166.666666666667,4,2,69,45,0,0
717701,-200,4,2,69,45,0,0
717967,-250,4,2,69,45,0,0
718767,-181.818181818182,4,2,69,45,0,0
719034,-200,4,2,69,45,0,0
720101,-250,4,2,69,45,0,0
720634,-285.714285714286,4,2,69,45,0,0
720901,-181.818181818182,4,2,69,40,0,0
721167,-200,4,2,69,40,0,0
722234,-250,4,2,69,40,0,0
722767,-200,4,2,69,40,0,0
723301,-181.818181818182,4,2,69,40,0,0
724367,-200,4,2,69,40,0,0
724901,-285.714285714286,4,2,69,40,0,0
725434,-166.666666666667,4,2,69,40,0,0
726234,-200,4,2,69,40,0,0
726501,-250,4,2,69,40,0,0
727301,-181.818181818182,4,2,69,40,0,0
727567,-200,4,2,69,40,0,0
728634,-250,4,2,69,40,0,0
729167,-285.714285714286,4,2,69,40,0,0
729434,-181.818181818182,4,2,69,40,0,0
729701,-200,4,2,69,40,0,0
730767,-250,4,2,69,40,0,0
731301,-285.714285714286,4,2,69,40,0,0
731567,-200,4,2,69,40,0,0
731834,-166.666666666667,4,2,69,40,0,0
732367,-166.666666666667,4,3,1,40,0,0
733167,-133.333333333333,4,3,1,40,0,0
747301,-133.333333333333,4,2,69,40,0,0
749167,-133.333333333333,4,2,69,5,0,0
749434,-133.333333333333,4,3,1,75,0,1
750234,-100,4,3,1,75,0,1
755834,-100,4,3,7,75,0,1
756367,-125,4,3,7,75,0,1
756901,-100,4,3,1,75,0,1
757434,-166.666666666667,4,3,9,75,0,1
757967,-166.666666666667,4,3,1,75,0,1
758767,-100,4,3,1,75,0,1
764367,-100,4,3,1,60,0,0
784901,-100,4,3,8,60,0,0
785167,-100,4,3,1,60,0,0
785434,-100,4,3,9,60,0,0
785701,-100,4,3,1,60,0,0
787034,-100,4,3,8,60,0,0
787301,-100,4,3,1,60,0,0
787567,-100,4,3,9,60,0,0
787834,-100,4,3,1,60,0,0
788634,-100,4,3,9,60,0,0
788901,-100,4,3,1,60,0,0
789167,-100,4,3,8,60,0,0
789434,-100,4,3,9,60,0,0
789967,-100,4,3,1,60,0,0
804367,-133.333333333333,4,3,1,60,0,0
804634,-100,4,3,1,60,0,0
805967,-133.333333333333,4,3,1,60,0,0
812901,-200,4,3,1,60,0,0
813167,-133.333333333333,4,3,1,60,0,0
817701,-100,4,3,1,60,0,0
819301,-133.333333333333,4,3,1,60,0,0
820634,-200,4,3,1,60,0,0
820901,-100,4,3,1,60,0,0
821434,-133.333333333333,4,3,1,60,0,0
821701,-200,4,3,1,60,0,0
821967,-200,4,3,8,60,0,0
822101,-100,4,3,8,60,0,0
822367,-100,4,3,9,60,0,0
822767,-100,4,3,10,60,0,0
823034,-100,4,3,1,60,0,0
824101,-100,4,3,8,60,0,0
824501,-100,4,3,9,60,0,0
824901,-100,4,3,10,60,0,0
825167,-100,4,3,1,60,0,0
826234,-100,4,3,8,60,0,0
826634,-100,4,3,9,60,0,0
827034,-100,4,3,10,60,0,0
827301,-80,4,3,1,60,0,0
827834,-133.333333333333,4,3,1,60,0,0
829167,-200,4,3,1,60,0,0
829434,-100,4,3,1,60,0,0
829967,-133.333333333333,4,3,1,60,0,0
830234,-200,4,3,1,60,0,0
830501,-200,4,3,8,60,0,0
830634,-100,4,3,8,60,0,0
830901,-100,4,3,9,60,0,0
831301,-100,4,3,10,60,0,0
831567,-80,4,3,1,60,0,0
831834,-133.333333333333,4,3,1,60,0,0
832101,-79.9999999999999,4,3,1,60,0,0
832367,-133.333333333333,4,3,1,60,0,0
832634,-133.333333333333,4,3,8,60,0,0
832767,-100,4,3,8,60,0,0
833034,-100,4,3,9,60,0,0
833567,-100,4,3,10,60,0,0
833701,-90.9090909090909,4,3,1,60,0,0
833834,-90.9090909090909,4,3,8,60,0,0
833967,-90.9090909090909,4,3,9,60,0,0
834234,-133.333333333333,4,3,9,60,0,0
834501,-133.333333333333,4,3,10,60,0,0
834901,-133.333333333333,4,3,9,60,0,0
835034,-133.333333333333,4,3,10,60,0,0
835167,-133.333333333333,4,3,8,60,0,0
835301,-133.333333333333,4,3,10,60,0,0
835834,-83.3333333333333,4,3,1,60,0,0
836101,-100,4,3,1,60,0,0
836367,-76.9230769230769,4,3,1,60,0,0
836634,-111.111111111111,4,3,1,60,0,0
836901,-111.111111111111,4,3,8,60,0,0
837034,-125,4,3,8,60,0,0
837301,-142.857142857143,4,3,9,60,0,0
837701,-142.857142857143,4,3,10,60,0,0
837967,-142.857142857143,4,3,1,60,0,0
838101,-142.857142857143,4,3,8,60,0,0
838234,-142.857142857143,4,3,9,60,0,0
838767,-142.857142857143,4,3,10,60,0,0
839167,-111.111111111111,4,3,9,60,0,0
839300,-111.111111111111,4,3,10,60,0,0
839434,-125,4,3,10,60,0,0
839701,-142.857142857143,4,3,9,60,0,0
839834,-142.857142857143,4,3,10,60,0,0
840101,-142.857142857143,4,3,1,60,0,0
841167,-142.857142857143,4,3,8,60,0,0
841301,-111.111111111111,4,3,8,60,0,0
841567,-125,4,3,9,60,0,0
841967,-125,4,3,10,60,0,0
842234,-125,4,3,1,60,0,0
842367,-125,4,3,8,60,0,0
842501,-125,4,3,9,60,0,0
843034,-125,4,3,10,60,0,0
843434,-125,4,3,9,60,0,0
843567,-125,4,3,10,60,0,0
843701,-125,4,3,9,60,0,0
843834,-125,4,3,10,60,0,0
844367,-83.3333333333333,4,3,1,60,0,0
844634,-100,4,3,1,60,0,0
844901,-76.9230769230769,4,3,1,60,0,0
845167,-111.111111111111,4,3,1,60,0,0
845434,-111.111111111111,4,3,8,60,0,0
845567,-125,4,3,8,60,0,0
845834,-142.857142857143,4,3,9,60,0,0
846234,-142.857142857143,4,3,10,60,0,0
846501,-142.857142857143,4,3,1,60,0,0
847567,-142.857142857143,4,3,8,60,0,0
847701,-111.111111111111,4,3,8,60,0,0
847967,-125,4,3,8,60,0,0
848100,-125,4,3,9,60,0,0
848234,-142.857142857143,4,3,9,60,0,0
848367,-142.857142857143,4,3,10,60,0,0
848634,-142.857142857143,4,3,1,60,0,0
849701,-142.857142857143,4,3,8,60,0,0
849834,-111.111111111111,4,3,8,60,0,0
850101,-125,4,3,9,60,0,0
850501,-125,4,3,10,60,0,0
850767,-125,4,3,1,60,0,0
850901,-125,4,3,8,60,0,0
851034,-125,4,3,9,60,0,0
851567,-125,4,3,10,60,0,0
851834,-125,4,3,1,60,0,0
852234,-100,4,3,1,60,0,0
853967,-125,4,3,1,60,0,0
854367,-166.666666666667,4,3,1,60,0,0
854767,-250.000000000001,4,3,1,60,0,0
856101,-200,4,3,1,60,0,0
856167,-200,4,3,1,5,0,0
856234,-100,4,3,1,60,0,0
858634,-125,4,3,1,60,0,0
859034,-166.666666666667,4,3,1,60,0,0
860367,-100,4,3,1,60,0,0
862901,-125,4,3,1,60,0,0
863301,-166.666666666667,4,3,1,60,0,0
864634,-200,4,3,1,60,0,0
864700,-200,4,3,1,5,0,0
864767,-100,4,3,1,60,0,0
866232,275.229357798165,4,3,1,60,1,0
866782,279.06976744186,4,3,1,60,1,0
867200,-125,4,3,1,60,0,0
867340,284.36018957346,4,3,1,60,1,0
867624,-142.857142857143,4,3,1,60,0,0
867908,284.36018957346,4,3,1,60,1,0
869046,300,3,3,1,65,1,1
869946,-66.6666666666667,3,3,1,65,0,1
870846,-100,3,3,1,65,0,1
871746,-66.6666666666667,3,3,1,65,0,1
872646,-100,3,3,1,65,0,1
875046,-133.333333333333,3,3,1,65,0,1
875121,-133.333333333333,3,3,1,5,0,1
875196,-133.333333333333,3,3,1,60,0,1
875271,-133.333333333333,3,3,1,5,0,1
875346,-66.6666666666667,3,3,1,65,0,1
876246,-100,3,3,1,65,0,1
876471,-100,3,3,1,5,0,1
876546,-100,3,3,1,65,0,1
876846,-133.333333333333,3,3,1,65,0,1
876921,-133.333333333333,3,3,1,5,0,1
876996,-133.333333333333,3,3,1,65,0,1
877071,-133.333333333333,3,3,1,5,0,1
877146,-66.6666666666667,3,3,1,65,0,1
880446,-133.333333333333,3,3,1,65,0,1
880521,-133.333333333333,3,3,1,5,0,1
880596,-133.333333333333,3,3,1,65,0,1
880671,-133.333333333333,3,3,1,5,0,1
880746,-66.6666666666667,3,3,1,65,0,1
880971,-66.6666666666667,3,3,1,5,0,1
881046,-66.6666666666667,3,3,1,65,0,1
883146,-100,3,3,1,65,0,1
883371,-100,3,3,1,5,0,1
883446,-100,3,3,1,70,0,1
884346,-111.111111111111,3,3,1,70,0,1
884646,-125,3,3,1,70,0,1
884946,-142.857142857143,3,3,1,70,0,1
887946,-83.3333333333333,3,3,1,70,0,1
888246,-90.9090909090909,3,3,1,70,0,1
888546,-100,3,3,1,70,0,1
890646,-86.9565217391303,3,3,1,70,0,1
890796,-100,3,3,1,70,0,1
890946,-117.647058823529,3,3,1,70,0,1
891546,-90.9090909090909,3,3,1,70,0,1
891846,-100,3,3,1,70,0,1
892146,-111.111111111111,3,3,1,70,0,1
896046,-83.3333333333333,3,3,1,70,0,1
896346,-90.9090909090909,3,3,1,70,0,1
897846,-100,3,3,1,70,0,1
898746,-76.9230769230769,3,3,1,70,0,1
899496,-76.9230769230769,3,3,1,60,0,1
899646,-76.9230769230769,3,3,1,70,0,1
900771,-76.9230769230769,3,3,1,5,0,1
900846,-76.9230769230769,3,3,1,70,0,1
901146,-100,3,3,1,70,0,1
901296,-100,3,3,1,60,0,1
901446,-100,3,3,1,70,0,1
902346,-76.9230769230769,3,3,1,70,0,1
903096,-76.9230769230769,3,3,1,60,0,1
903246,-76.9230769230769,3,3,1,70,0,1
904746,-90.9090909090909,3,3,1,70,0,1
904971,-90.9090909090909,3,3,1,5,0,1
905046,-90.9090909090909,3,3,1,70,0,1
905646,-100,3,3,1,70,0,1
905946,-76.9230769230769,3,3,1,70,0,1
906696,-76.9230769230769,3,3,1,60,0,1
906846,-90.9090909090909,3,3,1,70,0,1
907746,-76.9230769230769,3,3,1,70,0,1
908571,-76.9230769230769,3,3,1,5,0,1
908646,-100,3,3,1,70,0,1
909546,-76.9230769230769,3,3,1,70,0,1
910146,-90.9090909090909,3,3,1,70,0,1
910371,-90.9090909090909,3,3,1,60,0,1
910446,-90.9090909090909,3,3,1,70,0,1
910746,-100,3,3,1,70,0,1
913296,-66.6666666666667,3,3,1,70,0,1
914646,-100,3,3,1,70,0,1
915096,-66.6666666666667,3,3,1,70,0,1
915996,-100,3,3,1,70,0,1
916896,-66.6666666666667,3,3,1,70,0,1
918246,-100,3,3,1,70,0,1
921096,-66.6666666666667,3,3,1,70,0,1
921846,-100,3,3,1,70,0,1
922296,-66.6666666666667,3,3,1,70,0,1
923646,-100,3,3,1,70,0,1
924846,-100,3,3,7,70,0,1
925446,-100,3,3,8,70,0,1
925746,-100,3,3,1,70,0,1
925821,-100,3,3,8,70,0,1
926046,-100,3,3,1,70,0,1
926121,-100,3,3,9,70,0,1
926646,-100,3,3,1,70,0,1
929646,-100,3,3,7,70,0,1
929946,-100,3,3,8,70,0,1
930246,-100,3,3,1,70,0,1
936846,-100,3,3,7,70,0,1
937146,-100,3,3,8,70,0,1
937446,-100,3,3,1,70,0,1
939246,-100,3,3,7,70,0,1
939846,-100,3,3,8,70,0,1
940446,-100,3,3,9,70,0,1
941046,-100,3,3,1,70,0,1
941346,-100,3,3,4,70,0,1
948246,-100,3,3,1,70,0,1
951546,-100,3,3,8,90,0,1
951846,-100,3,3,9,90,0,1
951921,-100,3,3,9,70,0,1
952146,-100,3,3,1,70,0,1
953646,-100,3,3,7,70,0,1
954246,-100,3,3,8,70,0,1
954846,-100,3,3,9,70,0,1
955446,302.724520686176,3,3,1,75,1,0
969066,705.882352941176,4,3,1,20,1,0
986007,740.740740740741,4,3,1,20,1,0
987488,733.496332518337,4,3,1,20,1,0
988221,740.740740740741,4,3,1,20,1,0
988961,789.473684210526,4,3,1,20,1,0
989750,857.142857142857,4,3,1,20,1,0
990607,1052.63157894737,4,3,1,20,1,0
991133,1276.59574468085,4,3,1,20,1,0
991771,1276.59574468085,4,3,1,20,1,0
992409,1621.62162162162,4,3,1,20,1,0
993219,405.405405405405,3,3,1,20,1,0

[Colours]
Combo1 : 162,231,234
Combo2 : 140,140,255
Combo3 : 107,100,249
Combo4 : 158,129,245

[HitObjects]
425,142,540,6,0,B|390:117|390:117|261:141,1,150,2|0,2:0|2:0,2:0:0:0:
255,142,958,1,0,2:0:0:0:
257,128,1028,1,0,2:0:0:0:
259,116,1098,1,0,2:0:0:0:
260,104,1167,1,0,2:0:0:0:
262,92,1237,1,0,2:0:0:0:
264,80,1307,1,0,2:0:0:0:
266,68,1377,6,0,L|397:46,1,120,2|0,2:0|2:0,2:0:0:0:
188,13,1781,1,2,2:0:0:0:
173,93,1906,1,2,2:0:0:0:
158,173,2031,1,2,2:0:0:0:
24,108,2190,6,0,B|53:92|53:92|37:231,1,150,2|2,2:0|2:0,2:0:0:0:
26,241,2633,1,0,2:0:0:0:
33,256,2702,1,0,2:0:0:0:
44,270,2772,1,0,2:0:0:0:
60,277,2842,1,0,2:0:0:0:
77,278,2912,1,0,2:0:0:0:
94,276,2981,1,0,2:0:0:0:
114,264,3051,5,2,2:0:0:0:
131,259,3121,1,0,2:0:0:0:
148,256,3191,1,0,2:0:0:0:
165,254,3260,1,0,2:0:0:0:
183,255,3330,1,0,2:0:0:0:
200,258,3400,1,0,2:0:0:0:
216,266,3470,5,2,2:0:0:0:
181,357,3609,1,2,2:0:0:0:
287,325,3749,1,2,2:0:0:0:
155,221,3888,6,0,L|24:215,1,120,2|0,2:0|2:0,2:0:0:0:
171,28,4307,1,2,2:0:0:0:
177,37,4377,1,0,2:0:0:0:
182,47,4446,1,0,2:0:0:0:
185,58,4516,1,0,2:0:0:0:
188,69,4586,1,0,2:0:0:0:
190,80,4656,1,0,2:0:0:0:
190,92,4726,5,2,2:0:0:0:
82,38,4865,1,2,2:0:0:0:
287,4,5005,2,0,L|278:133,1,120,2|0,2:0|2:0,2:0:0:0:
237,202,5423,1,2,2:0:0:0:
371,124,5563,6,0,P|420:104|491:131,1,120,2|0,2:0|2:0,2:0:0:0:
500,250,5981,1,2,2:0:0:0:
416,238,6106,1,2,2:0:0:0:
332,226,6231,1,2,2:0:0:0:
386,355,6381,6,0,B|350:343|350:343|392:333,1,75.0000000000002,2|0,2:0|2:0,2:0:0:0:
398,361,6670,1,2,2:0:0:0:
278,279,6815,6,0,B|314:267|314:267|272:257,1,75.0000000000002,2|2,2:0|2:0,2:0:0:0:
266,285,7087,1,0,2:0:0:0:
350,37,7237,6,0,B|388:8|388:8|375:181,1,187.5,4|0,2:1|2:0,2:0:0:0:
375,184,7655,1,0,0:0:0:0:
385,182,7725,1,0,2:0:0:0:
396,180,7795,1,0,2:0:0:0:
407,178,7864,1,0,2:0:0:0:
418,176,7934,1,0,2:0:0:0:
429,174,8004,1,0,2:0:0:0:
440,172,8074,5,2,2:0:0:0:
304,105,8213,1,2,2:0:0:0:
428,41,8353,1,2,2:0:0:0:
447,181,8492,2,0,B|402:209|402:209|281:191|281:191|235:210,1,225.000000000001,2|0,0:0|0:0,0:0:0:0:
353,325,9050,5,2,2:0:0:0:
310,229,9190,1,2,0:0:0:0:
216,280,9330,2,0,P|194:308|169:358,2,75.0000000000002,4|0|0,2:1|2:0|2:0,2:0:0:0:
135,189,9748,2,0,P|113:161|88:111,2,75.0000000000002,4|0|0,2:1|2:0|2:0,2:0:0:0:
72,282,10167,2,0,P|50:310|25:360,2,75.0000000000002,4|0|0,2:1|2:0|2:0,2:0:0:0:
187,348,10575,5,4,3:0:0:0:
209,334,10644,1,0,3:0:0:0:
234,326,10714,1,0,3:0:0:0:
259,323,10784,1,0,3:0:0:0:
285,325,10854,1,0,3:0:0:0:
309,333,10923,1,0,3:0:0:0:
331,347,10993,5,4,3:0:0:0:
326,336,11063,1,0,3:0:0:0:
323,325,11133,1,0,3:0:0:0:
321,313,11202,1,0,3:0:0:0:
320,301,11272,1,0,3:0:0:0:
321,289,11342,1,0,3:0:0:0:
324,278,11412,5,12,3:1:0:0:
360,92,11551,1,0,3:0:0:0:
493,210,11691,1,0,3:0:0:0:
283,200,11830,5,4,3:1:0:0:
498,220,11970,1,0,3:0:0:0:
443,37,12109,1,0,3:0:0:0:
281,114,12249,5,4,3:0:0:0:
263,119,12319,1,0,3:0:0:0:
244,120,12388,1,0,3:0:0:0:
225,116,12458,1,0,3:0:0:0:
208,107,12528,1,0,3:0:0:0:
195,93,12598,1,0,3:0:0:0:
189,75,12668,5,4,3:0:0:0:
190,62,12737,1,0,3:0:0:0:
191,44,12807,1,0,3:0:0:0:
267,11,12947,1,0,3:0:0:0:
337,66,13086,5,12,3:1:0:0:
95,130,13226,1,0,3:0:0:0:
155,6,13365,1,0,3:0:0:0:
274,216,13505,5,4,3:1:0:0:
84,45,13644,1,0,3:0:0:0:
252,22,13784,1,0,3:0:0:0:
186,208,13923,5,4,3:0:0:0:
148,251,13993,1,8,3:0:0:0:
95,253,14063,1,0,3:0:0:0:
59,214,14133,1,8,3:0:0:0:
29,206,14202,1,0,3:0:0:0:
10,219,14272,1,8,3:0:0:0:
5,237,14342,1,2,3:0:0:0:
14,248,14412,1,8,3:0:0:0:
28,248,14481,6,0,L|41:316,1,50,0|8,3:0|3:0,3:0:0:0:
123,177,14621,2,0,L|114:127,1,50,0|8,3:0|3:0,3:0:0:0:
200,322,14761,6,0,L|213:390,1,50,2|8,3:0|3:0,3:0:0:0:
274,198,14900,2,0,L|287:130,1,50,0|8,3:0|3:0,3:0:0:0:
465,325,15040,5,0,3:0:0:0:
432,364,15109,1,8,3:0:0:0:
382,374,15179,1,2,3:0:0:0:
336,355,15249,1,8,3:0:0:0:
318,308,15319,2,0,L|322:250,1,50,0|8,3:0|3:0,3:0:0:0:
413,199,15458,2,0,L|416:248,1,50,0|8,3:0|3:0,3:0:0:0:
325,143,15598,5,2,3:0:0:0:
336,124,15668,1,8,3:0:0:0:
333,103,15737,1,0,3:0:0:0:
318,86,15807,1,8,3:0:0:0:
295,76,15877,1,0,3:0:0:0:
275,84,15947,1,8,3:0:0:0:
240,90,16016,1,0,3:0:0:0:
204,70,16086,1,8,3:0:0:0:
192,30,16156,2,0,P|210:13|242:7,3,50,0|8|0|8,3:0|3:0|3:0|3:0,3:0:0:0:
310,77,16435,5,2,3:0:0:0:
323,98,16505,1,8,3:0:0:0:
349,112,16574,1,0,3:0:0:0:
384,110,16644,1,8,3:0:0:0:
418,89,16714,1,0,3:0:0:0:
427,45,16784,1,8,3:0:0:0:
399,3,16854,5,2,3:0:0:0:
372,38,16923,1,8,3:0:0:0:
372,88,16993,1,2,3:0:0:0:
401,127,17063,1,8,3:0:0:0:
434,178,17133,1,2,3:0:0:0:
422,242,17202,1,8,3:0:0:0:
368,284,17272,5,2,3:0:0:0:
327,311,17342,1,8,3:0:0:0:
287,306,17412,1,0,3:0:0:0:
268,282,17481,1,8,3:0:0:0:
245,271,17551,1,0,3:0:0:0:
226,279,17621,1,8,3:0:0:0:
221,298,17691,1,2,3:0:0:0:
228,316,17761,1,8,3:0:0:0:
246,323,17830,6,0,P|262:351|272:377,1,50,0|8,3:0|3:0,3:0:0:0:
349,309,17970,2,0,P|358:286|371:264,1,50,0|8,3:0|3:0,3:0:0:0:
474,353,18109,6,0,L|406:340,1,50,2|8,3:0|3:0,3:0:0:0:
306,251,18249,2,0,L|374:238,1,50,0|8,3:0|3:0,3:0:0:0:
444,166,18388,5,0,3:0:0:0:
469,124,18458,1,8,3:0:0:0:
465,74,18528,1,2,3:0:0:0:
433,33,18598,1,8,3:0:0:0:
390,20,18668,2,0,L|379:106,1,50,2|8,3:0|3:0,3:0:0:0:
313,149,18807,2,0,L|306:99,1,50,2|8,3:0|3:0,3:0:0:0:
231,0,18947,5,2,3:0:0:0:
218,8,19016,1,8,3:0:0:0:
210,21,19086,1,0,3:0:0:0:
206,35,19156,1,8,3:0:0:0:
206,50,19226,1,0,3:0:0:0:
214,68,19295,1,8,3:0:0:0:
216,92,19365,1,2,3:0:0:0:
206,119,19435,1,8,3:0:0:0:
185,133,19505,2,0,L|134:116,3,50,0|8|0|8,3:0|3:0|3:0|3:0,3:0:0:0:
144,254,19784,5,2,3:0:0:0:
120,243,19854,1,8,3:0:0:0:
85,245,19923,1,0,3:0:0:0:
50,272,19993,1,8,3:0:0:0:
37,319,20063,1,0,3:0:0:0:
58,368,20133,1,8,3:0:0:0:
109,382,20202,5,2,3:0:0:0:
136,366,20272,1,8,3:0:0:0:
148,340,20342,1,2,3:0:0:0:
183,308,20412,1,8,3:0:0:0:
236,298,20481,1,2,3:0:0:0:
286,317,20551,1,8,3:0:0:0:
310,372,20621,5,2,3:0:0:0:
284,349,20691,1,8,3:0:0:0:
276,315,20761,1,0,3:0:0:0:
296,286,20830,1,8,3:0:0:0:
322,256,20900,1,0,3:0:0:0:
321,224,20970,1,8,3:0:0:0:
303,219,21040,1,2,3:0:0:0:
295,228,21109,1,8,3:0:0:0:
298,238,21179,6,0,P|282:264|275:282,1,50,0|8,3:0|3:0,3:0:0:0:
203,160,21319,2,0,P|219:186|226:204,1,50,0|8,3:0|3:0,3:0:0:0:
126,265,21458,6,0,L|186:252,1,50,2|8,3:0|3:0,3:0:0:0:
293,140,21598,2,0,L|233:127,1,50,2|8,3:0|3:0,3:0:0:0:
141,19,21737,5,2,3:0:0:0:
99,47,21807,1,8,3:0:0:0:
84,94,21877,1,0,3:0:0:0:
93,143,21947,1,8,3:0:0:0:
129,177,22016,2,0,P|157:163|185:155,1,50,2|8,3:0|3:0,3:0:0:0:
219,67,22156,2,0,P|248:76|274:91,1,50,0|8,3:0|3:0,3:0:0:0:
322,253,22295,5,2,3:0:0:0:
314,246,22365,1,8,3:0:0:0:
304,234,22435,1,0,3:0:0:0:
297,215,22505,1,8,3:0:0:0:
304,191,22574,1,0,3:0:0:0:
326,170,22644,1,8,3:0:0:0:
360,166,22714,1,2,3:0:0:0:
378,143,22784,1,8,3:0:0:0:
378,117,22854,2,0,P|361:88|336:73,3,50,0|8|0|8,3:0|3:0|3:0|3:0,3:0:0:0:
240,127,23133,5,2,3:0:0:0:
225,142,23202,1,8,3:0:0:0:
211,171,23272,1,0,3:0:0:0:
217,209,23342,1,8,3:0:0:0:
240,239,23412,1,0,3:0:0:0:
248,286,23481,1,8,3:0:0:0:
230,328,23551,5,2,3:0:0:0:
207,288,23621,1,8,3:0:0:0:
167,258,23691,1,2,3:0:0:0:
115,248,23761,1,8,3:0:0:0:
59,266,23830,1,2,3:0:0:0:
28,317,23900,1,8,3:0:0:0:
37,367,23970,5,2,3:0:0:0:
84,339,24040,1,8,3:0:0:0:
87,294,24109,1,2,3:0:0:0:
65,260,24179,1,8,3:0:0:0:
33,244,24249,1,2,3:0:0:0:
25,218,24319,1,8,3:0:0:0:
38,199,24388,1,2,3:0:0:0:
56,199,24458,1,8,3:0:0:0:
64,213,24528,6,0,L|73:277,1,50,0|8,3:0|3:0,3:0:0:0:
135,146,24668,2,0,L|141:96,1,50,0|8,3:0|3:0,3:0:0:0:
198,249,24807,6,0,P|160:236|135:231,1,50,2|8,3:0|3:0,3:0:0:0:
16,116,24947,2,0,P|54:103|79:98,1,50,0|8,3:0|3:0,3:0:0:0:
213,141,25086,1,0,3:0:0:0:
252,122,25156,1,8,3:0:0:0:
276,84,25226,1,2,3:0:0:0:
270,34,25295,1,8,3:0:0:0:
237,0,25365,2,0,P|218:20|200:42,1,50,0|8,3:0|3:0,3:0:0:0:
305,145,25505,2,0,P|324:125|342:103,1,50,0|8,3:0|3:0,3:0:0:0:
459,14,25644,5,2,3:0:0:0:
476,33,25714,1,8,3:0:0:0:
482,54,25784,1,0,3:0:0:0:
481,76,25854,1,8,3:0:0:0:
470,95,25923,1,0,3:0:0:0:
449,108,25993,1,8,3:0:0:0:
428,132,26063,1,2,3:0:0:0:
432,178,26133,1,8,3:0:0:0:
466,197,26202,2,0,P|476:185|487:146,3,50,0|8|0|8,3:0|3:0|3:0|3:0,3:0:0:0:
344,175,26481,5,4,3:1:0:0:
329,177,26551,1,0,3:0:0:0:
317,190,26621,1,0,3:0:0:0:
316,212,26691,1,0,3:0:0:0:
349,222,26761,1,0,3:0:0:0:
370,200,26830,1,0,3:0:0:0:
364,160,26900,5,12,3:1:0:0:
323,145,26970,1,0,3:0:0:0:
276,163,27040,1,0,3:0:0:0:
237,197,27109,1,0,3:0:0:0:
175,214,27179,1,0,3:0:0:0:
107,202,27249,1,0,3:0:0:0:
66,140,27319,6,0,B|80:89|134:80|134:80|217:104|226:209|165:274,1,300,4|0,3:0|3:0,3:0:0:0:
127,300,27737,1,12,3:1:0:0:
120,299,27807,1,0,3:0:0:0:
114,287,27877,1,0,3:0:0:0:
130,274,27947,1,0,3:0:0:0:
157,287,28016,1,0,3:0:0:0:
161,329,28086,1,0,3:0:0:0:
128,371,28156,2,0,B|91:336|91:336|133:114,1,275,4|0,3:1|3:0,3:0:0:0:
94,49,28574,5,12,3:1:0:0:
180,16,28714,1,0,3:0:0:0:
263,127,28854,1,0,3:0:0:0:
405,29,28993,2,0,B|366:-3|366:-3|397:158,1,200,4|0,3:1|3:0,3:0:0:0:
452,193,29412,5,12,3:1:0:0:
455,190,29481,1,0,3:0:0:0:
456,185,29551,1,0,3:0:0:0:
454,180,29621,1,0,3:0:0:0:
450,177,29691,1,0,3:0:0:0:
445,177,29761,1,0,3:0:0:0:
440,178,29830,1,4,3:1:0:0:
437,181,29900,1,0,3:0:0:0:
436,185,29970,1,0,3:0:0:0:
437,189,30040,1,0,3:0:0:0:
439,192,30109,1,0,3:0:0:0:
442,194,30179,1,0,3:0:0:0:
446,194,30249,5,12,3:1:0:0:
485,55,30388,1,0,3:0:0:0:
353,246,30528,1,0,3:0:0:0:
223,36,30668,2,0,B|230:12|249:3|249:3|311:-13|377:26|387:95,1,225,4|0,3:0|3:0,3:0:0:0:
380,163,31086,5,2,3:0:0:0:
386,176,31156,1,8,3:0:0:0:
396,186,31226,1,2,3:0:0:0:
409,192,31295,1,8,3:0:0:0:
423,194,31365,1,2,3:0:0:0:
437,191,31435,1,8,3:0:0:0:
449,182,31505,5,2,3:0:0:0:
421,128,31574,1,8,3:0:0:0:
363,108,31644,1,2,3:0:0:0:
303,119,31714,1,8,3:0:0:0:
266,165,31784,1,2,3:0:0:0:
218,168,31854,1,8,3:0:0:0:
190,146,31923,1,2,3:0:0:0:
189,123,31993,1,8,3:0:0:0:
198,110,32063,5,2,3:0:0:0:
252,118,32133,1,8,3:0:0:0:
271,158,32202,1,2,3:0:0:0:
268,192,32272,1,8,3:0:0:0:
251,210,32342,1,2,3:0:0:0:
226,270,32412,1,8,3:0:0:0:
246,331,32481,1,2,3:0:0:0:
301,365,32551,1,8,3:0:0:0:
365,354,32621,1,2,3:0:0:0:
400,300,32691,1,8,3:0:0:0:
400,236,32761,6,0,L|336:226,1,60,2|8,3:0|3:0,3:0:0:0:
235,322,32900,2,0,L|299:312,1,60,2|8,3:0|3:0,3:0:0:0:
414,366,33040,2,0,L|404:306,1,60,2|8,3:0|3:0,3:0:0:0:
273,152,33179,5,4,3:1:0:0:
308,104,33249,1,0,3:0:0:0:
357,94,33319,1,0,3:0:0:0:
393,110,33388,1,0,3:0:0:0:
404,137,33458,1,0,3:0:0:0:
397,155,33528,1,0,3:0:0:0:
377,158,33598,5,12,3:1:0:0:
352,133,33668,1,0,3:0:0:0:
354,82,33737,1,0,3:0:0:0:
403,39,33807,1,0,3:0:0:0:
478,48,33877,2,0,P|496:68|512:113,1,50,0|0,3:0|3:0,3:0:0:0:
421,318,34016,5,4,3:1:0:0:
427,331,34086,1,8,3:0:0:0:
448,338,34156,1,0,3:0:0:0:
473,322,34226,1,8,3:0:0:0:
468,284,34295,1,0,3:0:0:0:
423,276,34365,1,8,3:0:0:0:
392,315,34435,5,2,3:0:0:0:
331,315,34505,1,8,3:0:0:0:
283,277,34574,1,2,3:0:0:0:
273,217,34644,1,8,3:0:0:0:
308,168,34714,1,2,3:0:0:0:
366,157,34784,1,8,3:0:0:0:
416,189,34854,5,2,3:0:0:0:
362,234,34923,1,8,3:0:0:0:
296,236,34993,1,2,3:0:0:0:
242,209,35063,1,8,3:0:0:0:
213,161,35133,1,2,3:0:0:0:
165,145,35202,1,8,3:0:0:0:
122,159,35272,1,2,3:0:0:0:
111,197,35342,1,8,3:0:0:0:
134,222,35412,2,0,P|161:211|161:177,3,50,2|8|2|8,3:0|3:0|3:0|3:0,3:0:0:0:
19,101,35691,6,0,P|42:122|48:174,1,65,4|0,3:1|3:0,3:0:0:0:
0,321,35830,1,8,3:0:0:0:
36,368,35900,1,0,3:0:0:0:
95,370,35970,1,0,3:0:0:0:
135,324,36040,1,0,3:0:0:0:
126,264,36109,1,12,3:1:0:0:
162,215,36179,1,0,3:0:0:0:
220,211,36249,1,0,3:0:0:0:
266,249,36319,1,0,3:0:0:0:
267,309,36388,1,8,3:0:0:0:
314,346,36458,1,0,3:0:0:0:
373,340,36528,1,4,3:1:0:0:
401,286,36598,1,0,3:0:0:0:
381,229,36668,5,8,3:0:0:0:
341,274,36737,1,0,3:0:0:0:
350,333,36807,1,0,3:0:0:0:
405,353,36877,1,0,3:0:0:0:
457,324,36947,1,12,3:1:0:0:
447,274,37016,1,0,3:0:0:0:
406,273,37086,1,0,3:0:0:0:
399,301,37156,1,0,3:0:0:0:
414,313,37226,2,0,P|438:308|449:282,1,50,8|0,3:0|3:0,3:0:0:0:
500,101,37365,6,0,B|420:114|420:114|417:118|417:118|297:136,1,180,6|0,3:0|3:0,3:0:0:0:
169,20,37784,1,12,3:1:0:0:
211,46,37854,1,0,3:0:0:0:
223,89,37923,1,0,3:0:0:0:
201,123,37993,1,0,3:0:0:0:
168,137,38063,1,0,3:0:0:0:
139,122,38133,1,0,3:0:0:0:
138,89,38202,6,0,B|164:30|164:30|196:238,1,250,4|0,3:1|3:0,3:0:0:0:
205,293,38621,1,12,3:1:0:0:
48,180,38761,1,0,3:0:0:0:
288,222,38900,1,0,3:0:0:0:
0,356,39040,6,0,B|20:300|89:294|89:294|136:358|242:328,1,250,4|0,3:1|3:0,3:0:0:0:
260,229,39458,1,12,3:1:0:0:
242,246,39528,1,0,3:0:0:0:
236,270,39598,1,0,3:0:0:0:
246,292,39668,1,0,3:0:0:0:
265,308,39737,2,0,L|335:292,1,50,0|0,3:0|3:0,3:0:0:0:
396,147,39877,1,4,3:1:0:0:
360,128,39947,1,0,3:0:0:0:
321,138,40016,1,0,3:0:0:0:
301,173,40086,1,0,3:0:0:0:
308,211,40156,2,0,P|342:241|366:252,1,50,0|0,3:0|3:0,3:0:0:0:
506,217,40295,5,12,3:1:0:0:
332,51,40435,1,0,3:0:0:0:
410,311,40574,1,0,3:0:0:0:
501,66,40714,6,0,B|459:0|376:25|376:25|355:78|411:120,1,220,4|0,3:0|3:0,3:0:0:0:
224,197,41133,1,2,3:0:0:0:
251,197,41202,1,8,3:0:0:0:
274,182,41272,1,2,3:0:0:0:
287,158,41342,1,8,3:0:0:0:
287,130,41412,1,2,3:0:0:0:
270,107,41481,1,8,3:0:0:0:
244,96,41551,5,2,3:0:0:0:
203,133,41621,1,8,3:0:0:0:
198,187,41691,1,2,3:0:0:0:
233,229,41761,1,8,3:0:0:0:
284,249,41830,1,2,3:0:0:0:
318,292,41900,1,8,3:0:0:0:
318,346,41970,1,2,3:0:0:0:
277,383,42040,1,8,3:0:0:0:
222,374,42109,1,2,3:0:0:0:
202,328,42179,1,8,3:0:0:0:
225,292,42249,1,2,3:0:0:0:
255,291,42319,1,8,3:0:0:0:
262,312,42388,6,0,P|242:336|191:345,5,55,2|8|2|8|2|8,3:0|3:0|3:0|3:0|3:0|3:0,3:0:0:0:
103,263,42807,2,0,P|113:223|115:197,1,55,2|8,3:0|3:0,3:0:0:0:
167,114,42947,2,0,P|170:141|178:167,1,55,2|8,3:0|3:0,3:0:0:0:
112,273,43086,2,0,P|122:233|124:207,1,55,2|8,3:0|3:0,3:0:0:0:
148,91,43226,5,4,3:1:0:0:
190,64,43295,1,0,3:0:0:0:
239,66,43365,1,0,3:0:0:0:
275,98,43435,1,0,3:0:0:0:
323,110,43505,1,0,3:0:0:0:
369,93,43574,1,0,3:0:0:0:
389,47,43644,5,12,3:1:0:0:
341,19,43714,1,0,3:0:0:0:
283,33,43784,1,0,3:0:0:0:
252,91,43854,1,0,3:0:0:0:
268,164,43923,1,0,3:0:0:0:
332,209,43993,1,0,3:0:0:0:
412,195,44063,6,0,B|449:186|449:186|454:187|454:187|491:179,5,75,4|8|2|8|2|8,3:1|3:0|3:0|3:0|3:0|3:0,3:0:0:0:
352,307,44481,1,2,3:0:0:0:
363,309,44551,1,8,3:0:0:0:
374,311,44621,1,2,3:0:0:0:
385,313,44691,1,8,3:0:0:0:
396,315,44761,1,2,3:0:0:0:
407,317,44830,1,8,3:0:0:0:
438,286,44900,5,2,3:0:0:0:
426,267,44970,1,8,3:0:0:0:
400,256,45040,1,2,3:0:0:0:
367,263,45109,1,8,3:0:0:0:
341,291,45179,1,2,3:0:0:0:
300,307,45249,1,8,3:0:0:0:
250,303,45319,1,2,3:0:0:0:
198,283,45388,1,8,3:0:0:0:
168,231,45458,1,2,3:0:0:0:
179,166,45528,1,8,3:0:0:0:
236,121,45598,1,2,3:0:0:0:
311,129,45668,1,8,3:0:0:0:
354,192,45737,6,0,P|343:242|328:280,1,55,4|0,3:1|3:0,3:0:0:0:
403,78,45877,1,8,3:0:0:0:
403,78,45947,1,0,3:0:0:0:
403,78,46016,2,0,P|449:70|486:59,1,55,0|0,3:0|3:0,3:0:0:0:
280,112,46156,1,12,3:1:0:0:
280,112,46226,1,0,3:0:0:0:
280,112,46295,2,0,P|326:120|363:131,1,55,0|0,3:0|3:0,3:0:0:0:
215,0,46435,2,0,P|209:34|199:71,1,55,8|0,3:0|3:0,3:0:0:0:
127,165,46574,6,0,P|121:131|111:94,1,55,4|0,3:1|3:0,3:0:0:0:
239,225,46714,1,8,3:0:0:0:
254,228,46784,1,0,3:0:0:0:
270,231,46854,2,0,P|263:257|259:284,1,55,0|0,3:0|3:0,3:0:0:0:
17,327,46993,6,0,B|55:295|55:295|120:285|198:363,1,165,12|0,3:1|3:0,3:0:0:0:
168,349,47272,1,8,3:0:0:0:
291,341,47412,5,4,3:0:0:0:
300,336,47481,1,0,3:0:0:0:
310,331,47551,1,0,3:0:0:0:
320,328,47621,1,0,3:0:0:0:
330,326,47691,1,4,3:1:0:0:
341,326,47761,1,0,3:0:0:0:
352,326,47830,1,0,3:0:0:0:
362,328,47900,1,0,3:0:0:0:
371,331,47970,2,0,P|380:360|384:386,3,50,4|0|0|0,3:1|3:0|3:0|3:0,3:0:0:0:
502,272,48249,5,12,3:1:0:0:
494,280,48319,1,0,3:0:0:0:
483,283,48388,1,0,3:0:0:0:
471,283,48458,1,0,3:0:0:0:
460,279,48528,1,4,3:1:0:0:
452,270,48598,1,0,3:0:0:0:
449,259,48668,1,0,3:0:0:0:
452,248,48737,1,0,3:0:0:0:
459,240,48807,2,0,L|515:228,1,50,12|0,3:1|3:0,3:0:0:0:
410,165,48947,1,0,3:0:0:0:
484,67,49086,5,4,3:1:0:0:
495,85,49156,1,0,3:0:0:0:
499,106,49226,1,0,3:0:0:0:
495,127,49295,1,0,3:0:0:0:
482,145,49365,1,4,3:1:0:0:
462,153,49435,1,0,3:0:0:0:
440,155,49505,1,0,3:0:0:0:
418,150,49574,1,0,3:0:0:0:
400,136,49644,1,4,3:1:0:0:
379,127,49714,1,0,3:0:0:0:
357,124,49784,1,0,3:0:0:0:
335,127,49854,1,0,3:0:0:0:
316,138,49923,5,12,3:1:0:0:
323,129,49993,1,0,3:0:0:0:
328,119,50063,1,0,3:0:0:0:
330,108,50133,1,0,3:0:0:0:
329,96,50202,1,4,3:1:0:0:
324,85,50272,1,0,3:0:0:0:
317,76,50342,1,0,3:0:0:0:
307,69,50412,1,0,3:0:0:0:
296,66,50481,2,0,P|274:88|254:122,1,50,12|0,3:1|3:0,3:0:0:0:
218,14,50621,1,8,3:0:0:0:
128,73,50761,5,4,3:1:0:0:
128,73,50830,1,0,3:0:0:0:
128,73,50900,2,0,L|62:61,1,50,0|0,3:0|3:0,3:0:0:0:
29,153,51040,1,4,3:1:0:0:
29,153,51109,1,0,3:0:0:0:
29,153,51179,2,0,L|95:141,1,50,0|0,3:0|3:0,3:0:0:0:
128,238,51319,1,4,3:1:0:0:
128,238,51388,1,0,3:0:0:0:
128,238,51458,2,0,L|62:226,1,50,0|0,3:0|3:0,3:0:0:0:
78,347,51598,5,12,3:1:0:0:
87,341,51668,1,0,3:0:0:0:
97,336,51737,1,0,3:0:0:0:
107,332,51807,1,0,3:0:0:0:
117,329,51877,2,0,P|145:357|163:378,1,50,12|0,3:1|3:0,3:0:0:0:
203,274,52016,1,8,3:0:0:0:
283,340,52156,2,0,P|255:368|237:389,3,50,12|0|0|0,3:1|3:0|3:0|3:0,3:0:0:0:
382,320,52435,5,12,3:1:0:0:
388,311,52505,1,0,3:0:0:0:
392,300,52574,1,0,3:0:0:0:
394,289,52644,1,0,3:0:0:0:
393,277,52714,1,4,3:1:0:0:
390,266,52784,1,0,3:0:0:0:
384,256,52854,1,0,3:0:0:0:
376,247,52923,1,0,3:0:0:0:
366,240,52993,1,4,3:1:0:0:
355,236,53063,1,0,3:0:0:0:
344,234,53133,1,0,3:0:0:0:
333,236,53202,1,0,3:0:0:0:
323,241,53272,2,0,P|310:267|303:312,3,50,12|0|0|0,3:1|3:0|3:0|3:0,3:0:0:0:
441,340,53551,6,0,P|451:318|464:297,1,37.5000000000001,4|0,3:2|3:0,3:0:0:0:
416,248,53691,2,0,P|432:269|442:290,1,37.5000000000001,4|0,3:2|3:0,3:0:0:0:
512,260,53830,2,0,P|484:274|468:288,3,37.5000000000001,4|0|0|0,3:2|3:0|3:0|3:0,3:0:0:0:
468,180,54109,5,4,3:1:0:0:
474,170,54179,1,0,3:0:0:0:
477,159,54249,1,0,3:0:0:0:
475,147,54319,1,0,3:0:0:0:
468,137,54388,1,4,3:1:0:0:
457,131,54458,1,0,3:0:0:0:
449,122,54528,1,0,3:0:0:0:
445,111,54598,1,0,3:0:0:0:
447,100,54668,1,4,3:1:0:0:
455,92,54737,1,0,3:0:0:0:
461,82,54807,1,0,3:0:0:0:
463,71,54877,1,0,3:0:0:0:
452,52,54947,5,12,3:1:0:0:
431,65,55016,1,0,3:0:0:0:
412,69,55086,1,0,3:0:0:0:
394,64,55156,1,0,3:0:0:0:
378,51,55226,2,0,P|384:25|392:5,3,37.5000000000001,4|0|0|0,3:1|3:0|3:0|3:0,3:0:0:0:
261,2,55505,2,0,P|276:29|286:50,1,37.5000000000001,12|0,3:1|3:0,3:0:0:0:
300,117,55644,1,8,3:0:0:0:
137,102,55784,5,4,3:1:0:0:
144,93,55854,1,0,3:0:0:0:
154,88,55923,1,0,3:0:0:0:
165,86,55993,1,0,3:0:0:0:
175,88,56063,1,4,3:1:0:0:
184,93,56133,1,0,3:0:0:0:
190,102,56202,1,0,3:0:0:0:
191,118,56272,1,0,3:0:0:0:
184,134,56342,1,4,3:1:0:0:
171,144,56412,1,0,3:0:0:0:
160,160,56481,1,0,3:0:0:0:
157,181,56551,1,0,3:0:0:0:
166,196,56621,5,12,3:1:0:0:
179,189,56691,1,0,3:0:0:0:
193,185,56761,1,0,3:0:0:0:
207,183,56830,1,0,3:0:0:0:
221,184,56900,2,0,P|242:189|273:204,3,37.5000000000001,4|0|0|0,3:1|3:0|3:0|3:0,3:0:0:0:
255,318,57179,2,0,P|241:298|229:273,1,37.5000000000001,12|0,3:1|3:0,3:0:0:0:
176,236,57319,1,8,3:0:0:0:
111,351,57458,5,4,3:1:0:0:
131,334,57528,1,0,3:0:0:0:
141,309,57598,1,0,3:0:0:0:
137,282,57668,1,0,3:0:0:0:
122,260,57737,1,4,3:1:0:0:
98,247,57807,1,0,3:0:0:0:
72,243,57877,1,0,3:0:0:0:
46,250,57947,1,0,3:0:0:0:
28,269,58016,1,4,3:1:0:0:
23,294,58086,1,0,3:0:0:0:
29,315,58156,1,0,3:0:0:0:
47,328,58226,1,0,3:0:0:0:
69,328,58295,6,0,P|65:302|58:286,3,37.5000000000001,12|0|0|0,3:1|3:0|3:0|3:0,3:0:0:0:
153,211,58574,2,0,P|131:238|116:256,1,37.5000000000001,12|0,3:1|3:0,3:0:0:0:
54,206,58714,1,8,3:0:0:0:
105,133,58854,2,0,P|96:104|85:85,3,37.5000000000001,12|0|0|0,3:1|3:0|3:0|3:0,3:0:0:0:
196,6,59133,5,12,3:1:0:0:
193,12,59202,1,0,3:0:0:0:
190,19,59272,1,0,3:0:0:0:
187,26,59342,1,0,3:0:0:0:
185,33,59412,1,4,3:1:0:0:
183,40,59481,1,0,3:0:0:0:
181,47,59551,1,0,3:0:0:0:
180,54,59621,1,0,3:0:0:0:
180,61,59691,1,4,3:1:0:0:
180,68,59761,1,0,3:0:0:0:
182,75,59830,1,0,3:0:0:0:
185,81,59900,1,0,3:0:0:0:
189,86,59970,1,4,3:0:0:0:
197,93,60040,1,4,3:0:0:0:
210,98,60109,1,4,3:0:0:0:
228,100,60179,1,4,3:0:0:0:
250,98,60249,1,4,3:0:0:0:
274,87,60319,1,4,3:0:0:0:
298,68,60388,1,4,3:0:0:0:
329,56,60458,1,4,3:0:0:0:
366,57,60528,1,4,3:0:0:0:
402,75,60598,1,4,3:0:0:0:
425,114,60668,1,4,3:0:0:0:
418,166,60737,1,4,3:0:0:0:
373,203,60807,5,4,3:0:0:0:
366,199,60877,1,0,3:0:0:0:
360,193,60947,1,0,3:0:0:0:
356,186,61016,1,0,3:0:0:0:
354,177,61086,2,0,P|365:150|374:135,7,37.5000000000001,4|0|0|0|0|0|0|0,3:0|3:0|3:0|3:0|3:0|3:0|3:0|3:0,3:0:0:0:
476,179,61644,5,12,3:0:0:0:
476,179,61714,1,0,3:0:0:0:
476,179,61784,2,0,L|489:227,1,37.5000000000001,0|0,3:0|3:0,3:0:0:0:
414,291,61923,1,8,3:0:0:0:
414,291,61993,1,0,3:0:0:0:
414,291,62063,2,0,L|427:243,1,37.5000000000001,0|0,3:0|3:0,3:0:0:0:
338,192,62202,2,0,L|346:236,1,37.5000000000001,12|0,3:0|3:0,3:0:0:0:
331,193,62342,2,0,L|339:237,1,37.5000000000001,0|0,3:0|3:0,3:0:0:0:
302,309,62481,5,8,3:0:0:0:
295,311,62551,1,0,3:0:0:0:
288,314,62621,1,0,3:0:0:0:
281,317,62691,1,0,3:0:0:0:
274,320,62761,1,4,3:0:0:0:
267,329,62830,1,0,3:0:0:0:
256,340,62900,1,0,3:0:0:0:
240,350,62970,1,0,3:0:0:0:
218,356,63040,1,0,3:0:0:0:
191,355,63109,1,0,3:0:0:0:
168,341,63179,1,0,3:0:0:0:
156,317,63249,1,0,3:0:0:0:
161,291,63319,6,0,P|178:270|196:257,3,37.5000000000001,4|0|0|0,3:0|3:0|3:0|3:0,3:0:0:0:
74,321,63598,2,0,P|57:300|39:287,3,37.5000000000001,8|0|0|0,3:0|3:0|3:0|3:0,3:0:0:0:
83,207,63877,2,0,P|96:219|108:234,1,37.5000000000001,12|0,3:0|3:0,3:0:0:0:
90,202,64016,2,0,P|103:214|115:229,1,37.5000000000001,0|0,3:0|3:0,3:0:0:0:
212,177,64156,5,8,3:0:0:0:
218,167,64226,1,0,3:0:0:0:
223,157,64295,1,0,3:0:0:0:
225,145,64365,1,0,3:0:0:0:
223,133,64435,1,4,3:0:0:0:
212,122,64505,1,0,3:0:0:0:
195,112,64574,1,0,3:0:0:0:
172,109,64644,1,0,3:0:0:0:
147,118,64714,1,0,3:0:0:0:
124,137,64784,1,0,3:0:0:0:
95,146,64854,1,0,3:0:0:0:
66,137,64923,1,0,3:0:0:0:
50,111,64993,6,0,P|50:87|56:62,3,37.5000000000001,4|0|0|0,3:0|3:0|3:0|3:0,3:0:0:0:
153,11,65272,2,0,P|145:29|133:58,1,37.5000000000001,8|0,3:0|3:0,3:0:0:0:
156,19,65412,2,0,P|148:37|136:66,1,37.5000000000001,0|0,3:0|3:0,3:0:0:0:
237,121,65551,1,12,3:0:0:0:
237,121,65621,1,0,3:0:0:0:
237,121,65691,2,0,P|228:89|225:82,1,37.5000000000001,0|0,3:0|3:0,3:0:0:0:
335,20,65830,1,8,3:0:0:0:
335,20,65900,1,0,3:0:0:0:
335,20,65970,2,0,P|329:37|325:56,1,37.5000000000001,0|0,3:0|3:0,3:0:0:0:
367,149,66109,5,4,3:0:0:0:
379,140,66179,1,0,3:0:0:0:
392,134,66249,1,0,3:0:0:0:
406,130,66319,1,0,3:0:0:0:
420,127,66388,1,0,3:0:0:0:
435,126,66458,1,0,3:0:0:0:
449,127,66528,1,0,3:0:0:0:
463,131,66598,1,0,3:0:0:0:
476,138,66668,2,0,L|486:85,3,37.5000000000001,4|0|0|0,3:0|3:0|3:0|3:0,3:0:0:0:
428,203,66947,6,0,P|436:227|443:249,1,37.5000000000001,4|0,3:2|3:0,3:0:0:0:
356,314,67086,2,0,P|361:296|367:278,1,37.5000000000001,4|0,3:2|3:0,3:0:0:0:
313,213,67226,2,0,P|305:189|298:167,3,37.5000000000001,4|0|0|0,3:2|3:0|3:0|3:0,3:0:0:0:
191,287,67505,5,4,3:0:0:0:
199,299,67574,1,0,3:0:0:0:
210,307,67644,1,0,3:0:0:0:
221,308,67714,1,0,3:0:0:0:
235,304,67784,1,2,3:0:0:0:
246,289,67854,1,0,3:0:0:0:
250,266,67923,1,0,3:0:0:0:
242,240,67993,1,0,3:0:0:0:
219,220,68063,1,0,3:0:0:0:
193,213,68133,1,0,3:0:0:0:
167,218,68202,1,0,3:0:0:0:
146,234,68272,1,0,3:0:0:0:
135,257,68342,5,10,3:0:0:0:
153,233,68412,1,0,3:0:0:0:
156,203,68481,1,0,3:0:0:0:
147,174,68551,1,0,3:0:0:0:
127,151,68621,1,0,3:0:0:0:
115,123,68691,1,0,3:0:0:0:
118,93,68761,1,0,3:0:0:0:
135,68,68830,1,0,3:0:0:0:
162,59,68900,2,0,P|182:75|197:85,1,37.5000000000001,2|0,3:0|3:0,3:0:0:0:
89,79,69040,2,0,P|69:63|54:53,1,37.5000000000001,0|0,3:0|3:0,3:0:0:0:
33,185,69179,5,0,3:0:0:0:
47,181,69249,1,0,3:0:0:0:
60,173,69319,1,0,3:0:0:0:
70,161,69388,1,0,3:0:0:0:
74,146,69458,1,2,3:0:0:0:
73,131,69528,1,0,3:0:0:0:
67,117,69598,5,0,3:0:0:0:
85,135,69668,1,0,3:0:0:0:
111,148,69737,1,0,3:0:0:0:
144,149,69807,1,0,3:0:0:0:
174,135,69877,1,0,3:0:0:0:
192,108,69947,1,0,3:0:0:0:
194,71,70016,5,10,3:0:0:0:
182,80,70086,1,0,3:0:0:0:
173,92,70156,1,0,3:0:0:0:
167,105,70226,1,0,3:0:0:0:
164,119,70295,1,0,3:0:0:0:
165,134,70365,1,0,3:0:0:0:
170,147,70435,1,0,3:0:0:0:
178,159,70505,1,0,3:0:0:0:
190,167,70574,2,0,P|223:155|229:150,1,37.5000000000001,2|0,3:0|3:0,3:0:0:0:
268,50,70714,2,0,P|253:81|252:89,1,37.5000000000001,0|0,3:0|3:0,3:0:0:0:
328,145,70854,5,0,3:0:0:0:
337,139,70923,1,0,3:0:0:0:
344,130,70993,1,0,3:0:0:0:
350,120,71063,1,0,3:0:0:0:
353,109,71133,1,2,3:0:0:0:
353,97,71202,1,0,3:0:0:0:
350,86,71272,5,0,3:0:0:0:
342,69,71342,1,0,3:0:0:0:
339,46,71412,1,0,3:0:0:0:
350,22,71481,1,0,3:0:0:0:
367,8,71551,1,0,3:0:0:0:
389,4,71621,1,0,3:0:0:0:
410,7,71691,6,0,P|428:22|437:34,3,37.5000000000001,10|0|0|0,3:0|3:0|3:0|3:0,3:0:0:0:
365,127,71970,2,0,P|377:108|396:86,1,37.5000000000001,4|0,3:2|3:0,3:0:0:0:
368,137,72109,2,0,P|380:118|399:96,1,37.5000000000001,4|0,3:2|3:0,3:0:0:0:
478,181,72249,2,0,P|457:170|441:162,3,37.5000000000001,4|0|0|0,3:2|3:0|3:0|3:0,3:0:0:0:
357,323,72528,5,8,3:0:0:0:
391,299,72598,1,8,2:0:0:0:
400,258,72668,1,8,2:0:0:0:
384,219,72737,1,8,2:0:0:0:
348,198,72807,5,8,3:0:0:0:
333,201,72877,1,8,2:3:0:0:
318,204,72947,1,8,2:3:0:0:
303,207,73016,1,8,2:3:0:0:
280,222,73086,2,0,L|271:266,3,37.5000000000001,8|8|8|8,3:0|2:3|2:3|2:3,3:0:0:0:
201,341,73365,5,8,3:0:0:0:
160,335,73435,1,8,2:0:0:0:
119,329,73505,1,8,2:0:0:0:
78,323,73574,1,8,2:0:0:0:
36,317,73644,2,0,L|26:369,3,37.5000000000001,8|8|8|8,3:0|2:3|2:3|2:3,3:0:0:0:
96,130,73923,5,8,2:0:0:0:
130,151,73993,1,8,2:0:0:0:
142,189,74063,1,8,2:0:0:0:
130,228,74133,1,8,2:0:0:0:
98,251,74203,5,0,2:0:0:0:
47,64,74342,1,8,2:0:0:0:
25,149,74482,1,0,3:0:0:0:
53,71,74621,1,0,3:0:0:0:
20,142,74761,1,0,3:0:0:0:
264,259,74900,6,0,B|255:149|255:149|249:145|249:145|242:36,1,225,10|0,3:0|3:0,3:0:0:0:
175,0,75319,1,2,3:2:0:0:
214,69,75458,1,0,3:0:0:0:
104,149,75598,5,8,3:0:0:0:
126,79,75737,1,0,3:0:0:0:
177,237,75877,5,2,3:1:0:0:
4,205,76016,1,0,3:0:0:0:
68,254,76156,1,0,3:0:0:0:
15,202,76296,1,0,3:0:0:0:
177,343,76435,5,12,3:0:0:0:
123,379,76505,1,0,3:0:0:0:
74,348,76575,1,0,3:0:0:0:
78,298,76644,1,0,3:0:0:0:
116,279,76714,1,0,3:0:0:0:
149,288,76784,1,0,3:0:0:0:
160,313,76854,1,10,3:0:0:0:
222,326,76923,1,0,3:0:0:0:
269,292,76993,1,0,3:0:0:0:
267,241,77063,1,0,3:0:0:0:
229,221,77133,1,0,3:0:0:0:
201,242,77203,1,0,3:0:0:0:
207,268,77272,5,10,3:0:0:0:
265,297,77342,1,0,3:0:0:0:
327,280,77412,1,0,3:0:0:0:
356,222,77482,1,0,3:0:0:0:
334,161,77551,2,0,P|301:174|275:218,3,50,10|0|0|0,3:0|3:0|3:0|3:0,3:0:0:0:
479,323,77830,6,0,L|419:314,1,50,2|0,3:0|3:0,3:0:0:0:
363,236,77970,2,0,L|423:227,1,50,8|0,3:0|3:0,3:0:0:0:
481,74,78109,5,2,3:0:0:0:
430,30,78179,1,0,3:0:0:0:
365,34,78249,1,0,3:0:0:0:
322,83,78319,1,0,3:0:0:0:
325,148,78389,5,8,2:0:0:0:
473,91,78528,1,8,2:0:0:0:
267,11,78668,5,8,2:0:0:0:
295,293,78807,1,8,2:0:0:0:
340,222,78947,1,0,3:0:0:0:
290,284,79086,1,0,3:0:0:0:
343,231,79226,1,0,3:0:0:0:
142,203,79365,6,0,B|182:150|182:150|141:308,1,225,10|0,3:0|3:0,3:0:0:0:
116,384,79784,1,2,3:2:0:0:
135,308,79923,1,0,3:0:0:0:
46,233,80063,5,8,3:0:0:0:
61,305,80202,1,0,3:0:0:0:
156,143,80342,5,2,3:1:0:0:
0,132,80482,1,8,3:0:0:0:
82,101,80621,1,0,3:0:0:0:
9,137,80761,1,0,3:0:0:0:
169,10,80900,5,12,3:0:0:0:
187,25,80970,1,0,3:0:0:0:
188,47,81040,1,0,3:0:0:0:
174,61,81109,1,0,3:0:0:0:
157,63,81179,1,0,3:0:0:0:
146,52,81249,1,0,3:0:0:0:
145,39,81319,5,10,3:0:0:0:
203,10,81389,1,0,3:0:0:0:
266,17,81458,1,0,3:0:0:0:
319,54,81528,1,0,3:0:0:0:
341,115,81598,1,0,3:0:0:0:
326,178,81668,1,0,3:0:0:0:
283,226,81737,1,10,3:0:0:0:
283,291,81807,1,0,3:0:0:0:
333,323,81877,1,0,3:0:0:0:
387,316,81947,1,0,3:0:0:0:
404,269,82016,6,0,L|340:259,1,50,10|0,3:0|3:0,3:0:0:0:
238,289,82156,2,0,L|287:296,1,50,0|0,3:0|3:0,3:0:0:0:
393,256,82296,2,0,L|329:246,1,50,2|0,3:0|3:0,3:0:0:0:
202,167,82435,6,0,L|212:231,1,50,8|0,3:0|3:0,3:0:0:0:
192,352,82575,1,2,3:0:0:0:
159,382,82644,1,0,3:0:0:0:
108,378,82714,1,0,3:0:0:0:
74,333,82784,1,0,3:0:0:0:
87,274,82854,5,8,2:0:0:0:
204,328,82993,1,8,2:0:0:0:
8,366,83133,5,8,2:0:0:0:
41,127,83272,1,8,2:0:0:0:
77,197,83412,1,0,3:0:0:0:
37,133,83551,1,0,3:0:0:0:
81,190,83691,1,0,3:0:0:0:
295,18,83830,6,0,B|248:-10|196:24|196:24|161:92|91:69,1,225,10|0,3:0|3:0,3:0:0:0:
48,14,84249,1,2,3:2:0:0:
124,0,84389,1,0,3:0:0:0:
140,147,84528,5,8,3:0:0:0:
93,76,84668,1,0,3:0:0:0:
252,85,84807,5,2,3:1:0:0:
221,258,84947,1,8,3:0:0:0:
209,180,85086,1,0,3:0:0:0:
349,232,85226,5,4,3:0:0:0:
161,317,85365,1,8,3:0:0:0:
188,370,85435,1,0,3:0:0:0:
246,382,85505,1,0,3:0:0:0:
296,348,85575,1,0,3:0:0:0:
305,289,85644,1,0,3:0:0:0:
276,235,85714,1,0,3:0:0:0:
218,217,85784,1,10,3:0:0:0:
189,163,85854,1,0,3:0:0:0:
207,116,85923,1,0,3:0:0:0:
244,103,85993,1,0,3:0:0:0:
269,118,86063,1,0,3:0:0:0:
270,138,86133,1,0,3:0:0:0:
263,145,86202,2,0,P|239:149|225:109,3,50,10|0|0|0,3:0|3:0|3:0|3:0,3:0:0:0:
366,45,86482,5,10,3:0:0:0:
416,76,86551,1,0,3:0:0:0:
437,132,86621,1,0,3:0:0:0:
420,189,86691,1,0,3:0:0:0:
365,214,86761,1,2,3:0:0:0:
322,189,86830,1,0,3:0:0:0:
316,149,86900,2,0,P|332:127|358:116,1,50,8|0,3:0|3:0,3:0:0:0:
512,196,87040,5,2,3:0:0:0:
496,253,87109,1,0,3:0:0:0:
442,279,87179,1,0,3:0:0:0:
383,266,87249,1,0,3:0:0:0:
353,213,87319,5,8,2:0:0:0:
509,186,87458,1,8,2:0:0:0:
379,368,87598,5,8,2:0:0:0:
387,118,87737,1,8,2:0:0:0:
428,193,87877,1,0,3:0:0:0:
378,124,88016,1,0,3:0:0:0:
432,185,88156,1,0,3:0:0:0:
197,160,88296,6,0,B|201:135|230:123|230:123|285:151|300:233|257:288,1,225,4|0,3:0|3:0,3:0:0:0:
197,314,88714,1,2,3:2:0:0:
172,239,88854,1,0,3:0:0:0:
280,296,88993,5,8,3:0:0:0:
262,369,89133,1,0,3:0:0:0:
254,192,89272,5,2,3:1:0:0:
415,260,89412,1,0,3:0:0:0:
330,79,89551,5,0,3:0:0:0:
346,187,89691,1,0,3:0:0:0:
504,48,89830,5,12,3:0:0:0:
460,32,89900,1,0,3:0:0:0:
422,45,89970,1,0,3:0:0:0:
398,72,90040,1,0,3:0:0:0:
402,102,90109,1,0,3:0:0:0:
423,113,90179,1,0,3:0:0:0:
441,107,90249,5,10,3:0:0:0:
419,50,90319,1,0,3:0:0:0:
364,30,90389,1,0,3:0:0:0:
312,48,90458,1,0,3:0:0:0:
286,94,90528,1,0,3:0:0:0:
294,143,90598,1,0,3:0:0:0:
330,177,90668,2,0,P|353:184|384:177,3,50,10|0|0|0,3:0|3:0|3:0|3:0,3:0:0:0:
484,142,90947,6,0,L|477:218,1,50,10|0,3:0|3:0,3:0:0:0:
432,304,91086,2,0,L|436:254,1,50,0|0,3:0|3:0,3:0:0:0:
474,143,91226,2,0,L|467:219,1,50,2|0,3:0|3:0,3:0:0:0:
512,365,91365,6,0,L|436:372,1,50,8|0,3:0|3:0,3:0:0:0:
257,294,91505,1,2,3:0:0:0:
272,246,91575,1,0,3:0:0:0:
318,230,91644,1,0,3:0:0:0:
359,257,91714,1,0,3:0:0:0:
358,307,91784,5,8,2:0:0:0:
303,331,91854,1,8,2:0:0:0:
251,302,91923,1,8,2:0:0:0:
226,247,91993,1,8,2:0:0:0:
245,189,92063,5,4,3:0:0:0:
269,171,92133,1,8,3:0:0:0:
279,143,92202,1,2,3:0:0:0:
273,113,92272,1,8,3:0:0:0:
251,92,92342,1,2,3:0:0:0:
229,70,92412,1,8,3:0:0:0:
222,40,92482,1,2,3:0:0:0:
236,14,92551,1,8,3:0:0:0:
265,9,92621,1,2,3:0:0:0:
291,23,92691,1,8,3:0:0:0:
320,30,92761,1,2,3:0:0:0:
349,24,92830,1,8,3:0:0:0:
371,3,92900,5,2,3:0:0:0:
336,23,92970,1,8,3:0:0:0:
317,58,93040,1,2,3:0:0:0:
321,97,93109,1,8,3:0:0:0:
348,125,93179,1,2,3:0:0:0:
387,133,93249,1,8,3:0:0:0:
410,165,93319,1,2,3:0:0:0:
403,204,93389,1,8,3:0:0:0:
367,222,93458,5,2,3:0:0:0:
330,195,93528,1,8,3:0:0:0:
341,151,93598,1,2,3:0:0:0:
383,135,93668,1,8,3:0:0:0:
425,147,93737,1,2,3:0:0:0:
445,186,93807,1,8,3:0:0:0:
438,230,93877,1,2,3:0:0:0:
404,263,93947,1,8,3:0:0:0:
358,270,94016,1,2,3:0:0:0:
316,254,94086,1,8,3:0:0:0:
270,263,94156,1,2,3:0:0:0:
239,296,94226,1,8,3:0:0:0:
236,343,94296,6,0,P|252:363|278:378,2,50,4|0|2,3:1|3:0|3:0,3:0:0:0:
170,270,94575,1,10,3:0:0:0:
98,357,94714,5,12,3:1:0:0:
110,348,94784,1,0,3:0:0:0:
124,327,94854,1,10,3:0:0:0:
127,292,94923,1,0,3:0:0:0:
114,253,94993,1,10,3:0:0:0:
76,227,95063,1,0,3:0:0:0:
27,220,95133,6,0,L|15:274,1,50,12|0,3:1|3:0,3:0:0:0:
119,138,95272,2,0,L|108:89,1,50,10|0,3:0|3:0,3:0:0:0:
190,237,95412,1,12,3:1:0:0:
239,229,95482,1,0,3:0:0:0:
287,222,95551,1,10,3:0:0:0:
336,215,95621,1,0,3:0:0:0:
385,208,95691,2,0,L|375:277,1,50,10|0,3:0|3:0,3:0:0:0:
485,88,95830,5,12,3:1:0:0:
460,72,95900,1,0,3:0:0:0:
436,78,95970,1,10,3:0:0:0:
415,100,96040,1,0,3:0:0:0:
413,129,96109,2,0,P|428:149|454:162,1,50,10|0,3:0|3:0,3:0:0:0:
470,305,96249,5,12,3:1:0:0:
487,290,96319,1,0,3:0:0:0:
491,268,96389,2,0,P|474:246|447:232,1,50,10|0,3:0|3:0,3:0:0:0:
319,302,96528,5,4,3:1:0:0:
313,310,96598,1,0,3:0:0:0:
308,318,96668,1,0,3:0:0:0:
304,327,96737,1,0,3:0:0:0:
301,336,96807,5,2,3:0:0:0:
329,346,96877,1,8,3:0:0:0:
362,335,96947,1,2,3:0:0:0:
387,298,97016,1,8,3:0:0:0:
382,248,97086,1,2,3:0:0:0:
344,214,97156,1,8,3:0:0:0:
293,210,97226,1,2,3:0:0:0:
249,234,97296,1,8,3:0:0:0:
199,236,97365,1,2,3:0:0:0:
155,211,97435,1,8,3:0:0:0:
135,164,97505,1,2,3:0:0:0:
155,118,97575,1,8,3:0:0:0:
200,99,97644,5,2,3:0:0:0:
216,128,97714,1,8,3:0:0:0:
203,150,97784,1,2,3:0:0:0:
171,145,97854,1,8,3:0:0:0:
169,118,97923,5,2,3:0:0:0:
211,91,97993,1,8,3:0:0:0:
261,91,98063,1,2,3:0:0:0:
298,123,98133,1,8,3:0:0:0:
319,167,98202,1,2,3:0:0:0:
362,191,98272,1,8,3:0:0:0:
412,191,98342,1,2,3:0:0:0:
452,161,98412,1,8,3:0:0:0:
458,111,98482,1,2,3:0:0:0:
438,65,98551,1,8,3:0:0:0:
394,40,98621,1,2,3:0:0:0:
344,45,98691,1,0,3:0:0:0:
309,81,98761,2,0,L|303:158,5,50,4|0|2|0|2|0,3:1|3:0|3:0|3:0|3:0|3:0,3:0:0:0:
247,194,99179,5,12,3:1:0:0:
203,160,99249,1,0,3:0:0:0:
147,155,99319,1,10,3:0:0:0:
97,179,99389,1,0,3:0:0:0:
72,227,99458,1,10,3:0:0:0:
73,282,99528,1,0,3:0:0:0:
102,328,99598,6,0,P|124:308|142:276,1,50,12|0,3:1|3:0,3:0:0:0:
243,218,99737,2,0,P|226:240|213:276,1,50,10|0,3:0|3:0,3:0:0:0:
287,366,99877,5,12,3:1:0:0:
351,359,99947,1,0,3:0:0:0:
387,306,100016,1,10,3:0:0:0:
375,241,100086,1,0,3:0:0:0:
326,197,100156,1,10,3:0:0:0:
318,132,100226,1,0,3:0:0:0:
366,88,100296,5,12,3:1:0:0:
366,142,100365,1,0,3:0:0:0:
327,181,100435,1,10,3:0:0:0:
272,189,100505,1,0,3:0:0:0:
227,156,100575,1,10,3:0:0:0:
205,106,100644,1,0,3:0:0:0:
162,70,100714,1,12,3:1:0:0:
108,81,100784,1,0,3:0:0:0:
79,128,100854,1,10,3:0:0:0:
93,180,100923,1,0,3:0:0:0:
142,204,100993,6,0,B|190:208|221:160|221:160|239:251|161:295|173:263|103:308|130:383|130:383|203:386|207:326,1,450.000000000001,4|0,3:0|3:0,3:0:0:0:
311,297,107691,5,8,2:0:0:0:
314,286,107761,1,8,2:0:0:0:
317,275,107830,1,8,2:0:0:0:
320,264,107900,1,8,2:0:0:0:
323,253,107970,1,8,2:0:0:0:
414,214,108109,1,8,2:0:0:0:
258,162,108249,1,8,2:0:0:0:
242,172,108528,5,8,2:0:0:0:
344,72,108668,1,8,2:0:0:0:
267,28,108807,1,0,3:0:0:0:
345,166,108947,5,8,2:3:0:0:
425,150,109086,1,8,2:3:0:0:
338,173,109226,1,0,3:0:0:0:
420,316,109365,5,8,2:0:0:0:
379,242,109505,1,8,2:3:0:0:
260,371,109644,1,8,3:0:0:0:
290,298,109784,2,0,L|337:291,1,37.5000000000001,4|0,2:0|3:0,3:0:0:0:
162,331,109923,6,0,P|116:311|67:311,2,53.3333333333333,0|0|0,3:0|2:0|2:0,2:0:0:0:
199,178,110202,2,0,L|211:286,1,80,8|0,2:0|3:0,2:0:0:0:
61,158,110482,2,0,L|73:50,1,80,8|2,2:0|2:0,2:0:0:0:
188,33,110761,1,2,2:0:0:0:
169,19,110900,1,8,2:0:0:0:
267,135,111040,2,0,P|301:106|354:96,1,80,2|8,2:0|2:0,2:0:0:0:
459,47,111319,2,0,P|421:34|391:8,1,80,2|2,3:2|2:0,2:0:0:0:
466,262,111598,5,8,2:0:0:0:
494,128,111737,1,2,2:0:0:0:
449,270,111877,1,2,2:0:0:0:
382,179,112016,1,8,2:0:0:0:
331,361,112156,2,0,P|375:355|388:314,1,80,2|8,3:2|2:0,2:0:0:0:
327,238,112435,2,0,B|289:234|289:234|254:248|254:248|197:243,1,120,2|0,2:3|2:0,2:0:0:0:
148,95,112714,6,0,P|171:145|181:178,1,80,8|2,2:0|2:0,2:0:0:0:
133,233,112993,1,2,2:0:0:0:
145,384,113133,2,0,L|166:299,1,80,8|2,2:0|2:0,2:0:0:0:
48,356,113412,2,0,L|69:271,1,80,8|2,2:0|3:2,2:0:0:0:
125,214,113691,1,2,2:0:0:0:
5,37,113830,5,8,2:0:0:0:
182,98,113970,1,2,2:0:0:0:
39,129,114109,1,2,2:0:0:0:
121,37,114249,1,8,2:0:0:0:
227,179,114389,5,0,3:0:0:0:
339,300,114528,1,8,2:0:0:0:
342,310,114598,1,0,2:0:0:0:
339,319,114668,2,0,B|301:286|252:297|252:297|268:308|282:321,1,120,2|0,2:3|2:0,2:0:0:0:
423,249,114947,6,0,P|382:255|359:294,1,80,8|2,2:0|2:0,2:0:0:0:
437,142,115226,1,2,2:0:0:0:
442,157,115365,1,8,2:0:0:0:
379,62,115505,2,0,L|274:92,1,80,2|8,2:0|2:0,2:0:0:0:
436,0,115784,2,0,L|541:30,1,80,2|2,3:2|2:0,2:0:0:0:
446,170,116063,5,8,2:0:0:0:
504,303,116202,1,2,2:0:0:0:
421,365,116342,2,0,P|365:338|329:335,1,80,2|8,2:0|2:0,2:0:0:0:
191,246,116621,5,2,3:2:0:0:
163,354,116761,1,8,2:0:0:0:
104,206,116900,2,0,L|121:301,1,80,2|0,2:3|2:0,2:0:0:0:
199,89,117179,2,0,L|182:184,1,80,8|2,2:0|2:0,2:0:0:0:
20,82,117458,1,2,2:0:0:0:
126,35,117598,1,8,2:0:0:0:
111,187,117737,5,2,2:0:0:0:
43,9,117877,1,8,2:0:0:0:
187,97,118016,5,2,3:2:0:0:
28,158,118156,1,2,2:0:0:0:
152,17,118296,5,8,2:0:0:0:
204,220,118435,1,2,2:0:0:0:
312,58,118575,1,2,2:0:0:0:
99,111,118714,1,8,2:0:0:0:
310,211,118854,6,0,P|354:188|393:186,2,80,0|8|8,3:0|3:0|3:0,3:0:0:0:
473,95,119272,2,0,P|463:109|451:154,1,50,0|8,3:0|3:0,3:0:0:0:
433,20,119551,2,0,P|382:90|371:139,1,100,8|8,3:0|3:0,3:0:0:0:
424,266,119830,2,0,P|392:214|362:185,1,80,8|0,3:0|3:0,3:0:0:0:
362,365,120109,1,8,3:0:0:0:
374,375,120249,1,8,3:0:0:0:
252,310,120389,2,0,P|278:293|309:288,1,50,0|8,3:0|3:0,3:0:0:0:
144,337,120668,2,0,P|179:266|223:229,1,100,8|8,3:0|3:0,3:0:0:0:
22,112,120947,6,0,B|-20:143|7:200|72:194|101:168|67:145|108:123|163:142,1,200,8|0,3:0|2:0,3:0:0:0:
247,34,121365,1,2,3:0:0:0:
211,28,121505,1,0,2:0:0:0:
304,148,121644,1,8,2:0:0:0:
286,157,121784,1,2,2:0:0:0:
373,10,121923,5,2,2:0:0:0:
431,130,122063,1,8,2:0:0:0:
331,215,122202,5,2,2:0:0:0:
404,286,122342,1,8,2:0:0:0:
304,375,122482,5,2,3:2:0:0:
327,384,122621,1,2,2:0:0:0:
245,238,122761,6,0,L|135:254,1,100,8|2,2:0|2:0,2:0:0:0:
19,346,123040,2,0,L|129:362,1,100,2|8,2:0|2:0,2:0:0:0:
93,146,123319,5,2,3:2:0:0:
67,232,123458,1,8,2:0:0:0:
4,168,123598,1,2,2:3:0:0:
108,51,123737,2,0,P|72:26|16:34,1,80,2|8,2:0|2:0,2:0:0:0:
204,75,124016,2,0,P|207:31|172:-13,1,80,2|2,2:0|2:0,2:0:0:0:
187,206,124296,6,0,B|251:207|229:165|297:170|297:170|270:188|279:217,1,150,8|0,2:0|2:0,2:0:0:0:
172,223,124575,2,0,P|142:173|170:133,1,100,8|2,2:0|2:0,2:0:0:0:
367,346,124854,2,0,P|314:314|238:339,1,100,2|8,2:0|2:0,2:0:0:0:
498,241,125133,2,0,P|445:273|369:248,1,100,2|2,2:0|2:0,2:0:0:0:
391,1,125412,2,0,B|419:33|419:33|381:189,1,200,8|8,2:0|2:0,2:0:0:0:
253,281,125830,5,2,3:0:0:0:
248,256,125970,1,0,2:0:0:0:
137,179,126109,5,8,2:0:0:0:
161,187,126249,1,2,2:0:0:0:
283,129,126389,5,2,2:0:0:0:
264,146,126528,1,8,2:0:0:0:
112,82,126668,5,2,2:0:0:0:
233,38,126807,1,8,2:0:0:0:
194,119,126947,1,2,3:2:0:0:
156,11,127086,1,8,2:0:0:0:
356,115,127226,5,8,2:0:0:0:
106,208,127365,1,8,2:0:0:0:
253,15,127505,1,8,2:0:0:0:
294,262,127644,1,8,2:0:0:0:
39,57,127784,5,6,3:0:0:0:
148,0,127923,1,8,3:0:0:0:
209,79,128063,1,8,3:0:0:0:
261,22,128202,1,0,3:0:0:0:
151,284,128342,5,10,3:2:0:0:
121,109,128482,1,8,3:0:0:0:
51,171,128621,2,0,P|110:203|161:194,1,110,8|8,3:0|3:0,3:0:0:0:
226,97,128900,5,2,3:2:0:0:
318,202,129040,1,8,3:0:0:0:
243,272,129179,1,8,3:0:0:0:
293,328,129319,1,0,3:0:0:0:
449,171,129458,5,10,3:2:0:0:
317,75,129598,1,8,3:0:0:0:
316,194,129737,1,8,3:0:0:0:
364,139,129877,1,8,3:0:0:0:
196,184,130016,5,2,3:2:0:0:
275,251,130156,1,8,3:0:0:0:
299,185,130296,1,8,3:0:0:0:
277,193,130435,1,0,3:0:0:0:
442,367,130575,5,10,3:2:0:0:
386,244,130714,1,8,3:0:0:0:
473,186,130854,2,0,P|464:235|391:253,1,110,8|8,3:0|3:0,3:0:0:0:
274,87,131133,6,0,B|294:71|315:90|310:97|348:142|427:95,1,130,2|8,3:2|3:0,3:0:0:0:
507,31,131412,1,8,3:0:0:0:
424,0,131551,1,0,3:0:0:0:
286,196,131691,5,10,3:2:0:0:
401,240,131830,1,8,3:0:0:0:
446,161,131970,1,8,3:0:0:0:
506,195,132109,1,8,3:0:0:0:
298,383,132249,6,0,P|321:351|302:259,1,110,6|8,3:0|3:0,3:0:0:0:
214,223,132528,1,8,3:0:0:0:
231,317,132668,1,0,3:0:0:0:
284,111,132807,5,10,3:2:0:0:
159,85,132947,1,8,3:0:0:0:
125,178,133086,2,0,P|156:147|162:92,1,100,8|0,3:0|3:0,3:0:0:0:
0,0,133365,5,2,3:2:0:0:
81,106,133505,1,8,3:0:0:0:
22,182,133644,1,8,3:0:0:0:
67,239,133784,1,0,3:0:0:0:
201,33,133923,5,10,3:2:0:0:
273,162,134063,1,8,3:0:0:0:
195,135,134202,1,8,3:0:0:0:
232,105,134342,1,8,3:0:0:0:
309,347,134482,5,2,3:2:0:0:
119,316,134621,1,8,3:0:0:0:
217,223,134761,1,8,3:0:0:0:
225,305,134900,1,0,3:0:0:0:
29,180,135040,5,10,3:2:0:0:
163,120,135179,1,8,3:0:0:0:
140,219,135319,1,8,3:0:0:0:
96,163,135458,1,0,3:0:0:0:
311,64,135598,5,10,3:2:0:0:
299,179,135737,1,8,3:0:0:0:
253,116,135877,1,8,3:0:0:0:
278,106,136016,1,0,3:0:0:0:
369,277,136156,5,10,3:2:0:0:
260,248,136296,1,8,3:0:0:0:
313,178,136435,1,8,3:0:0:0:
326,205,136575,1,8,3:0:0:0:
200,327,136714,6,0,L|83:314,1,100,6|8,3:0|3:0,3:0:0:0:
54,219,136993,2,0,L|171:232,1,100,8|0,3:0|3:0,3:0:0:0:
232,22,137272,5,10,3:2:0:0:
113,86,137412,1,8,3:0:0:0:
231,154,137551,2,0,B|317:105|411:156|341:193|448:231|539:190,1,300,8|8,3:0|3:0,3:0:0:0:
481,89,138109,1,8,3:0:0:0:
473,97,138249,1,0,3:0:0:0:
355,243,138389,5,10,3:2:0:0:
459,194,138528,1,8,3:0:0:0:
363,139,138668,1,8,3:0:0:0:
290,179,138807,1,8,3:0:0:0:
296,310,138947,5,2,3:2:0:0:
384,247,139086,1,8,3:0:0:0:
400,364,139226,1,8,3:0:0:0:
379,342,139365,1,0,3:0:0:0:
229,287,139505,6,0,L|218:398,1,100,10|8,3:2|3:0,3:0:0:0:
65,301,139784,2,0,P|108:288|151:335,1,100,8|8,3:0|3:0,3:0:0:0:
34,232,140063,2,0,P|93:214|221:305,1,200,2|8,3:2|3:0,3:0:0:0:
309,347,140482,2,0,B|286:361|279:378|279:378|293:283|398:286,1,200,0|8,3:0|3:0,3:0:0:0:
475,223,140900,2,0,P|424:250|390:313,1,100,8|8,3:0|3:0,3:0:0:0:
269,129,141179,5,6,3:0:0:0:
383,94,141319,1,8,3:0:0:0:
292,5,141458,1,8,3:0:0:0:
284,21,141598,1,0,3:0:0:0:
144,124,141737,2,0,L|263:136,1,100,10|8,3:2|3:0,3:0:0:0:
96,47,142016,2,0,P|60:70|76:140,1,100,8|8,3:0|3:0,3:0:0:0:
117,202,142296,5,2,3:2:0:0:
127,214,142435,1,8,3:0:0:0:
99,289,142575,1,8,3:0:0:0:
91,298,142714,1,0,3:0:0:0:
285,283,142854,5,10,3:2:0:0:
175,331,142993,1,8,3:0:0:0:
204,218,143133,1,8,3:0:0:0:
210,230,143272,1,8,3:0:0:0:
267,363,143412,6,0,B|331:355|331:355|339:357|339:357|477:342,1,200,2|8,3:2|3:0,3:0:0:0:
511,261,143830,1,0,3:0:0:0:
364,281,143970,2,0,L|350:154,1,100,10|8,3:2|3:0,3:0:0:0:
463,54,144249,2,0,L|452:153,1,100,8|0,3:0|3:0,3:0:0:0:
240,38,144528,5,2,3:2:0:0:
348,11,144668,1,8,3:0:0:0:
347,165,144807,1,8,3:0:0:0:
300,97,144947,1,0,3:0:0:0:
205,282,145086,5,8,3:2:0:0:
192,305,145644,5,4,3:0:0:0:
151,275,145714,1,8,3:0:0:0:
139,226,145784,1,0,3:0:0:0:
158,179,145854,1,8,3:0:0:0:
203,160,145923,1,2,3:0:0:0:
252,167,145993,1,8,3:0:0:0:
282,206,146063,1,0,3:0:0:0:
289,255,146133,1,8,3:0:0:0:
324,288,146202,1,2,3:0:0:0:
372,299,146272,1,8,3:0:0:0:
417,278,146342,1,0,3:0:0:0:
440,233,146412,1,8,3:0:0:0:
432,183,146482,5,2,3:0:0:0:
400,144,146551,1,8,3:0:0:0:
352,127,146621,1,0,3:0:0:0:
321,86,146691,1,8,3:0:0:0:
325,35,146761,1,2,3:0:0:0:
360,1,146830,1,8,3:0:0:0:
410,0,146900,1,0,3:0:0:0:
456,18,146970,1,8,3:0:0:0:
468,66,147040,1,2,3:0:0:0:
459,114,147109,1,8,3:0:0:0:
420,146,147179,1,0,3:0:0:0:
370,154,147249,1,8,3:0:0:0:
324,132,147319,1,2,3:0:0:0:
291,94,147389,1,8,3:0:0:0:
250,65,147458,1,0,3:0:0:0:
200,60,147528,1,8,3:0:0:0:
154,81,147598,1,2,3:0:0:0:
131,125,147668,1,8,3:0:0:0:
135,174,147737,1,0,3:0:0:0:
169,210,147807,1,8,3:0:0:0:
217,220,147877,5,2,3:0:0:0:
261,213,147947,1,8,3:0:0:0:
280,178,148016,1,0,3:0:0:0:
274,143,148086,1,8,3:0:0:0:
249,125,148156,1,2,3:0:0:0:
223,125,148226,1,8,3:0:0:0:
210,140,148296,1,0,3:0:0:0:
212,154,148365,1,8,3:0:0:0:
220,159,148435,1,2,3:0:0:0:
229,156,148505,1,8,3:0:0:0:
233,146,148575,1,0,3:0:0:0:
229,136,148644,1,8,3:0:0:0:
220,130,148714,5,2,3:0:0:0:
205,131,148784,1,8,3:0:0:0:
188,143,148854,1,0,3:0:0:0:
184,167,148923,1,8,3:0:0:0:
195,194,148993,1,2,3:0:0:0:
228,203,149063,1,8,3:0:0:0:
267,194,149133,1,0,3:0:0:0:
293,158,149202,1,8,3:0:0:0:
311,111,149272,1,2,3:0:0:0:
360,87,149342,1,8,3:0:0:0:
412,102,149412,1,0,3:0:0:0:
443,147,149482,1,8,3:0:0:0:
440,201,149551,1,2,3:0:0:0:
407,245,149621,1,8,3:0:0:0:
352,253,149691,1,0,3:0:0:0:
300,233,149761,1,8,3:0:0:0:
277,183,149830,1,2,3:0:0:0:
225,162,149900,1,8,3:0:0:0:
171,176,149970,1,0,3:0:0:0:
146,225,150040,1,8,3:0:0:0:
163,276,150109,5,2,3:0:0:0:
218,280,150179,1,8,3:0:0:0:
260,245,150249,1,0,3:0:0:0:
268,193,150319,1,8,3:0:0:0:
236,148,150389,1,2,3:0:0:0:
202,111,150458,1,8,3:0:0:0:
190,72,150528,1,0,3:0:0:0:
198,38,150598,1,8,3:0:0:0:
222,20,150668,1,2,3:0:0:0:
246,21,150737,1,8,3:0:0:0:
259,35,150807,1,0,3:0:0:0:
261,49,150877,1,8,3:0:0:0:
256,57,150947,5,2,3:0:0:0:
236,55,151016,1,8,3:0:0:0:
220,35,151086,1,0,3:0:0:0:
232,7,151156,1,8,3:0:0:0:
266,0,151226,1,2,3:0:0:0:
302,15,151296,1,8,3:0:0:0:
323,53,151365,1,0,3:0:0:0:
319,103,151435,1,8,3:0:0:0:
275,144,151505,1,2,3:0:0:0:
246,197,151575,1,8,3:0:0:0:
263,253,151644,1,0,3:0:0:0:
314,284,151714,1,8,3:0:0:0:
374,279,151784,6,0,P|407:257|420:230,7,50,2|8|0|8|2|8|0|8,3:0|3:0|3:0|3:0|3:0|3:0|3:0|3:0,3:0:0:0:
390,115,152342,5,8,3:0:0:0:
349,77,152412,1,8,2:0:0:0:
293,81,152482,1,8,2:0:0:0:
258,123,152551,1,8,2:0:0:0:
269,177,152621,5,8,3:0:0:0:
283,180,152691,1,8,2:3:0:0:
297,174,152761,1,8,2:3:0:0:
304,161,152830,1,8,2:3:0:0:
296,108,152900,5,4,3:2:0:0:
256,76,152970,1,0,3:0:0:0:
205,77,153040,2,0,P|175:112|172:148,1,50,0|0,3:0|3:0,3:0:0:0:
117,216,153179,5,4,3:2:0:0:
157,184,153249,1,0,3:0:0:0:
208,185,153319,2,0,P|238:220|241:256,1,50,0|0,3:0|3:0,3:0:0:0:
128,326,153458,5,8,3:0:0:0:
83,293,153528,1,8,2:3:0:0:
76,238,153598,1,8,2:3:0:0:
104,190,153668,1,8,2:3:0:0:
155,161,153737,5,8,3:0:0:0:
173,125,153807,1,8,2:3:0:0:
169,85,153877,1,8,2:3:0:0:
140,57,153947,1,8,2:3:0:0:
99,54,154016,5,4,3:1:0:0:
119,75,154086,1,0,3:0:0:0:
148,78,154156,1,0,3:0:0:0:
177,69,154226,1,0,3:0:0:0:
195,45,154296,5,4,3:1:0:0:
223,17,154365,1,0,3:0:0:0:
262,10,154435,1,0,3:0:0:0:
298,26,154505,1,0,3:0:0:0:
315,62,154575,6,0,B|306:70|306:70|244:59,1,60,4|0,3:0|3:0,3:0:0:0:
175,21,154854,2,0,B|179:101|179:101|183:103|183:103|187:183,1,165,4|0,3:0|3:0,3:0:0:0:
125,237,155133,5,8,3:0:0:0:
129,212,155202,1,0,3:0:0:0:
145,197,155272,1,0,3:0:0:0:
164,193,155342,1,0,3:0:0:0:
180,199,155412,5,2,3:0:0:0:
200,255,155482,1,0,3:0:0:0:
164,302,155551,1,0,3:0:0:0:
103,305,155621,1,0,3:0:0:0:
55,267,155691,1,2,3:0:0:0:
42,208,155761,1,0,3:0:0:0:
58,151,155830,1,0,3:0:0:0:
105,114,155900,1,0,3:0:0:0:
165,110,155970,1,2,3:0:0:0:
196,70,156040,1,0,3:0:0:0:
184,32,156109,1,0,3:0:0:0:
155,22,156179,1,0,3:0:0:0:
137,31,156249,2,0,P|127:60|138:87,3,50,10|0|0|0,3:0|3:0|3:0|3:0,3:0:0:0:
257,98,156528,5,2,3:0:0:0:
259,88,156598,1,0,3:0:0:0:
262,78,156668,2,0,L|209:70,1,50,0|0,3:0|3:0,3:0:0:0:
134,156,156807,1,2,3:0:0:0:
140,180,156877,1,0,3:0:0:0:
146,204,156947,2,0,L|224:186,1,50,0|0,3:0|3:0,3:0:0:0:
326,180,157086,1,2,3:0:0:0:
362,197,157156,1,0,3:0:0:0:
374,235,157226,2,0,L|351:303,1,50,0|0,3:0|3:0,3:0:0:0:
203,351,157365,5,10,3:0:0:0:
177,320,157435,1,0,3:0:0:0:
181,287,157505,1,0,3:0:0:0:
198,268,157575,1,0,3:0:0:0:
215,264,157644,5,2,3:0:0:0:
254,302,157714,1,0,3:0:0:0:
308,312,157784,1,0,3:0:0:0:
357,286,157854,1,0,3:0:0:0:
380,237,157923,1,2,3:0:0:0:
364,191,157993,1,0,3:0:0:0:
324,182,158063,1,0,3:0:0:0:
298,202,158133,1,0,3:0:0:0:
299,226,158202,5,2,3:0:0:0:
333,246,158272,1,0,3:0:0:0:
380,243,158342,1,0,3:0:0:0:
421,206,158412,1,0,3:0:0:0:
429,143,158482,2,0,P|414:115|392:97,3,50,10|0|0|0,3:0|3:0|3:0|3:0,3:0:0:0:
266,73,158761,5,4,3:0:0:0:
262,87,158830,1,0,3:0:0:0:
258,101,158900,2,0,L|324:90,1,50,0|0,3:0|3:0,3:0:0:0:
470,313,159040,5,4,3:0:0:0:
500,256,159109,1,0,3:0:0:0:
485,192,159179,1,0,3:0:0:0:
432,153,159249,1,0,3:0:0:0:
367,159,159319,1,2,3:0:0:0:
311,115,159389,1,0,3:0:0:0:
316,55,159458,1,0,3:0:0:0:
360,32,159528,1,0,3:0:0:0:
395,50,159598,2,0,P|389:75|362:97,3,50,10|0|0|0,3:0|3:0|3:0|3:0,3:0:0:0:
216,165,159877,5,2,3:0:0:0:
189,116,159947,1,0,3:0:0:0:
190,61,160016,1,0,3:0:0:0:
222,16,160086,1,0,3:0:0:0:
274,0,160156,1,2,3:0:0:0:
328,9,160226,1,0,3:0:0:0:
365,49,160296,1,0,3:0:0:0:
375,102,160365,1,0,3:0:0:0:
359,154,160435,1,2,3:0:0:0:
380,196,160505,1,0,3:0:0:0:
417,209,160575,1,0,3:0:0:0:
446,196,160644,1,0,3:0:0:0:
456,173,160714,2,0,P|441:155|415:153,3,50,10|0|0|0,3:0|3:0|3:0|3:0,3:0:0:0:
398,338,160993,5,2,3:0:0:0:
408,307,161063,1,0,3:0:0:0:
434,294,161133,1,0,3:0:0:0:
457,297,161202,1,0,3:0:0:0:
474,309,161272,5,2,3:0:0:0:
436,276,161342,1,0,3:0:0:0:
386,270,161412,1,0,3:0:0:0:
341,293,161482,1,0,3:0:0:0:
313,334,161551,1,2,3:0:0:0:
265,349,161621,1,0,3:0:0:0:
217,332,161691,1,0,3:0:0:0:
199,285,161761,1,0,3:0:0:0:
223,241,161830,2,0,P|254:231|277:235,3,50,10|0|0|0,3:0|3:0|3:0|3:0,3:0:0:0:
309,350,162109,5,2,3:0:0:0:
291,360,162179,1,0,3:0:0:0:
271,363,162249,2,0,P|241:358|217:341,1,50,0|0,3:0|3:0,3:0:0:0:
72,172,162389,6,0,L|136:162,3,50,4|0|0|0,3:0|3:0|3:0|3:0,3:0:0:0:
170,85,162668,1,8,3:0:0:0:
190,118,162737,1,8,2:3:0:0:
227,132,162807,1,8,2:3:0:0:
266,125,162877,1,8,2:3:0:0:
308,70,162947,5,8,3:0:0:0:
372,57,163016,1,8,2:3:0:0:
423,82,163086,1,8,2:3:0:0:
448,125,163156,1,8,2:3:0:0:
441,167,163226,1,8,3:0:0:0:
412,185,163296,1,8,2:3:0:0:
384,182,163365,1,8,2:3:0:0:
368,169,163435,1,8,2:3:0:0:
366,156,163505,6,0,P|384:135|410:125,3,50,4|0|0|0,3:0|3:0|3:0|3:0,3:0:0:0:
505,242,163784,5,2,3:0:0:0:
465,293,163854,1,8,3:0:0:0:
402,307,163923,1,0,3:0:0:0:
341,282,163993,1,8,3:0:0:0:
302,229,164063,1,2,3:0:0:0:
245,196,164133,1,8,3:0:0:0:
180,202,164202,1,0,3:0:0:0:
135,249,164272,1,8,3:0:0:0:
136,314,164342,5,2,3:0:0:0:
184,278,164412,1,8,3:0:0:0:
190,223,164482,1,0,3:0:0:0:
166,179,164551,1,8,3:0:0:0:
129,151,164621,1,2,3:0:0:0:
119,111,164691,1,8,3:0:0:0:
131,78,164761,1,0,3:0:0:0:
151,64,164830,1,8,3:0:0:0:
171,63,164900,5,2,3:0:0:0:
200,115,164970,1,8,3:0:0:0:
251,135,165040,1,0,3:0:0:0:
298,119,165109,1,8,3:0:0:0:
325,83,165179,1,2,3:0:0:0:
321,43,165249,1,8,3:0:0:0:
302,19,165319,1,0,3:0:0:0:
282,12,165389,1,8,3:0:0:0:
267,14,165458,5,2,3:0:0:0:
233,63,165528,1,8,3:0:0:0:
236,123,165598,1,0,3:0:0:0:
275,161,165668,1,8,3:0:0:0:
327,167,165737,1,2,3:0:0:0:
379,149,165807,1,8,3:0:0:0:
433,156,165877,1,0,3:0:0:0:
471,195,165947,1,8,3:0:0:0:
475,249,166016,1,2,3:0:0:0:
451,287,166086,1,8,3:0:0:0:
416,294,166156,1,0,3:0:0:0:
392,284,166226,1,8,3:0:0:0:
382,266,166296,1,2,3:0:0:0:
382,251,166365,1,8,3:0:0:0:
387,242,166435,1,0,3:0:0:0:
391,239,166505,1,8,3:0:0:0:
395,238,166575,1,2,3:0:0:0:
399,240,166644,1,8,3:0:0:0:
402,243,166714,1,0,3:0:0:0:
404,247,166784,1,8,3:0:0:0:
404,253,166854,6,0,P|375:271|347:280,3,50,2|8|0|8,3:0|3:0|3:0|3:0,3:0:0:0:
244,204,167133,2,0,P|266:216|289:224,3,50,2|8|0|8,3:0|3:0|3:0|3:0,3:0:0:0:
262,335,167412,2,0,P|239:347|216:355,3,50,2|8|0|8,3:0|3:0|3:0|3:0,3:0:0:0:
121,344,167691,5,2,3:0:0:0:
152,318,167761,1,8,3:0:0:0:
162,285,167830,1,0,3:0:0:0:
154,255,167900,1,8,3:0:0:0:
136,236,167970,1,2,3:0:0:0:
116,229,168040,1,8,3:0:0:0:
101,232,168109,1,0,3:0:0:0:
93,238,168179,1,8,3:0:0:0:
88,247,168249,5,2,3:0:0:0:
105,265,168319,1,8,3:0:0:0:
131,279,168389,1,0,3:0:0:0:
165,282,168458,1,8,3:0:0:0:
201,265,168528,1,2,3:0:0:0:
223,225,168598,1,8,3:0:0:0:
216,175,168668,1,0,3:0:0:0:
181,139,168737,1,8,3:0:0:0:
131,129,168807,5,2,3:0:0:0:
155,178,168877,1,8,3:0:0:0:
205,200,168947,1,0,3:0:0:0:
259,193,169016,1,8,3:0:0:0:
294,151,169086,1,2,3:0:0:0:
321,103,169156,1,8,3:0:0:0:
371,80,169226,1,0,3:0:0:0:
425,85,169296,1,8,3:0:0:0:
458,127,169365,1,2,3:0:0:0:
456,182,169435,1,8,3:0:0:0:
420,224,169505,1,0,3:0:0:0:
372,240,169575,1,8,3:0:0:0:
352,280,169644,1,2,3:0:0:0:
355,319,169714,1,8,3:0:0:0:
381,342,169784,1,0,3:0:0:0:
410,347,169854,1,8,3:0:0:0:
432,337,169923,1,2,3:0:0:0:
441,319,169993,1,8,3:0:0:0:
441,303,170063,1,0,3:0:0:0:
433,289,170133,1,8,3:0:0:0:
424,283,170202,5,8,3:0:0:0:
373,259,170272,1,8,2:3:0:0:
318,264,170342,1,8,2:3:0:0:
277,301,170412,1,8,2:3:0:0:
277,356,170482,5,8,3:0:0:0:
295,348,170551,1,8,2:3:0:0:
307,332,170621,1,8,2:3:0:0:
312,312,170691,1,8,2:3:0:0:
307,292,170761,5,4,3:2:0:0:
271,298,170830,1,0,3:0:0:0:
241,301,170900,1,0,3:0:0:0:
208,303,170970,1,0,3:0:0:0:
197,278,171040,5,4,3:2:0:0:
233,272,171109,1,0,3:0:0:0:
263,269,171179,1,0,3:0:0:0:
296,267,171249,1,0,3:0:0:0:
317,257,171319,5,8,3:0:0:0:
296,228,171389,1,8,2:3:0:0:
288,194,171458,1,8,2:3:0:0:
299,160,171528,1,8,2:3:0:0:
331,134,171598,5,8,3:0:0:0:
341,114,171668,1,8,2:3:0:0:
338,93,171737,1,8,2:3:0:0:
325,77,171807,1,8,2:3:0:0:
297,62,171877,5,4,3:1:0:0:
284,78,171947,1,0,3:0:0:0:
269,93,172016,1,0,3:0:0:0:
241,105,172086,1,0,3:0:0:0:
206,102,172156,1,4,3:1:0:0:
172,69,172226,1,0,3:0:0:0:
126,46,172296,1,0,3:0:0:0:
68,48,172365,1,0,3:0:0:0:
26,86,172435,6,0,B|42:124|42:124|36:152,1,60,4|0,3:0|3:0,3:0:0:0:
6,244,172714,6,0,P|44:198|134:200,1,150,4|0,3:0|3:0,3:0:0:0:
166,276,172993,1,8,3:0:0:0:
166,276,173063,1,0,3:0:0:0:
166,276,173133,2,0,L|175:343,1,50,0|0,3:0|3:0,3:0:0:0:
293,374,173272,5,2,3:0:0:0:
343,377,173342,1,0,3:0:0:0:
387,353,173412,1,0,3:0:0:0:
394,303,173482,1,0,3:0:0:0:
380,255,173551,1,2,3:0:0:0:
337,228,173621,1,0,3:0:0:0:
301,192,173691,1,0,3:0:0:0:
288,143,173761,1,0,3:0:0:0:
316,102,173830,1,2,3:0:0:0:
360,97,173900,1,0,3:0:0:0:
390,123,173970,1,0,3:0:0:0:
392,158,174040,1,0,3:0:0:0:
368,176,174109,1,10,3:0:0:0:
343,170,174179,1,0,3:0:0:0:
331,153,174249,1,0,3:0:0:0:
333,138,174319,1,0,3:0:0:0:
350,120,174389,6,0,L|425:108,1,50,4|0,3:2|3:0,3:0:0:0:
485,32,174528,2,0,L|410:20,1,50,4|0,3:2|3:0,3:0:0:0:
477,174,174668,1,4,3:2:0:0:
486,171,174737,1,0,3:0:0:0:
495,168,174807,2,0,P|486:133|485:108,1,50,0|0,3:0|3:0,3:0:0:0:
409,307,174947,5,4,3:1:0:0:
385,283,175016,1,0,3:0:0:0:
352,271,175086,1,0,3:0:0:0:
317,274,175156,1,0,3:0:0:0:
290,294,175226,1,8,3:0:0:0:
266,318,175296,1,0,3:0:0:0:
233,326,175365,1,0,3:0:0:0:
198,323,175435,1,0,3:0:0:0:
171,302,175505,5,4,3:1:0:0:
212,284,175575,1,0,3:0:0:0:
232,244,175644,1,0,3:0:0:0:
224,199,175714,1,0,3:0:0:0:
190,168,175784,1,2,3:0:0:0:
155,173,175854,1,0,3:0:0:0:
135,195,175923,1,0,3:0:0:0:
139,219,175993,1,0,3:0:0:0:
156,228,176063,5,4,3:1:0:0:
191,225,176133,1,0,3:0:0:0:
216,194,176202,1,0,3:0:0:0:
207,149,176272,1,0,3:0:0:0:
164,121,176342,1,8,3:0:0:0:
110,134,176412,1,0,3:0:0:0:
80,180,176482,1,0,3:0:0:0:
89,233,176551,1,0,3:0:0:0:
134,264,176621,5,4,3:1:0:0:
172,224,176691,1,0,3:0:0:0:
227,223,176761,1,0,3:0:0:0:
269,256,176830,1,0,3:0:0:0:
308,294,176900,1,6,3:0:0:0:
363,297,176970,1,0,3:0:0:0:
408,265,177040,1,0,3:0:0:0:
420,212,177109,1,0,3:0:0:0:
395,162,177179,1,2,3:0:0:0:
353,134,177249,1,0,3:0:0:0:
323,100,177319,1,0,3:0:0:0:
324,59,177389,1,0,3:0:0:0:
346,32,177458,1,10,3:0:0:0:
376,30,177528,1,0,3:0:0:0:
397,43,177598,1,0,3:0:0:0:
400,62,177668,1,0,3:0:0:0:
387,85,177737,5,2,3:0:0:0:
377,96,177807,1,0,3:0:0:0:
369,109,177877,1,0,3:0:0:0:
363,122,177947,1,0,3:0:0:0:
359,136,178016,1,2,3:0:0:0:
358,151,178086,1,0,3:0:0:0:
359,166,178156,1,0,3:0:0:0:
362,180,178226,1,0,3:0:0:0:
367,194,178296,1,2,3:0:0:0:
374,207,178365,1,0,3:0:0:0:
383,218,178435,1,0,3:0:0:0:
394,227,178505,1,0,3:0:0:0:
421,236,178575,6,0,P|461:225|501:225,7,50,10|0|0|0|2|0|0|0,3:0|3:0|3:0|3:0|3:0|3:0|3:0|3:0,3:0:0:0:
380,325,179133,1,2,3:0:0:0:
364,312,179202,1,0,3:0:0:0:
345,305,179272,1,0,3:0:0:0:
325,301,179342,1,0,3:0:0:0:
305,304,179412,1,2,3:0:0:0:
286,311,179482,1,0,3:0:0:0:
271,324,179551,1,0,3:0:0:0:
259,340,179621,1,0,3:0:0:0:
252,359,179691,5,10,3:0:0:0:
242,325,179761,1,0,3:0:0:0:
217,294,179830,1,0,3:0:0:0:
173,283,179900,1,0,3:0:0:0:
124,296,179970,1,0,3:0:0:0:
75,306,180040,1,0,3:0:0:0:
29,286,180109,1,0,3:0:0:0:
1,244,180179,1,0,3:0:0:0:
10,188,180249,5,4,3:0:0:0:
43,143,180319,1,0,3:0:0:0:
97,132,180389,1,0,3:0:0:0:
148,150,180458,1,0,3:0:0:0:
173,203,180528,5,8,3:0:0:0:
210,217,180598,1,8,2:3:0:0:
248,206,180668,1,8,2:3:0:0:
272,174,180737,1,8,2:3:0:0:
315,175,180807,5,8,3:0:0:0:
322,145,180877,1,8,2:3:0:0:
310,117,180947,1,8,2:3:0:0:
284,101,181016,1,8,2:3:0:0:
267,77,181086,5,8,3:0:0:0:
246,72,181156,1,8,2:3:0:0:
227,79,181226,1,8,2:3:0:0:
214,94,181296,1,8,2:3:0:0:
219,130,181365,6,0,B|336:120|336:120|339:122|339:122|467:111,1,250,6|0,3:0|3:0,3:0:0:0:
502,46,181783,1,4,3:1:0:0:
504,38,181853,1,0,3:0:0:0:
499,22,181923,1,0,3:0:0:0:
481,13,181992,1,0,3:0:0:0:
452,23,182062,1,0,3:0:0:0:
442,68,182132,1,0,3:0:0:0:
476,112,182202,2,0,B|501:136|501:136|483:228|483:228|464:241|464:241|443:337,1,250,4|0,3:1|3:0,3:0:0:0:
506,379,182620,5,12,3:1:0:0:
469,244,182760,1,0,3:0:0:0:
336,363,182899,1,0,3:0:0:0:
223,187,183039,2,0,B|281:178|301:239|301:239|273:302|185:312|134:241,1,275,4|0,3:1|3:0,3:0:0:0:
127,196,183458,5,12,3:1:0:0:
131,197,183527,1,0,3:0:0:0:
136,200,183597,1,0,3:0:0:0:
140,207,183667,1,0,3:0:0:0:
141,217,183737,1,0,3:0:0:0:
137,229,183806,1,0,3:0:0:0:
123,235,183876,1,4,3:1:0:0:
105,233,183946,1,0,3:0:0:0:
94,216,184016,1,0,3:0:0:0:
99,196,184085,1,0,3:0:0:0:
119,186,184155,1,0,3:0:0:0:
142,194,184225,1,0,3:0:0:0:
151,219,184295,5,12,3:1:0:0:
41,301,184434,1,0,3:0:0:0:
187,384,184574,1,0,3:0:0:0:
239,74,184713,2,0,B|191:52|155:90|155:90|142:88|142:88|113:125|59:138|-3:99,1,225,4|0,3:0|3:0,3:0:0:0:
0,51,185132,5,2,3:0:0:0:
14,55,185202,1,8,3:0:0:0:
24,65,185271,1,0,3:0:0:0:
31,78,185341,1,8,3:0:0:0:
32,92,185411,1,0,3:0:0:0:
29,106,185481,1,8,3:0:0:0:
21,118,185551,5,2,3:0:0:0:
77,87,185620,1,8,3:0:0:0:
139,90,185690,1,0,3:0:0:0:
188,124,185760,1,8,3:0:0:0:
206,178,185830,1,0,3:0:0:0:
193,230,185899,1,8,3:0:0:0:
213,281,185969,1,2,3:0:0:0:
258,302,186039,1,8,3:0:0:0:
301,288,186109,1,0,3:0:0:0:
314,250,186178,1,8,3:0:0:0:
293,221,186248,1,0,3:0:0:0:
263,224,186318,1,8,3:0:0:0:
254,247,186388,5,2,3:0:0:0:
277,285,186458,1,8,3:0:0:0:
321,286,186527,1,0,3:0:0:0:
356,257,186597,1,8,3:0:0:0:
358,211,186667,1,0,3:0:0:0:
398,166,186737,1,8,3:0:0:0:
454,159,186806,1,2,3:0:0:0:
500,188,186876,1,8,3:0:0:0:
506,240,186946,1,0,3:0:0:0:
467,271,187016,1,8,3:0:0:0:
422,256,187085,1,0,3:0:0:0:
413,211,187155,1,8,3:0:0:0:
444,182,187225,2,0,P|473:185|491:204,3,50,4|8|0|8,3:0|3:0|3:0|3:0,3:0:0:0:
387,345,187504,5,0,3:0:0:0:
373,337,187574,1,8,3:0:0:0:
359,310,187644,1,2,3:0:0:0:
361,265,187713,1,8,3:0:0:0:
406,225,187783,1,0,3:0:0:0:
404,164,187853,1,8,3:0:0:0:
360,139,187923,1,0,3:0:0:0:
323,153,187992,1,8,3:0:0:0:
316,182,188062,5,2,3:0:0:0:
328,190,188132,1,8,3:0:0:0:
342,194,188202,1,0,3:0:0:0:
356,192,188271,1,8,3:0:0:0:
370,186,188341,1,0,3:0:0:0:
379,174,188411,1,8,3:0:0:0:
383,159,188481,1,2,3:0:0:0:
381,143,188551,1,8,3:0:0:0:
372,131,188620,2,0,P|350:129|324:150,3,50,0|8|0|8,3:0|3:0|3:0|3:0,3:0:0:0:
222,61,188899,5,2,3:0:0:0:
224,71,188969,1,8,3:0:0:0:
226,81,189039,2,0,L|288:89,1,50,0|8,3:0|3:0,3:0:0:0:
403,56,189178,5,0,3:0:0:0:
399,41,189248,1,8,3:0:0:0:
395,26,189318,2,0,L|327:16,1,50,2|8,3:0|3:0,3:0:0:0:
156,21,189458,5,0,3:0:0:0:
129,43,189527,1,8,3:0:0:0:
116,75,189597,1,0,3:0:0:0:
116,110,189667,1,8,3:0:0:0:
130,142,189737,6,0,L|184:135,1,50,4|0,3:1|3:0,3:0:0:0:
429,247,189876,1,8,3:0:0:0:
447,189,189946,1,0,3:0:0:0:
419,135,190016,1,0,3:0:0:0:
360,122,190085,1,0,3:0:0:0:
313,160,190155,1,12,3:1:0:0:
258,151,190225,1,0,3:0:0:0:
231,108,190295,1,0,3:0:0:0:
246,65,190364,1,0,3:0:0:0:
285,59,190434,1,8,3:0:0:0:
301,89,190504,1,0,3:0:0:0:
288,116,190574,1,4,3:1:0:0:
263,119,190644,1,0,3:0:0:0:
247,107,190713,6,0,P|263:93|297:88,1,50,8|0,3:0|3:0,3:0:0:0:
426,143,190853,2,0,P|396:137|362:140,1,50,0|0,3:0|3:0,3:0:0:0:
216,193,190992,2,0,P|247:186|285:186,1,50,12|0,3:1|3:0,3:0:0:0:
442,232,191132,2,0,P|406:220|381:224,1,50,0|0,3:0|3:0,3:0:0:0:
227,46,191271,2,0,L|234:102,1,50,8|0,3:0|3:0,3:0:0:0:
251,296,191411,6,0,B|212:332|212:332|106:309|106:309|56:340,1,200,4|0,3:0|3:0,3:0:0:0:
35,201,191830,1,12,3:1:0:0:
37,219,191899,1,0,3:2:0:0:
57,232,191969,1,0,3:2:0:0:
85,223,192039,1,0,3:2:0:0:
103,193,192109,1,0,3:2:0:0:
90,154,192178,1,0,3:2:0:0:
51,139,192248,6,0,B|101:206|186:167|140:143|238:119|294:152,1,250,4|0,3:1|3:0,3:0:0:0:
294,160,192667,1,12,3:1:0:0:
208,55,192806,1,0,3:0:0:0:
391,91,192946,1,0,3:0:0:0:
275,235,193085,6,0,B|340:253|383:179|383:179|473:204|444:302,1,250,4|0,3:1|3:0,3:0:0:0:
395,343,193504,1,12,3:1:0:0:
381,338,193574,1,0,3:0:0:0:
381,323,193644,1,0,3:0:0:0:
395,314,193713,1,0,3:0:0:0:
406,325,193783,1,0,3:0:0:0:
408,343,193853,1,0,3:0:0:0:
393,352,193923,5,4,3:0:0:0:
368,368,193992,1,0,3:0:0:0:
332,371,194062,1,0,3:0:0:0:
306,349,194132,1,0,3:0:0:0:
274,325,194202,1,0,3:0:0:0:
232,326,194271,1,0,3:0:0:0:
203,356,194341,5,12,3:1:0:0:
291,230,194481,1,0,3:0:0:0:
129,335,194620,1,0,3:0:0:0:
157,171,194760,6,0,B|245:160|245:160|254:163|254:163|425:141,1,250,4|0,3:0|3:0,3:0:0:0:
446,43,195178,1,2,3:0:0:0:
437,47,195248,1,8,3:0:0:0:
429,53,195318,1,2,3:0:0:0:
423,61,195388,1,8,3:0:0:0:
418,70,195458,1,2,3:0:0:0:
415,79,195527,1,8,3:0:0:0:
415,89,195597,5,2,3:0:0:0:
438,121,195667,1,8,3:0:0:0:
471,150,195737,1,2,3:0:0:0:
481,198,195806,1,8,3:0:0:0:
466,246,195876,1,2,3:0:0:0:
421,268,195946,1,8,3:0:0:0:
371,258,196016,1,2,3:0:0:0:
329,273,196085,1,8,3:0:0:0:
311,309,196155,1,2,3:0:0:0:
319,343,196225,1,8,3:0:0:0:
341,354,196295,5,2,3:0:0:0:
331,310,196364,1,8,3:0:0:0:
294,283,196434,1,2,3:0:0:0:
249,276,196504,1,8,3:0:0:0:
209,297,196574,1,2,3:0:0:0:
190,332,196644,1,8,3:0:0:0:
195,371,196713,5,2,3:0:0:0:
229,341,196783,1,8,3:0:0:0:
240,297,196853,1,2,3:0:0:0:
224,254,196923,1,8,3:0:0:0:
188,227,196992,1,2,3:0:0:0:
144,216,197062,1,8,3:0:0:0:
109,186,197132,1,2,3:0:0:0:
99,141,197202,1,8,3:0:0:0:
115,99,197271,5,4,3:1:0:0:
124,102,197341,1,0,3:0:0:0:
131,108,197411,1,0,3:0:0:0:
141,125,197481,1,0,3:0:0:0:
142,150,197551,1,0,3:0:0:0:
134,178,197620,1,0,3:0:0:0:
108,202,197690,1,12,3:1:0:0:
91,244,197760,1,0,3:0:0:0:
104,292,197830,1,0,3:0:0:0:
144,320,197899,1,0,3:0:0:0:
193,324,197969,2,0,P|218:318|241:300,1,50,0|0,3:0|3:0,3:0:0:0:
252,83,198109,5,4,3:1:0:0:
214,100,198178,1,8,3:0:0:0:
192,128,198248,2,8,P|184:152|188:204,1,50,0|8,3:0|3:0,3:0:0:0:
332,267,198388,1,0,3:0:0:0:
385,253,198458,1,8,3:0:0:0:
414,207,198527,1,2,3:0:0:0:
408,157,198597,1,8,3:0:0:0:
374,126,198667,1,2,3:0:0:0:
360,88,198737,1,8,3:0:0:0:
374,56,198806,1,2,3:0:0:0:
402,46,198876,1,8,3:0:0:0:
421,52,198946,1,2,3:0:0:0:
415,66,199016,1,8,3:0:0:0:
402,74,199085,1,2,3:0:0:0:
387,75,199155,1,8,3:0:0:0:
373,67,199225,1,2,3:0:0:0:
364,54,199295,1,8,3:0:0:0:
365,39,199364,1,2,3:0:0:0:
373,26,199434,1,8,3:0:0:0:
385,17,199504,2,0,P|418:28|441:47,3,50,2|8|2|8,3:0|3:0|3:0|3:0,3:0:0:0:
370,160,199783,6,0,P|362:132|361:108,1,50,4|0,3:1|3:0,3:0:0:0:
494,215,199923,1,8,3:0:0:0:
494,215,199992,1,0,3:0:0:0:
494,215,200062,2,0,L|506:288,1,50,0|0,3:0|3:0,3:0:0:0:
383,323,200202,1,12,3:1:0:0:
383,323,200271,1,0,3:0:0:0:
383,323,200341,2,0,L|395:250,1,50,0|0,3:0|3:0,3:0:0:0:
301,201,200481,2,0,L|309:259,1,50,8|0,3:0|3:0,3:0:0:0:
223,338,200620,6,0,L|231:280,1,50,4|0,3:1|3:0,3:0:0:0:
149,212,200760,1,8,3:0:0:0:
149,212,200830,1,0,3:0:0:0:
149,212,200899,2,0,L|82:221,1,50,0|0,3:0|3:0,3:0:0:0:
74,381,201039,2,0,P|110:315|5:301,1,180,12|0,3:1|3:0,3:0:0:0:
20,285,201318,1,0,3:0:0:0:
165,96,201458,6,0,B|192:98|220:69|220:69|188:152|237:214,1,200,4|0,3:0|3:0,3:0:0:0:
338,364,201876,1,4,3:1:0:0:
378,383,201946,1,0,3:0:0:0:
421,371,202016,1,0,3:0:0:0:
438,330,202085,1,0,3:0:0:0:
424,286,202155,1,0,3:0:0:0:
401,246,202225,1,0,3:0:0:0:
411,202,202295,6,0,B|428:115|428:115|426:104|426:104|445:1,1,200,4|0,3:1|3:0,3:0:0:0:
299,251,202713,1,12,3:1:0:0:
249,74,202853,1,0,3:0:0:0:
394,187,202992,1,0,3:0:0:0:
171,247,203132,6,0,B|136:209|77:221|77:221|65:287|-11:291,1,200,4|0,3:1|3:0,3:0:0:0:
8,39,203551,1,12,3:1:0:0:
43,12,203620,1,0,3:0:0:0:
88,8,203690,1,0,3:0:0:0:
128,27,203760,1,0,3:0:0:0:
160,58,203830,1,0,3:0:0:0:
204,62,203899,1,0,3:0:0:0:
245,44,203969,5,4,3:1:0:0:
223,83,204039,1,0,3:0:0:0:
230,127,204109,1,0,3:0:0:0:
261,158,204178,1,0,3:0:0:0:
305,166,204248,1,0,3:0:0:0:
347,151,204318,1,0,3:0:0:0:
369,112,204388,6,0,L|357:8,1,100,12|0,3:1|3:0,3:0:0:0:
481,187,204667,1,0,3:0:0:0:
316,338,204806,6,0,B|297:341|286:360|286:360|260:290|319:244|319:244|341:266,1,200,4|0,3:0|3:0,3:0:0:0:
177,380,205225,1,2,3:0:0:0:
157,377,205295,1,8,3:0:0:0:
137,374,205364,1,2,3:0:0:0:
117,371,205434,1,8,3:0:0:0:
97,368,205504,1,2,3:0:0:0:
77,365,205574,1,8,3:0:0:0:
57,362,205644,5,2,3:0:0:0:
18,323,205713,1,8,3:0:0:0:
20,267,205783,1,2,3:0:0:0:
57,226,205853,1,8,3:0:0:0:
104,198,205923,1,2,3:0:0:0:
126,154,205992,1,8,3:0:0:0:
110,111,206062,1,2,3:0:0:0:
73,95,206132,1,8,3:0:0:0:
42,112,206202,1,2,3:0:0:0:
40,141,206271,1,8,3:0:0:0:
58,158,206341,1,2,3:0:0:0:
78,158,206411,1,8,3:0:0:0:
93,145,206481,6,0,P|101:114|79:59,5,50,2|8|2|8|2|8,3:0|3:0|3:0|3:0|3:0|3:0,3:0:0:0:
172,13,206899,2,0,L|247:31,1,50,2|8,3:0|3:0,3:0:0:0:
329,97,207039,2,0,L|254:115,1,50,2|8,3:0|3:0,3:0:0:0:
165,28,207178,2,0,L|240:46,1,50,2|8,3:0|3:0,3:0:0:0:
300,200,207318,5,4,3:1:0:0:
259,229,207388,1,8,3:0:0:0:
209,224,207458,1,0,3:0:0:0:
174,189,207527,1,8,3:0:0:0:
135,156,207597,1,0,3:0:0:0:
85,160,207667,1,8,3:0:0:0:
48,194,207737,1,4,3:1:0:0:
41,247,207806,1,8,3:0:0:0:
78,293,207876,1,0,3:0:0:0:
143,293,207946,1,8,3:0:0:0:
190,240,208016,1,0,3:0:0:0:
179,166,208085,1,8,3:0:0:0:
125,113,208155,6,0,L|38:96,5,50,4|8|0|8|2|8,3:1|3:0|3:0|3:0|3:0|3:0,3:0:0:0:
193,40,208574,1,2,3:0:0:0:
208,27,208644,1,8,3:0:0:0:
226,19,208713,1,2,3:0:0:0:
246,15,208783,1,8,3:0:0:0:
265,14,208853,1,2,3:0:0:0:
283,20,208923,1,8,3:0:0:0:
300,30,208992,5,2,3:0:0:0:
268,69,209062,1,8,3:0:0:0:
262,118,209132,1,2,3:0:0:0:
297,153,209202,1,8,3:0:0:0:
338,179,209271,1,2,3:0:0:0:
366,220,209341,1,8,3:0:0:0:
361,269,209411,1,2,3:0:0:0:
329,314,209481,1,8,3:0:0:0:
269,324,209551,1,2,3:0:0:0:
214,290,209620,1,8,3:0:0:0:
196,222,209690,1,2,3:0:0:0:
233,162,209760,1,8,3:0:0:0:
306,144,209830,6,0,P|339:153|380:153,1,50,4|0,3:0|3:0,3:0:0:0:
459,64,209969,1,8,3:0:0:0:
459,64,210039,1,0,3:0:0:0:
459,64,210109,2,0,P|446:103|444:144,1,50,0|0,3:0|3:0,3:0:0:0:
375,195,210248,1,12,3:1:0:0:
375,195,210318,1,0,3:0:0:0:
375,195,210388,2,0,P|388:234|390:275,1,50,0|0,3:0|3:0,3:0:0:0:
502,318,210527,2,0,P|468:305|430:296,1,50,8|0,3:0|3:0,3:0:0:0:
326,375,210667,6,0,L|379:366,1,50,4|0,3:1|3:0,3:0:0:0:
283,243,210806,1,8,3:0:0:0:
283,243,210876,1,0,3:0:0:0:
283,243,210946,2,0,P|279:282|269:323,1,50,0|0,3:0|3:0,3:0:0:0:
180,362,211085,1,12,3:1:0:0:
180,362,211155,1,0,3:0:0:0:
180,362,211225,2,0,P|184:323|194:282,1,50,0|0,3:0|3:0,3:0:0:0:
109,198,211364,2,0,P|113:237|123:278,1,50,8|0,3:0|3:0,3:0:0:0:
358,299,211504,5,12,3:0:0:0:
396,172,211644,2,0,B|349:145|290:179|310:201|272:251|190:216,2,220,4|4|0,3:0|3:0|3:0,3:0:0:0:
67,43,212341,5,12,3:0:0:0:
60,53,212620,5,4,3:0:0:0:
200,300,212760,1,8,3:0:0:0:
187,126,212899,5,8,3:0:0:0:
53,384,213039,1,8,3:0:0:0:
0,272,213178,2,0,B|98:279|98:279|102:286|102:286|197:293,1,200,4|0,3:0|3:0,3:0:0:0:
268,253,213597,2,0,B|258:246|243:245|243:245|206:273|200:325|230:377,1,150,12|0,3:0|3:0,3:0:0:0:
229,367,213876,5,4,3:0:0:0:
438,303,214016,1,0,3:0:0:0:
444,287,214295,2,0,P|405:277|349:322,1,100,4|8,3:0|3:0,3:0:0:0:
443,381,214574,1,12,3:0:0:0:
509,242,214713,1,8,3:0:0:0:
307,209,214853,6,0,L|401:200,2,80,4|0|0,3:0|3:0|3:0,3:0:0:0:
463,130,215271,1,10,3:2:0:0:
366,111,215411,1,2,3:2:0:0:
467,119,215551,1,2,3:2:0:0:
267,41,215690,6,0,L|280:129,2,80,2|2|2,3:2|3:2|3:2,3:0:0:0:
169,211,216109,1,10,3:2:0:0:
191,115,216248,1,2,3:2:0:0:
185,212,216388,1,2,3:2:0:0:
86,89,216527,6,0,B|89:79|97:72|97:72|146:63|188:115,1,100,2|0,3:2|3:0,3:0:0:0:
283,200,216806,2,0,B|280:190|272:183|272:183|223:174|181:226,1,100,2|0,3:2|3:0,3:0:0:0:
114,315,217085,2,0,P|152:345|234:338,1,110,2|0,3:2|3:0,3:0:0:0:
373,292,217364,5,8,3:0:0:0:
294,242,217504,2,0,L|176:263,1,110,2|0,3:1|3:0,3:0:0:0:
312,158,217783,1,2,3:2:0:0:
431,65,217923,6,0,P|435:124|399:168,1,110,0|0,3:0|3:0,3:0:0:0:
341,318,218202,2,0,P|355:270|283:184,1,130,4|0,3:0|3:0,3:0:0:0:
81,215,218481,6,0,B|136:190|178:232|149:248|207:299|274:264,1,200,4|4,3:0|3:0,3:0:0:0:
197,153,218899,1,0,3:0:0:0:
149,340,219039,1,12,3:0:0:0:
42,134,219318,5,4,3:0:0:0:
137,342,219458,1,8,3:0:0:0:
240,82,219597,5,8,3:0:0:0:
146,350,219737,1,8,3:0:0:0:
55,247,219876,6,0,B|76:232|76:232|176:256,1,125,4|0,3:0|3:0,3:0:0:0:
219,319,220295,2,0,B|289:312|289:312|291:314|291:314|367:308,1,150,12|0,3:0|3:0,3:0:0:0:
379,302,220574,5,0,3:0:0:0:
417,101,220713,1,12,3:0:0:0:
428,107,220992,5,4,3:0:0:0:
481,241,221132,1,8,3:0:0:0:
398,296,221271,1,8,3:0:0:0:
432,363,221411,1,8,3:0:0:0:
308,373,221551,5,4,3:1:0:0:
302,359,221620,1,0,3:0:0:0:
291,347,221690,1,0,3:0:0:0:
278,338,221760,1,0,3:0:0:0:
263,332,221830,1,0,3:0:0:0:
248,330,221899,1,0,3:0:0:0:
233,332,221969,2,0,P|225:358|219:383,1,50,10|0,3:2|3:0,3:0:0:0:
119,286,222109,2,0,P|148:306|166:321,3,50,2|0|2|0,3:2|3:0|3:2|3:0,3:0:0:0:
217,237,222388,5,2,3:0:0:0:
229,228,222458,1,0,3:0:0:0:
243,223,222527,1,0,3:0:0:0:
257,220,222597,1,0,3:0:0:0:
272,220,222667,1,0,3:0:0:0:
286,223,222737,1,0,3:0:0:0:
299,229,222806,2,0,P|313:256|325:292,1,50,10|0,3:0|3:0,3:0:0:0:
441,253,222946,2,0,P|401:242|380:239,3,50,0|0|0|0,3:0|3:0|3:0|3:0,3:0:0:0:
361,155,223225,5,2,3:0:0:0:
355,135,223295,1,0,3:0:0:0:
354,115,223364,1,2,3:0:0:0:
358,95,223434,1,0,3:0:0:0:
365,76,223504,1,2,3:0:0:0:
379,62,223574,1,0,3:0:0:0:
396,52,223644,5,10,3:0:0:0:
368,61,223713,1,0,3:0:0:0:
337,62,223783,1,2,3:0:0:0:
309,49,223853,1,0,3:0:0:0:
288,26,223923,1,2,3:0:0:0:
261,12,223992,1,0,3:0:0:0:
230,12,224062,5,2,3:0:0:0:
246,104,224202,1,2,3:0:0:0:
261,192,224341,1,2,3:0:0:0:
85,98,224481,6,0,B|85:80|59:68|59:68|102:84|154:75,1,120,10|4,3:0|3:2,3:0:0:0:
226,32,224760,1,4,3:2:0:0:
111,226,224899,5,6,3:0:0:0:
190,150,225039,1,8,3:0:0:0:
92,217,225178,1,0,3:0:0:0:
259,326,225318,5,12,3:1:0:0:
201,222,225458,1,0,3:0:0:0:
152,375,225597,1,0,3:0:0:0:
367,294,225737,6,0,B|314:279|314:279|261:325,1,120,4|8,3:2|3:0,3:0:0:0:
183,300,226016,1,8,3:0:0:0:
288,162,226155,5,10,3:0:0:0:
356,278,226295,1,10,3:0:0:0:
420,191,226434,1,8,3:0:0:0:
486,306,226574,5,4,3:1:0:0:
468,304,226644,1,0,3:0:0:0:
450,306,226713,1,8,3:0:0:0:
432,311,226783,1,0,3:0:0:0:
418,322,226853,2,0,P|405:347|400:378,1,60,0|0,3:0|3:0,3:0:0:0:
280,324,226992,5,10,3:0:0:0:
282,306,227062,1,0,3:0:0:0:
284,288,227132,1,0,3:0:0:0:
286,270,227202,1,0,3:0:0:0:
288,252,227271,2,0,L|210:233,1,60,8|0,3:0|3:0,3:0:0:0:
363,106,227411,5,10,3:0:0:0:
396,207,227551,1,8,3:0:0:0:
469,140,227690,1,8,3:0:0:0:
301,171,227830,5,4,3:1:0:0:
419,54,227969,1,0,3:0:0:0:
329,27,228109,1,0,3:0:0:0:
277,166,228248,5,4,3:2:0:0:
271,148,228318,1,0,3:0:0:0:
261,132,228388,1,8,3:0:0:0:
247,120,228458,1,0,3:0:0:0:
230,113,228527,2,0,P|199:106|162:109,1,60,0|0,3:0|3:0,3:0:0:0:
113,269,228667,5,10,3:0:0:0:
126,257,228737,1,0,3:0:0:0:
133,240,228806,1,0,3:0:0:0:
134,222,228876,1,0,3:0:0:0:
129,204,228946,2,0,P|102:189|65:186,1,60,8|0,3:0|3:0,3:0:0:0:
1,258,229085,5,4,3:1:0:0:
251,236,229225,5,10,3:0:0:0:
88,81,229364,1,10,3:0:0:0:
261,242,229504,1,4,3:2:0:0:
219,20,229644,1,8,3:0:0:0:
268,248,229783,1,8,3:0:0:0:
412,105,229923,5,2,3:2:0:0:
397,87,229992,1,8,3:0:0:0:
371,78,230062,1,2,3:2:0:0:
338,90,230132,1,8,3:0:0:0:
317,128,230202,1,2,3:2:0:0:
321,167,230271,1,8,3:0:0:0:
349,205,230341,5,2,3:1:0:0:
392,206,230411,1,8,3:0:0:0:
431,229,230481,1,2,3:2:0:0:
452,272,230551,1,8,3:0:0:0:
443,318,230620,1,0,3:1:0:0:
410,353,230690,1,8,3:0:0:0:
361,361,230760,5,2,3:1:0:0:
354,344,230830,1,8,3:0:0:0:
342,330,230899,1,2,3:2:0:0:
327,319,230969,1,8,3:0:0:0:
310,312,231039,1,2,3:2:0:0:
292,309,231109,1,8,3:0:0:0:
274,312,231178,6,0,L|262:378,1,60,2|8,3:1|3:0,3:0:0:0:
193,260,231318,2,0,L|182:200,1,60,2|8,3:2|3:0,3:0:0:0:
99,312,231458,2,0,L|87:378,1,60,2|8,3:2|3:0,3:0:0:0:
7,209,231597,6,0,L|70:194,1,50,6|0,3:1|3:0,3:0:0:0:
69,41,231737,1,8,3:0:0:0:
86,23,231806,1,0,3:0:0:0:
110,19,231876,2,0,P|139:38|151:75,1,50,0|0,3:0|3:0,3:0:0:0:
243,131,232016,2,0,L|180:116,1,50,10|0,3:0|3:0,3:0:0:0:
321,21,232155,1,0,3:0:0:0:
321,21,232225,1,0,3:0:0:0:
321,21,232295,2,0,P|309:47|306:88,1,50,8|0,3:0|3:0,3:0:0:0:
356,139,232434,6,0,L|415:129,1,50,12|0,3:1|3:0,3:0:0:0:
493,61,232574,2,0,L|434:51,1,50,10|0,3:0|3:0,3:0:0:0:
351,156,232713,2,0,L|410:146,1,50,8|0,3:0|3:0,3:0:0:0:
375,10,232853,2,0,L|367:75,1,50,4|0,3:2|3:0,3:0:0:0:
485,184,232992,2,0,L|477:119,1,50,8|0,3:0|3:0,3:0:0:0:
391,4,233132,2,0,L|383:69,1,50,8|0,3:0|3:0,3:0:0:0:
245,121,233271,6,0,P|273:147|290:193,1,50,2|0,3:0|3:0,3:0:0:0:
259,290,233411,1,8,3:0:0:0:
235,316,233481,1,0,3:0:0:0:
199,316,233551,2,0,P|164:294|151:267,1,50,0|0,3:0|3:0,3:0:0:0:
14,204,233690,1,12,3:1:0:0:
44,170,233760,1,0,3:0:0:0:
87,158,233830,1,0,3:0:0:0:
126,177,233899,1,0,3:0:0:0:
157,209,233969,1,10,3:0:0:0:
202,210,234039,1,0,3:0:0:0:
239,184,234109,6,0,P|252:155|247:123,1,50,4|0,3:2|3:0,3:0:0:0:
181,15,234248,2,0,P|179:46|195:74,1,50,10|0,3:0|3:0,3:0:0:0:
251,185,234388,2,0,P|264:156|259:124,1,50,8|0,3:2|3:0,3:0:0:0:
109,174,234527,2,0,L|176:145,1,50,10|0,3:0|3:0,3:0:0:0:
95,187,234667,2,0,L|162:216,1,50,8|0,3:0|3:0,3:0:0:0:
83,179,234806,2,0,L|150:150,1,50,8|0,3:0|3:0,3:0:0:0:
67,319,234946,6,0,P|42:303|3:301,1,50,4|0,3:1|3:0,3:0:0:0:
159,384,235085,1,8,3:0:0:0:
204,352,235155,1,0,3:0:0:0:
213,297,235225,1,0,3:0:0:0:
191,246,235295,1,0,3:0:0:0:
138,231,235364,5,12,3:2:0:0:
130,275,235434,1,0,3:0:0:0:
159,309,235504,1,0,3:0:0:0:
203,318,235574,1,0,3:0:0:0:
242,295,235644,1,8,3:0:0:0:
248,250,235713,1,0,3:0:0:0:
229,208,235783,2,0,P|216:182|215:140,1,50,2|0,3:0|3:0,3:0:0:0:
289,17,235923,5,8,3:0:0:0:
325,32,235992,1,0,3:0:0:0:
349,70,236062,1,8,3:0:0:0:
349,120,236132,1,0,3:0:0:0:
313,162,236202,1,12,3:2:0:0:
289,216,236271,1,0,3:0:0:0:
307,278,236341,1,8,3:0:0:0:
361,321,236411,1,0,3:0:0:0:
436,325,236481,1,8,3:0:0:0:
494,278,236551,1,0,3:0:0:0:
498,203,236620,6,0,B|483:196|483:196|434:207,1,50,2|8,3:1|3:0,3:0:0:0:
313,134,236760,2,0,B|328:127|328:127|377:138,1,50,2|8,3:2|3:0,3:0:0:0:
507,187,236899,2,0,B|492:180|492:180|443:191,1,50,2|8,3:2|3:0,3:0:0:0:
346,266,237039,2,0,P|362:214|362:200,1,50,2|8,3:1|3:0,3:0:0:0:
421,57,237178,2,0,P|426:81|436:104,1,50,2|8,3:2|3:0,3:0:0:0:
359,270,237318,2,0,P|375:218|375:204,1,50,2|8,3:2|3:0,3:0:0:0:
223,65,237458,6,0,L|285:81,1,50,2|8,3:1|3:2,3:0:0:0:
190,136,237597,2,0,L|128:152,1,50,2|8,3:2|3:2,3:0:0:0:
235,50,237737,2,0,L|297:66,1,50,2|8,3:2|3:2,3:0:0:0:
123,8,237876,2,0,P|141:58|144:77,1,50,2|8,3:1|3:0,3:0:0:0:
200,198,238016,2,0,P|207:174|217:151,1,50,2|8,3:2|3:0,3:0:0:0:
33,87,238155,2,0,P|77:115|92:128,1,50,2|8,3:2|3:0,3:0:0:0:
86,299,238295,6,0,P|69:266|98:293,1,110,6|0,3:0|3:0,3:0:0:0:
174,364,239132,6,0,L|237:354,1,37.5000000000001,4|8,3:2|3:0,3:0:0:0:
257,283,239271,2,0,L|320:293,1,37.5000000000001,8|8,3:0|3:0,3:0:0:0:
345,359,239411,2,0,L|408:349,1,37.5000000000001,8|8,3:0|3:0,3:0:0:0:
486,273,239551,6,0,L|423:263,1,37.5000000000001,4|8,3:1|3:0,3:0:0:0:
403,192,239690,2,0,L|340:202,1,37.5000000000001,8|8,3:0|3:0,3:0:0:0:
315,268,239830,2,0,L|252:258,1,37.5000000000001,8|8,3:0|3:0,3:0:0:0:
204,143,239969,6,0,B|212:116|212:116|242:196,1,110,6|0,3:0|3:0,3:0:0:0:
223,268,240806,5,12,3:1:0:0:
173,291,240876,1,8,2:0:0:0:
120,273,240946,1,8,2:0:0:0:
101,221,241016,1,8,2:0:0:0:
129,174,241085,1,8,2:0:0:0:
166,133,241155,1,8,2:0:0:0:
158,78,241225,5,8,3:0:0:0:
117,58,241295,1,8,3:0:0:0:
81,74,241364,1,8,3:0:0:0:
78,109,241434,1,8,3:0:0:0:
97,131,241504,1,8,3:0:0:0:
122,130,241574,1,8,3:0:0:0:
132,112,241644,6,0,L|44:101,1,65,4|0,3:1|3:0,3:0:0:0:
13,287,241783,1,8,3:0:0:0:
22,288,241853,1,0,3:0:0:0:
31,289,241923,2,0,L|87:280,1,50,0|0,3:0|3:0,3:0:0:0:
141,85,242062,6,0,L|225:74,1,65,12|0,3:2|3:0,3:0:0:0:
211,366,242202,1,0,3:0:0:0:
192,373,242271,1,0,3:0:0:0:
172,366,242341,1,8,3:0:0:0:
161,348,242411,1,0,3:0:0:0:
163,328,242481,5,12,3:1:0:0:
195,289,242551,1,0,3:0:0:0:
244,276,242620,1,8,3:0:0:0:
296,291,242690,1,0,3:0:0:0:
331,334,242760,1,8,3:0:0:0:
388,339,242830,1,0,3:0:0:0:
429,296,242899,1,12,3:2:0:0:
426,233,242969,1,0,3:0:0:0:
375,192,243039,1,8,3:0:0:0:
355,128,243109,1,0,3:0:0:0:
379,65,243178,1,8,3:0:0:0:
444,39,243248,1,0,3:0:0:0:
512,62,243318,6,0,P|492:79|495:138,1,60,2|8,3:1|3:0,3:0:0:0:
419,232,243458,2,0,P|430:208|428:175,1,55,2|0,3:2|3:0,3:0:0:0:
332,90,243597,2,0,P|351:100|364:127,1,50,2|8,3:2|3:0,3:0:0:0:
281,253,243737,5,2,3:1:0:0:
217,240,243806,1,8,3:0:0:0:
194,189,243876,1,2,3:2:0:0:
210,147,243946,1,8,3:0:0:0:
243,135,244016,1,2,3:2:0:0:
266,141,244085,1,8,3:0:0:0:
270,155,244155,2,0,P|261:184|236:195,1,50,2|8,3:1|3:0,3:0:0:0:
65,143,244295,6,0,P|96:140|125:156,1,55,2|8,3:2|3:0,3:0:0:0:
79,122,244434,2,0,P|115:138|121:148,1,45,2|8,3:2|3:0,3:0:0:0:
265,56,244574,6,0,P|249:78|245:117,1,55,2|8,3:1|3:0,3:0:0:0:
198,248,244713,2,0,P|202:220|191:180,1,60,2|8,3:2|3:0,3:0:0:0:
151,0,244853,2,0,P|165:33|162:71,1,65,2|8,3:2|3:0,3:0:0:0:
44,233,244992,6,0,L|119:227,1,65,6|0,3:0|3:0,3:0:0:0:
324,298,245132,1,8,3:0:0:0:
323,287,245202,1,0,3:0:0:0:
322,277,245271,2,0,L|249:269,1,50,0|0,3:0|3:0,3:0:0:0:
20,373,245411,6,0,L|26:298,1,65,10|0,3:0|3:0,3:0:0:0:
157,101,245551,1,0,3:0:0:0:
146,104,245620,1,0,3:0:0:0:
136,107,245690,2,0,L|144:179,1,50,8|0,3:0|3:0,3:0:0:0:
163,361,245830,6,0,P|192:350|220:357,1,50,4|0,3:1|3:0,3:0:0:0:
155,335,245969,2,0,P|193:332|224:362,1,65,8|0,3:0|3:0,3:0:0:0:
300,278,246109,6,0,P|286:274|248:283,1,50,8|0,3:0|3:0,3:0:0:0:
305,258,246248,2,0,P|274:257|241:282,1,65,12|0,3:2|3:0,3:0:0:0:
148,182,246388,6,0,P|174:182|202:205,1,50,8|0,3:0|3:0,3:0:0:0:
158,165,246527,2,0,P|124:168|105:202,1,55,8|0,3:0|3:0,3:0:0:0:
365,121,246667,6,0,L|355:196,1,65,2|0,3:0|3:0,3:0:0:0:
356,365,246806,1,8,3:0:0:0:
345,364,246876,1,0,3:0:0:0:
334,363,246946,2,0,L|340:313,1,50,0|0,3:0|3:0,3:0:0:0:
435,60,247085,6,0,L|445:135,1,65,12|0,3:1|3:0,3:0:0:0:
451,313,247225,1,0,3:0:0:0:
462,312,247295,1,0,3:0:0:0:
473,311,247364,2,0,L|464:246,1,50,8|0,3:0|3:0,3:0:0:0:
240,136,247504,6,0,P|238:149|260:194,1,50,4|0,3:2|3:0,3:0:0:0:
211,141,247644,2,0,P|220:166|255:190,1,65,10|0,3:1|3:0,3:0:0:0:
222,260,247783,6,0,P|264:264|285:252,1,50,8|0,3:0|3:0,3:0:0:0:
223,286,247923,2,0,P|261:280|282:255,1,65,10|0,3:0|3:0,3:0:0:0:
377,276,248062,6,0,P|379:247|358:213,1,50,10|0,3:0|3:0,3:0:0:0:
392,283,248202,2,0,P|385:316|402:357,1,55,10|0,3:0|3:0,3:0:0:0:
407,89,248341,6,0,L|332:79,1,65,4|0,3:1|3:0,3:0:0:0:
150,160,248481,1,8,3:0:0:0:
152,150,248551,1,0,3:0:0:0:
154,140,248620,2,0,L|243:134,1,50,0|0,3:0|3:0,3:0:0:0:
418,78,248760,6,0,L|426:142,1,65,14|0,3:0|3:0,3:0:0:0:
265,343,248899,1,0,3:0:0:0:
262,362,248969,1,0,3:0:0:0:
274,377,249039,1,8,3:0:0:0:
293,383,249109,1,0,3:0:0:0:
311,375,249178,5,2,3:0:0:0:
327,328,249248,1,0,3:0:0:0:
300,283,249318,1,8,3:0:0:0:
245,274,249388,1,0,3:0:0:0:
196,307,249458,1,8,3:0:0:0:
136,301,249527,1,0,3:0:0:0:
102,249,249597,1,10,3:0:0:0:
119,186,249667,1,0,3:0:0:0:
177,154,249737,1,8,3:0:0:0:
198,90,249806,1,0,3:0:0:0:
169,25,249876,1,10,3:0:0:0:
99,7,249946,1,0,3:0:0:0:
36,46,250016,6,0,P|70:79|106:85,1,65,2|8,3:1|3:0,3:0:0:0:
127,193,250155,2,0,P|162:170|185:168,1,57.5000000000001,2|8,3:2|3:0,3:0:0:0:
208,82,250295,2,0,P|237:95|274:97,1,50,2|8,3:2|3:0,3:0:0:0:
386,211,250434,5,2,3:1:0:0:
399,274,250504,1,8,3:0:0:0:
364,330,250574,1,2,3:2:0:0:
300,346,250644,1,8,3:0:0:0:
245,311,250713,1,2,3:2:0:0:
231,246,250783,1,8,3:0:0:0:
263,189,250853,6,0,P|284:207|297:248,1,60,2|8,3:1|3:0,3:0:0:0:
312,298,250992,2,0,P|304:272|309:236,1,50,2|8,3:2|3:0,3:0:0:0:
353,197,251132,2,0,P|325:228|322:261,1,60,2|8,3:2|3:0,3:0:0:0:
217,365,251271,6,0,P|253:355|291:374,1,65,2|8,3:1|3:0,3:0:0:0:
457,268,251411,2,0,P|405:253|381:263,1,70,2|8,3:2|3:0,3:0:0:0:
174,177,251551,2,0,P|220:164|259:171,1,75,2|8,3:2|3:0,3:0:0:0:
447,23,251701,6,0,B|504:40|508:93|490:132|490:132|481:91|441:78,1,210,6|0,3:0|3:0,3:0:0:0:
297,156,253034,5,2,2:0:0:0:
309,164,253360,1,2,2:0:0:0:
322,162,253686,1,2,2:0:0:0:
250,59,253858,6,0,P|231:78|213:106,1,50,8|8,3:0|3:0,3:0:0:0:
169,184,254020,2,0,P|156:160|135:134,1,50,8|8,3:0|3:0,3:0:0:0:
93,59,254195,2,0,P|80:82|59:108,1,50,8|8,3:0|3:0,3:0:0:0:
10,159,254370,5,8,0:0:0:0:
392,21,261036,5,2,2:0:0:0:
413,108,261274,1,2,2:0:0:0:
429,189,261512,1,2,2:0:0:0:
399,300,261731,6,0,L|331:305,1,66.6666666666667,2|0,2:3|3:0,2:0:0:0:
239,371,262370,6,0,P|255:359|266:352,1,30,2|2,2:0|2:0,2:0:0:0:
163,344,262703,2,0,P|174:318|183:305,1,40,2|2,2:0|2:0,2:0:0:0:
34,273,263036,2,0,P|23:286|-7:304,1,50,0|2,2:0|2:0,2:0:0:0:
110,208,263370,2,0,P|115:245|108:280,1,69.9999999999999,0|0,2:0|2:0,2:0:0:0:
59,143,263703,6,0,B|47:129|46:110|46:110|-34:115|-51:215|4:271|88:282|141:232|141:232|232:147|329:248|270:237|397:334|465:356|597:144|438:44|373:51|320:109|308:157|372:195,1,944.999999999999,2|0,2:0|2:0,2:0:0:0:
370,191,266023,2,0,P|397:178|440:167,1,69.9999999999999,2|2,2:0|2:0,2:0:0:0:
484,349,266367,6,0,B|367:326|409:172|449:216|515:104|416:22|416:22|388:103|306:87|306:87|185:70|243:-53|361:-7|306:87|306:87|239:149|154:113|216:101|123:44|61:60|22:104|16:162,1,1120,2|0,2:0|2:0,2:0:0:0:
57,225,269184,6,0,P|38:194|8:169,2,69.9999978637696,2|2|2,2:0|2:0|2:0,2:0:0:0:
104,300,269685,2,0,P|77:331|61:365,2,69.9999999999999,2|2|2,2:0|2:0|2:0,2:0:0:0:
214,255,270200,6,0,P|226:344|262:353,1,120,2|0,2:0|2:0,2:0:0:0:
410,293,270700,2,0,P|361:289|311:337,1,100,2|0,2:0|2:0,2:0:0:0:
480,369,271200,6,0,L|489:272,1,79.9999999999997,2|0,2:0|2:0,2:0:0:0:
425,180,271700,2,0,L|331:191,1,89.9999999999993,2|0,2:0|2:0,2:0:0:0:
422,71,272366,2,0,L|497:78,1,69.9999999999993,2|0,2:0|2:0,2:0:0:0:
339,0,273033,6,0,L|336:26,1,19.9999999999998,2|0,2:1|2:0,2:0:0:0:
256,83,273366,2,0,P|219:60|159:52,1,75.0000000000002,2|0,2:0|2:0,2:0:0:0:
88,160,273700,2,0,L|93:115,1,25,2|0,2:3|2:0,2:0:0:0:
104,97,273866,2,0,L|109:142,1,25,2|0,2:3|2:0,2:0:0:0:
69,311,274200,1,0,3:0:0:0:
235,268,274366,6,0,B|213:254|213:254|132:293,1,100,10|0,2:3|2:0,2:0:0:0:
244,288,274866,1,2,2:0:0:0:
343,197,275033,6,0,P|311:211|307:245,1,50,2|0,2:3|2:0,2:0:0:0:
338,314,275366,2,0,B|382:306|369:334|429:320,1,75,0|0,2:0|2:0,2:0:0:0:
469,255,275700,6,0,P|474:224|465:186,1,50,2|2,3:0|2:0,2:0:0:0:
512,133,276033,2,0,P|497:121|476:115,3,25,2|2|2|2,2:0|2:0|2:0|2:0,2:0:0:0:
460,45,276366,2,0,L|390:63,1,50,2|2,2:3|2:3,2:0:0:0:
257,130,276866,1,0,3:0:0:0:
308,19,277033,6,0,L|301:79,1,50,10|2,2:3|2:0,2:0:0:0:
236,148,277366,2,0,L|229:88,1,50,2|2,2:0|2:0,2:0:0:0:
330,200,277700,1,2,2:3:0:0:
259,253,277866,6,0,P|231:238|197:227,1,50,0|0,2:0|2:0,2:0:0:0:
316,316,278200,1,0,2:0:0:0:
251,371,278366,6,0,L|151:355,1,100,0|2,3:0|2:0,2:0:0:0:
139,366,278866,1,0,2:0:0:0:
66,245,279033,2,0,L|79:281,1,25,2|0,2:3|2:0,2:0:0:0:
88,311,279200,2,0,L|101:275,1,25,2|0,2:3|2:0,2:0:0:0:
7,163,279533,1,0,3:0:0:0:
147,90,279700,6,0,B|118:81|118:81|84:93|84:93|42:86,1,100,10|2,2:3|2:0,2:0:0:0:
154,108,280200,1,2,2:0:0:0:
230,17,280366,2,0,L|220:48,1,25,2|0,2:3|2:0,2:0:0:0:
247,26,280533,2,0,L|230:78,1,50,0|2,2:0|2:0,2:0:0:0:
268,149,280866,1,0,2:0:0:0:
327,288,281033,6,0,P|342:267|343:227,1,50,2|0,3:0|2:0,2:0:0:0:
257,342,281366,2,0,L|262:375,3,25,2|2|2|2,2:0|2:0|2:0|2:0,2:0:0:0:
228,259,281700,2,0,L|186:267,1,25,2|0,2:3|2:0,2:0:0:0:
182,289,281866,2,0,L|140:281,1,25,2|0,2:3|2:0,2:0:0:0:
300,150,282200,1,0,3:0:0:0:
363,267,282366,2,0,B|370:254|370:254|359:205,1,50,10|2,2:3|2:0,2:0:0:0:
418,106,282700,5,2,2:0:0:0:
498,196,282866,2,0,P|468:185|450:173,1,50,2|2,2:0|2:0,2:0:0:0:
408,0,283200,2,0,B|426:30|426:30|402:126,1,125,0|0,2:0|2:0,2:0:0:0:
387,138,283700,6,0,B|357:127|343:182|274:157,1,105,4|0,2:0|2:0,2:0:0:0:
267,149,284033,1,2,2:0:0:0:
209,85,284200,1,0,3:0:0:0:
67,176,284366,5,10,2:0:0:0:
119,222,284533,1,0,2:0:0:0:
155,208,284700,2,0,L|119:213,3,25,2|2|2|2,2:0|2:0|2:0|2:0,2:0:0:0:
167,279,285033,5,2,2:0:0:0:
118,356,285200,1,2,2:0:0:0:
53,315,285366,1,0,2:0:0:0:
22,339,285533,1,0,3:0:0:0:
302,307,285700,5,10,2:0:0:0:
256,223,285866,1,0,2:0:0:0:
205,268,286033,1,2,2:0:0:0:
186,360,286200,1,2,2:3:0:0:
212,351,286366,2,0,P|242:356|267:373,1,50,0|2,3:0|2:0,2:0:0:0:
375,291,286700,6,0,P|329:290|302:309,1,69.9999999999999,2|0,2:0|3:0,2:0:0:0:
420,371,287033,2,0,P|458:366|498:394,1,69.9999999999999,10|0,2:3|2:0,2:0:0:0:
493,172,287366,6,0,B|453:160|417:183|428:192|396:222|343:206,1,160,0|0,2:0|3:0,2:0:0:0:
215,70,287866,2,0,B|197:48|238:15|276:43|281:131|221:184,1,180,2|0,2:0|3:0,2:0:0:0:
0,62,288366,6,0,B|5:58|5:58|94:71,1,80,10|2,2:3|2:3,2:0:0:0:
137,134,288700,1,2,2:3:0:0:
208,68,288866,1,4,2:0:0:0:
236,173,289033,2,0,B|257:251|360:266|397:205|356:134|303:154,1,240,0|0,3:0|3:0,2:0:0:0:
224,332,289700,6,0,B|230:338|230:338|305:331,1,80,10|2,2:3|2:0,2:0:0:0:
456,218,290033,2,0,B|432:271|488:288|452:384,2,160,0|0|2,2:0|3:0|2:0,2:0:0:0:
378,366,290866,1,0,3:0:0:0:
303,188,291033,5,10,2:3:0:0:
415,136,291200,1,2,2:0:0:0:
460,206,291366,1,2,2:0:0:0:
378,206,291533,1,2,2:1:0:0:
465,28,291700,5,0,3:0:0:0:
473,38,291866,2,0,P|438:61|371:46,1,80,2|2,2:3|2:1,2:0:0:0:
270,0,292200,5,0,3:0:0:0:
218,157,292366,1,10,2:3:0:0:
212,169,292533,2,0,P|261:190|300:176,1,80,2|2,2:0|2:0,2:0:0:0:
135,28,292866,5,2,2:0:0:0:
124,38,293034,2,0,B|78:90|65:169|114:248|150:180|252:279|198:431|83:456|-19:374|1:290|48:249,1,569.25,4|0,2:0|2:0,2:0:0:0:
401,309,296323,5,8,2:0:0:0:
262,366,296601,5,2,3:0:0:0:
214,339,296670,1,8,3:0:0:0:
198,286,296740,1,0,3:0:0:0:
215,233,296810,1,8,3:0:0:0:
264,208,296880,1,2,3:0:0:0:
300,168,296949,1,8,3:0:0:0:
300,112,297019,1,0,3:0:0:0:
265,68,297089,1,8,3:0:0:0:
209,63,297159,1,2,3:0:0:0:
166,97,297228,1,8,3:0:0:0:
110,95,297298,1,0,3:0:0:0:
72,54,297368,1,8,3:0:0:0:
84,0,297438,5,2,3:0:0:0:
133,32,297507,1,8,3:0:0:0:
148,90,297577,1,0,3:0:0:0:
127,146,297647,1,8,3:0:0:0:
77,179,297717,1,2,3:0:0:0:
50,232,297787,1,8,3:0:0:0:
63,289,297856,1,0,3:0:0:0:
105,331,297926,1,8,3:0:0:0:
164,340,297996,1,2,3:0:0:0:
218,314,298066,1,8,3:0:0:0:
251,265,298135,1,0,3:0:0:0:
307,245,298205,1,8,3:0:0:0:
363,264,298275,1,2,3:0:0:0:
386,319,298345,1,8,3:0:0:0:
363,374,298414,1,0,3:0:0:0:
303,379,298484,1,8,3:0:0:0:
257,339,298554,1,2,3:0:0:0:
258,278,298624,1,8,3:0:0:0:
300,234,298694,1,0,3:0:0:0:
317,177,298763,1,8,3:0:0:0:
289,123,298833,5,2,3:0:0:0:
247,159,298903,1,8,3:0:0:0:
242,214,298973,1,0,3:0:0:0:
274,257,299042,1,8,3:0:0:0:
327,271,299112,1,2,3:0:0:0:
378,251,299182,1,8,3:0:0:0:
405,203,299252,1,0,3:0:0:0:
396,150,299321,1,8,3:0:0:0:
364,104,299391,1,2,3:0:0:0:
371,49,299461,1,8,3:0:0:0:
414,14,299531,2,0,P|437:10|484:16,1,50,0|8,3:0|3:0,3:0:0:0:
505,158,299670,2,0,P|491:134|459:103,3,50,2|8|0|8,3:0|3:0|3:0|3:0,3:0:0:0:
353,135,299949,5,2,3:0:0:0:
348,146,300019,1,8,3:0:0:0:
345,161,300089,1,0,3:0:0:0:
343,182,300159,1,8,3:0:0:0:
350,210,300228,1,2,3:0:0:0:
375,235,300298,1,8,3:0:0:0:
401,273,300368,1,0,3:0:0:0:
404,323,300438,1,8,3:0:0:0:
372,366,300507,1,2,3:0:0:0:
313,382,300577,1,8,3:0:0:0:
265,357,300647,1,0,3:0:0:0:
246,302,300717,1,8,3:0:0:0:
207,259,300787,1,2,3:0:0:0:
150,248,300856,1,8,3:0:0:0:
103,276,300926,1,0,3:0:0:0:
79,326,300996,1,8,3:0:0:0:
90,380,301066,5,2,3:0:0:0:
137,366,301135,1,8,3:0:0:0:
165,324,301205,1,0,3:0:0:0:
164,273,301275,1,8,3:0:0:0:
135,232,301345,1,2,3:0:0:0:
89,212,301414,1,8,3:0:0:0:
55,174,301484,1,0,3:0:0:0:
43,125,301554,1,8,3:0:0:0:
56,76,301624,1,2,3:0:0:0:
96,46,301694,1,8,3:0:0:0:
145,44,301763,1,0,3:0:0:0:
186,71,301833,1,8,3:0:0:0:
207,116,301903,1,2,3:0:0:0:
252,137,301973,1,8,3:0:0:0:
299,123,302042,1,0,3:0:0:0:
319,77,302112,1,8,3:0:0:0:
305,28,302182,5,2,3:0:0:0:
260,61,302252,1,8,3:0:0:0:
244,113,302321,1,0,3:0:0:0:
264,164,302391,1,8,3:0:0:0:
311,192,302461,1,2,3:0:0:0:
345,234,302531,1,8,3:0:0:0:
350,288,302601,1,0,3:0:0:0:
330,338,302670,1,8,3:0:0:0:
281,364,302740,5,2,3:0:0:0:
248,349,302810,1,8,3:0:0:0:
232,317,302880,1,0,3:0:0:0:
236,282,302949,1,8,3:0:0:0:
258,254,303019,1,2,3:0:0:0:
291,243,303089,1,8,3:0:0:0:
324,253,303159,1,0,3:0:0:0:
349,276,303228,1,8,3:0:0:0:
354,310,303298,5,10,3:0:0:0:
299,284,303368,1,8,3:0:0:0:
287,224,303438,1,8,3:0:0:0:
319,174,303507,1,8,3:0:0:0:
361,144,303577,5,8,3:0:0:0:
372,126,303647,1,8,3:0:0:0:
372,104,303717,1,8,3:0:0:0:
360,88,303787,1,8,3:0:0:0:
335,81,303856,5,6,3:0:0:0:
310,84,303926,1,0,3:0:0:0:
285,86,303996,1,0,3:0:0:0:
260,88,304066,1,0,3:0:0:0:
238,67,304135,5,8,3:0:0:0:
253,92,304205,1,8,3:0:0:0:
254,122,304275,1,8,3:0:0:0:
240,149,304345,1,8,3:0:0:0:
208,172,304414,5,8,3:0:0:0:
199,187,304484,1,8,3:0:0:0:
195,207,304554,1,8,3:0:0:0:
202,227,304624,1,8,3:0:0:0:
231,252,304694,5,4,3:0:0:0:
201,255,304763,1,0,3:0:0:0:
176,259,304833,1,0,3:0:0:0:
151,264,304903,1,0,3:0:0:0:
130,248,304973,5,8,3:0:0:0:
136,223,305042,1,8,3:0:0:0:
128,198,305112,1,8,3:0:0:0:
115,184,305182,1,8,3:0:0:0:
79,158,305252,5,8,3:0:0:0:
66,142,305321,1,8,3:0:0:0:
65,124,305391,1,8,3:0:0:0:
74,109,305461,1,8,3:0:0:0:
111,84,305531,6,0,L|177:92,1,60,6|0,3:0|3:0,3:0:0:0:
231,13,305810,2,0,B|206:52|206:52|241:177,1,150,4|0,3:2|3:0,3:0:0:0:
316,205,306089,1,10,3:0:0:0:
316,205,306159,1,0,3:0:0:0:
316,205,306228,2,0,P|352:188|377:188,1,50,0|0,3:0|3:0,3:0:0:0:
239,361,306368,5,2,3:0:0:0:
194,384,306438,1,0,3:0:0:0:
144,378,306507,1,0,3:0:0:0:
106,345,306577,1,0,3:0:0:0:
98,295,306647,1,2,3:0:0:0:
121,250,306717,1,0,3:0:0:0:
158,216,306787,1,0,3:0:0:0:
172,168,306856,1,0,3:0:0:0:
162,118,306926,1,2,3:0:0:0:
123,86,306996,1,0,3:0:0:0:
72,86,307066,1,0,3:0:0:0:
31,114,307135,1,0,3:0:0:0:
25,163,307205,6,0,L|36:220,3,50,10|0|0|0,3:0|3:0|3:0|3:0,3:0:0:0:
106,276,307484,2,0,P|137:263|162:260,1,50,4|0,3:2|3:0,3:0:0:0:
246,196,307624,2,0,P|221:190|198:180,1,50,4|0,3:2|3:0,3:0:0:0:
250,315,307763,1,6,3:0:0:0:
264,313,307833,1,0,3:0:0:0:
278,311,307903,2,0,L|359:297,1,50,0|0,3:0|3:0,3:0:0:0:
447,228,308042,5,4,3:1:0:0:
478,189,308112,1,0,3:0:0:0:
475,138,308182,1,0,3:0:0:0:
435,107,308252,1,0,3:0:0:0:
386,116,308321,1,8,3:0:0:0:
367,157,308391,1,0,3:0:0:0:
383,193,308461,1,0,3:2:0:0:
417,199,308531,1,0,3:0:0:0:
441,180,308601,5,4,3:1:0:0:
410,141,308670,1,0,3:0:0:0:
361,128,308740,1,0,3:0:0:0:
316,151,308810,1,0,3:0:0:0:
282,188,308880,1,2,3:0:0:0:
242,208,308949,1,0,3:0:0:0:
202,202,309019,1,0,3:0:0:0:
181,173,309089,1,0,3:0:0:0:
186,143,309159,5,4,3:1:0:0:
234,134,309228,1,0,3:0:0:0:
274,164,309298,1,0,3:0:0:0:
274,214,309368,1,0,3:0:0:0:
240,251,309438,1,8,3:0:0:0:
201,272,309507,1,0,3:0:0:0:
182,307,309577,1,0,3:0:0:0:
193,340,309647,1,0,3:0:0:0:
220,352,309717,6,0,P|228:315|227:285,3,50,4|0|0|0,3:1|3:0|3:0|3:0,3:0:0:0:
84,96,309996,5,6,3:0:0:0:
38,116,310066,1,0,3:0:0:0:
16,160,310135,1,0,3:0:0:0:
30,208,310205,1,0,3:0:0:0:
70,238,310275,1,2,3:0:0:0:
120,234,310345,1,0,3:0:0:0:
156,200,310414,1,0,3:0:0:0:
202,180,310484,1,0,3:0:0:0:
251,190,310554,2,0,P|283:201|309:231,3,50,10|0|0|0,3:0|3:0|3:0|3:0,3:0:0:0:
424,332,310833,5,2,3:0:0:0:
388,296,310903,1,0,3:0:0:0:
337,297,310973,1,0,3:0:0:0:
292,319,311042,1,0,3:0:0:0:
271,364,311112,1,2,3:0:0:0:
224,383,311182,1,0,3:0:0:0:
176,367,311252,1,0,3:0:0:0:
149,331,311321,1,0,3:0:0:0:
158,292,311391,1,2,3:0:0:0:
186,271,311461,1,0,3:0:0:0:
215,277,311531,1,0,3:0:0:0:
228,298,311601,1,0,3:0:0:0:
226,317,311670,6,0,L|213:376,7,50,10|0|0|0|2|0|0|0,3:0|3:0|3:0|3:0|3:0|3:0|3:0|3:0,3:0:0:0:
156,201,312228,5,2,3:0:0:0:
155,190,312298,1,0,3:0:0:0:
154,179,312368,1,0,3:0:0:0:
153,168,312438,1,0,3:0:0:0:
152,158,312507,1,2,3:0:0:0:
151,147,312577,1,0,3:0:0:0:
151,136,312647,1,0,3:0:0:0:
151,125,312717,1,0,3:0:0:0:
151,114,312787,5,10,3:0:0:0:
182,82,312856,1,0,3:0:0:0:
227,79,312926,1,0,3:0:0:0:
265,102,312996,1,0,3:0:0:0:
287,140,313066,1,2,3:0:0:0:
331,160,313135,1,0,3:0:0:0:
385,149,313205,1,0,3:0:0:0:
413,96,313275,1,0,3:0:0:0:
382,32,313345,6,0,P|352:19|314:17,3,50,6|0|0|0,3:0|3:0|3:0|3:0,3:0:0:0:
250,39,313624,5,8,3:0:0:0:
245,89,313694,1,8,3:0:0:0:
241,138,313763,1,8,3:0:0:0:
237,188,313833,1,8,3:0:0:0:
210,207,313903,5,8,3:0:0:0:
212,240,313973,1,8,3:0:0:0:
215,273,314042,1,8,3:0:0:0:
217,306,314112,1,8,3:0:0:0:
242,324,314182,5,8,3:0:0:0:
240,334,314252,1,8,3:0:0:0:
240,344,314321,1,8,3:0:0:0:
239,354,314391,1,8,3:0:0:0:
256,384,314461,6,0,L|249:303,3,60,4|0|0|0,3:0|3:0|3:0|3:0,3:0:0:0:
70,284,314740,5,2,3:0:0:0:
88,217,314810,1,8,3:0:0:0:
147,183,314880,1,0,3:0:0:0:
213,191,314949,1,8,3:0:0:0:
255,242,315019,1,2,3:0:0:0:
275,304,315089,1,8,3:0:0:0:
332,332,315159,1,0,3:0:0:0:
394,325,315228,1,8,3:0:0:0:
435,279,315298,5,2,3:0:0:0:
397,238,315368,1,8,3:0:0:0:
386,186,315438,1,0,3:0:0:0:
397,138,315507,1,8,3:0:0:0:
432,106,315577,1,2,3:0:0:0:
477,107,315647,1,8,3:0:0:0:
508,135,315717,1,0,3:0:0:0:
512,174,315787,1,8,3:0:0:0:
489,203,315856,5,2,3:0:0:0:
446,159,315926,1,8,3:0:0:0:
391,147,315996,1,0,3:0:0:0:
342,161,316066,1,8,3:0:0:0:
306,188,316135,1,2,3:0:0:0:
265,191,316205,1,8,3:0:0:0:
231,180,316275,1,0,3:0:0:0:
211,157,316345,1,8,3:0:0:0:
206,132,316414,5,2,3:0:0:0:
264,102,316484,1,8,3:0:0:0:
326,113,316554,1,0,3:0:0:0:
369,155,316624,1,8,3:0:0:0:
373,214,316694,1,2,3:0:0:0:
342,261,316763,1,8,3:0:0:0:
289,278,316833,1,0,3:0:0:0:
236,268,316903,1,8,3:0:0:0:
197,234,316973,1,2,3:0:0:0:
151,226,317042,1,8,3:0:0:0:
109,241,317112,1,0,3:0:0:0:
83,272,317182,1,8,3:0:0:0:
79,309,317252,1,2,3:0:0:0:
96,339,317321,1,8,3:0:0:0:
126,350,317391,1,0,3:0:0:0:
154,344,317461,1,8,3:0:0:0:
165,320,317531,1,2,3:0:0:0:
158,298,317600,1,8,3:0:0:0:
142,285,317670,1,0,3:0:0:0:
124,285,317740,1,8,3:0:0:0:
113,294,317810,6,0,P|105:318|126:353,3,50,2|8|0|8,3:0|3:0|3:0|3:0,3:0:0:0:
70,223,318089,2,0,P|47:234|37:273,3,50,2|8|0|8,3:0|3:0|3:0|3:0,3:0:0:0:
88,146,318368,2,0,P|64:138|29:159,3,50,2|8|0|8,3:0|3:0|3:0|3:0,3:0:0:0:
71,54,318647,5,2,3:0:0:0:
49,70,318717,1,8,3:0:0:0:
48,105,318787,1,0,3:0:0:0:
82,128,318856,1,8,3:0:0:0:
126,114,318926,1,2,3:0:0:0:
140,65,318996,1,8,3:0:0:0:
113,16,319066,1,0,3:0:0:0:
57,0,319135,1,8,3:0:0:0:
1,30,319205,5,2,3:0:0:0:
8,89,319275,1,8,3:0:0:0:
56,126,319345,1,0,3:0:0:0:
116,128,319414,1,8,3:0:0:0:
161,86,319484,1,2,3:0:0:0:
222,76,319554,1,8,3:0:0:0:
280,97,319624,1,0,3:0:0:0:
309,152,319694,1,8,3:0:0:0:
292,212,319763,5,2,3:0:0:0:
234,176,319833,1,8,3:0:0:0:
213,111,319903,1,0,3:0:0:0:
226,44,319973,1,8,3:0:0:0:
281,7,320042,1,2,3:0:0:0:
348,5,320112,1,8,3:0:0:0:
408,35,320182,1,0,3:0:0:0:
432,98,320252,1,8,3:0:0:0:
423,164,320321,1,2,3:0:0:0:
383,218,320391,1,8,3:0:0:0:
382,285,320461,1,0,3:0:0:0:
429,333,320531,1,8,3:0:0:0:
495,334,320600,6,0,P|511:311|512:288,3,50,4|0|0|0,3:1|3:0|3:0|3:0,3:0:0:0:
374,211,320880,2,0,P|358:251|374:287,3,50,4|0|0|0,3:2|3:0|3:0|3:0,3:0:0:0:
273,384,321159,5,8,3:2:0:0:
222,344,321228,1,8,2:3:0:0:
215,284,321298,1,8,2:3:0:0:
245,237,321368,1,8,2:3:0:0:
293,224,321438,5,8,3:0:0:0:
308,182,321507,1,8,2:3:0:0:
286,147,321577,1,8,2:3:0:0:
250,144,321647,1,8,2:3:0:0:
234,170,321717,2,0,P|256:200|281:201,3,50,4|0|0|0,3:2|3:0|3:0|3:0,3:0:0:0:
424,285,321996,5,8,3:0:0:0:
469,254,322066,1,8,2:3:0:0:
474,206,322135,1,8,2:3:0:0:
455,168,322205,1,8,2:3:0:0:
411,139,322275,5,8,3:0:0:0:
390,100,322345,1,8,2:3:0:0:
398,64,322414,1,8,2:3:0:0:
426,45,322484,1,8,2:3:0:0:
452,47,322554,5,6,3:0:0:0:
437,105,322624,1,0,3:0:0:0:
392,137,322694,1,0,3:0:0:0:
342,139,322763,1,0,3:0:0:0:
306,111,322833,1,8,3:0:0:0:
301,71,322903,1,8,3:0:0:0:
324,44,322973,1,8,3:0:0:0:
353,41,323042,1,8,3:0:0:0:
372,57,323112,5,8,3:0:0:0:
354,87,323182,1,8,3:0:0:0:
312,103,323252,1,8,3:0:0:0:
258,95,323321,1,8,3:0:0:0:
219,42,323391,6,0,B|176:32|176:32|132:66,1,89.9999999999998,6|0,3:0|3:0,3:0:0:0:
177,175,323670,2,0,P|186:99|119:80,1,150,4|0,3:2|3:0,3:0:0:0:
47,134,323949,1,10,3:0:0:0:
47,134,324019,1,0,3:0:0:0:
47,134,324089,2,0,L|-2:118,1,50,0|0,3:0|3:0,3:0:0:0:
102,320,324228,5,2,3:0:0:0:
144,293,324298,1,0,3:0:0:0:
157,244,324368,1,0,3:0:0:0:
140,196,324438,1,0,3:0:0:0:
95,174,324507,1,2,3:0:0:0:
45,181,324577,1,0,3:0:0:0:
17,222,324647,1,0,3:0:0:0:
25,271,324717,1,0,3:0:0:0:
63,299,324787,1,2,3:0:0:0:
98,293,324856,1,0,3:0:0:0:
116,263,324926,1,0,3:0:0:0:
108,233,324996,1,0,3:0:0:0:
91,222,325066,1,10,3:0:0:0:
76,226,325135,1,0,3:0:0:0:
67,238,325205,1,0,3:0:0:0:
65,253,325275,1,0,3:0:0:0:
71,266,325345,6,0,L|130:256,1,50,4|0,3:2|3:0,3:0:0:0:
184,354,325484,2,0,L|125:344,1,50,4|0,3:2|3:0,3:0:0:0:
233,229,325624,1,6,3:0:0:0:
233,229,325694,1,0,3:0:0:0:
233,229,325763,2,0,L|244:306,1,50,0|0,3:0|3:0,3:0:0:0:
293,375,325903,6,0,P|301:347|305:298,1,50,4|0,3:1|3:0,3:0:0:0:
365,246,326042,2,0,P|369:270|376:294,1,50,0|0,3:0|3:0,3:0:0:0:
458,355,326182,1,8,3:0:0:0:
458,355,326252,1,0,3:0:0:0:
458,355,326321,2,0,L|525:341,1,50,0|0,3:2|3:0,3:0:0:0:
478,243,326461,5,4,3:1:0:0:
436,215,326531,1,0,3:0:0:0:
414,170,326600,1,0,3:0:0:0:
426,121,326670,1,0,3:0:0:0:
462,86,326740,1,2,3:0:0:0:
462,35,326810,1,0,3:0:0:0:
421,5,326880,1,0,3:0:0:0:
372,12,326949,1,0,3:0:0:0:
344,53,327019,5,4,3:1:0:0:
378,81,327089,1,0,3:0:0:0:
383,120,327159,1,0,3:0:0:0:
367,150,327228,1,0,3:0:0:0:
338,160,327298,1,8,3:0:0:0:
313,152,327368,1,0,3:0:0:0:
304,133,327438,1,0,3:0:0:0:
310,114,327507,1,0,3:0:0:0:
328,106,327577,5,4,3:1:0:0:
353,142,327647,1,0,3:0:0:0:
345,191,327717,1,0,3:0:0:0:
304,220,327787,1,0,3:0:0:0:
255,228,327856,1,6,3:0:0:0:
210,205,327926,1,0,3:0:0:0:
184,161,327996,1,0,3:0:0:0:
144,130,328066,1,0,3:0:0:0:
94,132,328135,1,2,3:0:0:0:
52,160,328205,1,0,3:0:0:0:
39,208,328275,1,0,3:0:0:0:
52,256,328345,1,0,3:0:0:0:
92,284,328414,1,10,3:0:0:0:
142,281,328484,1,0,3:0:0:0:
181,250,328554,1,0,3:0:0:0:
188,200,328624,1,0,3:0:0:0:
158,159,328694,5,2,3:0:0:0:
151,145,328763,1,0,3:0:0:0:
149,129,328833,1,0,3:0:0:0:
152,114,328903,1,0,3:0:0:0:
159,100,328973,1,2,3:0:0:0:
170,90,329042,1,0,3:0:0:0:
183,84,329112,1,0,3:0:0:0:
197,82,329182,1,0,3:0:0:0:
211,85,329252,1,2,3:0:0:0:
223,92,329321,1,0,3:0:0:0:
232,103,329391,1,0,3:0:0:0:
237,117,329461,1,0,3:0:0:0:
235,131,329531,2,0,P|217:157|202:200,3,50,10|0|0|0,3:0|3:0|3:0|3:0,3:0:0:0:
146,225,329810,2,0,P|151:256|171:297,3,50,2|0|0|0,3:0|3:0|3:0|3:0,3:0:0:0:
243,352,330089,5,2,3:0:0:0:
257,353,330159,1,0,3:0:0:0:
271,354,330228,1,0,3:0:0:0:
285,355,330298,1,0,3:0:0:0:
299,357,330368,1,2,3:0:0:0:
313,359,330438,1,0,3:0:0:0:
327,361,330507,1,0,3:0:0:0:
341,363,330577,1,0,3:0:0:0:
355,365,330647,5,10,3:0:0:0:
338,346,330717,1,0,3:0:0:0:
327,317,330787,1,0,3:0:0:0:
331,282,330856,1,0,3:0:0:0:
357,251,330926,1,2,3:0:0:0:
399,236,330996,1,0,3:0:0:0:
447,248,331066,1,0,3:0:0:0:
479,291,331135,1,0,3:0:0:0:
476,351,331205,6,0,P|455:375|429:386,3,50,6|0|0|0,3:0|3:0|3:0|3:0,3:0:0:0:
320,361,331484,5,8,3:0:0:0:
318,320,331554,1,8,3:0:0:0:
316,279,331624,1,8,3:0:0:0:
314,238,331694,1,8,3:0:0:0:
327,210,331763,5,8,3:0:0:0:
330,190,331833,1,8,3:0:0:0:
333,170,331903,1,8,3:0:0:0:
336,150,331973,1,8,3:0:0:0:
357,143,332042,5,8,3:0:0:0:
360,128,332112,1,8,3:0:0:0:
364,113,332182,1,8,3:0:0:0:
368,98,332252,1,8,3:0:0:0:
394,62,332321,6,0,L|416:126,3,62.5,6|0|0|0,3:0|3:0|3:0|3:0,3:0:0:0:
377,244,332600,5,2,3:2:0:0:
340,201,332670,1,8,3:0:0:0:
284,188,332740,1,2,3:2:0:0:
232,211,332810,1,8,3:0:0:0:
200,257,332880,1,2,3:1:0:0:
163,298,332949,1,8,3:0:0:0:
108,312,333019,1,0,3:2:0:0:
56,289,333089,1,8,3:0:0:0:
30,238,333159,5,2,3:2:0:0:
42,177,333228,1,8,3:0:0:0:
93,141,333298,1,2,3:2:0:0:
155,142,333368,1,8,3:0:0:0:
205,179,333438,1,2,3:1:0:0:
237,231,333507,1,8,3:0:0:0:
288,266,333577,1,0,3:0:0:0:
344,267,333647,1,8,3:0:0:0:
381,233,333717,1,2,3:2:0:0:
390,190,333787,1,8,3:0:0:0:
375,156,333856,1,2,3:2:0:0:
346,141,333926,1,8,3:0:0:0:
323,151,333996,1,2,3:1:0:0:
322,169,334066,1,8,3:0:0:0:
331,176,334135,1,0,3:0:0:0:
342,173,334205,1,8,3:0:0:0:
348,162,334275,1,2,3:2:0:0:
337,146,334345,1,8,3:0:0:0:
312,150,334414,1,2,3:2:0:0:
305,180,334484,1,8,3:0:0:0:
331,207,334554,5,2,3:1:0:0:
386,195,334624,1,8,3:0:0:0:
413,145,334694,1,0,3:0:0:0:
403,90,334763,1,8,3:0:0:0:
358,55,334833,1,2,3:2:0:0:
301,48,334903,1,8,3:0:0:0:
254,79,334973,1,2,3:2:0:0:
224,126,335042,1,8,3:0:0:0:
173,151,335112,1,2,3:1:0:0:
123,142,335182,1,8,3:0:0:0:
94,108,335252,1,0,3:0:0:0:
98,71,335321,1,8,3:0:0:0:
117,52,335391,6,0,P|157:64|180:63,1,50,2|8,3:2|3:0,3:0:0:0:
206,171,335531,2,0,P|229:161|253:158,1,50,2|8,3:2|3:0,3:0:0:0:
293,47,335670,2,0,P|316:56|340:59,3,50,2|8|0|8,3:1|3:0|3:0|3:0,3:0:0:0:
433,138,335949,5,4,3:1:0:0:
476,174,336019,1,0,3:0:0:0:
481,230,336089,2,0,P|474:263|432:301,1,62.5,0|0,3:0|3:0,3:0:0:0:
351,341,336228,5,12,3:1:0:0:
309,301,336298,1,0,3:0:0:0:
253,290,336368,1,8,3:0:0:0:
200,310,336438,1,0,3:0:0:0:
168,355,336507,1,12,3:0:0:0:
118,381,336577,1,0,3:0:0:0:
61,372,336647,1,8,3:0:0:0:
20,333,336717,1,0,3:0:0:0:
15,276,336787,6,0,P|26:248|28:197,3,62.5,6|0|0|0,3:0|3:0|3:0|3:0,3:0:0:0:
29,72,337066,5,2,3:2:0:0:
66,30,337135,1,8,3:0:0:0:
122,25,337205,1,2,3:2:0:0:
171,52,337275,1,8,3:0:0:0:
193,103,337345,1,2,3:1:0:0:
173,155,337414,1,8,3:0:0:0:
131,193,337484,1,0,3:2:0:0:
108,244,337554,1,8,3:0:0:0:
115,299,337624,5,2,3:2:0:0:
158,343,337694,1,8,3:0:0:0:
219,346,337763,1,2,3:2:0:0:
270,309,337833,1,8,3:0:0:0:
282,247,337903,1,2,3:1:0:0:
258,188,337973,1,8,3:0:0:0:
208,150,338042,1,0,3:0:0:0:
191,96,338112,1,8,3:0:0:0:
216,53,338182,1,2,3:2:0:0:
258,43,338252,1,8,3:0:0:0:
289,62,338321,1,2,3:2:0:0:
295,92,338391,1,8,3:0:0:0:
282,113,338461,5,2,3:1:0:0:
270,108,338531,1,8,3:0:0:0:
258,104,338600,1,0,3:0:0:0:
245,103,338670,1,8,3:0:0:0:
232,105,338740,1,2,3:2:0:0:
220,110,338810,1,8,3:0:0:0:
209,117,338880,1,2,3:2:0:0:
200,125,338949,1,8,3:0:0:0:
193,135,339019,5,2,3:1:0:0:
234,162,339089,1,8,3:0:0:0:
248,210,339159,1,0,3:0:0:0:
233,257,339228,1,8,3:0:0:0:
189,282,339298,1,2,3:2:0:0:
171,329,339368,1,8,3:0:0:0:
194,373,339438,1,2,3:2:0:0:
242,383,339507,1,8,3:0:0:0:
283,355,339577,5,2,3:1:0:0:
249,309,339647,1,8,3:0:0:0:
193,301,339717,1,0,3:0:0:0:
142,326,339787,1,8,3:0:0:0:
98,360,339856,1,2,3:2:0:0:
47,359,339926,1,8,3:0:0:0:
14,330,339996,1,2,3:2:0:0:
14,292,340066,1,8,3:0:0:0:
33,269,340135,5,2,3:1:0:0:
76,305,340205,1,8,3:0:0:0:
132,305,340275,1,0,3:0:0:0:
170,264,340345,1,8,3:0:0:0:
183,210,340414,5,6,3:0:0:0:
130,188,340484,1,0,3:0:0:0:
83,220,340554,2,0,P|70:265|85:314,1,62.5,0|0,3:0|3:0,3:0:0:0:
238,381,340694,5,14,3:0:0:0:
298,349,340763,1,0,3:0:0:0:
319,283,340833,1,10,3:0:0:0:
293,218,340903,1,0,3:0:0:0:
241,172,340973,1,10,3:0:0:0:
195,121,341042,1,0,3:0:0:0:
196,52,341112,1,10,3:0:0:0:
247,6,341182,1,0,3:0:0:0:
315,10,341252,5,6,3:0:0:0:
303,31,341321,1,0,3:0:0:0:
270,45,341391,1,0,3:0:0:0:
224,43,341461,1,0,3:0:0:0:
180,8,341531,1,6,3:0:0:0:
120,1,341600,1,0,3:0:0:0:
60,38,341670,1,0,3:0:0:0:
49,107,341740,1,0,3:0:0:0:
95,159,341810,5,14,3:0:0:0:
144,149,341880,1,0,3:0:0:0:
154,110,341949,1,0,3:0:0:0:
142,82,342019,1,0,3:0:0:0:
122,77,342089,1,2,3:0:0:0:
88,86,342159,1,0,3:0:0:0:
68,125,342228,1,0,3:0:0:0:
80,178,342298,1,0,3:0:0:0:
135,212,342368,1,2,3:0:0:0:
169,267,342438,1,0,3:0:0:0:
159,330,342507,1,0,3:0:0:0:
112,375,342577,1,0,3:0:0:0:
46,373,342647,1,2,3:0:0:0:
3,323,342717,1,0,3:0:0:0:
5,257,342787,1,0,3:0:0:0:
49,210,342856,1,0,3:0:0:0:
114,209,342926,2,0,P|139:218|157:250,3,50,10|0|0|0,3:0|3:0|3:0|3:0,3:0:0:0:
172,327,343205,6,0,P|211:316|242:290,1,50,4|0,3:2|3:0,3:0:0:0:
267,219,343345,2,0,P|295:224|325:240,1,50,4|0,3:2|3:0,3:0:0:0:
394,328,343484,5,6,3:0:0:0:
356,371,343554,1,0,3:0:0:0:
313,376,343624,1,0,3:0:0:0:
280,347,343694,1,0,3:0:0:0:
279,327,343763,5,4,3:1:0:0:
328,284,343833,1,0,3:0:0:0:
342,225,343903,1,0,3:0:0:0:
327,171,343973,1,0,3:0:0:0:
282,149,344042,1,8,3:0:0:0:
239,165,344112,1,0,3:0:0:0:
228,203,344182,1,0,3:0:0:0:
248,231,344252,1,0,3:0:0:0:
276,239,344321,6,0,P|296:227|307:192,3,50,4|0|0|0,3:1|3:0|3:0|3:0,3:0:0:0:
404,143,344600,2,0,P|379:117|377:91,3,50,2|0|0|0,3:0|3:0|3:0|3:0,3:0:0:0:
269,8,344880,5,4,3:1:0:0:
205,20,344949,1,0,3:0:0:0:
161,61,345019,1,0,3:0:0:0:
154,115,345089,1,0,3:0:0:0:
179,157,345159,1,8,3:0:0:0:
222,166,345228,1,0,3:0:0:0:
259,151,345298,1,0,3:0:0:0:
273,118,345368,1,0,3:0:0:0:
261,90,345438,5,4,3:1:0:0:
246,94,345507,1,0,3:0:0:0:
236,105,345577,1,0,3:0:0:0:
231,119,345647,1,0,3:0:0:0:
232,133,345717,5,6,3:0:0:0:
275,108,345787,1,0,3:0:0:0:
319,112,345856,1,0,3:0:0:0:
352,133,345926,1,0,3:0:0:0:
367,164,345996,6,0,P|364:195|342:231,1,50,2|0,3:0|3:0,3:0:0:0:
285,275,346135,2,0,P|297:323|325:345,1,50,0|0,3:0|3:0,3:0:0:0:
371,383,346275,2,8,P|384:343|378:315,3,50,10|0|0|0,3:0|3:0|3:0|3:0,3:0:0:0:
484,215,346554,5,2,3:0:0:0:
430,178,346624,1,0,3:0:0:0:
367,182,346694,1,0,3:0:0:0:
323,222,346763,1,0,3:0:0:0:
312,278,346833,1,2,3:0:0:0:
272,316,346903,1,0,3:0:0:0:
219,311,346973,1,0,3:0:0:0:
186,273,347042,1,0,3:0:0:0:
191,225,347112,1,2,3:0:0:0:
227,198,347182,1,0,3:0:0:0:
268,206,347252,1,0,3:0:0:0:
284,242,347321,1,0,3:0:0:0:
264,274,347391,5,10,3:0:0:0:
220,239,347461,1,0,3:0:0:0:
168,234,347531,1,0,3:0:0:0:
125,253,347600,1,0,3:0:0:0:
109,293,347670,1,2,3:0:0:0:
124,328,347740,1,0,3:0:0:0:
156,340,347810,1,0,3:0:0:0:
184,328,347880,1,0,3:0:0:0:
190,302,347949,6,0,P|173:275|145:273,3,50,2|0|0|0,3:0|3:0|3:0|3:0,3:0:0:0:
144,164,348228,2,0,P|106:173|88:187,3,50,2|0|0|0,3:0|3:0|3:0|3:0,3:0:0:0:
94,368,348507,5,10,3:0:0:0:
126,381,348577,1,0,3:0:0:0:
157,375,348647,1,0,3:0:0:0:
178,353,348717,1,0,3:0:0:0:
183,326,348787,1,2,3:0:0:0:
201,310,348856,1,0,3:0:0:0:
223,308,348926,1,0,3:0:0:0:
240,317,348996,1,0,3:0:0:0:
246,330,349066,5,8,3:2:0:0:
221,276,349135,1,8,2:0:0:0:
238,218,349205,1,8,2:0:0:0:
291,188,349275,1,8,2:0:0:0:
357,194,349345,1,8,3:2:0:0:
407,162,349414,1,8,2:0:0:0:
427,105,349484,1,8,2:0:0:0:
396,52,349554,1,8,2:0:0:0:
326,41,349624,5,8,3:2:0:0:
322,106,349694,1,8,2:0:0:0:
372,152,349763,1,8,2:0:0:0:
447,156,349833,1,8,2:0:0:0:
498,98,349903,1,8,2:0:0:0:
225,7,350182,6,0,L|215:91,2,50,4|0|0,3:1|3:0|3:0,3:0:0:0:
112,90,350461,2,0,L|122:174,2,50,4|0|0,3:1|3:0|3:0,3:0:0:0:
223,207,350740,1,4,3:1:0:0:
223,207,350879,1,0,3:0:0:0:
79,334,351019,6,0,L|-4:326,2,80,12|4|4,3:1|3:1|3:1,3:0:0:0:
213,373,351856,5,4,3:1:0:0:
214,355,351926,1,0,3:0:0:0:
205,336,351995,1,0,3:0:0:0:
325,293,352135,1,4,3:1:0:0:
312,279,352205,1,0,3:0:0:0:
293,272,352275,1,0,3:0:0:0:
207,246,352414,1,4,3:1:0:0:
207,246,352554,1,0,3:0:0:0:
340,373,352693,6,0,B|413:362|413:362|418:365|418:365|509:353,1,150,12|0,3:1|3:0,3:0:0:0:
256,264,352972,2,0,B|329:253|329:253|334:256|334:256|425:244,1,150,12|0,3:1|3:0,3:0:0:0:
172,155,353251,1,12,3:1:0:0:
316,9,353530,5,4,3:1:0:0:
316,9,353600,1,0,3:0:0:0:
316,9,353670,1,0,3:0:0:0:
425,76,353809,1,4,3:1:0:0:
273,79,353949,1,0,3:0:0:0:
273,79,354019,1,0,3:0:0:0:
273,79,354088,1,4,3:1:0:0:
435,71,354228,1,0,3:0:0:0:
340,213,354368,6,0,L|334:305,2,80,12|4|4,3:1|3:1|3:1,3:0:0:0:
512,334,355205,5,4,3:1:0:0:
499,336,355275,1,0,3:0:0:0:
486,338,355344,1,0,3:0:0:0:
473,340,355414,1,0,3:0:0:0:
460,343,355484,1,4,3:1:0:0:
447,345,355554,1,0,3:0:0:0:
434,348,355623,1,0,3:0:0:0:
421,351,355693,1,0,3:0:0:0:
408,354,355763,1,4,3:1:0:0:
395,357,355833,1,0,3:0:0:0:
382,360,355902,1,0,3:0:0:0:
369,363,355972,1,0,3:0:0:0:
356,366,356042,5,4,3:0:0:0:
397,213,356182,1,8,3:0:0:0:
447,293,356321,1,8,3:0:0:0:
257,286,356461,5,6,3:0:0:0:
376,208,356600,1,8,3:0:0:0:
355,300,356740,1,8,3:0:0:0:
243,197,356879,6,0,L|248:142,2,50,4|0|0,3:1|3:0|3:0,3:0:0:0:
149,125,357158,2,0,L|144:70,2,50,4|0|0,3:1|3:0|3:0,3:0:0:0:
265,18,357437,1,4,3:1:0:0:
265,18,357577,1,0,3:0:0:0:
397,78,357716,6,0,L|493:66,2,80,12|4|4,3:1|3:1|3:1,3:0:0:0:
306,212,358554,5,4,3:1:0:0:
301,223,358623,1,0,3:0:0:0:
297,233,358693,1,0,3:0:0:0:
206,272,358833,1,4,3:1:0:0:
211,283,358902,1,0,3:0:0:0:
215,293,358972,1,0,3:0:0:0:
298,342,359112,1,4,3:1:0:0:
298,342,359251,1,0,3:0:0:0:
132,227,359391,6,0,B|125:300|125:300|121:304|121:304|114:385,1,150,12|0,3:1|3:0,3:0:0:0:
44,136,359670,2,0,B|37:209|37:209|33:213|33:213|26:294,1,150,12|0,3:1|3:0,3:0:0:0:
144,37,359949,1,12,3:1:0:0:
215,156,360228,5,4,3:1:0:0:
205,163,360298,1,0,3:0:0:0:
194,169,360368,1,0,3:0:0:0:
119,130,360507,1,4,3:1:0:0:
192,256,360647,1,0,3:0:0:0:
179,253,360716,1,0,3:0:0:0:
167,250,360786,1,4,3:1:0:0:
119,142,360926,1,0,3:0:0:0:
288,227,361065,6,0,L|293:315,2,80,12|4|4,3:1|3:1|3:1,3:0:0:0:
349,75,361902,5,4,3:1:0:0:
362,77,361972,1,0,3:0:0:0:
375,79,362042,1,0,3:0:0:0:
388,81,362112,1,0,3:0:0:0:
401,84,362182,1,4,3:1:0:0:
414,86,362251,1,0,3:0:0:0:
427,89,362321,1,0,3:0:0:0:
440,92,362391,1,0,3:0:0:0:
453,95,362461,1,4,3:1:0:0:
466,98,362530,1,0,3:0:0:0:
479,101,362600,1,0,3:0:0:0:
492,104,362670,1,0,3:0:0:0:
505,107,362740,5,4,3:0:0:0:
450,13,362879,1,8,3:0:0:0:
424,180,363019,1,8,3:0:0:0:
334,6,363158,5,6,3:0:0:0:
412,98,363298,1,8,3:0:0:0:
254,75,363437,1,8,3:0:0:0:
302,259,363577,5,6,3:0:0:0:
304,234,363647,1,0,3:0:0:0:
306,209,363716,1,0,3:0:0:0:
308,184,363786,1,0,3:0:0:0:
310,159,363856,6,0,L|376:147,1,50,2|0,3:0|3:0,3:0:0:0:
437,235,363995,2,0,L|371:223,1,50,0|0,3:0|3:0,3:0:0:0:
430,59,364135,1,2,3:0:0:0:
473,93,364205,1,0,3:0:0:0:
475,148,364275,1,0,3:0:0:0:
437,187,364344,1,0,3:0:0:0:
381,183,364414,6,0,B|350:140|363:80|363:80|373:112|403:122,1,150,10|0,3:0|3:0,3:0:0:0:
322,294,364693,2,0,P|281:256|227:278,1,100,2|0,3:0|3:0,3:0:0:0:
172,96,364972,2,0,B|190:127|190:127|170:212,1,100,2|0,3:0|3:0,3:0:0:0:
51,279,365251,5,2,3:0:0:0:
64,257,365321,1,0,3:0:0:0:
86,244,365391,1,0,3:0:0:0:
110,241,365461,1,0,3:0:0:0:
132,248,365530,5,2,3:0:0:0:
107,216,365600,1,0,3:0:0:0:
68,203,365670,1,0,3:0:0:0:
29,212,365740,1,0,3:0:0:0:
2,241,365809,5,2,3:0:0:0:
10,191,365879,1,0,3:0:0:0:
48,159,365949,1,0,3:0:0:0:
98,159,366019,1,0,3:0:0:0:
141,181,366088,6,0,B|132:244|132:244|128:249|128:249|112:355,1,150,10|0,3:0|3:0,3:0:0:0:
124,55,366368,2,0,B|106:49|86:21|86:21|43:68|-58:68,1,150,10|0,3:0|3:0,3:0:0:0:
230,213,366647,2,0,P|280:157|376:175,1,150,10|0,3:0|3:0,3:0:0:0:
463,286,366926,5,2,3:0:0:0:
464,276,366995,1,0,3:0:0:0:
466,266,367065,2,0,P|427:271|395:267,1,50,0|0,3:0|3:0,3:0:0:0:
341,319,367205,1,2,3:0:0:0:
344,343,367275,1,0,3:0:0:0:
349,367,367344,2,0,P|373:367|398:371,1,50,0|0,3:0|3:0,3:0:0:0:
469,256,367484,5,2,3:0:0:0:
474,210,367554,1,0,3:0:0:0:
480,165,367623,1,0,3:0:0:0:
486,120,367693,1,0,3:0:0:0:
490,75,367763,6,0,B|381:52|381:52|440:108,1,150,10|0,3:0|3:0,3:0:0:0:
238,18,368042,2,0,P|252:33|275:46,3,25,2|0|0|0,3:0|3:0|3:0|3:0,3:0:0:0:
209,141,368321,2,0,B|217:85|217:85|215:81|215:81|223:5,1,112.5,2|0,3:0|3:0,3:0:0:0:
125,6,368600,5,2,3:0:0:0:
94,9,368670,1,0,3:0:0:0:
76,33,368740,1,0,3:0:0:0:
78,62,368809,1,0,3:0:0:0:
90,92,368879,5,2,3:0:0:0:
139,92,368949,1,0,3:0:0:0:
174,127,369019,1,0,3:0:0:0:
171,177,369088,1,0,3:0:0:0:
138,214,369158,5,4,3:2:0:0:
108,221,369228,1,0,3:0:0:0:
87,254,369298,1,0,3:0:0:0:
94,293,369368,1,0,3:0:0:0:
127,315,369437,5,4,3:0:0:0:
179,64,369577,1,8,3:0:0:0:
263,200,369716,1,8,3:0:0:0:
69,158,369856,5,6,3:0:0:0:
299,89,369995,1,8,3:0:0:0:
224,211,370135,1,8,3:0:0:0:
437,298,370275,5,2,3:0:0:0:
408,271,370344,1,0,3:0:0:0:
369,258,370414,1,0,3:0:0:0:
329,267,370484,1,0,3:0:0:0:
298,293,370554,1,2,3:0:0:0:
281,328,370623,1,0,3:0:0:0:
243,343,370693,1,0,3:0:0:0:
203,335,370763,1,0,3:0:0:0:
175,305,370833,6,0,L|182:233,1,50,2|0,3:0|3:0,3:0:0:0:
106,158,370972,2,0,L|112:216,1,50,0|0,3:0|3:0,3:0:0:0:
269,92,371112,6,0,B|280:52|280:52|233:64|233:64|232:68|232:68|165:88,1,150,10|0,3:0|3:0,3:0:0:0:
65,23,371391,2,0,P|88:52|95:79,1,50,2|0,3:0|3:0,3:0:0:0:
24,121,371670,2,0,P|10:155|-9:174,1,50,2|0,3:0|3:0,3:0:0:0:
57,316,371949,5,2,3:0:0:0:
86,310,372019,1,0,3:0:0:0:
115,304,372088,1,0,3:0:0:0:
144,298,372158,1,0,3:0:0:0:
166,323,372228,5,2,3:0:0:0:
195,317,372298,1,0,3:0:0:0:
224,311,372368,1,0,3:0:0:0:
253,305,372437,1,0,3:0:0:0:
275,330,372507,5,2,3:0:0:0:
304,324,372577,1,0,3:0:0:0:
333,318,372647,1,0,3:0:0:0:
362,312,372716,1,0,3:0:0:0:
410,261,372786,6,0,B|393:208|408:153|408:153|391:176|353:182,1,150,10|0,3:0|3:0,3:0:0:0:
291,16,373065,2,0,B|313:-17|313:-17|339:130,1,150,10|0,3:0|3:0,3:0:0:0:
145,169,373344,2,0,B|177:152|177:152|247:184|247:184|293:166,1,150,10|0,3:0|3:0,3:0:0:0:
434,118,373623,5,2,3:0:0:0:
446,98,373693,1,0,3:0:0:0:
438,77,373763,1,0,3:0:0:0:
417,69,373833,1,0,3:0:0:0:
400,84,373902,1,2,3:0:0:0:
403,111,373972,1,0,3:0:0:0:
430,131,374042,1,0,3:0:0:0:
469,129,374112,1,0,3:0:0:0:
485,87,374181,5,2,3:0:0:0:
462,41,374251,1,0,3:0:0:0:
405,30,374321,1,0,3:0:0:0:
354,62,374391,1,0,3:0:0:0:
353,133,374461,6,0,B|361:169|361:169|360:174|360:174|373:231,5,75,10|0|0|0|2|0,3:0|3:0|3:0|3:0|3:0|3:0,3:0:0:0:
288,252,374879,1,0,3:0:0:0:
287,267,374949,1,0,3:0:0:0:
286,280,375019,2,0,L|305:336,3,50,2|0|0|0,3:0|3:0|3:0|3:0,3:0:0:0:
388,383,375298,5,2,3:0:0:0:
433,361,375368,1,0,3:0:0:0:
453,315,375437,1,0,3:0:0:0:
438,266,375507,1,0,3:0:0:0:
397,236,375577,5,2,3:0:0:0:
389,254,375647,1,0,3:0:0:0:
391,273,375716,1,0,3:0:0:0:
401,290,375786,1,0,3:0:0:0:
424,302,375856,5,0,3:0:0:0:
466,267,375926,1,0,3:0:0:0:
477,213,375995,1,0,3:0:0:0:
454,162,376065,1,0,3:0:0:0:
384,131,376135,6,0,B|312:153|312:153|310:159|310:159|200:191,1,150,6|8,3:0|3:0,3:0:0:0:
446,286,376414,1,8,3:0:0:0:
135,35,376554,6,0,B|207:57|207:57|209:63|209:63|319:95,1,150,6|8,3:0|3:0,3:0:0:0:
73,190,376833,1,8,3:0:0:0:
254,381,376972,5,6,3:0:0:0:
293,372,377042,1,0,3:0:0:0:
313,338,377112,1,0,3:0:0:0:
306,300,377181,1,0,3:0:0:0:
275,278,377251,1,0,3:0:0:0:
238,278,377321,1,0,3:0:0:0:
207,295,377391,5,10,3:2:0:0:
223,264,377461,1,0,3:0:0:0:
253,251,377530,1,2,3:2:0:0:
285,251,377600,1,0,3:0:0:0:
314,261,377670,1,2,3:2:0:0:
336,280,377740,1,0,3:0:0:0:
344,307,377809,1,2,3:2:0:0:
361,328,377879,1,0,3:0:0:0:
387,335,377949,1,2,3:2:0:0:
412,330,378019,1,0,3:0:0:0:
427,310,378088,1,2,3:2:0:0:
427,285,378158,1,0,3:0:0:0:
410,268,378228,5,10,3:2:0:0:
395,283,378298,1,0,3:0:0:0:
392,302,378368,1,2,3:2:0:0:
396,320,378437,1,0,3:0:0:0:
406,334,378507,1,2,3:2:0:0:
421,340,378577,1,0,3:0:0:0:
436,342,378647,1,2,3:2:0:0:
454,340,378716,1,0,3:0:0:0:
473,329,378786,1,2,3:2:0:0:
487,308,378856,1,0,3:0:0:0:
493,281,378926,1,2,3:2:0:0:
489,251,378995,1,0,3:0:0:0:
472,222,379065,6,0,L|419:214,1,35,10|0,3:2|3:0,3:0:0:0:
358,280,379205,2,0,L|395:274,1,37.5000000000001,2|0,3:2|3:0,3:0:0:0:
483,286,379344,6,0,L|476:241,1,40,2|0,3:2|3:0,3:0:0:0:
377,151,379484,2,0,L|370:195,1,42.5000000000002,2|0,3:2|3:0,3:0:0:0:
344,306,379623,6,0,L|299:299,1,45,2|0,3:2|3:0,3:0:0:0:
215,200,379763,2,0,L|165:206,1,47.4999999999999,2|0,3:2|3:0,3:0:0:0:
52,353,379902,5,10,3:2:0:0:
81,371,379972,1,0,3:0:0:0:
120,364,380042,1,2,3:2:0:0:
144,326,380112,1,0,3:0:0:0:
134,277,380181,1,2,3:2:0:0:
89,244,380251,1,0,3:0:0:0:
28,246,380321,5,6,3:0:0:0:
30,260,380391,1,0,3:0:0:0:
35,274,380461,1,0,3:0:0:0:
44,285,380530,1,0,3:0:0:0:
55,294,380600,1,0,3:0:0:0:
68,299,380670,1,0,3:0:0:0:
82,303,380740,2,0,P|110:299|136:278,5,50,10|0|2|0|2|0,3:0|3:0|3:0|3:0|3:0|3:0,3:0:0:0:
145,185,381158,5,2,3:0:0:0:
171,170,381228,1,0,3:0:0:0:
198,170,381298,1,2,3:0:0:0:
221,179,381368,1,0,3:0:0:0:
236,195,381437,1,2,3:0:0:0:
242,213,381507,1,0,3:0:0:0:
243,230,381577,5,10,3:0:0:0:
249,216,381647,1,0,3:0:0:0:
260,206,381716,1,2,3:0:0:0:
274,201,381786,1,0,3:0:0:0:
289,202,381856,1,2,3:0:0:0:
302,208,381926,1,0,3:0:0:0:
311,219,381995,1,2,3:0:0:0:
333,230,382065,1,0,3:0:0:0:
356,229,382135,1,2,3:0:0:0:
374,219,382205,1,0,3:0:0:0:
381,201,382275,1,2,3:0:0:0:
378,184,382344,1,0,3:0:0:0:
365,175,382414,5,10,3:0:0:0:
361,189,382484,1,0,3:0:0:0:
363,203,382554,1,2,3:0:0:0:
371,215,382623,1,0,3:0:0:0:
383,222,382693,1,2,3:0:0:0:
397,225,382763,1,0,3:0:0:0:
411,222,382833,5,6,3:0:0:0:
474,41,382972,1,8,3:0:0:0:
245,165,383112,1,8,3:0:0:0:
352,173,383251,1,6,3:0:0:0:
206,0,383391,5,8,3:0:0:0:
116,236,383530,1,8,3:0:0:0:
256,169,383659,5,6,3:0:0:0:
252,154,383728,1,0,3:0:0:0:
241,143,383798,1,0,3:0:0:0:
226,137,383868,1,0,3:0:0:0:
211,135,383938,1,0,3:0:0:0:
197,140,384007,1,0,3:0:0:0:
185,148,384077,5,10,3:2:0:0:
203,124,384147,1,0,3:0:0:0:
229,114,384217,1,2,3:2:0:0:
255,114,384286,1,0,3:0:0:0:
277,123,384356,1,2,3:2:0:0:
291,139,384426,1,0,3:0:0:0:
298,157,384496,1,2,3:2:0:0:
324,187,384565,1,0,3:0:0:0:
362,193,384635,1,2,3:2:0:0:
398,183,384705,1,0,3:0:0:0:
420,154,384775,6,0,L|428:92,1,40,2|0,3:2|3:0,3:0:0:0:
341,36,384914,2,0,L|349:98,1,42.5000000000002,10|0,3:2|3:0,3:0:0:0:
286,145,385054,2,0,L|278:207,1,45,2|0,3:2|3:0,3:0:0:0:
391,227,385193,2,0,L|399:289,1,47.4999999999999,2|0,3:2|3:0,3:0:0:0:
244,362,385333,5,2,3:2:0:0:
219,364,385403,1,0,3:0:0:0:
192,350,385472,1,2,3:2:0:0:
183,315,385542,1,0,3:0:0:0:
201,279,385612,1,2,3:2:0:0:
243,265,385682,1,0,3:0:0:0:
290,281,385752,5,10,3:2:0:0:
309,265,385821,1,0,3:0:0:0:
315,238,385891,1,2,3:2:0:0:
307,208,385961,1,0,3:0:0:0:
283,184,386031,1,2,3:2:0:0:
248,179,386100,1,0,3:0:0:0:
215,196,386170,1,2,3:2:0:0:
175,191,386240,1,0,3:0:0:0:
143,162,386310,1,2,3:2:0:0:
131,118,386379,1,0,3:0:0:0:
151,75,386449,1,2,3:2:0:0:
194,52,386519,1,0,3:0:0:0:
246,57,386589,5,10,3:2:0:0:
238,111,386659,1,0,3:0:0:0:
196,150,386728,1,2,3:2:0:0:
137,158,386798,1,0,3:0:0:0:
79,132,386868,1,2,3:2:0:0:
43,77,386938,1,0,3:0:0:0:
53,10,387007,5,6,3:0:0:0:
77,11,387077,1,0,3:0:0:0:
98,24,387147,1,0,3:0:0:0:
112,44,387217,1,0,3:0:0:0:
118,68,387286,1,0,3:0:0:0:
112,92,387356,1,0,3:0:0:0:
102,114,387426,6,0,P|80:134|54:142,5,50,10|0|2|0|2|0,3:0|3:0|3:0|3:0|3:0|3:0,3:0:0:0:
143,211,387845,2,0,P|146:240|161:265,5,50,2|0|2|0|2|0,3:0|3:0|3:0|3:0|3:0|3:0,3:0:0:0:
60,286,388263,2,0,B|52:314|24:337,5,50,10|0|2|0|2|0,3:0|3:0|3:0|3:0|3:0|3:0,3:0:0:0:
201,384,388674,5,8,3:0:0:0:
258,354,388740,1,8,3:0:0:0:
286,295,388807,1,8,3:0:0:0:
282,230,388874,1,8,3:0:0:0:
251,172,388940,1,8,3:0:0:0:
192,142,389007,1,8,3:0:0:0:
126,145,389101,5,8,3:0:0:0:
78,117,389170,1,8,3:0:0:0:
68,66,389240,1,8,3:0:0:0:
90,24,389310,1,8,3:0:0:0:
132,16,389380,1,8,3:0:0:0:
160,43,389449,1,8,3:0:0:0:
153,77,389519,5,8,3:0:0:0:
123,86,389589,1,8,3:0:0:0:
100,70,389660,1,8,3:0:0:0:
101,46,389731,1,8,3:0:0:0:
117,37,389802,1,8,3:0:0:0:
131,40,389872,1,8,3:0:0:0:
135,49,389949,2,0,B|125:159|125:159|127:164|127:164|117:287,1,239.999992675781,4|0,3:0|3:0,3:0:0:0:
203,371,390368,6,0,P|250:343|288:358,2,75.0000000000002,8|0|0,3:0|3:0|3:0,3:0:0:0:
83,293,390786,1,8,3:0:0:0:
73,305,391065,5,0,3:0:0:0:
197,255,391205,2,0,L|205:175,2,75.0000000000002,8|0|0,3:0|3:0|3:0,3:0:0:0:
306,164,391623,1,8,3:0:0:0:
304,148,391902,5,0,3:0:0:0:
372,273,392042,2,0,L|359:376,2,75.0000000000002,8|0|0,3:0|3:0|3:0,3:0:0:0:
500,232,392461,1,8,3:0:0:0:
510,243,392740,5,0,3:0:0:0:
337,137,392879,2,0,L|366:141,1,18.75,8|8,3:0|3:0,3:0:0:0:
488,69,393019,1,0,3:0:0:0:
407,222,393158,1,0,3:0:0:0:
376,26,393298,6,0,L|387:50,1,18.75,8|8,3:0|3:0,3:0:0:0:
466,160,393437,1,0,3:0:0:0:
282,78,393577,1,0,3:0:0:0:
251,250,393716,5,6,3:0:0:0:
262,230,393786,1,0,3:0:0:0:
261,207,393856,1,0,3:0:0:0:
249,187,393926,1,0,3:0:0:0:
229,176,393995,1,6,3:0:0:0:
206,171,394065,1,0,3:0:0:0:
183,175,394135,1,0,3:0:0:0:
164,187,394205,1,0,3:0:0:0:
153,207,394274,1,6,3:0:0:0:
140,220,394344,1,0,3:0:0:0:
125,223,394414,1,0,3:0:0:0:
114,218,394484,1,0,3:0:0:0:
108,207,394554,5,14,3:0:0:0:
112,212,394623,1,0,3:0:0:0:
114,219,394693,1,0,3:0:0:0:
115,226,394763,1,0,3:0:0:0:
113,233,394833,1,6,3:0:0:0:
109,239,394902,1,0,3:0:0:0:
105,245,394972,1,0,3:0:0:0:
100,251,395042,1,0,3:0:0:0:
94,256,395112,1,6,3:0:0:0:
87,259,395181,1,0,3:0:0:0:
79,259,395251,1,0,3:0:0:0:
71,257,395321,1,0,3:0:0:0:
65,252,395391,5,6,3:0:0:0:
82,245,395461,1,0,3:0:0:0:
100,243,395530,1,0,3:0:0:0:
118,248,395600,1,0,3:0:0:0:
131,261,395670,1,6,3:0:0:0:
138,278,395740,1,0,3:0:0:0:
145,295,395809,1,0,3:0:0:0:
158,308,395879,1,0,3:0:0:0:
174,316,395949,1,6,3:0:0:0:
192,318,396019,1,0,3:0:0:0:
210,313,396088,1,0,3:0:0:0:
225,301,396158,1,0,3:0:0:0:
230,283,396228,5,14,3:0:0:0:
219,293,396298,1,0,3:0:0:0:
212,306,396368,1,0,3:0:0:0:
210,320,396437,1,0,3:0:0:0:
214,334,396507,1,6,3:0:0:0:
223,345,396577,1,0,3:0:0:0:
236,351,396647,1,0,3:0:0:0:
250,354,396716,1,0,3:0:0:0:
265,352,396786,1,6,3:0:0:0:
278,345,396856,1,0,3:0:0:0:
288,334,396926,1,0,3:0:0:0:
291,319,396995,1,0,3:0:0:0:
287,304,397065,6,0,L|248:318,1,37.5000000000001,10|0,3:0|3:0,3:0:0:0:
370,243,397205,2,0,L|409:257,1,37.5000000000001,8|0,3:0|3:0,3:0:0:0:
281,206,397344,2,0,L|274:169,1,37.5000000000001,8|0,3:0|3:0,3:0:0:0:
364,329,397484,6,0,L|358:382,1,37.5000000000001,10|0,3:0|3:0,3:0:0:0:
355,159,397623,2,0,L|350:121,1,37.5000000000001,8|0,3:0|3:0,3:0:0:0:
488,275,397763,2,0,L|494:328,1,37.5000000000001,8|0,3:0|3:0,3:0:0:0:
480,164,397902,5,8,3:0:0:0:
482,149,397972,1,8,3:0:0:0:
484,134,398042,1,8,3:0:0:0:
510,61,398181,1,8,3:0:0:0:
340,45,398321,6,0,L|355:2,1,37.5000000000001,10|0,3:0|3:0,3:0:0:0:
349,132,398461,2,0,L|354:169,1,37.5000000000001,8|0,3:0|3:0,3:0:0:0:
270,96,398600,2,0,L|234:109,1,37.5000000000001,8|0,3:0|3:0,3:0:0:0:
239,283,398740,5,10,3:0:0:0:
250,266,398809,1,0,3:0:0:0:
251,245,398879,1,8,3:0:0:0:
244,226,398949,1,0,3:0:0:0:
229,211,399019,1,8,3:0:0:0:
210,204,399088,1,0,3:0:0:0:
190,207,399158,6,0,L|184:256,1,37.5000000000001,10|0,3:0|3:0,3:0:0:0:
116,355,399298,2,0,L|111:317,1,37.5000000000001,8|0,3:0|3:0,3:0:0:0:
194,214,399437,2,0,L|188:263,1,37.5000000000001,8|0,3:0|3:0,3:0:0:0:
33,234,399577,5,8,3:0:0:0:
29,220,399647,1,8,3:0:0:0:
26,206,399716,1,8,3:0:0:0:
52,109,399856,1,8,3:0:0:0:
194,174,399995,6,0,L|142:170,1,37.5000000000001,10|0,3:0|3:0,3:0:0:0:
46,97,400135,2,0,L|98:93,1,37.5000000000001,8|0,3:0|3:0,3:0:0:0:
201,185,400274,2,0,L|149:181,1,37.5000000000001,8|0,3:0|3:0,3:0:0:0:
256,26,400414,5,6,3:0:0:0:
274,26,400484,1,0,3:0:0:0:
291,33,400554,1,0,3:0:0:0:
304,46,400623,1,0,3:0:0:0:
313,62,400693,1,6,3:0:0:0:
315,80,400763,1,0,3:0:0:0:
310,98,400833,1,0,3:0:0:0:
297,111,400902,1,0,3:0:0:0:
289,128,400972,1,6,3:0:0:0:
286,146,401042,1,0,3:0:0:0:
291,164,401112,1,0,3:0:0:0:
304,176,401181,1,0,3:0:0:0:
322,180,401251,5,14,3:0:0:0:
311,169,401321,1,0,3:0:0:0:
296,165,401391,1,0,3:0:0:0:
281,166,401461,1,0,3:0:0:0:
267,172,401530,1,6,3:0:0:0:
257,183,401600,1,0,3:0:0:0:
250,196,401670,1,0,3:0:0:0:
249,211,401740,1,0,3:0:0:0:
252,225,401809,1,6,3:0:0:0:
262,236,401879,1,0,3:0:0:0:
274,243,401949,1,0,3:0:0:0:
288,247,402019,1,0,3:0:0:0:
302,245,402088,5,8,3:0:0:0:
338,218,402158,1,8,3:0:0:0:
382,210,402228,1,8,3:0:0:0:
426,219,402298,1,8,3:0:0:0:
456,252,402368,5,8,3:0:0:0:
459,233,402437,1,8,3:0:0:0:
462,214,402507,1,8,3:0:0:0:
465,195,402577,1,8,3:0:0:0:
491,166,402647,6,0,L|498:258,1,75.0000000000002,4|0,3:2|3:0,3:0:0:0:
389,76,402926,2,0,L|394:1,1,75.0000000000002,4|0,3:1|3:0,3:0:0:0:
287,201,403205,2,0,L|294:293,1,75.0000000000002,6|0,3:0|3:0,3:0:0:0:
155,84,403484,2,0,L|160:9,1,75.0000000000002,6|0,3:0|3:0,3:0:0:0:
0,227,403763,6,0,P|21:198|70:193,2,75.0000000000002,8|0|0,3:0|3:0|3:0,3:0:0:0:
135,232,404181,2,0,B|127:298|127:298|128:303|128:303|117:393,1,150,8|0,3:0|3:0,3:0:0:0:
287,296,404600,6,0,P|255:316|209:318,2,75.0000000000002,8|0|0,3:0|3:0|3:0,3:0:0:0:
190,157,405019,2,0,B|210:125|210:125|229:251,1,150,8|0,3:0|3:0,3:0:0:0:
358,340,405437,6,0,P|369:287|359:254,2,75.0000000000002,8|0|0,3:0|3:0|3:0,3:0:0:0:
491,241,405856,2,0,B|461:219|412:227|427:252|385:270|345:253,1,150,8|0,3:0|3:0,3:0:0:0:
294,39,406264,6,0,L|263:33,1,18.75,8|8,3:0|3:0,3:0:0:0:
457,111,406403,1,0,3:0:0:0:
356,168,406543,1,0,3:0:0:0:
368,18,406682,6,0,L|374:-13,1,18.75,8|8,3:0|3:0,3:0:0:0:
345,181,406822,1,0,3:0:0:0:
431,108,406961,1,0,3:0:0:0:
459,268,407101,6,0,P|432:298|430:339,1,75.0000000000002,8|0,3:0|3:0,3:0:0:0:
489,382,407380,1,0,3:0:0:0:
445,249,407519,2,0,B|395:238|395:238|356:258|356:258|291:247,1,150,8|0,3:0|3:0,3:0:0:0:
143,317,407938,6,0,L|235:303,1,75.0000000000002,8|0,3:0|3:0,3:0:0:0:
285,348,408217,1,0,3:0:0:0:
285,127,408357,2,0,B|260:163|260:163|288:269,1,150,8|0,3:0|3:0,3:0:0:0:
86,83,408775,6,0,P|131:47|160:46,1,75.0000000000002,8|0,3:0|3:0,3:0:0:0:
217,79,409054,1,0,3:0:0:0:
126,273,409194,2,0,B|137:213|137:213|136:204|136:204|153:115,1,150,8|0,3:0|3:0,3:0:0:0:
3,49,409612,6,0,L|9:77,1,18.75,8|8,3:0|3:0,3:0:0:0:
29,239,409752,1,0,3:0:0:0:
75,154,409891,1,0,3:0:0:0:
126,355,410031,6,0,L|120:327,1,18.75,8|8,3:0|3:0,3:0:0:0:
100,165,410170,1,0,3:0:0:0:
54,250,410310,1,0,3:0:0:0:
217,325,410450,6,0,P|251:298|295:297,2,75.0000000000002,8|0|0,3:0|3:0|3:0,3:0:0:0:
375,285,410868,2,0,B|344:263|344:263|302:303|335:386,1,150,8|0,3:0|3:0,3:0:0:0:
470,186,411287,6,0,L|484:276,1,75.0000000000002,8|0,3:0|3:0,3:0:0:0:
443,328,411566,1,0,3:0:0:0:
309,191,411705,2,0,B|359:181|359:181|395:207|395:207|462:196,1,150,8|0,3:0|3:0,3:0:0:0:
481,50,412124,6,0,P|501:100|489:129,2,75.0000000000002,8|0|0,3:0|3:0|3:0,3:0:0:0:
386,6,412543,2,0,B|302:-15|331:58|225:25,1,150,8|0,3:0|3:0,3:0:0:0:
137,120,412961,6,0,L|108:114,1,18.75,8|8,3:0|3:0,3:0:0:0:
305,147,413101,1,0,3:0:0:0:
227,207,413240,1,0,3:0:0:0:
235,62,413380,6,0,L|239:35,1,18.75,8|8,3:0|3:0,3:0:0:0:
215,219,413519,1,0,3:0:0:0:
159,132,413659,1,0,3:0:0:0:
28,260,413798,6,0,P|61:293|95:306,2,75.0000000000002,8|0|0,3:0|3:0|3:0,3:0:0:0:
180,356,414217,2,0,B|146:331|146:331|40:380,1,150,8|0,3:0|3:0,3:0:0:0:
239,224,414636,6,0,P|229:277|236:304,2,75.0000000000002,8|0|0,3:0|3:0|3:0,3:0:0:0:
296,348,415054,2,0,B|381:353|343:284|440:293,1,150,8|0,3:0|3:0,3:0:0:0:
485,183,415473,6,0,P|434:166|417:140,2,75.0000000000002,8|0|0,3:0|3:0|3:0,3:0:0:0:
381,73,415891,2,0,L|357:237,1,150,8|0,3:0|3:0,3:0:0:0:
177,169,416310,6,0,P|214:143|258:145,1,75.0000000000002,8|0,3:0|3:0,3:0:0:0:
291,203,416589,1,0,3:0:0:0:
123,322,416729,5,8,3:0:0:0:
256,192,416775,12,0,423698,2:0:0:0:
347,259,442929,5,6,3:2:0:0:
327,285,443116,1,8,2:0:0:0:
257,301,443304,1,2,2:3:0:0:
184,246,443491,1,0,3:0:0:0:
421,73,443679,6,0,P|422:130|466:169,1,100,10|2,2:0|2:0,2:0:0:0:
290,205,444054,1,2,2:0:0:0:
303,22,444241,2,0,P|258:55|193:37,2,100,0|0|2,2:0|3:0|2:0,2:0:0:0:
157,3,444804,5,8,2:0:0:0:
71,85,444991,1,0,3:0:0:0:
277,146,445179,2,0,P|275:112|262:72,2,59.9999999999999,10|2|2,2:0|2:0|2:0,2:0:0:0:
123,171,445741,5,8,2:0:0:0:
139,159,445835,1,8,2:0:0:0:
159,160,445929,1,0,3:0:0:0:
186,183,446116,1,2,2:0:0:0:
199,296,446304,1,8,2:0:0:0:
123,341,446491,1,2,3:2:0:0:
9,136,446679,5,10,2:0:0:0:
123,179,446866,2,0,P|96:197|54:193,2,59.9999999999999,2|2|8,2:0|2:0|2:0,2:0:0:0:
74,41,447429,5,2,3:2:0:0:
164,8,447616,1,2,2:0:0:0:
242,141,447804,5,10,2:0:0:0:
388,170,447991,1,2,3:2:0:0:
280,0,448179,2,0,P|295:39|326:57,2,59.9999999999999,10|2|2,2:0|2:0|2:0,2:0:0:0:
422,79,448741,5,2,2:3:0:0:
367,235,448929,2,0,P|359:195|370:166,1,59.9999999999999,2|2,3:2|2:0,2:0:0:0:
493,349,449304,6,0,P|449:351|406:404,1,80,2|8,3:2|2:0,2:0:0:0:
270,291,449679,2,0,P|295:310|341:307,2,59.9999999999999,10|2|2,2:0|2:0|2:0,2:0:0:0:
144,377,450241,5,8,2:0:0:0:
161,378,450335,1,8,2:0:0:0:
178,372,450429,1,2,3:2:0:0:
190,298,450616,1,2,2:0:0:0:
112,241,450804,1,8,2:0:0:0:
18,282,450991,1,2,3:2:0:0:
251,346,451179,5,10,2:0:0:0:
294,189,451366,2,0,P|254:188|228:207,1,59.9999999999999,2|2,2:0|2:0,2:0:0:0:
337,322,451741,2,0,P|382:321|422:282,2,80,8|2|2,2:0|3:2|2:0,2:0:0:0:
409,141,452304,5,8,2:0:0:0:
461,236,452491,1,2,3:2:0:0:
512,40,452679,1,10,2:0:0:0:
342,127,452866,2,8,P|374:144|411:141,2,59.9999999999999,2|2|0,2:0|2:0|2:0,2:0:0:0:
325,28,453429,5,2,3:2:0:0:
255,83,453616,1,2,2:0:0:0:
161,7,453804,1,8,2:0:0:0:
21,100,453991,1,0,3:0:0:0:
241,171,454179,6,0,P|237:167|233:152,1,20,8|8,2:0|2:0,2:0:0:0:
136,246,454429,2,0,P|139:242|142:231,1,16.6666666666667,8|8,2:0|2:0,2:0:0:0:
225,298,454679,2,0,P|222:295|219:285,1,13.3333333333333,8|8,2:0|2:0,2:0:0:0:
71,376,454929,6,0,P|103:375|121:389,1,50,6|0,3:0|2:0,2:0:0:0:
219,307,455304,2,0,P|278:317|309:296,1,69.9999978637696,2|0,3:0|3:0,2:0:0:0:
468,318,455679,5,10,2:0:0:0:
373,360,455866,1,2,2:0:0:0:
363,362,455960,1,2,2:0:0:0:
353,360,456054,2,0,P|325:339|315:295,1,69.9999999999999,2|2,2:0|2:0,2:0:0:0:
393,127,456429,6,0,B|353:103|301:148|318:160|279:208|202:173,1,200,2|8,3:2|2:0,2:0:0:0:
318,24,456991,1,0,2:0:0:0:
378,247,457179,2,0,P|429:261|500:219,1,120,0|2,2:0|2:0,2:0:0:0:
461,77,457554,5,2,2:0:0:0:
397,119,457741,1,8,2:0:0:0:
295,22,457929,2,0,P|255:13|183:41,1,100,2|2,3:2|2:0,2:0:0:0:
144,210,458304,5,8,2:0:0:0:
213,176,458491,1,0,3:0:0:0:
15,124,458679,2,0,P|37:151|41:186,2,59.9999999999999,10|2|2,2:0|2:0|2:0,2:0:0:0:
131,15,459241,5,0,2:0:0:0:
108,31,459429,1,0,3:0:0:0:
89,100,459616,1,2,2:0:0:0:
146,201,459804,5,8,2:0:0:0:
88,331,459991,1,0,3:0:0:0:
7,134,460179,5,8,2:0:0:0:
179,93,460366,2,0,P|139:141|142:199,1,120,2|2,2:0|2:3,2:0:0:0:
275,307,460929,5,0,3:0:0:0:
289,280,461116,1,2,2:0:0:0:
259,199,461304,1,0,2:0:0:0:
153,198,461491,1,2,2:0:0:0:
355,331,461679,5,10,2:0:0:0:
339,218,461866,1,2,2:0:0:0:
408,162,462054,2,0,P|435:155|471:167,1,59.9999999999999,2|8,2:0|2:0,2:0:0:0:
475,174,462335,1,8,2:0:0:0:
479,189,462429,5,2,3:2:0:0:
512,116,462616,1,2,2:0:0:0:
472,21,462804,1,8,2:0:0:0:
358,2,462991,1,0,3:0:0:0:
297,255,463179,5,10,2:0:0:0:
150,137,463366,2,0,P|197:122|249:145,1,80,2|2,2:0|2:0,2:0:0:0:
153,305,463741,5,8,2:0:0:0:
141,311,463929,1,2,3:2:0:0:
89,312,464116,1,2,2:0:0:0:
29,264,464304,1,8,2:0:0:0:
22,180,464491,1,2,3:2:0:0:
288,137,464679,5,10,2:0:0:0:
334,236,464866,1,2,2:0:0:0:
284,292,465054,1,2,2:0:0:0:
298,316,465241,1,0,2:0:0:0:
471,186,465429,5,0,2:0:0:0:
431,119,465616,1,2,2:0:0:0:
314,70,465804,1,8,2:0:0:0:
173,119,465991,1,0,3:0:0:0:
357,366,466179,5,10,2:0:0:0:
305,270,466366,1,2,2:0:0:0:
341,196,466554,2,0,P|370:183|402:190,1,60,2|0,2:3|3:0,2:0:0:0:
260,110,466929,5,6,3:0:0:0:
248,102,467292,2,0,L|253:47,1,50,10|2,2:0|2:0,2:0:0:0:
159,64,467656,2,0,L|164:9,1,50,10|2,2:0|2:0,2:0:0:0:
39,98,468019,1,10,2:0:0:0:
113,142,468201,1,2,3:2:0:0:
5,220,468383,6,0,L|-1:276,1,50,10|2,3:2|2:0,2:0:0:0:
79,270,468747,2,0,L|73:326,1,50,10|2,2:0|2:0,2:0:0:0:
217,368,469110,1,10,2:0:0:0:
171,305,469292,1,2,3:2:0:0:
286,322,469474,2,0,L|356:328,1,50,10|2,3:2|2:0,2:0:0:0:
460,261,469838,6,0,P|424:257|403:258,1,50,10|2,2:0|2:0,2:0:0:0:
512,183,470201,2,0,P|482:161|464:151,1,50,10|2,2:0|2:0,2:0:0:0:
485,7,470565,1,10,2:0:0:0:
502,83,470747,1,2,3:2:0:0:
421,99,470929,1,10,2:0:0:0:
405,23,471110,1,2,3:2:0:0:
318,116,471292,6,0,L|311:174,1,50,10|2,3:2|2:0,2:0:0:0:
267,37,471656,1,10,2:0:0:0:
215,135,471838,2,0,L|217:174,1,25,2|0,3:0|2:0,2:0:0:0:
272,29,472019,1,10,2:0:0:0:
208,142,472201,2,0,L|209:182,1,25,2|0,3:0|2:0,2:0:0:0:
278,19,472383,1,10,2:0:0:0:
189,49,472565,1,2,3:2:0:0:
65,15,472747,6,0,P|94:44|96:113,1,100,10|10,3:2|2:0,2:0:0:0:
66,205,473292,2,0,P|28:187|6:181,1,50,2|10,2:0|2:0,2:0:0:0:
109,278,473656,2,0,P|69:292|49:303,1,50,2|10,3:2|2:0,2:0:0:0:
156,203,474019,1,2,3:2:0:0:
186,332,474201,6,0,P|226:324|276:364,1,100,10|10,3:2|2:0,2:0:0:0:
381,295,474747,2,0,P|361:323|348:345,1,50,2|10,2:0|2:0,2:0:0:0:
504,374,475110,2,0,P|490:352|475:332,1,50,2|10,3:2|2:0,2:0:0:0:
498,246,475474,1,2,3:2:0:0:
377,277,475656,6,0,L|369:169,1,100,10|10,3:2|2:0,2:0:0:0:
481,88,476201,2,0,P|469:105|453:133,1,50,2|10,2:0|2:0,2:0:0:0:
367,4,476565,2,0,P|379:21|395:49,1,50,2|10,3:2|2:0,2:0:0:0:
371,138,476929,1,2,3:2:0:0:
217,59,477110,6,0,P|268:58|295:100,1,100,10|2,3:2|2:0,2:0:0:0:
131,37,477656,2,0,L|133:-6,1,25,2|0,3:0|2:0,2:0:0:0:
52,103,477838,1,10,2:0:0:0:
139,49,478019,2,0,L|141:6,1,25,2|0,3:0|2:0,2:0:0:0:
47,109,478201,1,10,2:0:0:0:
116,160,478383,1,2,3:2:0:0:
37,234,478565,6,0,L|31:303,1,50,0|2,2:0|2:0,2:0:0:0:
114,290,478929,2,0,L|108:359,1,50,10|2,2:0|2:0,2:0:0:0:
253,273,479292,1,10,2:0:0:0:
181,247,479474,1,2,3:2:0:0:
289,345,479656,1,10,2:0:0:0:
215,365,479838,1,2,3:2:0:0:
331,279,480019,6,0,L|397:287,1,50,10|2,3:2|2:0,2:0:0:0:
414,213,480383,2,0,L|480:221,1,50,10|2,2:0|2:0,2:0:0:0:
491,79,480747,1,10,2:0:0:0:
471,148,480929,1,2,3:2:0:0:
420,42,481110,1,10,2:0:0:0:
400,111,481292,1,2,3:2:0:0:
273,27,481474,6,0,P|299:16|323:7,1,50,10|2,3:2|2:0,2:0:0:0:
298,134,481838,2,0,P|272:123|248:114,1,50,10|2,2:0|2:0,2:0:0:0:
142,174,482201,1,10,2:0:0:0:
126,243,482383,1,2,3:2:0:0:
44,186,482565,1,10,2:0:0:0:
28,255,482747,1,2,3:2:0:0:
54,172,482929,6,0,L|46:113,1,50,10|2,3:2|2:0,2:0:0:0:
127,124,483292,2,0,L|119:65,1,50,10|2,2:0|3:2,2:0:0:0:
287,46,483656,1,10,2:0:0:0:
228,136,483838,2,0,L|183:147,1,25,2|0,3:0|2:0,2:0:0:0:
296,35,484019,1,10,2:0:0:0:
220,150,484201,2,0,L|175:161,1,25,2|0,3:0|2:0,2:0:0:0:
355,131,484383,6,0,P|391:172|384:224,1,100,10|10,2:0|2:0,2:0:0:0:
437,303,484929,2,0,P|465:292|494:285,1,50,2|10,2:0|2:0,2:0:0:0:
381,369,485292,2,0,P|353:358|324:351,1,50,2|10,3:2|2:0,2:0:0:0:
247,262,485656,2,0,P|257:288|261:310,1,50,2|10,3:2|3:2,2:0:0:0:
161,315,486019,2,0,P|151:341|147:363,1,50,2|10,2:0|2:0,2:0:0:0:
15,256,486383,2,0,P|48:267|65:284,1,50,2|10,2:0|2:0,2:0:0:0:
209,181,486747,2,0,P|167:190|104:225,1,100,2|2,3:2|3:2,2:0:0:0:
3,118,487292,6,0,L|67:125,1,50,10|2,3:2|2:0,2:0:0:0:
62,41,487656,2,0,L|126:48,1,50,10|2,2:0|2:0,2:0:0:0:
208,44,488019,1,10,2:0:0:0:
194,112,488201,1,2,3:2:0:0:
287,27,488383,1,10,2:0:0:0:
273,95,488565,1,2,3:2:0:0:
430,177,488747,5,10,3:2:0:0:
495,116,488929,1,2,2:0:0:0:
428,47,489110,1,10,2:0:0:0:
361,111,489292,1,2,3:2:0:0:
484,247,489474,5,10,2:0:0:0:
425,192,489656,1,2,3:2:0:0:
367,247,489838,1,10,2:0:0:0:
423,301,490019,1,2,3:2:0:0:
281,361,490201,6,0,P|232:347|191:340,1,75,6|0,3:0|2:0,2:0:0:0:
90,384,490565,2,0,P|127:292|130:201,1,150,2|0,3:0|2:0,2:0:0:0:
70,170,490929,5,10,2:0:0:0:
228,117,491110,1,2,2:0:0:0:
218,114,491201,1,2,2:0:0:0:
208,111,491292,1,2,2:0:0:0:
280,43,491474,1,2,2:0:0:0:
199,0,491656,6,0,P|160:24|117:44,1,75.0000000000002,0|2,3:0|2:0,2:0:0:0:
19,8,492019,2,0,P|43:47|63:90,1,75.0000000000002,2|2,2:0|3:2,2:0:0:0:
25,233,492383,5,10,2:0:0:0:
115,146,492565,1,2,2:0:0:0:
215,212,492747,1,2,2:0:0:0:
198,302,492929,1,2,2:0:0:0:
258,353,493110,6,0,P|293:338|321:330,1,50,2|2,3:2|2:0,2:0:0:0:
368,255,493474,1,10,2:0:0:0:
356,250,493656,1,2,3:2:0:0:
423,377,493838,2,0,L|435:283,1,75.0000000000002,10|2,2:0|2:0,2:0:0:0:
498,208,494201,1,2,2:0:0:0:
503,193,494383,2,0,L|488:145,1,37.5000000000001,8|8,2:0|2:0,2:0:0:0:
419,113,494565,6,0,P|453:79|495:76,1,75.0000000000002,2|2,3:2|2:0,2:0:0:0:
370,8,494929,1,8,2:0:0:0:
359,0,495110,1,2,3:0:0:0:
282,109,495292,1,10,2:0:0:0:
339,180,495474,6,0,P|326:216|322:249,1,50,2|2,2:0|2:0,2:0:0:0:
240,253,495838,2,0,P|258:298|280:328,1,50,2|0,2:3|2:0,2:0:0:0:
190,359,496019,6,0,B|123:345|152:383|63:367,1,112.5,0|0,3:0|2:0,2:0:0:0:
17,301,496383,2,0,P|34:265|21:203,1,75.0000000000002,0|2,3:0|2:0,2:0:0:0:
118,195,496747,2,0,P|95:162|35:142,1,75.0000000000002,10|2,2:0|2:0,2:0:0:0:
76,54,497110,2,0,P|36:57|-10:99,1,75.0000000000002,2|8,2:0|2:0,2:0:0:0:
144,208,497474,6,0,L|152:123,1,75.0000000000002,0|2,3:0|2:0,2:0:0:0:
244,76,497838,1,8,2:0:0:0:
221,93,498019,1,0,3:0:0:0:
267,243,498201,2,0,L|259:158,1,75.0000000000002,10|2,2:0|2:0,2:0:0:0:
348,93,498565,1,2,2:0:0:0:
445,144,498747,1,8,2:0:0:0:
450,165,498838,1,8,2:0:0:0:
448,187,498929,5,2,3:2:0:0:
393,248,499110,1,2,2:0:0:0:
305,213,499292,1,0,2:0:0:0:
223,287,499474,1,0,3:0:0:0:
343,384,499656,6,0,P|395:366|443:359,1,100,10|2,2:0|2:0,2:0:0:0:
287,318,500019,2,0,P|243:310|202:296,1,75.0000000000002,2|8,2:3|2:0,2:0:0:0:
134,367,500383,5,2,3:2:0:0:
161,358,500565,1,2,2:0:0:0:
207,290,500747,1,8,2:0:0:0:
162,205,500929,1,0,2:0:0:0:
46,194,501110,5,10,2:0:0:0:
149,231,501292,5,2,2:0:0:0:
220,168,501474,1,2,2:0:0:0:
187,84,501656,2,0,L|129:78,1,37.5000000000001,8|8,2:0|2:0,2:0:0:0:
299,185,501838,6,0,L|387:175,1,75.0000000000002,2|2,3:2|2:0,2:0:0:0:
470,101,502201,2,0,B|449:133|449:133|473:232,1,100,4|0,2:0|3:0,2:0:0:0:
389,300,502565,2,0,P|394:269|411:255,1,37.5000000000001,8|0,2:0|2:0,2:0:0:0:
379,331,502747,6,0,B|358:310|358:310|276:324,1,100,4|2,2:1|2:0,2:0:0:0:
165,185,503110,2,0,P|208:224|205:269,1,100,6|0,2:1|3:0,2:0:0:0:
158,329,503474,1,2,2:0:0:0:
66,148,503656,2,0,B|125:136|97:176|180:158,1,100,4|0,2:0|3:0,2:0:0:0:
273,42,504019,2,0,L|172:22,1,75.0000000000002,10|2,2:0|2:0,2:0:0:0:
411,112,504383,1,2,2:0:0:0:
358,227,504565,2,0,L|364:167,1,37.5000000000001,8|8,2:0|2:0,2:0:0:0:
424,288,504747,1,0,2:0:0:0:
246,345,504929,6,0,P|295:321|358:315,1,100,2|2,2:1|2:0,2:0:0:0:
238,367,505292,1,0,3:0:0:0:
167,294,505474,2,0,P|185:239|209:219,1,75.0000000000002,10|2,2:0|2:0,2:0:0:0:
39,117,505838,2,0,P|79:177|93:231,1,100,2|8,2:0|2:0,2:0:0:0:
152,36,506201,5,2,3:2:0:0:
133,31,506383,1,2,2:0:0:0:
173,26,506565,1,8,2:0:0:0:
125,48,506747,1,0,3:0:0:0:
252,66,506929,5,10,2:0:0:0:
133,61,507110,1,2,2:0:0:0:
105,161,507292,1,2,2:0:0:0:
183,218,507474,2,0,P|201:209|231:203,1,37.5000000000001,2|0,2:3|2:0,2:0:0:0:
298,211,507656,6,0,B|378:202|344:283|452:258,1,150,0|0,3:0|2:0,2:0:0:0:
421,246,508019,2,0,B|353:244|395:302|296:302,1,112.5,2|0,3:2|2:0,2:0:0:0:
255,367,508383,2,0,L|120:351,1,100,10|2,2:0|2:0,2:0:0:0:
311,291,508747,1,2,2:0:0:0:
264,205,508929,1,8,2:0:0:0:
248,204,509019,1,8,2:0:0:0:
234,209,509110,5,2,3:2:0:0:
204,277,509292,1,2,2:0:0:0:
263,353,509474,1,8,2:0:0:0:
368,338,509656,1,2,3:2:0:0:
362,184,509838,6,0,B|312:168|321:208|260:196,1,100,10|2,2:0|2:0,2:0:0:0:
431,138,510201,1,2,2:0:0:0:
417,247,510383,1,8,2:0:0:0:
270,120,510565,6,0,B|237:78|257:27|257:27|258:65|292:76,1,150,2|0,3:2|3:0,2:0:0:0:
254,136,510929,2,0,P|215:112|175:114,1,75.0000000000002,10|2,2:0|2:0,2:0:0:0:
96,26,511292,1,10,2:0:0:0:
168,124,511474,1,2,2:0:0:0:
103,213,511656,1,2,2:0:0:0:
33,186,511838,1,8,2:0:0:0:
20,157,512019,2,0,P|26:125|70:112,1,75.0000000000002,2|2,3:2|2:0,2:0:0:0:
108,242,512383,5,8,2:0:0:0:
249,213,512565,1,0,3:0:0:0:
137,323,512747,1,10,2:0:0:0:
188,152,512929,1,2,2:0:0:0:
215,289,513110,5,2,2:3:0:0:
138,240,513292,1,2,2:0:0:0:
274,196,513474,2,0,P|271:232|301:271,1,75.0000000000002,6|0,2:0|3:0,2:0:0:0:
509,115,513838,5,10,2:0:0:0:
455,42,514019,1,2,2:0:0:0:
333,134,514201,1,10,2:0:0:0:
365,56,514383,1,2,3:2:0:0:
327,123,514565,1,10,2:0:0:0:
372,66,514747,1,2,3:2:0:0:
205,47,514929,6,0,P|198:73|221:122,1,59.9999999999999,10|2,3:2|2:0,2:0:0:0:
263,192,515292,2,0,P|217:184|164:222,1,100,10|2,2:0|2:0,2:0:0:0:
122,375,515656,5,10,2:0:0:0:
98,249,515838,1,2,3:2:0:0:
132,353,516019,1,10,2:0:0:0:
88,280,516201,1,2,3:2:0:0:
224,328,516383,6,0,P|266:335|318:300,1,80,10|2,2:0|2:0,2:0:0:0:
355,244,516747,2,0,P|389:240|421:263,1,59.9999999999999,10|2,2:0|2:0,2:0:0:0:
468,317,517110,2,0,P|427:340|355:313,1,90.0000000000001,10|2,2:0|3:2,2:0:0:0:
453,69,517474,5,10,2:0:0:0:
512,139,517656,1,2,3:2:0:0:
511,149,517838,2,0,P|471:167|407:152,1,80,10|2,2:0|2:0,2:0:0:0:
262,46,518201,5,10,2:0:0:0:
218,146,518383,2,0,P|273:158|323:126,1,90.0000000000001,2|10,3:0|2:0,2:0:0:0:
379,30,518747,5,2,3:0:0:0:
251,47,518929,1,10,2:0:0:0:
202,139,519110,1,2,3:0:0:0:
216,227,519292,2,0,P|233:249|267:263,1,59.9999999999999,10|2,3:2|2:0,2:0:0:0:
418,238,519656,5,10,2:0:0:0:
387,210,519838,1,2,2:0:0:0:
300,343,520019,1,10,2:0:0:0:
207,245,520201,1,2,2:0:0:0:
136,309,520383,5,10,2:0:0:0:
280,264,520565,1,2,3:2:0:0:
103,175,520747,5,10,3:2:0:0:
89,199,520929,1,2,2:0:0:0:
131,286,521110,1,10,2:0:0:0:
5,384,521292,1,2,2:0:0:0:
25,294,521474,1,10,2:0:0:0:
118,272,521656,5,2,3:2:0:0:
132,277,521838,2,0,P|163:311|160:353,1,69.9999999999999,10|2,2:0|3:2,2:0:0:0:
249,146,522201,6,0,P|215:169|200:236,1,90.0000000000001,10|2,3:2|2:0,2:0:0:0:
346,239,522565,2,0,P|317:221|278:222,1,69.9999999999999,10|2,2:0|3:2,2:0:0:0:
388,140,522929,2,0,P|443:124|486:142,1,90.0000000000001,10|2,2:0|2:0,2:0:0:0:
267,46,523292,6,0,P|220:35|162:61,1,105,2|0,2:3|3:0,2:0:0:0:
160,52,524019,2,0,B|232:-11|324:45|296:92|372:141|468:88,1,329.999999999999,2|0,2:0|2:0,2:0:0:0:
451,1,525110,6,0,B|354:36|376:147|439:197|442:121|525:243|461:350|334:343|307:263,1,475,4|0,3:2|3:0,3:0:0:0:
265,209,526929,1,8,3:0:0:0:
252,201,527019,1,8,3:0:0:0:
234,197,527110,1,8,3:0:0:0:
214,196,527201,1,8,3:0:0:0:
191,200,527292,1,8,3:0:0:0:
171,215,527383,1,8,3:0:0:0:
156,238,527474,1,8,3:0:0:0:
150,267,527565,1,8,3:0:0:0:
156,298,527656,1,8,3:0:0:0:
175,326,527747,1,8,3:0:0:0:
207,339,527838,1,8,3:0:0:0:
244,339,527929,1,8,3:0:0:0:
277,322,528019,6,0,B|203:278|136:341|171:349|107:378|49:381|14:339|22:275|69:261|100:266,1,350,8|0,3:0|3:0,3:0:0:0:
169,186,529474,6,0,P|216:167|239:163,2,66.6666666666667,2|2|2,2:0|2:0|2:0,2:0:0:0:
64,106,530201,2,0,P|17:87|-6:83,2,66.6666666666667,2|2|2,2:0|2:0|2:0,2:0:0:0:
215,4,530929,6,0,B|170:12|161:73|161:73|236:107|281:68|248:40|309:-13|408:-35|442:106|368:156|299:123,1,475,2|0,2:0|3:0,2:0:0:0:
311,109,532747,5,8,3:0:0:0:
320,117,532838,1,8,3:0:0:0:
327,129,532929,1,8,3:0:0:0:
333,145,533019,1,8,3:0:0:0:
336,164,533110,1,8,3:0:0:0:
335,186,533201,1,8,3:0:0:0:
326,209,533292,1,8,3:0:0:0:
308,230,533383,1,8,3:0:0:0:
295,257,533474,1,8,3:0:0:0:
287,288,533565,1,8,3:0:0:0:
291,322,533656,1,8,3:0:0:0:
311,353,533747,1,8,3:0:0:0:
346,365,533838,6,0,B|398:346|461:371|461:371|411:349|401:299|401:299,1,200,8|0,3:0|2:0,3:0:0:0:
478,233,534929,5,2,2:0:0:0:
445,171,535110,2,0,P|458:129|468:114,1,50,2|0,2:0|2:0,2:0:0:0:
353,57,535474,2,0,P|363:79|368:103,1,50,2|0,2:0|2:0,2:0:0:0:
268,176,535838,6,0,L|272:153,1,12.5,4|0,2:0|3:0,3:0:0:0:
188,213,536019,2,0,P|133:220|25:282,1,175,4|0,3:2|3:0,3:0:0:0:
34,293,536747,6,0,B|86:252|60:148|24:187|-32:109|21:9|143:41|143:41|73:65|71:131,1,475,4|0,3:0|3:0,3:0:0:0:
75,131,538565,1,8,3:0:0:0:
84,139,538656,1,8,3:0:0:0:
96,146,538747,1,8,3:0:0:0:
112,150,538838,1,8,3:0:0:0:
132,150,538929,1,8,3:0:0:0:
153,143,539019,1,8,3:0:0:0:
170,124,539110,1,8,3:0:0:0:
191,106,539201,1,8,3:0:0:0:
218,94,539292,1,8,3:0:0:0:
250,89,539383,1,8,3:0:0:0:
283,99,539474,1,8,3:0:0:0:
309,126,539565,1,8,3:0:0:0:
316,165,539656,6,0,B|253:253|253:253|358:214|441:294,1,300,8|0,3:0|2:0,3:0:0:0:
245,286,541088,6,0,L|234:358,2,68.75,2|2|2,2:0|2:0|2:0,2:0:0:0:
119,372,541838,6,0,L|109:301,2,66.6666666666667,2|2|2,2:0|2:0|2:0,2:0:0:0:
23,254,542565,6,0,P|66:269|86:283,1,50,2|0,2:0|2:0,2:0:0:0:
130,149,542929,2,0,P|99:167|79:185,1,58.3333333333333,2|0,2:0|2:0,2:0:0:0:
213,262,543322,2,0,P|225:228|229:219,1,41.6666666666667,2|0,2:0|2:0,2:0:0:0:
254,103,543656,2,0,P|223:119|190:115,1,50,2|0,2:0|2:0,2:0:0:0:
346,21,544080,6,0,P|366:49|371:60,1,41.6666666666667,2|0,2:0|2:0,2:0:0:0:
350,159,544383,5,8,3:0:0:0:
363,173,544474,1,8,3:0:0:0:
383,181,544565,1,8,3:0:0:0:
407,183,544656,1,8,3:0:0:0:
434,179,544747,1,8,3:0:0:0:
414,203,544838,1,8,3:0:0:0:
397,233,544929,1,8,3:0:0:0:
389,269,545019,1,8,3:0:0:0:
394,308,545110,1,8,3:0:0:0:
422,339,545201,1,8,3:0:0:0:
466,348,545292,1,8,3:0:0:0:
504,319,545383,1,8,3:0:0:0:
501,271,545474,6,0,B|432:237|342:244|335:340|219:348,1,300,8|0,3:0|3:0,3:0:0:0:
141,301,546838,6,0,P|167:284|195:272,1,50,2|0,2:0|2:0,2:0:0:0:
264,235,547110,1,2,2:0:0:0:
256,222,547201,2,0,P|226:208|192:203,1,50,2|0,2:0|2:0,2:0:0:0:
128,217,547474,1,2,2:0:0:0:
195,26,547656,5,2,2:0:0:0:
202,32,547747,2,0,P|213:62|216:75,2,37.5,2|0|0,2:0|2:0|2:0,2:0:0:0:
305,23,548141,2,0,P|316:33|339:47,1,33.3333333333333,2|0,2:0|2:0,2:0:0:0:
453,17,548383,6,0,B|404:16|382:75|429:130|453:93|499:151|470:210,1,220,6|2,3:0|2:0,3:0:0:0:
434,283,548929,1,0,3:0:0:0:
252,355,549110,2,0,P|251:291|311:270,1,100,10|0,2:0|2:0,2:0:0:0:
224,200,549474,2,0,P|257:237|248:286,1,75.0000000000002,2|8,2:3|2:0,2:0:0:0:
109,359,549838,5,0,3:0:0:0:
25,347,550019,2,0,L|102:334,1,75.0000000000002,2|8,2:0|2:0,2:0:0:0:
152,255,550383,1,0,3:0:0:0:
24,115,550565,2,0,B|-2:158|-2:158|23:215,1,100,10|2,2:0|2:0,2:0:0:0:
94,72,550929,2,0,P|48:33|7:49,1,75.0000000000002,2|8,2:0|2:0,2:0:0:0:
96,152,551201,1,8,2:0:0:0:
96,152,551292,6,0,B|159:172|224:117|186:95|284:77|332:108,1,250,2|8,3:2|2:0,2:0:0:0:
275,178,551838,1,0,3:0:0:0:
419,19,552019,2,0,L|401:134,1,100,8|2,2:0|2:0,2:0:0:0:
307,263,552383,2,0,L|294:180,1,75.0000000000002,2|8,2:3|2:0,2:0:0:0:
416,338,552747,1,0,3:0:0:0:
416,256,552929,2,0,P|439:284|435:325,1,75.0000000000002,2|8,2:0|2:0,2:0:0:0:
384,375,553292,1,0,3:0:0:0:
237,338,553474,6,0,B|151:313|172:382|77:355,1,150,10|0,2:0|2:0,2:0:0:0:
68,345,553838,2,0,P|67:261|107:252,1,110,2|2,2:0|2:3,2:0:0:0:
0,98,554201,6,0,L|207:133,1,187.5,2|0,3:2|2:0,2:0:0:0:
199,154,554565,2,0,L|289:138,1,75,2|0,3:2|2:0,2:0:0:0:
345,7,554929,6,0,B|323:41|323:41|354:141,1,125,10|2,2:0|2:0,2:0:0:0:
331,0,555292,2,0,L|210:20,1,100,2|8,2:0|2:0,2:0:0:0:
414,58,555656,2,0,L|534:78,1,100,2|2,2:0|2:0,2:0:0:0:
503,55,556019,2,0,L|418:40,1,75.0000000000002,10|0,2:0|3:0,2:0:0:0:
403,224,556383,6,0,P|436:174|524:186,1,125,10|2,2:0|2:0,2:0:0:0:
364,314,556747,1,2,2:0:0:0:
361,298,556929,1,10,2:0:0:0:
229,192,557110,5,2,3:0:0:0:
299,229,557292,2,0,P|239:230|210:204,1,100,8|2,2:3|2:0,2:0:0:0:
165,308,557656,1,0,3:0:0:0:
121,192,557838,2,0,P|178:254|158:321,1,125,10|2,2:0|2:0,2:0:0:0:
275,333,558201,6,0,P|236:362|223:391,1,75.0000000000002,8|2,2:3|2:3,2:0:0:0:
331,384,558565,1,0,3:0:0:0:
301,311,558747,6,0,B|296:334|296:334|332:394,1,65.0000000000004,8|2,2:3|2:0,2:0:0:0:
382,325,559110,1,2,3:0:0:0:
313,180,559292,2,0,B|333:210|333:210|314:301,1,125,10|2,2:0|2:0,2:0:0:0:
436,201,559656,1,8,2:3:0:0:
433,182,559747,1,0,2:0:0:0:
430,163,559838,1,2,3:2:0:0:
427,144,559929,1,0,2:0:0:0:
424,125,560019,6,0,B|362:94|287:125|331:162|234:187|163:147,1,250.000000000001,2|2,3:2|2:0,2:0:0:0:
131,106,560565,1,2,3:2:0:0:
55,304,560747,2,0,P|88:266|63:156,1,125,10|2,2:0|2:0,2:0:0:0:
77,316,561110,2,0,P|53:370|57:403,1,75.0000000000002,2|2,2:0|2:0,2:0:0:0:
150,313,561474,2,0,P|109:320|84:339,1,65.0000000000004,2|2,3:2|2:0,2:0:0:0:
221,362,561838,6,0,B|246:317|246:317|223:250,1,100,10|0,2:0|3:0,2:0:0:0:
117,196,562201,6,0,B|193:210|163:153|261:174,1,125,10|2,2:0|2:0,2:0:0:0:
305,206,562474,2,0,P|327:290|283:328,1,125,2|0,2:0|2:0,2:0:0:0:
350,384,562747,2,0,P|340:351|350:312,1,62.5,10|0,2:0|2:0,2:0:0:0:
480,129,562929,6,0,P|464:177|448:276,1,135,2|2,3:2|2:0,2:0:0:0:
449,384,563201,2,0,P|438:317|418:253,1,135,2|0,2:0|2:0,2:0:0:0:
345,209,563474,2,0,P|362:168|370:115,1,67.5,0|0,3:0|2:0,2:0:0:0:
75,21,563656,6,0,B|48:65|73:154|145:168|145:168|183:128|164:72,1,270,10|2,2:0|2:0,2:0:0:0:
80,234,564201,1,8,2:0:0:0:
236,335,564383,6,0,B|270:313|266:256|205:230|173:257|143:296|143:296|137:289|137:289|90:338|17:296,1,300,2|8,3:2|2:0,2:0:0:0:
0,243,564929,1,2,2:0:0:0:
170,94,565110,1,10,2:0:0:0:
1,1,565292,6,0,P|28:50|46:92,1,100,2|2,2:0|2:0,2:0:0:0:
118,125,565565,2,0,P|91:174|73:216,1,100,0|0,2:0|2:0,2:0:0:0:
134,21,565838,6,0,B|182:0|240:21|211:52|278:63|344:29,1,187.5,2|0,3:2|2:0,2:0:0:0:
389,0,566201,2,0,P|363:33|401:115,1,112.5,2|0,3:2|2:0,2:0:0:0:
444,254,566565,6,0,P|484:166|450:115,1,125,10|2,2:0|2:0,2:0:0:0:
263,348,566929,2,0,B|315:350|360:370|360:370|340:344|345:307,1,150,2|8,2:0|2:0,2:0:0:0:
168,293,567292,2,0,B|142:339|142:339|163:395,1,100,2|2,3:2|2:0,2:0:0:0:
189,293,567656,2,0,B|199:257|199:257|180:223,1,75.0000000000002,10|0,2:0|3:0,2:0:0:0:
17,180,568019,1,10,2:0:0:0:
183,13,568201,6,0,B|166:40|166:40|201:116,1,100,0|2,2:0|2:0,2:0:0:0:
183,122,568474,2,0,P|212:95|277:90,1,100,2|0,2:0|2:0,2:0:0:0:
426,86,568747,5,2,3:2:0:0:
498,226,568929,2,0,L|511:110,1,100,8|2,2:3|2:0,2:0:0:0:
404,349,569292,1,0,3:0:0:0:
317,184,569474,2,0,L|334:339,1,125,10|2,2:0|2:0,2:0:0:0:
160,374,569838,6,0,B|97:338|16:345|16:345|82:315|94:239,1,225,8|0,2:3|2:0,2:0:0:0:
83,267,570201,1,2,3:2:0:0:
6,85,570383,2,0,B|-3:113|-3:113|114:71,1,125,8|2,2:3|2:0,2:0:0:0:
157,51,570747,1,0,3:0:0:0:
227,285,570929,6,0,P|162:234|199:158,1,150,10|2,2:0|2:0,2:0:0:0:
249,275,571292,6,0,B|264:324|264:324|221:375,1,100,8|2,2:3|2:0,2:0:0:0:
267,264,571656,6,0,B|311:241|373:254|342:287|415:296|456:268,1,187.5,2|0,3:2|2:0,2:0:0:0:
507,217,572019,2,0,P|531:166|492:100,1,125,2|0,2:0|3:0,2:0:0:0:
419,62,572292,1,0,2:0:0:0:
407,74,572383,6,0,L|392:157,2,62.5,10|0|2,2:0|2:0|2:0,2:0:0:0:
339,201,572656,1,0,2:0:0:0:
327,189,572747,2,0,L|312:106,2,62.5,2|0|2,2:0|2:0|2:3,2:0:0:0:
258,67,573019,1,0,2:0:0:0:
246,79,573110,2,0,L|231:162,2,62.5,2|0|2,3:2|2:0|2:3,2:0:0:0:
182,214,573383,1,0,2:0:0:0:
170,202,573474,2,0,L|155:119,2,62.5,10|0|2,2:0|2:0|3:2,2:0:0:0:
86,75,573747,1,0,2:0:0:0:
74,87,573838,6,0,L|59:170,2,62.5,10|0|2,2:0|2:0|2:0,2:0:0:0:
0,201,574110,1,0,2:0:0:0:
12,213,574201,2,0,L|27:296,2,62.5,2|0|8,2:0|2:0|2:0,2:0:0:0:
119,358,574565,5,2,3:2:0:0:
149,314,574656,1,0,2:0:0:0:
202,304,574747,1,2,2:0:0:0:
241,326,574838,1,0,2:0:0:0:
270,349,574929,1,10,2:0:0:0:
299,353,575019,1,0,2:0:0:0:
320,343,575110,1,0,3:0:0:0:
325,328,575201,1,0,2:0:0:0:
298,256,575292,5,10,2:0:0:0:
260,279,575383,1,0,2:0:0:0:
254,322,575474,1,2,2:0:0:0:
278,352,575565,1,0,2:0:0:0:
310,360,575656,1,2,2:0:0:0:
333,344,575747,1,0,2:0:0:0:
335,322,575838,1,8,2:0:0:0:
327,310,575929,1,0,2:0:0:0:
267,270,576019,5,2,3:2:0:0:
260,272,576110,1,0,2:0:0:0:
253,275,576201,1,2,2:0:0:0:
247,278,576292,1,0,2:0:0:0:
241,282,576383,1,10,2:0:0:0:
235,286,576474,1,0,2:0:0:0:
229,290,576565,1,2,3:2:0:0:
224,295,576656,1,0,2:0:0:0:
210,319,576747,5,10,2:0:0:0:
206,315,576838,1,0,2:0:0:0:
201,311,576929,1,2,2:0:0:0:
196,308,577019,1,0,2:0:0:0:
191,305,577110,1,10,2:0:0:0:
187,303,577201,1,0,2:0:0:0:
181,300,577292,1,2,2:0:0:0:
176,299,577383,1,0,2:0:0:0:
170,296,577474,6,0,P|112:308|70:339,1,100,2|2,3:2|2:3,2:0:0:0:
7,199,577747,6,0,B|54:213|54:213|102:253|102:253|175:273,1,165,2|0,2:0|3:0,2:0:0:0:
307,198,578201,5,10,2:0:0:0:
290,183,578292,1,0,2:0:0:0:
263,172,578383,1,2,2:0:0:0:
230,181,578474,1,0,2:0:0:0:
199,204,578565,1,2,2:3:0:0:
166,233,578656,1,0,2:0:0:0:
117,243,578747,1,8,2:0:0:0:
62,216,578838,1,0,2:0:0:0:
53,136,578929,5,2,3:2:0:0:
98,102,579019,1,0,2:0:0:0:
153,107,579110,1,2,2:0:0:0:
186,143,579201,1,0,2:0:0:0:
216,173,579292,1,10,2:0:0:0:
252,180,579383,1,0,2:0:0:0:
279,168,579474,1,2,3:2:0:0:
287,156,579565,1,0,2:0:0:0:
279,85,579656,5,10,2:0:0:0:
132,41,579838,1,2,2:0:0:0:
149,27,579929,1,0,2:0:0:0:
169,20,580019,1,2,2:0:0:0:
116,157,580201,1,8,2:0:0:0:
101,149,580292,1,0,2:0:0:0:
84,148,580383,5,2,3:2:0:0:
29,310,580565,1,8,2:3:0:0:
173,381,580747,1,2,2:3:0:0:
279,284,580929,1,0,3:0:0:0:
137,136,581110,5,10,2:0:0:0:
378,229,581292,1,2,2:0:0:0:
155,245,581474,2,0,L|230:226,1,62.5,8|0,2:3|2:0,2:0:0:0:
316,140,581656,2,0,L|241:121,1,62.5,2|0,2:3|2:0,2:0:0:0:
300,303,581838,5,2,3:2:0:0:
232,125,582019,1,8,2:3:0:0:
237,155,582110,1,0,2:0:0:0:
242,185,582201,1,2,2:0:0:0:
248,111,582383,1,2,3:2:0:0:
237,165,582474,1,0,2:0:0:0:
228,220,582565,5,10,2:0:0:0:
151,31,582747,1,10,2:0:0:0:
366,245,582929,1,8,2:3:0:0:
102,180,583110,1,2,2:3:0:0:
373,70,583292,6,0,B|296:25|213:60|246:91|169:139|91:96,1,300,2|2,3:2|2:0,2:0:0:0:
22,44,583838,1,0,3:0:0:0:
209,209,584019,1,10,2:0:0:0:
18,247,584201,2,0,P|58:183|105:180,1,125,2|2,2:0|2:0,2:0:0:0:
172,361,584565,6,0,B|143:314|143:314|199:164|199:164|160:105,1,270,2|2,2:0|2:0,2:0:0:0:
287,10,585110,2,0,P|380:22|331:160,1,270,10|10,2:0|2:0,2:0:0:0:
455,373,585656,6,0,P|426:321|432:278,1,67.5,2|0,2:0|3:0,2:0:0:0:
478,244,585838,2,0,P|469:276|448:302,1,67.5,2|0,2:0|3:0,2:0:0:0:
307,384,586019,6,0,B|232:346|164:362|103:380|103:380|135:344|149:291,1,300,10|2,2:0|2:0,2:0:0:0:
408,357,586565,2,0,P|352:300|270:274,1,150,4|0,2:0|3:0,2:0:0:0:
479,162,586929,6,0,P|454:132|377:111,1,75,10|0,2:0|2:0,2:0:0:0:
429,25,587110,2,0,P|391:31|334:87,1,75,4|0,2:0|2:0,2:0:0:0:
287,0,587292,2,0,P|273:35|293:113,1,75,2|0,2:0|2:0,2:0:0:0:
194,110,587474,2,0,P|218:139|295:160,1,75,4|0,2:0|2:0,2:0:0:0:
327,317,587656,6,0,B|367:264|338:191|338:191|340:229|302:268,2,187.5,2|2|2,2:0|2:0|3:2,2:0:0:0:
190,362,588383,6,0,B|140:350|140:350|100:366|100:366|31:355,1,150,10|2,2:0|2:0,2:0:0:0:
60,341,588656,2,0,B|107:348|107:348|141:334|141:334|183:344,1,125,2|0,2:0|2:0,2:0:0:0:
212,258,588929,2,0,L|249:308,1,50,2|0,2:3|2:0,2:0:0:0:
306,384,589110,6,0,P|355:359|456:363,1,125,2|2,3:2|2:0,2:0:0:0:
512,346,589383,2,0,P|459:343|411:320,1,100,0|0,2:0|2:0,2:0:0:0:
409,291,589656,1,2,2:0:0:0:
324,22,589838,6,0,B|305:53|305:53|331:132|331:132|305:182,1,150,10|2,2:0|2:0,2:0:0:0:
241,191,590110,2,0,P|197:133|225:84,1,125,2|0,2:0|2:0,2:0:0:0:
272,36,590383,2,0,P|290:78|287:105,1,50,10|8,2:0|2:0,2:0:0:0:
211,190,590565,6,0,L|77:175,1,125,2|2,3:2|2:0,2:0:0:0:
0,215,590838,2,0,L|115:202,1,100,2|0,2:0|2:0,2:0:0:0:
113,228,591110,1,2,3:0:0:0:
256,383,591292,6,0,P|275:322|262:250,1,125,10|2,2:0|2:0,2:0:0:0:
367,250,591565,6,0,P|345:205|307:173,1,100,2|0,2:0|2:0,2:0:0:0:
307,91,591838,6,0,P|263:98|245:110,1,37.5000000000001,8|0,2:0|2:0,2:0:0:0:
354,344,592019,5,0,2:0:0:0:
120,224,593292,5,8,2:0:0:0:
164,216,593383,1,8,2:0:0:0:
208,208,593474,1,8,2:0:0:0:
91,138,593656,1,8,2:0:0:0:
225,297,593838,5,8,2:0:0:0:
154,67,594019,1,8,2:0:0:0:
339,247,594201,1,8,2:0:0:0:
62,227,594383,1,8,2:0:0:0:
322,116,594565,5,8,2:0:0:0:
107,336,594747,1,8,2:0:0:0:
249,39,594929,6,0,P|206:35|176:56,1,70,6|0,3:0|3:0,3:0:0:0:
1,137,595105,2,0,P|45:138|75:164,1,57.5000000000001,0|0,3:0|3:0,3:0:0:0:
229,216,595281,2,0,P|196:217|176:238,1,50,4|0,3:1|3:0,3:0:0:0:
65,309,595458,2,0,P|90:309|107:319,1,40,0|0,3:0|3:0,3:0:0:0:
323,384,595634,5,12,3:1:0:0:
361,331,595723,1,0,3:0:0:0:
348,282,595811,1,0,3:0:0:0:
324,257,595899,1,0,3:0:0:0:
303,255,595987,1,4,3:1:0:0:
415,166,596164,1,0,3:0:0:0:
233,0,596340,6,0,P|253:34|287:43,1,65,4|0,3:1|3:0,3:0:0:0:
254,135,596517,2,0,P|289:141|313:132,1,50,0|0,3:0|3:0,3:0:0:0:
406,168,596693,5,4,3:1:0:0:
441,150,596781,1,0,3:0:0:0:
433,118,596870,1,0,3:0:0:0:
408,112,596958,1,0,3:0:0:0:
395,123,597046,2,0,B|389:154|402:179|402:179|399:183|399:183|412:206|403:248,1,120,12|0,3:1|3:0,3:0:0:0:
410,379,597399,6,0,L|468:385,1,50,4|0,3:1|3:0,3:0:0:0:
302,294,597576,2,0,L|244:300,1,40,0|0,3:0|3:0,3:0:0:0:
165,378,597752,5,4,3:1:0:0:
151,384,597840,1,0,3:0:0:0:
123,381,597929,1,0,3:0:0:0:
90,357,598017,1,0,3:0:0:0:
86,302,598105,1,4,3:1:0:0:
199,219,598281,1,0,3:0:0:0:
15,104,598458,6,0,L|4:163,1,50,12|0,3:1|3:0,3:0:0:0:
38,214,598634,2,0,L|28:164,1,45,0|0,3:0|3:0,3:0:0:0:
114,61,598811,6,0,L|123:110,1,40,4|0,3:1|3:0,3:0:0:0:
109,139,598987,2,0,L|118:89,1,35,0|0,3:0|3:0,3:0:0:0:
7,25,599164,5,4,3:1:0:0:
27,21,599252,1,0,3:0:0:0:
56,36,599340,1,0,3:0:0:0:
105,40,599429,1,0,3:0:0:0:
154,8,599517,2,0,P|197:12|217:35,1,60,4|0,3:1|3:0,3:0:0:0:
317,20,599693,2,0,P|328:59|320:92,1,60,0|0,3:0|3:0,3:0:0:0:
377,311,599870,6,0,B|309:314|309:314|307:317|307:317|235:320,1,140,12|0,3:1|3:0,3:0:0:0:
71,380,600223,2,0,P|89:348|84:316,1,60,4|0,3:1|3:0,3:0:0:0:
165,254,600399,2,0,P|156:229|160:195,1,50,0|0,3:0|3:0,3:0:0:0:
16,105,600576,5,6,3:0:0:0:
8,110,600664,1,0,3:0:0:0:
0,125,600752,1,0,3:0:0:0:
2,150,600840,1,0,3:0:0:0:
26,172,600929,1,2,3:0:0:0:
66,169,601017,1,0,3:0:0:0:
93,130,601105,1,0,3:0:0:0:
91,77,601193,1,0,3:0:0:0:
51,32,601281,5,10,3:0:0:0:
98,61,601370,1,0,3:0:0:0:
147,66,601458,1,0,3:0:0:0:
189,50,601546,1,0,3:0:0:0:
211,17,601634,1,2,3:0:0:0:
243,4,601723,1,0,3:0:0:0:
272,9,601811,1,0,3:0:0:0:
289,26,601899,1,0,3:0:0:0:
293,45,601987,5,2,3:0:0:0:
247,99,602076,1,0,3:0:0:0:
244,161,602164,1,0,3:0:0:0:
280,202,602252,1,0,3:0:0:0:
327,206,602340,1,2,3:0:0:0:
357,179,602429,1,0,3:0:0:0:
363,147,602517,1,0,3:0:0:0:
351,125,602605,1,0,3:0:0:0:
334,118,602693,5,10,3:0:0:0:
408,123,602781,1,0,3:0:0:0:
456,171,602870,1,0,3:0:0:0:
460,230,602958,1,0,3:0:0:0:
431,273,603046,1,2,3:0:0:0:
435,317,603134,1,0,3:0:0:0:
462,343,603223,1,0,3:0:0:0:
491,348,603311,1,0,3:0:0:0:
511,337,603399,5,14,3:0:0:0:
493,313,603487,1,0,3:0:0:0:
460,299,603576,1,0,3:0:0:0:
420,294,603664,1,0,3:0:0:0:
376,303,603752,1,2,3:0:0:0:
336,333,603840,1,0,3:0:0:0:
314,383,603929,5,8,3:0:0:0:
297,330,604017,1,0,3:0:0:0:
257,299,604105,1,2,3:0:0:0:
213,288,604193,1,0,3:0:0:0:
173,292,604281,1,0,3:0:0:0:
141,307,604370,1,0,3:0:0:0:
121,329,604458,5,14,3:0:0:0:
148,316,604546,1,0,3:0:0:0:
173,318,604634,1,0,3:0:0:0:
191,329,604723,1,0,3:0:0:0:
201,343,604811,1,2,3:0:0:0:
206,355,604899,1,0,3:0:0:0:
207,364,604987,5,8,3:0:0:0:
205,343,605076,1,0,3:0:0:0:
207,318,605164,1,2,3:0:0:0:
220,291,605252,1,0,3:0:0:0:
243,265,605340,1,0,3:0:0:0:
280,249,605429,1,0,3:0:0:0:
324,251,605517,6,0,P|351:261|373:302,3,60,14|0|0|0,3:0|3:0|3:0|3:0,3:0:0:0:
478,155,605870,2,0,P|446:179|435:226,3,70,14|0|0|0,3:0|3:0|3:0|3:0,3:0:0:0:
306,42,606223,5,6,3:0:0:0:
365,92,606311,1,0,2:0:0:0:
366,164,606399,1,0,3:0:0:0:
329,217,606487,1,0,2:0:0:0:
271,220,606576,1,4,3:1:0:0:
230,190,606664,1,0,2:0:0:0:
222,148,606752,1,0,3:0:0:0:
238,117,606840,1,0,2:0:0:0:
264,108,606929,5,12,3:1:0:0:
236,96,607017,1,0,3:0:0:0:
209,101,607105,1,0,3:0:0:0:
190,117,607193,1,0,3:0:0:0:
182,138,607281,1,4,3:1:0:0:
162,161,607370,1,0,2:0:0:0:
124,173,607458,1,0,3:0:0:0:
74,164,607546,1,0,2:0:0:0:
42,113,607634,5,4,3:1:0:0:
114,91,607723,1,0,2:0:0:0:
177,113,607811,1,0,3:0:0:0:
209,163,607899,1,0,2:0:0:0:
203,215,607987,1,4,3:1:0:0:
168,244,608076,1,0,3:0:0:0:
130,243,608164,1,0,3:0:0:0:
105,225,608252,1,0,3:0:0:0:
97,203,608340,5,12,3:1:0:0:
117,201,608429,1,0,2:0:0:0:
130,212,608517,1,0,3:0:0:0:
132,226,608605,1,0,2:0:0:0:
128,237,608693,1,4,3:1:0:0:
116,253,608781,1,0,2:0:0:0:
85,256,608870,1,0,3:0:0:0:
49,237,608958,1,0,2:0:0:0:
37,188,609046,5,4,3:1:0:0:
104,155,609134,1,0,3:0:0:0:
173,168,609223,1,0,3:0:0:0:
214,217,609311,1,0,3:0:0:0:
227,275,609399,1,4,3:1:0:0:
270,303,609487,1,0,2:0:0:0:
315,305,609576,1,0,3:0:0:0:
346,285,609664,1,0,2:0:0:0:
358,257,609752,5,12,3:1:0:0:
356,316,609840,1,0,2:0:0:0:
388,361,609929,1,0,3:0:0:0:
436,372,610017,1,0,2:0:0:0:
477,356,610105,1,4,3:1:0:0:
495,320,610193,1,0,2:0:0:0:
485,286,610281,1,0,3:0:0:0:
458,272,610370,1,0,2:0:0:0:
435,282,610458,5,4,3:1:0:0:
379,248,610546,1,0,3:0:0:0:
372,198,610634,1,0,3:0:0:0:
390,167,610723,1,0,3:0:0:0:
409,162,610811,5,4,3:1:0:0:
427,179,610899,1,0,2:0:0:0:
419,213,610987,1,0,3:0:0:0:
376,229,611076,1,0,2:0:0:0:
326,205,611164,6,0,P|317:177|324:134,1,55,12|0,3:1|3:0,3:0:0:0:
366,53,611340,2,0,P|370:86|359:112,1,45,0|0,3:0|3:0,3:0:0:0:
477,239,611517,6,0,P|441:234|421:213,1,55,4|0,3:1|3:0,3:0:0:0:
319,327,611693,2,0,P|293:325|253:347,1,65,0|0,3:0|3:0,3:0:0:0:
108,195,611870,5,8,3:0:0:0:
172,147,611958,1,0,3:0:0:0:
246,146,612046,1,0,3:0:0:0:
309,174,612134,1,0,3:0:0:0:
319,238,612223,5,8,3:0:0:0:
307,229,612311,1,0,3:0:0:0:
289,205,612399,1,0,3:0:0:0:
292,160,612487,1,0,3:0:0:0:
338,123,612576,2,0,P|362:122|397:141,3,50,12|0|0|0,3:0|3:0|3:0|3:0,3:0:0:0:
492,53,612929,5,2,3:2:0:0:
470,40,613046,5,0,2:0:0:0:
431,69,613164,5,0,2:0:0:0:
376,28,613281,6,0,B|326:21|328:64|270:56,1,110,2|2,3:2|3:2,3:0:0:0:
113,4,613634,6,0,B|118:67|118:67|121:68|121:68|128:142,1,130,2|2,3:2|3:2,3:0:0:0:
229,320,613987,2,0,B|234:257|234:257|237:256|237:256|244:182,1,130,10|2,3:2|3:2,3:0:0:0:
53,276,614340,5,2,3:2:0:0:
65,384,614517,1,2,3:2:0:0:
164,206,614693,5,8,3:0:0:0:
125,174,614781,1,0,3:0:0:0:
75,166,614870,1,0,3:0:0:0:
28,182,614958,1,0,3:0:0:0:
0,223,615046,5,8,3:0:0:0:
24,206,615134,1,0,3:0:0:0:
53,201,615223,1,0,3:0:0:0:
82,206,615311,1,0,3:0:0:0:
106,223,615399,2,0,P|176:262|276:208,1,180,14|0,3:0|3:0,3:0:0:0:
286,134,615752,5,2,3:2:0:0:
186,161,615929,1,2,3:2:0:0:
358,236,616105,5,2,3:2:0:0:
267,219,616281,1,2,3:2:0:0:
438,131,616458,5,2,3:2:0:0:
367,152,616634,1,2,3:2:0:0:
482,335,616811,6,0,B|493:313|493:313|481:239,1,100,10|2,3:2|3:2,3:0:0:0:
362,21,617164,2,0,B|376:49|376:49|360:146,1,130,10|2,3:2|3:2,3:0:0:0:
146,191,617517,5,6,3:0:0:0:
178,140,617605,1,0,3:0:0:0:
236,135,617693,1,0,3:0:0:0:
277,169,617781,1,0,3:0:0:0:
264,222,617870,5,2,3:0:0:0:
245,217,617958,1,0,3:0:0:0:
236,201,618046,1,0,3:0:0:0:
243,188,618134,1,0,3:0:0:0:
257,189,618223,6,0,L|263:308,1,100,10|0,3:0|3:0,3:0:0:0:
332,369,618576,1,2,3:0:0:0:
94,287,618752,2,0,P|137:268|199:307,1,100,8|2,3:0|3:0,3:0:0:0:
32,360,619105,1,8,3:0:0:0:
73,171,619281,2,0,L|61:283,1,100,2|0,3:0|3:0,3:0:0:0:
299,173,619634,5,10,3:0:0:0:
159,207,619811,1,0,3:0:0:0:
261,88,619987,1,2,3:0:0:0:
119,57,620164,1,8,3:0:0:0:
329,7,620340,5,2,3:0:0:0:
371,34,620429,1,0,3:0:0:0:
383,82,620517,1,0,3:0:0:0:
362,127,620605,1,0,3:0:0:0:
330,147,620693,5,2,3:0:0:0:
323,161,620781,1,0,3:0:0:0:
320,179,620870,1,0,3:0:0:0:
327,192,620958,1,0,3:0:0:0:
337,199,621046,6,0,P|383:173|441:183,1,100,10|0,3:0|3:0,3:0:0:0:
494,105,621399,1,2,3:0:0:0:
484,350,621576,2,0,L|470:243,1,100,8|2,3:0|3:0,3:0:0:0:
366,170,621929,1,8,3:0:0:0:
287,333,622105,2,0,P|305:339|371:298,1,100,2|0,3:0|3:0,3:0:0:0:
241,129,622458,5,10,3:0:0:0:
193,272,622634,1,0,3:0:0:0:
107,156,622811,1,2,3:0:0:0:
31,342,622987,1,8,3:0:0:0:
297,343,623164,5,8,3:0:0:0:
283,310,623252,1,0,3:0:0:0:
250,297,623340,1,0,3:0:0:0:
215,303,623429,1,0,3:0:0:0:
194,316,623517,5,8,3:0:0:0:
195,330,623605,1,0,3:0:0:0:
196,341,623693,1,0,3:0:0:0:
198,352,623781,1,0,3:0:0:0:
201,365,623870,5,6,3:2:0:0:
289,349,624046,1,2,3:2:0:0:
239,255,624223,1,2,3:2:0:0:
161,230,624399,1,2,3:2:0:0:
266,111,624576,5,2,3:2:0:0:
286,185,624752,1,2,3:2:0:0:
261,30,624929,1,2,3:2:0:0:
241,104,625105,1,2,3:2:0:0:
459,73,625281,5,10,3:2:0:0:
241,24,625458,1,2,3:2:0:0:
468,82,625634,5,10,3:2:0:0:
247,170,625811,1,2,3:2:0:0:
464,307,625987,5,8,3:0:0:0:
493,265,626076,1,0,3:0:0:0:
487,215,626164,1,0,3:0:0:0:
452,179,626252,1,0,3:0:0:0:
402,171,626340,5,8,3:0:0:0:
387,185,626429,1,0,3:0:0:0:
391,204,626517,1,0,3:0:0:0:
408,207,626605,1,0,3:0:0:0:
419,193,626693,6,0,P|372:183|329:235,1,100,6|0,3:0|3:0,3:0:0:0:
312,310,627046,1,2,3:2:0:0:
360,371,627223,1,2,3:2:0:0:
202,369,627399,5,2,3:2:0:0:
217,302,627576,1,2,3:2:0:0:
140,251,627752,1,2,3:2:0:0:
125,184,627929,1,2,3:2:0:0:
295,233,628105,5,10,3:2:0:0:
40,296,628281,1,2,3:2:0:0:
185,66,628458,5,10,3:2:0:0:
124,350,628634,1,2,3:2:0:0:
6,134,628811,5,6,3:0:0:0:
65,124,628899,1,0,3:0:0:0:
113,148,628987,1,0,3:0:0:0:
132,194,629076,1,0,3:0:0:0:
122,237,629164,1,2,3:0:0:0:
90,261,629252,1,0,3:0:0:0:
68,255,629340,1,0,3:0:0:0:
58,241,629429,1,0,3:0:0:0:
64,222,629517,5,10,3:0:0:0:
90,210,629605,1,0,2:0:0:0:
132,220,629693,1,0,3:0:0:0:
166,263,629781,1,0,2:0:0:0:
222,297,629870,1,2,3:0:0:0:
283,293,629958,1,0,2:0:0:0:
310,255,630046,1,8,2:0:0:0:
300,216,630134,1,0,2:0:0:0:
276,195,630223,5,2,2:3:0:0:
214,241,630311,1,0,2:0:0:0:
201,310,630399,1,8,2:0:0:0:
235,358,630487,1,0,2:0:0:0:
291,368,630576,1,2,3:0:0:0:
327,337,630664,1,0,2:0:0:0:
324,298,630752,1,0,3:0:0:0:
299,286,630840,1,0,2:0:0:0:
285,295,630929,6,0,L|279:342,2,33.3333333333333,10|0|0,3:0|2:0|2:0,3:0:0:0:
370,228,631105,6,0,L|364:181,2,40,0|0|0,3:0|2:0|2:0,3:0:0:0:
467,302,631281,5,2,3:0:0:0:
474,294,631370,2,0,B|481:234|481:234|480:227|480:227|491:135,1,150,0|0,2:0|3:0,3:0:0:0:
354,6,631634,5,2,3:0:0:0:
281,27,631723,1,0,3:0:0:0:
242,79,631811,1,0,3:0:0:0:
241,133,631899,1,0,3:0:0:0:
228,181,631987,1,2,3:0:0:0:
198,208,632076,1,0,3:0:0:0:
168,207,632164,1,0,3:0:0:0:
148,191,632252,1,0,3:0:0:0:
148,176,632340,5,10,3:0:0:0:
153,156,632429,1,0,2:0:0:0:
149,131,632517,1,0,3:0:0:0:
127,110,632605,1,0,2:0:0:0:
92,106,632693,1,2,3:0:0:0:
56,123,632781,1,0,2:0:0:0:
12,109,632870,1,8,2:0:0:0:
4,59,632958,1,0,2:0:0:0:
39,10,633046,5,2,2:3:0:0:
93,51,633134,1,0,2:0:0:0:
104,114,633223,1,8,2:0:0:0:
83,161,633311,1,0,2:0:0:0:
51,184,633399,1,2,3:0:0:0:
32,211,633487,1,0,2:0:0:0:
34,235,633576,1,0,3:0:0:0:
53,251,633664,1,0,2:0:0:0:
71,249,633752,5,8,2:0:0:0:
107,265,633840,1,8,2:0:0:0:
122,302,633929,1,8,2:0:0:0:
361,253,634105,5,8,2:0:0:0:
305,210,634193,1,8,2:0:0:0:
234,219,634281,1,8,2:0:0:0:
441,349,634458,6,0,L|446:279,1,62.5,4|0,3:1|3:0,3:0:0:0:
498,235,634634,1,0,3:0:0:0:
282,364,634811,2,0,L|277:294,1,62.5,4|0,3:1|3:0,3:0:0:0:
225,250,634987,1,0,3:0:0:0:
452,57,635164,5,12,3:1:0:0:
238,128,635340,1,0,3:0:0:0:
378,176,635517,2,0,B|393:148|393:148|384:108,1,62.5,4|0,3:1|3:0,3:0:0:0:
326,22,635693,2,0,B|311:50|311:50|320:90,1,62.5,8|0,3:0|3:0,3:0:0:0:
163,229,635870,6,0,B|262:204|262:204|301:195|312:253,1,150,4|8,3:1|3:0,3:0:0:0:
174,357,636223,1,4,3:1:0:0:
170,344,636311,1,0,3:0:0:0:
167,331,636399,1,0,3:0:0:0:
401,361,636576,6,0,B|361:363|324:390|324:390|312:364|272:363,1,125,12|0,3:1|3:0,3:0:0:0:
492,308,636929,1,4,3:1:0:0:
286,241,637105,1,8,3:0:0:0:
415,135,637281,5,4,3:1:0:0:
428,121,637370,1,0,3:0:0:0:
446,116,637458,1,0,3:0:0:0:
365,51,637634,5,4,3:1:0:0:
395,91,637723,1,0,3:0:0:0:
386,140,637811,1,0,3:0:0:0:
198,112,637987,1,12,3:1:0:0:
378,228,638164,1,0,3:0:0:0:
204,318,638340,1,4,3:1:0:0:
288,59,638517,6,0,B|278:102|278:102|280:106|280:106|260:193,1,112.5,8|0,3:0|3:0,3:0:0:0:
287,205,638870,5,8,3:0:0:0:
85,249,639046,1,4,3:1:0:0:
303,219,639223,1,0,3:0:0:0:
183,342,639399,1,12,3:1:0:0:
245,177,639576,1,0,3:0:0:0:
206,354,639752,1,4,3:1:0:0:
120,139,639929,2,0,L|18:123,1,62.5000000000001,8|0,3:0|3:0,3:0:0:0:
144,87,640105,5,4,3:1:0:0:
147,117,640193,1,0,3:0:0:0:
150,147,640281,1,0,3:0:0:0:
308,46,640458,5,4,3:1:0:0:
265,37,640546,1,0,3:0:0:0:
221,30,640634,1,0,3:0:0:0:
350,223,640811,1,12,3:1:0:0:
236,152,640987,1,0,3:0:0:0:
407,98,641164,1,4,3:1:0:0:
212,261,641340,6,0,B|166:242|166:242|137:254|137:254|135:252|135:252|81:273|81:273|27:255,1,187.5,8|0,3:0|3:0,3:0:0:0:
0,239,641693,1,8,3:0:0:0:
103,79,641870,1,4,3:1:0:0:
85,84,641958,1,0,3:0:0:0:
66,88,642046,1,0,3:0:0:0:
294,196,642223,2,0,B|211:157|211:157|231:191,1,125,12|0,3:1|3:0,3:0:0:0:
378,177,642576,1,4,3:1:0:0:
190,279,642752,1,8,3:0:0:0:
288,108,642929,5,4,3:1:0:0:
292,151,643017,1,0,3:0:0:0:
296,194,643105,1,0,3:0:0:0:
307,59,643281,5,4,3:1:0:0:
303,102,643370,1,0,3:0:0:0:
299,145,643458,1,0,3:0:0:0:
418,21,643634,1,12,3:1:0:0:
208,0,643811,1,0,3:0:0:0:
386,110,643987,1,4,3:1:0:0:
259,268,644164,6,0,B|238:229|238:229|284:115,1,125,8|4,3:0|3:1,3:0:0:0:
337,339,644517,1,8,3:0:0:0:
130,323,644693,1,4,3:1:0:0:
171,249,644870,1,0,3:0:0:0:
33,139,645046,1,12,3:1:0:0:
63,247,645223,1,0,3:0:0:0:
114,95,645399,1,4,3:1:0:0:
74,266,645576,1,8,3:0:0:0:
3,87,645752,5,6,3:0:0:0:
32,54,645840,1,0,3:0:0:0:
75,47,645929,2,0,P|118:69|129:123,1,62.5000000000001,0|0,3:0|3:0,3:0:0:0:
192,203,646105,2,0,P|182:151|207:124,1,62.5000000000001,4|0,3:1|3:0,3:0:0:0:
292,50,646281,1,0,3:0:0:0:
335,54,646370,1,0,3:0:0:0:
378,60,646458,6,0,L|456:73,1,75,14|0,3:0|3:0,3:0:0:0:
512,211,646634,2,0,B|466:213|425:174|425:174|415:212|379:221,1,150,0|4,3:0|3:1,3:0:0:0:
229,372,646987,1,0,3:0:0:0:
229,372,647076,1,0,3:0:0:0:
229,372,647164,2,0,B|296:357|296:357|301:360|301:360|394:341,1,150,4|8,3:2|3:0,3:0:0:0:
158,272,647517,1,4,3:1:0:0:
106,283,647605,1,0,3:0:0:0:
55,295,647693,1,0,3:0:0:0:
312,162,647870,5,14,3:0:0:0:
117,103,648046,1,0,3:0:0:0:
332,139,648223,1,4,3:1:0:0:
175,249,648399,1,8,3:0:0:0:
294,57,648576,5,6,3:0:0:0:
359,33,648693,5,0,2:0:0:0:
421,65,648811,5,0,2:0:0:0:
433,121,648929,5,2,3:0:0:0:
408,160,649046,1,0,2:0:0:0:
374,168,649164,1,0,2:0:0:0:
346,102,649281,5,12,3:1:0:0:
390,149,649399,1,0,2:0:0:0:
387,202,649517,1,0,2:0:0:0:
360,239,649634,1,4,3:1:0:0:
349,275,649752,1,0,2:1:0:0:
370,301,649870,1,0,2:0:0:0:
403,308,649987,6,0,P|437:285|481:292,2,83.3333333333333,4|0|0,3:2|2:0|2:0,3:0:0:0:
343,188,650340,2,0,P|325:240|288:264,2,66.6666666666667,4|0|0,3:1|2:0|2:0,3:0:0:0:
305,366,650693,1,14,3:0:0:0:
264,336,650811,1,0,3:0:0:0:
213,352,650929,1,0,3:0:0:0:
179,330,651046,6,0,B|151:303|151:303|26:346,1,150,4|0,3:1|3:0,3:0:0:0:
22,253,651399,5,6,3:0:0:0:
50,225,651487,1,0,3:0:0:0:
90,222,651576,1,0,3:0:0:0:
218,160,651752,5,4,3:1:0:0:
186,121,651840,1,0,3:0:0:0:
135,123,651929,1,0,3:0:0:0:
221,309,652105,6,0,B|268:299|268:299|311:322|311:322|385:314,1,150,14|0,3:0|3:0,3:0:0:0:
489,146,652458,2,0,P|476:112|477:72,1,62.5,4|0,3:1|3:0,3:0:0:0:
406,20,652634,2,0,B|272:44|272:44|336:67,1,187.5,8|0,3:0|3:0,3:0:0:0:
331,98,652987,1,8,3:0:0:0:
156,177,653164,1,4,3:1:0:0:
182,147,653252,1,0,3:0:0:0:
219,146,653340,1,0,3:0:0:0:
300,292,653517,5,14,3:0:0:0:
137,358,653693,1,0,3:0:0:0:
247,222,653870,2,0,B|300:211|331:178|331:178|349:205|395:208,1,125,4|8,3:1|3:0,3:0:0:0:
135,74,654223,5,4,3:0:0:0:
405,142,654399,1,4,3:0:0:0:
332,307,654752,5,0,3:0:0:0:
240,17,654929,1,6,3:0:0:0:
256,192,655017,12,0,664017,2:0:0:0:
403,147,664101,6,0,B|455:138|455:138|480:156,2,75,2|2|2,2:0|2:0|2:0,2:0:0:0:
256,36,665167,2,0,L|246:209,1,150,2|0,2:0|2:0,2:0:0:0:
164,257,666234,5,2,2:0:0:0:
49,189,666501,1,2,2:0:0:0:
46,205,666634,1,2,2:0:0:0:
175,253,666901,1,2,2:0:0:0:
172,237,667034,1,2,2:0:0:0:
36,320,667301,5,2,2:0:0:0:
197,336,667567,1,2,2:0:0:0:
40,331,667834,5,2,2:0:0:0:
115,338,667967,1,2,2:0:0:0:
191,346,668101,1,2,2:0:0:0:
118,100,668367,6,0,B|103:129|108:162|108:162|95:183|95:183|95:169|82:157,2,112.5,2|2|2,2:0|2:0|2:0,2:0:0:0:
194,39,669434,2,0,B|224:35|224:35|224:38|224:38|263:35,1,56.2499999999999,2|0,2:0|2:0,2:0:0:0:
310,99,669701,2,0,L|316:70,3,18.75,2|2|2|2,2:0|2:0|2:0|2:0,2:0:0:0:
385,29,669967,1,2,2:0:0:0:
457,256,671301,5,2,2:0:0:0:
454,248,671367,1,2,2:0:0:0:
451,240,671434,1,2,2:0:0:0:
448,232,671501,1,2,2:0:0:0:
456,213,671567,5,2,2:0:0:0:
339,328,671834,5,2,2:0:0:0:
342,320,671901,1,2,2:0:0:0:
345,312,671967,1,2,2:0:0:0:
348,304,672034,1,2,2:0:0:0:
329,265,672101,6,0,P|311:263|278:271,1,52.5,2|0,2:3|2:0,2:0:0:0:
258,286,672634,6,0,P|261:261|249:220,1,50,2|0,2:0|2:0,2:0:0:0:
217,169,672901,1,2,2:0:0:0:
152,289,673034,2,0,P|176:259|185:239,1,50,2|0,2:0|2:0,2:0:0:0:
208,154,673301,1,2,2:0:0:0:
53,227,673434,2,0,P|87:229|120:216,1,50,2|0,2:0|2:0,2:0:0:0:
197,142,673701,5,2,2:0:0:0:
55,113,673967,1,2,2:0:0:0:
198,156,674234,5,2,2:0:0:0:
127,142,674367,1,2,2:0:0:0:
56,128,674501,1,2,2:0:0:0:
291,37,674767,5,2,2:0:0:0:
397,104,675034,1,2,2:0:0:0:
395,114,675167,1,2,2:0:0:0:
305,186,675434,1,2,2:0:0:0:
303,176,675567,1,2,2:0:0:0:
468,256,675834,5,2,2:0:0:0:
307,272,676101,1,2,2:0:0:0:
464,267,676367,5,2,2:0:0:0:
389,274,676501,1,2,2:0:0:0:
313,282,676634,1,2,2:0:0:0:
66,347,676901,6,0,B|96:326|96:326|116:335|138:336|138:336|124:339|110:367,2,112.5,2|2|2,2:0|2:0|2:0,2:0:0:0:
1,219,677967,2,0,L|73:228,1,56.2499999999999,2|0,2:0|2:0,2:0:0:0:
123,191,678234,2,0,L|117:163,3,18.75,2|2|2|2,2:0|2:0|2:0|2:0,2:0:0:0:
185,252,678501,1,2,2:0:0:0:
189,133,679834,5,2,2:0:0:0:
192,125,679901,1,2,2:0:0:0:
195,117,679967,1,2,2:0:0:0:
198,109,680034,1,2,2:0:0:0:
190,90,680101,5,2,2:0:0:0:
264,148,680301,1,2,2:0:0:0:
391,70,680501,1,2,2:0:0:0:
487,147,680710,1,2,2:3:0:0:
387,286,680967,5,2,2:0:0:0:
379,300,681034,1,2,2:0:0:0:
377,315,681101,1,2,2:0:0:0:
387,330,681167,6,0,B|351:305|299:308|299:308|307:329,2,112.5,2|2|2,2:0|2:0|2:0,2:0:0:0:
197,364,682234,2,0,L|216:145,1,220,2|0,2:0|2:0,2:0:0:0:
441,88,685434,6,0,P|418:93|385:174,2,112.5,2|2|2,2:0|2:0|2:0,2:0:0:0:
512,253,686501,2,0,L|291:241,1,220,2|0,2:0|2:0,2:0:0:0:
189,24,689701,6,0,B|183:49|183:49|197:147,2,112.5,2|0|0,2:0|2:0|2:0,2:0:0:0:
92,93,690767,2,0,L|84:193,1,100,2|0,2:0|2:0,2:0:0:0:
98,202,692367,2,0,L|123:197,22,17.5,2|2|2|2|2|2|2|2|2|2|2|2|2|2|2|2|2|2|2|2|2|2|2,2:0|2:0|2:0|2:0|2:0|2:0|2:0|2:0|2:0|2:0|2:0|2:0|2:0|2:0|2:0|2:0|2:0|2:0|2:0|2:0|2:0|2:0|2:0,2:0:0:0:
155,341,693967,6,0,P|152:309|208:246,2,105,2|2|2,2:0|2:0|2:0,2:0:0:0:
227,376,695034,2,0,L|368:365,1,140,2|0,2:0|2:0,2:0:0:0:
361,346,697167,2,0,L|365:317,15,18.75,2|2|2|2|2|2|2|2|2|2|2|2|2|2|2|2,2:0|2:0|2:0|2:0|2:0|2:0|2:0|2:0|2:0|2:0|2:0|2:0|2:0|2:0|2:0|2:0,2:0:0:0:
419,279,698234,6,0,L|447:282,5,18.75,2|2|2|2|2|2,2:0|2:0|2:0|2:0|2:0|2:0,2:0:0:0:
367,215,698634,2,0,L|333:219,5,18.75,2|2|2|2|2|2,2:0|2:0|2:0|2:0|2:0|2:0,2:0:0:0:
426,156,699034,2,0,L|448:153,3,18.75,2|2|2|2,2:0|2:0|2:0|2:0,2:0:0:0:
369,85,699301,2,0,L|220:79,1,150,2|0,2:0|2:0,2:0:0:0:
202,96,700367,5,2,2:0:0:0:
322,223,701167,5,2,2:0:0:0:
192,348,701967,5,2,2:0:0:0:
54,258,702501,6,0,P|47:237|40:230,5,18.75,2|2|2|2|2|2,2:0|2:0|2:0|2:0|2:0|2:0,2:0:0:0:
117,189,702901,2,0,P|124:168|132:158,5,18.75,2|2|2|2|2|2,2:0|2:0|2:0|2:0|2:0|2:0,2:0:0:0:
53,120,703301,2,0,P|46:99|38:89,3,18.75,2|2|2|2,2:0|2:0|2:0|2:0,2:0:0:0:
136,28,703567,2,0,L|287:42,1,150,2|0,2:0|2:0,2:0:0:0:
291,52,704634,5,2,2:0:0:0:
476,157,705434,5,2,2:0:0:0:
302,278,706234,5,2,2:0:0:0:
485,336,706767,6,0,L|491:311,5,18.75,2|2|2|2|2|2,2:0|2:0|2:0|2:0|2:0|2:0,2:0:0:0:
402,363,707167,2,0,L|396:338,5,18.75,2|2|2|2|2|2,2:0|2:0|2:0|2:0|2:0|2:0,2:0:0:0:
314,318,707567,2,0,L|318:299,3,18.75,2|2|2|2,2:0|2:0|2:0|2:0,2:0:0:0:
225,353,707834,2,0,L|194:349,15,18.75,2|2|2|2|2|2|2|2|2|2|2|2|2|2|2|2,2:0|2:0|2:0|2:0|2:0|2:0|2:0|2:0|2:0|2:0|2:0|2:0|2:0|2:0|2:0|2:0,2:0:0:0:
187,353,708901,5,2,2:0:0:0:
256,163,709789,5,2,2:0:0:0:
82,38,710501,5,2,2:0:0:0:
18,243,711034,6,0,P|59:230|66:161,2,112.5,2|2|2,2:0|2:0|2:0,2:0:0:0:
130,263,712101,2,0,L|126:287,15,18.75,2|2|2|2|2|2|2|2|2|2|2|2|2|2|2|2,2:0|2:0|2:0|2:0|2:0|2:0|2:0|2:0|2:0|2:0|2:0|2:0|2:0|2:0|2:0|2:0,2:0:0:0:
136,302,713167,5,2,2:0:0:0:
330,359,713967,5,2,2:0:0:0:
475,234,714767,5,2,2:0:0:0:
437,96,715301,5,2,2:0:0:0:
421,83,715434,1,2,2:0:0:0:
385,71,715567,1,2,2:0:0:0:
334,94,715701,1,2,2:0:0:0:
322,164,715834,2,0,P|327:194|344:220,1,50,2|0,2:0|2:0,2:0:0:0:
399,305,716101,5,2,2:0:0:0:
358,284,716234,1,2,2:0:0:0:
322,287,716367,2,0,P|306:295|285:318,1,35,0|2,2:0|2:0,2:0:0:0:
251,374,716634,5,0,2:0:0:0:
226,382,716767,1,0,2:0:0:0:
177,371,716901,2,0,P|161:352|159:294,1,59.9999999999999,2|0,2:0|2:0,2:0:0:0:
265,223,717167,5,2,2:0:0:0:
228,282,717301,1,2,2:0:0:0:
180,186,717434,5,2,2:0:0:0:
194,174,717567,1,2,2:0:0:0:
230,169,717701,2,0,P|264:181|278:204,1,50,2|0,2:0|2:0,2:0:0:0:
329,134,717967,2,0,P|355:131|379:116,1,40,2|0,2:0|2:0,2:0:0:0:
426,187,718234,5,2,2:0:0:0:
455,198,718367,1,2,2:0:0:0:
471,194,718501,1,2,2:0:0:0:
479,186,718634,1,2,2:0:0:0:
483,15,718767,6,0,P|453:27|408:16,1,54.9999999999999,2|2,2:0|2:0,2:0:0:0:
383,81,719034,2,0,P|359:69|340:45,1,50,2|0,2:0|2:0,2:0:0:0:
259,65,719301,5,2,2:0:0:0:
267,41,719434,1,2,2:0:0:0:
306,128,719567,5,2,2:0:0:0:
292,138,719701,1,2,2:0:0:0:
254,144,719834,2,0,P|222:137|200:118,1,50,2|0,2:0|2:0,2:0:0:0:
166,194,720101,2,0,P|143:198|121:210,1,40,2|0,2:0|2:0,2:0:0:0:
74,146,720367,5,2,2:0:0:0:
57,139,720501,1,2,2:0:0:0:
47,128,720634,2,0,P|41:113|42:88,1,35,2|0,2:0|2:0,2:0:0:0:
119,19,720901,6,0,P|133:37|140:81,1,54.9999999999999,2|0,2:0|2:0,2:0:0:0:
221,83,721167,2,0,P|215:113|194:142,1,50,2|0,2:0|2:0,2:0:0:0:
245,201,721434,1,2,2:0:0:0:
221,233,721567,1,2,2:0:0:0:
189,238,721701,5,2,2:0:0:0:
210,250,721834,1,2,2:0:0:0:
225,288,721967,2,0,P|226:315|217:341,1,50,2|0,2:0|2:0,2:0:0:0:
147,384,722234,2,0,P|146:358|134:334,1,40,2|0,2:0|2:0,2:0:0:0:
80,270,722501,5,2,2:0:0:0:
85,293,722634,1,2,2:0:0:0:
78,307,722767,2,0,P|69:317|34:331,1,50,2|0,2:0|2:0,2:0:0:0:
139,209,723034,6,0,P|174:209|191:219,1,50,2|0,2:0|2:0,2:0:0:0:
63,144,723301,2,0,P|35:144|9:159,1,54.9999999999999,2|0,2:0|2:0,2:0:0:0:
163,88,723567,1,2,2:0:0:0:
168,109,723701,1,2,2:0:0:0:
47,70,723834,5,2,2:0:0:0:
53,53,723967,1,2,2:0:0:0:
80,31,724101,1,2,2:0:0:0:
129,26,724234,1,2,2:0:0:0:
174,65,724367,2,0,P|202:75|235:69,1,50,2|0,2:0|2:0,2:0:0:0:
310,8,724634,5,2,2:0:0:0:
349,0,724767,1,2,2:0:0:0:
375,10,724901,2,0,P|384:15|396:36,1,35,0|2,2:0|2:0,2:0:0:0:
380,187,725167,5,2,2:0:0:0:
357,184,725301,1,2,2:0:0:0:
324,160,725434,2,0,P|315:132|326:96,1,59.9999999999999,2|0,2:0|2:0,2:0:0:0:
485,80,725701,5,2,2:0:0:0:
448,144,725834,1,2,2:0:0:0:
392,49,725967,5,2,2:0:0:0:
405,41,726101,1,2,2:0:0:0:
436,37,726234,2,0,P|459:44|478:69,1,50,2|0,2:0|2:0,2:0:0:0:
462,146,726501,2,0,P|469:172|461:200,1,40,2|0,2:0|2:0,2:0:0:0:
397,221,726767,5,2,2:0:0:0:
371,239,726901,1,2,2:0:0:0:
351,237,727034,1,0,2:0:0:0:
340,229,727167,1,0,2:0:0:0:
279,135,727301,6,0,P|249:135|219:158,1,54.9999999999999,2|0,2:0|2:0,2:0:0:0:
154,121,727567,2,0,P|135:148|133:178,1,50,2|0,2:0|2:0,2:0:0:0:
64,218,727834,5,2,2:0:0:0:
69,236,727967,1,2,2:0:0:0:
183,288,728101,5,2,2:0:0:0:
196,275,728234,1,2,2:0:0:0:
204,237,728367,2,0,P|197:207|184:192,1,50,2|0,2:0|2:0,2:0:0:0:
245,142,728634,2,0,P|250:121|266:102,1,40,2|0,2:0|2:0,2:0:0:0:
194,49,728901,5,2,2:0:0:0:
193,32,729034,1,2,2:0:0:0:
181,18,729167,2,0,P|162:11|135:13,1,35,2|0,2:0|2:0,2:0:0:0:
179,147,729434,6,0,P|215:146|242:132,1,54.9999999999999,2|0,2:0|2:0,2:0:0:0:
110,196,729701,2,0,P|132:214|161:221,1,50,2|0,2:0|2:0,2:0:0:0:
35,171,729967,5,2,2:0:0:0:
32,221,730101,1,2,2:0:0:0:
45,243,730234,5,2,2:0:0:0:
25,249,730367,1,2,2:0:0:0:
5,279,730501,2,0,P|1:297|15:337,1,50,2|0,2:0|2:0,2:0:0:0:
73,384,730767,2,0,P|73:365|84:340,1,40,2|0,2:0|2:0,2:0:0:0:
163,287,731034,5,2,2:0:0:0:
152,300,731167,1,2,2:0:0:0:
150,311,731301,2,0,P|154:328|173:352,1,35,2|0,2:0|2:0,2:0:0:0:
294,324,731567,6,0,P|306:288|292:255,1,50,2|0,2:0|2:0,2:0:0:0:
364,224,731834,2,0,P|347:188|298:162,1,59.9999999999999,2|0,2:0|2:0,2:0:0:0:
324,91,732101,1,2,2:0:0:0:
312,88,732234,1,2,2:0:0:0:
170,84,732367,5,6,3:0:0:0:
168,95,732434,1,0,2:0:0:0:
166,106,732501,1,0,2:0:0:0:
164,117,732567,1,0,2:0:0:0:
162,128,732634,1,0,2:0:0:0:
160,139,732701,1,0,2:0:0:0:
158,150,732767,5,0,2:0:0:0:
143,166,732834,1,0,2:0:0:0:
122,175,732901,1,0,2:0:0:0:
100,174,732967,1,0,2:0:0:0:
80,164,733034,1,0,2:0:0:0:
66,147,733101,1,0,2:0:0:0:
61,125,733167,2,0,P|65:102|76:86,3,37.5000000000001,4|4|4|4,2:1|2:1|2:1|2:1,2:0:0:0:
251,42,733434,6,0,L|256:99,27,37.5000000000001,4|0|0|0|0|0|0|0|0|0|0|0|0|0|0|0|0|0|0|0|0|0|0|0|0|0|0|0,2:1|2:0|2:0|2:0|2:0|2:0|2:0|2:0|2:0|2:0|2:0|2:0|2:0|2:0|2:0|2:0|2:0|2:0|2:0|2:0|2:0|2:0|2:0|2:0|2:0|2:0|2:0|2:0,2:0:0:0:
315,151,735301,2,0,L|362:144,1,37.5000000000001,4|4,2:1|2:1,2:0:0:0:
323,163,735434,2,0,L|370:156,1,37.5000000000001,4|4,2:1|2:1,2:0:0:0:
447,210,735567,5,4,2:3:0:0:
424,230,735634,1,0,2:0:0:0:
412,258,735701,1,0,2:0:0:0:
411,287,735767,1,0,2:0:0:0:
421,315,735834,1,0,2:0:0:0:
443,334,735901,1,0,2:0:0:0:
471,341,735967,5,0,2:0:0:0:
461,335,736034,1,0,2:0:0:0:
450,331,736101,1,0,2:0:0:0:
438,329,736167,1,0,2:0:0:0:
426,329,736234,1,0,2:0:0:0:
415,332,736301,1,0,2:0:0:0:
404,335,736367,2,0,P|392:361|385:380,3,37.5000000000001,0|0|0|0,2:0|2:0|2:0|2:0,2:0:0:0:
269,355,736634,6,0,L|226:359,11,37.5000000000001,6|0|0|0|0|0|0|0|0|0|0|0,3:0|2:0|2:0|2:0|2:0|2:0|2:0|2:0|2:0|2:0|2:0|2:0,2:0:0:0:
82,336,737434,2,0,L|86:375,1,37.5000000000001,4|0,2:1|2:0,3:0:0:0:
94,337,737567,2,0,L|98:376,1,37.5000000000001,4|0,2:1|2:0,3:0:0:0:
149,282,737701,5,4,2:1:0:0:
139,261,737767,1,0,2:0:0:0:
133,239,737834,1,0,2:0:0:0:
131,216,737901,1,0,2:0:0:0:
132,193,737967,1,0,2:0:0:0:
137,171,738034,1,0,2:0:0:0:
146,150,738101,1,0,2:0:0:0:
159,132,738167,1,0,2:0:0:0:
177,119,738234,6,0,P|195:113|215:110,19,37.5000000000001,0|0|0|0|0|0|0|0|0|0|0|0|0|0|0|0|0|0|0|0,2:0|2:0|2:0|2:0|2:0|2:0|2:0|2:0|2:0|2:0|2:0|2:0|2:0|2:0|2:0|2:0|2:0|2:0|2:0|2:0,2:0:0:0:
293,161,739567,2,0,L|285:213,1,37.5000000000001,4|4,2:1|2:1,2:0:0:0:
297,170,739701,2,0,L|289:222,1,37.5000000000001,4|4,2:1|2:1,2:0:0:0:
362,275,739834,5,4,2:1:0:0:
376,272,739901,1,0,2:0:0:0:
390,269,739967,1,0,2:0:0:0:
404,266,740034,1,0,2:0:0:0:
418,263,740101,2,0,L|411:310,3,37.5000000000001,4|0|0|0,2:0|2:0|2:0|2:0,2:0:0:0:
504,195,740367,2,0,L|511:242,7,37.5000000000001,4|0|0|0|0|0|0|0,2:0|2:0|2:0|2:0|2:0|2:0|2:0|2:0,2:0:0:0:
359,146,740901,5,6,3:0:0:0:
355,139,740967,1,0,2:0:0:0:
352,132,741034,1,0,2:0:0:0:
349,124,741101,1,0,2:0:0:0:
347,116,741167,1,0,2:0:0:0:
346,108,741234,1,0,2:0:0:0:
347,100,741301,5,0,2:0:0:0:
324,103,741367,1,0,2:0:0:0:
301,106,741434,1,0,2:0:0:0:
278,109,741501,1,0,2:0:0:0:
255,112,741567,1,0,2:0:0:0:
232,115,741634,1,0,2:0:0:0:
210,118,741701,2,0,L|214:78,3,37.5000000000001,4|4|4|4,2:1|2:1|2:1|2:1,2:0:0:0:
96,16,741967,6,0,L|101:60,27,37.5000000000001,4|0|0|0|0|0|0|0|0|0|0|0|0|0|0|0|0|0|0|0|0|0|0|0|0|0|0|0,2:1|2:0|2:0|2:0|2:0|2:0|2:0|2:0|2:0|2:0|2:0|2:0|2:0|2:0|2:0|2:0|2:0|2:0|2:0|2:0|2:0|2:0|2:0|2:0|2:0|2:0|2:0|2:0,2:0:0:0:
48,132,743834,2,0,L|44:178,1,37.5000000000001,4|4,2:1|2:1,2:0:0:0:
55,146,743967,2,0,L|51:192,1,37.5000000000001,4|4,2:1|2:1,2:0:0:0:
107,262,744101,5,4,2:1:0:0:
119,253,744167,1,0,2:0:0:0:
133,248,744234,1,0,2:0:0:0:
147,245,744301,1,0,2:0:0:0:
162,244,744367,1,0,2:0:0:0:
177,245,744434,1,0,2:0:0:0:
191,249,744501,5,0,2:0:0:0:
186,259,744567,1,0,2:0:0:0:
183,270,744634,1,0,2:0:0:0:
181,281,744701,1,0,2:0:0:0:
180,292,744767,1,0,2:0:0:0:
180,303,744834,1,0,2:0:0:0:
182,313,744901,2,0,P|192:336|199:347,3,37.5000000000001,0|0|0|0,2:0|2:0|2:0|2:0,2:0:0:0:
309,299,745167,6,0,L|261:295,11,37.5000000000001,6|0|0|0|0|0|0|0|0|0|0|0,3:0|2:0|2:0|2:0|2:0|2:0|2:0|2:0|2:0|2:0|2:0|2:0,2:0:0:0:
381,362,745967,6,0,L|432:356,1,37.5000000000001,4|4,2:1|2:1,2:0:0:0:
388,354,746101,2,0,L|439:348,1,37.5000000000001,4|4,2:1|2:1,2:0:0:0:
478,254,746234,5,4,2:1:0:0:
471,244,746301,1,0,2:0:0:0:
467,233,746367,1,0,2:0:0:0:
463,222,746434,1,0,2:0:0:0:
461,210,746501,1,0,2:0:0:0:
460,198,746567,1,0,2:0:0:0:
461,186,746634,1,0,2:0:0:0:
463,175,746701,1,0,2:0:0:0:
466,164,746767,2,0,P|477:144|487:131,7,37.5000000000001,0|0|0|0|0|0|0|0,2:0|2:0|2:0|2:0|2:0|2:0|2:0|2:0,2:0:0:0:
386,173,747301,5,2,2:0:0:0:
383,180,747367,1,2,2:0:0:0:
379,186,747434,1,2,2:0:0:0:
372,195,747501,1,2,2:0:0:0:
363,202,747567,1,2,2:0:0:0:
350,210,747634,1,2,2:0:0:0:
336,215,747701,1,2,2:0:0:0:
318,220,747767,1,2,2:0:0:0:
299,222,747834,1,2,2:0:0:0:
276,219,747901,1,2,2:0:0:0:
255,210,747967,1,2,2:0:0:0:
234,193,748034,1,2,2:0:0:0:
220,170,748101,1,2,2:0:0:0:
214,140,748167,1,2,2:0:0:0:
222,110,748234,1,2,2:0:0:0:
243,84,748301,1,2,2:0:0:0:
274,71,748367,2,0,P|285:70|316:76,7,37.5000000000001,2|2|2|2|2|2|2|2,2:0|2:0|2:0|2:0|2:0|2:0|2:0|2:0,2:0:0:0:
374,138,748901,2,0,L|361:307,1,150,2|0,2:0|2:0,2:0:0:0:
281,343,749434,5,2,3:0:0:0:
273,336,749501,1,8,3:0:0:0:
263,331,749567,1,0,3:0:0:0:
253,328,749634,1,8,3:0:0:0:
243,326,749701,1,2,3:0:0:0:
232,325,749767,1,8,3:0:0:0:
222,326,749834,5,0,3:0:0:0:
236,311,749901,1,8,3:0:0:0:
253,301,749967,1,2,3:0:0:0:
271,294,750034,1,8,3:0:0:0:
290,290,750101,1,0,3:0:0:0:
310,289,750167,1,8,3:0:0:0:
329,292,750234,2,0,P|340:317|346:352,3,50,2|8|0|8,3:0|3:0|3:0|3:0,3:0:0:0:
475,361,750501,5,2,3:0:0:0:
466,367,750567,1,8,3:0:0:0:
451,370,750634,1,0,3:0:0:0:
431,367,750701,1,8,3:0:0:0:
409,354,750767,1,2,3:0:0:0:
393,328,750834,1,8,3:0:0:0:
394,293,750901,1,0,3:0:0:0:
416,260,750967,1,8,3:0:0:0:
457,242,751034,1,2,3:0:0:0:
483,200,751101,1,8,3:0:0:0:
478,149,751167,1,0,3:0:0:0:
443,112,751234,1,8,3:0:0:0:
394,100,751301,1,2,3:0:0:0:
344,109,751367,1,8,3:0:0:0:
310,146,751434,1,0,3:0:0:0:
298,194,751501,1,8,3:0:0:0:
314,241,751567,1,2,3:0:0:0:
312,291,751634,1,8,3:0:0:0:
284,332,751701,1,0,3:0:0:0:
235,343,751767,1,8,3:0:0:0:
187,325,751834,1,2,3:0:0:0:
162,282,751901,1,8,3:0:0:0:
166,231,751967,1,0,3:0:0:0:
203,197,752034,1,8,3:0:0:0:
217,149,752101,1,2,3:0:0:0:
202,100,752167,1,8,3:0:0:0:
162,68,752234,1,0,3:0:0:0:
112,63,752301,1,8,3:0:0:0:
66,84,752367,1,2,3:0:0:0:
42,128,752434,1,8,3:0:0:0:
44,177,752501,2,0,P|51:195|74:222,1,50,0|8,3:0|3:0,3:0:0:0:
318,93,752634,5,2,3:0:0:0:
284,71,752701,1,8,3:0:0:0:
243,67,752767,1,0,3:0:0:0:
207,85,752834,1,8,3:0:0:0:
185,118,752901,2,0,P|178:140|177:176,1,50,2|8,3:0|3:0,3:0:0:0:
303,295,753034,5,0,3:0:0:0:
313,284,753101,1,8,3:0:0:0:
318,269,753167,1,2,3:0:0:0:
319,253,753234,1,8,3:0:0:0:
316,238,753301,1,0,3:0:0:0:
308,225,753367,1,8,3:0:0:0:
296,215,753434,2,0,P|265:208|232:212,3,50,2|8|0|8,3:0|3:0|3:0|3:0,3:0:0:0:
151,305,753701,5,2,3:0:0:0:
146,306,753767,1,8,3:0:0:0:
141,305,753834,1,0,3:0:0:0:
137,302,753901,1,8,3:0:0:0:
135,297,753967,1,2,3:0:0:0:
135,292,754034,1,8,3:0:0:0:
137,287,754101,1,0,3:0:0:0:
141,284,754167,1,8,3:0:0:0:
145,283,754234,1,2,3:0:0:0:
154,286,754301,1,8,3:0:0:0:
164,296,754367,1,0,3:0:0:0:
171,314,754434,1,8,3:0:0:0:
165,338,754501,5,2,3:0:0:0:
133,321,754567,1,8,3:0:0:0:
125,281,754634,1,0,3:0:0:0:
143,240,754701,1,8,3:0:0:0:
187,217,754767,1,2,3:0:0:0:
241,223,754834,1,8,3:0:0:0:
275,264,754901,1,0,3:0:0:0:
287,317,754967,1,8,3:0:0:0:
324,357,755034,1,2,3:0:0:0:
377,366,755101,1,8,3:0:0:0:
429,348,755167,1,0,3:0:0:0:
458,301,755234,1,8,3:0:0:0:
457,246,755301,1,2,3:0:0:0:
427,199,755367,1,8,3:0:0:0:
375,179,755434,1,0,3:0:0:0:
342,135,755501,1,8,3:0:0:0:
346,79,755567,1,2,3:0:0:0:
381,36,755634,1,8,3:0:0:0:
434,27,755701,1,0,3:0:0:0:
483,52,755767,1,8,3:0:0:0:
508,101,755834,6,0,P|477:105|446:120,3,50,10|0|10|0,3:0|3:0|3:0|3:0,3:0:0:0:
372,109,756101,2,0,P|352:133|341:166,3,50,10|0|10|0,3:0|3:0|3:0|3:0,3:0:0:0:
434,276,756367,6,0,P|414:261|387:255,3,40,10|0|10|0,3:0|3:0|3:0|3:0,3:0:0:0:
378,232,756634,2,0,P|353:235|330:250,3,40,10|0|10|0,3:0|3:0|3:0|3:0,3:0:0:0:
282,357,756901,6,0,L|250:295,1,50,10|0,3:2|3:0,3:0:0:0:
222,158,757034,2,0,L|190:220,1,50,10|0,3:2|3:0,3:0:0:0:
297,367,757167,2,0,L|265:305,1,50,10|0,3:2|3:0,3:0:0:0:
238,150,757301,2,0,L|206:212,1,50,10|0,3:2|3:0,3:0:0:0:
158,296,757434,6,0,P|140:288|112:286,3,29.9999999999999,10|0|10|0,3:0|3:0|3:0|3:0,3:0:0:0:
118,306,757701,2,0,P|98:314|78:331,3,29.9999999999999,10|0|10|0,3:0|3:0|3:0|3:0,3:0:0:0:
21,259,757967,5,2,3:0:0:0:
34,252,758034,1,8,3:0:0:0:
43,240,758101,1,0,3:0:0:0:
47,225,758167,1,8,3:0:0:0:
46,209,758234,1,2,3:0:0:0:
39,195,758301,1,8,3:0:0:0:
30,182,758367,5,0,3:0:0:0:
52,193,758434,1,8,3:0:0:0:
81,195,758501,1,2,3:0:0:0:
109,186,758567,1,8,3:0:0:0:
131,165,758634,1,0,3:0:0:0:
136,135,758701,1,8,3:0:0:0:
130,105,758767,2,0,P|110:89|80:78,3,50,2|8|0|8,3:0|3:0|3:0|3:0,3:0:0:0:
121,253,759034,5,2,3:0:0:0:
137,263,759101,1,8,3:0:0:0:
161,267,759167,1,0,3:0:0:0:
190,263,759234,1,8,3:0:0:0:
220,246,759301,1,2,3:0:0:0:
239,210,759367,1,8,3:0:0:0:
231,165,759434,1,0,3:0:0:0:
200,125,759501,1,8,3:0:0:0:
195,69,759567,1,2,3:0:0:0:
220,20,759634,1,8,3:0:0:0:
273,8,759701,1,0,3:0:0:0:
326,22,759767,1,8,3:0:0:0:
362,63,759834,1,2,3:0:0:0:
367,117,759901,1,8,3:0:0:0:
341,165,759967,1,0,3:0:0:0:
294,194,760034,1,8,3:0:0:0:
265,240,760101,1,2,3:0:0:0:
261,295,760167,1,8,3:0:0:0:
289,342,760234,1,0,3:0:0:0:
339,361,760301,1,8,3:0:0:0:
392,347,760367,1,2,3:0:0:0:
423,301,760434,1,8,3:0:0:0:
421,246,760501,1,0,3:0:0:0:
389,200,760567,1,8,3:0:0:0:
336,181,760634,1,2,3:0:0:0:
282,190,760701,1,8,3:0:0:0:
247,233,760767,1,0,3:0:0:0:
196,254,760834,1,8,3:0:0:0:
142,246,760901,1,2,3:0:0:0:
107,202,760967,1,8,3:0:0:0:
102,146,761034,2,0,P|108:123|125:96,1,50,0|8,3:0|3:0,3:0:0:0:
309,26,761167,5,2,3:0:0:0:
349,46,761234,1,8,3:0:0:0:
369,85,761301,1,0,3:0:0:0:
363,129,761367,1,8,3:0:0:0:
330,160,761434,2,0,L|276:152,1,50,2|8,3:0|3:0,3:0:0:0:
149,220,761567,5,0,3:0:0:0:
130,250,761634,1,8,3:0:0:0:
131,284,761701,1,2,3:0:0:0:
156,307,761767,1,8,3:0:0:0:
190,310,761834,1,0,3:0:0:0:
220,292,761901,1,8,3:0:0:0:
229,258,761967,2,0,P|209:244|174:251,3,50,2|8|0|8,3:0|3:0|3:0|3:0,3:0:0:0:
324,369,762234,5,2,3:0:0:0:
332,364,762301,1,8,3:0:0:0:
335,354,762367,1,0,3:0:0:0:
334,343,762434,1,8,3:0:0:0:
327,335,762501,1,2,3:0:0:0:
317,331,762567,1,8,3:0:0:0:
307,333,762634,1,0,3:0:0:0:
300,340,762701,1,8,3:0:0:0:
297,349,762767,1,2,3:0:0:0:
299,358,762834,1,8,3:0:0:0:
308,361,762901,1,0,3:0:0:0:
317,357,762967,1,8,3:0:0:0:
321,347,763034,5,2,3:0:0:0:
312,329,763101,1,8,3:0:0:0:
286,313,763167,1,0,3:0:0:0:
245,310,763234,1,8,3:0:0:0:
205,329,763301,1,2,3:0:0:0:
168,363,763367,1,8,3:0:0:0:
112,366,763434,1,0,3:0:0:0:
59,338,763501,1,8,3:0:0:0:
36,281,763567,1,2,3:0:0:0:
45,221,763634,1,8,3:0:0:0:
91,183,763701,1,0,3:0:0:0:
150,172,763767,1,8,3:0:0:0:
207,190,763834,1,2,3:0:0:0:
239,239,763901,1,8,3:0:0:0:
295,260,763967,1,0,3:0:0:0:
354,253,764034,1,8,3:0:0:0:
395,210,764101,1,2,3:0:0:0:
397,149,764167,1,8,3:0:0:0:
365,97,764234,1,0,3:0:0:0:
309,76,764301,1,8,3:0:0:0:
249,82,764367,5,8,2:0:0:0:
265,156,764434,1,8,2:0:0:0:
330,191,764501,1,8,2:0:0:0:
405,183,764567,1,8,2:0:0:0:
455,125,764634,5,6,3:0:0:0:
185,138,764901,1,4,3:0:0:0:
482,255,765167,1,4,3:0:0:0:
257,74,765434,5,8,2:0:0:0:
182,68,765501,1,8,2:0:0:0:
128,120,765567,1,8,2:0:0:0:
113,193,765634,1,8,2:0:0:0:
153,258,765701,5,4,3:0:0:0:
232,1,765967,1,4,3:0:0:0:
320,296,766234,1,4,3:0:0:0:
384,32,766501,5,6,3:0:0:0:
403,33,766567,1,0,3:0:0:0:
420,43,766634,1,0,3:0:0:0:
429,60,766701,1,0,3:0:0:0:
431,79,766767,1,2,3:0:0:0:
421,102,766834,1,0,3:0:0:0:
396,120,766901,1,0,3:0:0:0:
368,119,766967,1,0,3:0:0:0:
342,131,767034,1,2,3:0:0:0:
329,156,767101,1,0,3:0:0:0:
332,183,767167,1,0,3:0:0:0:
349,204,767234,1,0,3:0:0:0:
375,214,767301,1,2,3:0:0:0:
401,207,767367,1,0,3:0:0:0:
421,187,767434,1,0,3:0:0:0:
428,160,767501,1,0,3:0:0:0:
423,137,767567,6,0,L|348:120,3,50,10|0|0|0,3:0|3:0|3:0|3:0,3:0:0:0:
256,224,767834,2,0,L|331:207,3,50,2|0|0|0,3:0|3:0|3:0|3:0,3:0:0:0:
425,323,768101,2,0,L|350:306,3,50,2|0|0|0,3:0|3:0|3:0|3:0,3:0:0:0:
216,360,768367,5,2,3:0:0:0:
224,354,768434,1,0,3:0:0:0:
228,344,768501,1,0,3:0:0:0:
226,334,768567,1,0,3:0:0:0:
218,327,768634,5,2,3:0:0:0:
233,352,768701,1,0,3:0:0:0:
261,360,768767,1,0,3:0:0:0:
291,358,768834,1,0,3:0:0:0:
316,341,768901,1,2,3:0:0:0:
327,313,768967,1,0,3:0:0:0:
322,283,769034,1,0,3:0:0:0:
301,264,769101,1,0,3:0:0:0:
272,253,769167,1,2,3:0:0:0:
243,263,769234,1,0,3:0:0:0:
212,260,769301,1,0,3:0:0:0:
190,237,769367,1,0,3:0:0:0:
183,208,769434,1,2,3:0:0:0:
192,184,769501,1,0,3:0:0:0:
207,171,769567,1,0,3:0:0:0:
222,169,769634,1,0,3:0:0:0:
230,174,769701,2,0,L|238:243,3,50,10|0|0|0,3:0|3:0|3:0|3:0,3:0:0:0:
108,352,769967,2,0,L|116:283,3,50,2|0|0|0,3:0|3:0|3:0|3:0,3:0:0:0:
42,214,770234,5,2,3:0:0:0:
52,197,770301,1,0,3:0:0:0:
64,181,770367,2,0,L|118:189,1,50,0|0,3:0|3:0,3:0:0:0:
128,103,770501,1,2,3:0:0:0:
144,97,770568,1,0,3:0:0:0:
160,94,770634,2,0,L|181:142,1,50,0|0,3:0|3:0,3:0:0:0:
244,232,770767,5,2,3:0:0:0:
257,238,770834,1,0,3:0:0:0:
272,239,770901,1,0,3:0:0:0:
286,235,770967,1,0,3:0:0:0:
298,226,771034,5,2,3:0:0:0:
277,260,771101,1,0,3:0:0:0:
279,299,771167,1,0,3:0:0:0:
303,331,771234,1,0,3:0:0:0:
342,340,771301,1,2,3:0:0:0:
380,329,771367,1,0,3:0:0:0:
402,295,771434,1,0,3:0:0:0:
399,254,771501,1,0,3:0:0:0:
373,223,771567,2,0,P|343:215|315:219,3,50,2|0|0|0,3:0|3:0|3:0|3:0,0:0:0:0:
154,199,771834,5,10,3:0:0:0:
175,165,771901,1,0,3:0:0:0:
205,148,771967,1,0,3:0:0:0:
235,151,772034,1,0,3:0:0:0:
257,165,772101,1,2,3:0:0:0:
267,186,772167,1,0,3:0:0:0:
268,199,772234,1,0,3:0:0:0:
261,213,772301,1,0,3:0:0:0:
249,224,772367,2,0,L|262:297,3,50,2|0|0|0,3:0|3:0|3:0|3:0,3:0:0:0:
144,344,772634,1,2,3:0:0:0:
153,326,772700,1,0,3:0:0:0:
160,307,772767,2,0,L|152:257,1,50,0|0,3:0|3:0,3:0:0:0:
60,184,772901,5,6,3:0:0:0:
85,153,772967,1,0,3:0:0:0:
124,143,773034,2,0,P|159:147|184:174,1,50,0|0,3:0|3:0,3:0:0:0:
244,64,773167,1,6,3:0:0:0:
275,89,773233,1,0,3:0:0:0:
285,128,773300,2,0,P|278:171|254:188,1,50,0|0,3:0|3:0,3:0:0:0:
268,316,773434,5,14,3:0:0:0:
281,322,773501,1,0,3:0:0:0:
294,327,773567,2,0,L|364:311,1,50,0|0,3:0|3:0,3:0:0:0:
480,200,773701,1,6,3:0:0:0:
467,206,773768,1,0,3:0:0:0:
454,211,773834,2,0,L|384:195,1,50,0|0,3:0|3:0,3:0:0:0:
353,27,773967,5,6,3:0:0:0:
314,17,774034,1,0,3:0:0:0:
277,28,774100,1,0,3:0:0:0:
253,61,774167,1,0,3:0:0:0:
240,80,774234,5,6,3:0:0:0:
261,113,774301,1,0,3:0:0:0:
263,152,774367,1,0,3:0:0:0:
240,185,774434,1,0,3:0:0:0:
204,203,774501,2,0,P|179:203|152:187,3,50,14|0|0|0,3:0|3:0|3:0|3:0,0:0:0:0:
68,112,774767,5,6,3:0:0:0:
76,99,774834,1,0,3:0:0:0:
79,84,774901,1,0,3:0:0:0:
77,69,774967,1,0,3:0:0:0:
67,56,775034,5,6,3:0:0:0:
40,85,775101,1,0,3:0:0:0:
46,124,775167,1,0,3:0:0:0:
74,151,775234,1,0,3:0:0:0:
110,169,775301,1,2,3:0:0:0:
127,204,775367,1,0,3:0:0:0:
123,244,775434,1,0,3:0:0:0:
97,273,775501,1,0,3:0:0:0:
59,283,775567,1,2,3:0:0:0:
36,266,775634,1,0,3:0:0:0:
28,248,775701,1,0,3:0:0:0:
35,234,775767,1,0,3:0:0:0:
45,231,775834,2,0,P|82:228|106:236,3,50,2|0|0|0,3:0|3:0|3:0|3:0,3:0:0:0:
196,320,776101,5,10,3:0:0:0:
224,347,776167,1,0,3:0:0:0:
262,357,776234,1,0,3:0:0:0:
300,344,776301,1,0,3:0:0:0:
325,313,776367,1,2,3:0:0:0:
345,291,776434,1,0,3:0:0:0:
365,289,776501,1,0,3:0:0:0:
377,297,776567,1,0,3:0:0:0:
377,307,776634,2,0,P|344:337|317:327,3,50,2|0|0|0,3:0|3:0|3:0|3:0,3:0:0:0:
242,218,776901,5,2,3:0:0:0:
223,191,776967,1,0,3:0:0:0:
222,158,777034,1,0,3:0:0:0:
239,131,777101,1,0,3:0:0:0:
268,118,777167,1,2,3:0:0:0:
298,127,777234,1,0,3:0:0:0:
322,148,777301,1,0,3:0:0:0:
350,160,777367,1,0,3:0:0:0:
382,158,777434,1,2,3:0:0:0:
408,139,777501,1,0,3:0:0:0:
417,108,777567,1,0,3:0:0:0:
404,69,777634,1,0,3:0:0:0:
370,49,777701,1,2,3:0:0:0:
340,55,777767,1,0,3:0:0:0:
326,70,777834,1,0,3:0:0:0:
321,84,777901,1,0,3:0:0:0:
321,93,777967,1,2,3:0:0:0:
323,102,778034,1,0,3:0:0:0:
329,109,778101,1,0,3:0:0:0:
338,113,778167,1,0,3:0:0:0:
348,113,778234,6,0,L|419:98,3,50,10|0|0|0,3:0|3:0|3:0|3:0,3:0:0:0:
504,212,778501,2,0,L|433:197,3,50,2|0|0|0,3:0|3:0|3:0|3:0,3:0:0:0:
352,320,778767,2,0,L|423:305,3,50,2|0|0|0,3:0|3:0|3:0|3:0,3:0:0:0:
244,184,779034,5,2,3:0:0:0:
237,191,779101,1,0,3:0:0:0:
234,200,779167,1,0,3:0:0:0:
235,210,779234,1,0,3:0:0:0:
238,219,779301,5,2,3:0:0:0:
216,252,779367,1,0,3:0:0:0:
177,262,779434,1,0,3:0:0:0:
139,246,779501,1,0,3:0:0:0:
114,214,779567,1,2,3:0:0:0:
75,202,779634,1,0,3:0:0:0:
36,214,779701,1,0,3:0:0:0:
20,239,779767,1,0,3:0:0:0:
18,259,779834,1,2,3:0:0:0:
22,273,779901,1,0,3:0:0:0:
27,281,779967,2,0,P|56:299|85:292,1,50,0|0,3:0|3:0,3:0:0:0:
168,376,780101,5,2,3:0:0:0:
203,359,780167,1,0,3:0:0:0:
224,324,780234,1,0,3:0:0:0:
226,284,780301,1,0,3:0:0:0:
205,249,780367,5,10,3:0:0:0:
196,277,780434,1,0,3:0:0:0:
200,306,780501,1,0,3:0:0:0:
221,326,780567,1,0,3:0:0:0:
250,329,780634,1,2,3:0:0:0:
273,320,780701,1,0,3:0:0:0:
288,308,780767,1,0,3:0:0:0:
302,302,780834,1,0,3:0:0:0:
311,304,780901,2,0,L|319:373,3,50,2|0|0|0,3:0|3:0|3:0|3:0,3:0:0:0:
408,204,781167,2,0,L|400:273,3,50,2|0|0|0,3:0|3:0|3:0|3:0,3:0:0:0:
208,288,781434,5,6,3:0:0:0:
172,269,781500,1,0,3:0:0:0:
154,233,781567,2,0,P|150:197|171:167,1,50,0|0,3:0|3:0,3:0:0:0:
51,132,781700,5,6,3:0:0:0:
70,97,781766,1,0,3:0:0:0:
106,78,781834,2,0,P|149:75|171:95,1,50,0|0,3:0|3:0,3:0:0:0:
264,208,781967,5,6,3:0:0:0:
273,196,782034,1,0,3:0:0:0:
281,185,782100,2,0,L|275:113,1,50,0|0,3:0|3:0,3:0:0:0:
395,64,782234,5,6,3:0:0:0:
404,75,782301,1,0,3:0:0:0:
412,87,782367,2,0,L|406:159,1,50,0|0,3:0|3:0,3:0:0:0:
476,196,782501,5,6,3:0:0:0:
451,227,782567,1,0,3:0:0:0:
412,239,782634,1,0,3:0:0:0:
373,229,782701,1,0,3:0:0:0:
347,198,782767,1,6,3:0:0:0:
309,182,782834,1,0,3:0:0:0:
269,188,782901,1,0,3:0:0:0:
238,212,782967,1,0,3:0:0:0:
228,250,783034,5,14,3:0:0:0:
240,242,783101,1,0,3:0:0:0:
250,231,783167,1,0,3:0:0:0:
254,216,783234,1,0,3:0:0:0:
252,200,783301,2,0,P|234:180|193:183,3,50,6|0|0|0,3:0|3:0|3:0|3:0,3:0:0:0:
284,15,783567,5,6,3:0:0:0:
289,23,783634,1,0,3:0:0:0:
293,32,783701,1,0,3:0:0:0:
295,41,783767,1,0,3:0:0:0:
297,50,783834,5,0,3:0:0:0:
308,77,783901,1,0,3:0:0:0:
330,97,783967,1,0,3:0:0:0:
356,111,784034,1,0,3:0:0:0:
385,114,784101,1,6,3:0:0:0:
414,110,784167,1,0,3:0:0:0:
441,98,784234,1,0,3:0:0:0:
460,75,784301,1,0,3:0:0:0:
464,45,784367,2,0,P|458:21|434:-1,3,50,0|0|0|0,3:0|3:0|3:0|3:0,3:0:0:0:
330,97,784634,5,14,3:0:0:0:
328,111,784701,1,0,3:0:0:0:
326,126,784767,1,0,3:0:0:0:
324,141,784834,1,0,3:0:0:0:
323,154,784901,2,0,L|311:210,1,50,8|0,3:0|3:0,3:0:0:0:
510,252,785034,5,8,3:0:0:0:
501,228,785101,1,0,3:0:0:0:
481,212,785167,1,6,3:0:0:0:
457,203,785234,1,0,3:0:0:0:
432,199,785301,1,0,3:0:0:0:
407,204,785367,1,0,3:0:0:0:
389,214,785434,2,0,P|376:249|373:279,3,50,8|0|0|0,3:0|3:0|3:0|3:0,3:0:0:0:
305,342,785701,5,6,3:0:0:0:
295,343,785767,1,0,3:0:0:0:
285,344,785834,1,0,3:0:0:0:
275,345,785901,1,0,3:0:0:0:
265,347,785967,5,0,3:0:0:0:
253,318,786034,1,0,3:0:0:0:
230,298,786101,1,0,3:0:0:0:
201,287,786167,1,0,3:0:0:0:
170,286,786234,1,6,3:0:0:0:
140,290,786301,1,0,3:0:0:0:
113,304,786367,1,0,3:0:0:0:
90,324,786434,1,0,3:0:0:0:
75,349,786501,2,0,P|93:363|128:370,3,50,0|0|0|0,3:0|3:0|3:0|3:0,3:0:0:0:
230,298,786767,5,14,3:0:0:0:
232,288,786834,1,0,3:0:0:0:
234,278,786901,1,0,3:0:0:0:
236,268,786967,1,0,3:0:0:0:
238,258,787034,2,0,L|301:235,1,50,8|0,3:0|3:0,3:0:0:0:
202,168,787167,2,0,L|155:150,1,50,8|0,3:0|3:0,3:0:0:0:
268,93,787301,5,6,3:0:0:0:
280,84,787367,1,0,3:0:0:0:
293,77,787434,1,0,3:0:0:0:
307,73,787501,1,0,3:0:0:0:
322,71,787567,2,0,P|346:72|377:78,3,50,8|0|0|0,3:0|3:0|3:0|3:0,3:0:0:0:
426,157,787834,5,6,3:0:0:0:
421,166,787901,1,0,3:0:0:0:
417,175,787967,1,0,3:0:0:0:
414,184,788034,1,0,3:0:0:0:
412,193,788101,5,0,3:0:0:0:
389,181,788167,1,0,3:0:0:0:
363,180,788234,1,0,3:0:0:0:
339,188,788301,1,0,3:0:0:0:
319,203,788367,1,6,3:0:0:0:
304,223,788434,1,0,3:0:0:0:
292,245,788501,1,0,3:0:0:0:
285,269,788567,1,0,3:0:0:0:
285,294,788634,2,0,P|290:327|301:354,3,50,8|0|0|0,3:0|3:0|3:0|3:0,3:0:0:0:
500,236,788901,5,14,3:0:0:0:
480,233,788967,1,0,3:0:0:0:
460,230,789034,1,0,3:0:0:0:
440,227,789101,1,0,3:0:0:0:
420,224,789167,2,0,L|427:285,1,50,8|0,3:0|3:0,3:0:0:0:
359,151,789301,2,0,L|364:101,1,50,8|0,3:0|3:0,3:0:0:0:
264,193,789434,5,12,3:0:0:0:
251,201,789501,1,0,3:0:0:0:
240,211,789567,1,0,3:0:0:0:
231,223,789634,1,0,3:0:0:0:
224,239,789701,2,0,P|216:271|217:302,3,50,8|0|0|0,3:0|3:0|3:0|3:0,3:0:0:0:
133,355,789967,5,4,3:1:0:0:
125,330,790034,1,0,3:0:0:0:
130,305,790101,2,0,P|146:269|171:242,1,50,0|0,3:0|3:0,3:0:0:0:
56,229,790234,1,2,3:2:0:0:
63,204,790301,1,0,3:0:0:0:
58,179,790367,2,0,P|41:143|16:116,1,50,0|0,3:0|3:0,3:0:0:0:
167,30,790501,5,4,3:1:0:0:
164,44,790567,1,0,3:0:0:0:
161,58,790634,2,0,L|152:117,1,50,0|0,3:0|3:0,3:0:0:0:
268,187,790767,1,2,3:2:0:0:
265,173,790834,1,0,3:0:0:0:
262,159,790901,2,0,L|253:100,1,50,0|0,3:0|3:0,3:0:0:0:
360,27,791034,6,0,L|354:79,3,50,4|0|0|0,3:1|3:0|3:0|3:0,3:0:0:0:
442,125,791301,2,0,L|448:177,3,50,2|0|0|0,3:2|3:0|3:0|3:0,3:0:0:0:
332,244,791567,2,0,L|337:194,3,50,4|0|0|0,3:1|3:0|3:0|3:0,3:0:0:0:
425,323,791834,2,0,L|419:273,3,50,2|0|0|0,3:2|3:0|3:0|3:0,3:0:0:0:
307,357,792101,5,6,3:0:0:0:
295,347,792167,1,0,3:0:0:0:
281,339,792234,1,0,3:0:0:0:
267,333,792301,1,0,3:0:0:0:
252,329,792367,1,0,3:0:0:0:
237,327,792434,1,0,3:0:0:0:
222,326,792501,1,0,3:0:0:0:
206,326,792567,1,0,3:0:0:0:
191,329,792634,2,0,P|178:354|174:376,3,50,6|0|0|0,3:0|3:0|3:0|3:0,3:0:0:0:
64,356,792901,5,0,3:0:0:0:
54,338,792967,1,0,3:0:0:0:
50,318,793034,1,0,3:0:0:0:
48,298,793101,1,0,3:0:0:0:
54,278,793167,5,14,3:0:0:0:
79,293,793234,1,0,3:0:0:0:
108,298,793301,1,0,3:0:0:0:
138,295,793367,1,0,3:0:0:0:
165,282,793434,2,0,P|176:255|176:222,1,50,0|0,3:0|3:0,3:0:0:0:
87,151,793567,2,0,P|89:175|99:198,1,50,0|0,3:0|3:0,3:0:0:0:
186,114,793701,5,6,3:0:0:0:
188,99,793767,1,0,3:0:0:0:
190,84,793834,1,0,3:0:0:0:
193,69,793901,1,0,3:0:0:0:
196,54,793967,2,0,L|257:41,3,50,0|0|0|0,3:0|3:0|3:0|3:0,3:0:0:0:
344,150,794234,5,6,3:0:0:0:
328,169,794301,1,0,3:0:0:0:
305,169,794367,1,0,3:0:0:0:
286,145,794434,1,0,3:0:0:0:
293,116,794501,1,0,3:0:0:0:
317,98,794567,1,0,3:0:0:0:
347,98,794634,1,0,3:0:0:0:
372,113,794701,1,0,3:0:0:0:
385,139,794767,1,6,3:0:0:0:
390,168,794834,1,0,3:0:0:0:
389,197,794901,1,0,3:0:0:0:
383,226,794967,1,0,3:0:0:0:
371,253,795034,2,0,P|348:281|319:307,3,50,0|0|0|0,3:0|3:0|3:0|3:0,3:0:0:0:
248,354,795301,5,14,3:0:0:0:
239,341,795367,1,0,3:0:0:0:
229,329,795434,1,0,3:0:0:0:
217,319,795501,1,0,3:0:0:0:
204,311,795567,2,0,P|178:332|161:362,1,50,0|0,3:0|3:0,3:0:0:0:
156,237,795701,2,0,P|177:211|207:194,1,50,0|0,3:0|3:0,3:0:0:0:
78,296,795834,5,6,3:0:0:0:
73,297,795901,1,0,3:0:0:0:
68,298,795967,1,0,3:0:0:0:
63,299,796034,1,0,3:0:0:0:
58,300,796101,2,0,L|41:376,3,50,0|0|0|0,3:0|3:0|3:0|3:0,3:0:0:0:
169,347,796367,5,6,3:0:0:0:
194,330,796434,1,0,3:0:0:0:
210,305,796501,1,0,3:0:0:0:
214,275,796567,1,0,3:0:0:0:
208,245,796634,1,0,3:0:0:0:
190,221,796701,1,0,3:0:0:0:
167,210,796767,1,0,3:0:0:0:
142,206,796834,1,0,3:0:0:0:
122,208,796901,1,6,3:0:0:0:
108,214,796967,1,0,3:0:0:0:
96,223,797034,1,0,3:0:0:0:
87,235,797101,1,0,3:0:0:0:
82,248,797167,2,0,P|79:273|84:298,3,50,0|0|0|0,3:0|3:0|3:0|3:0,3:0:0:0:
218,345,797434,5,14,3:0:0:0:
246,317,797501,1,0,3:0:0:0:
253,277,797567,1,0,3:0:0:0:
243,237,797634,1,0,3:0:0:0:
213,210,797701,1,0,3:0:0:0:
178,189,797767,1,0,3:0:0:0:
158,153,797834,1,0,3:0:0:0:
157,113,797901,1,0,3:0:0:0:
179,79,797967,1,6,3:0:0:0:
216,65,798034,1,0,3:0:0:0:
255,76,798101,1,0,3:0:0:0:
271,103,798167,1,0,3:0:0:0:
261,129,798234,1,0,3:0:0:0:
241,136,798301,1,0,3:0:0:0:
228,127,798367,1,0,3:0:0:0:
225,106,798434,1,0,3:0:0:0:
234,91,798501,5,8,3:0:0:0:
284,86,798567,1,8,2:0:0:0:
334,81,798634,1,8,3:0:0:0:
383,76,798701,1,8,2:0:0:0:
433,71,798767,2,0,L|447:132,3,50,0|0|0|0,3:0|3:0|3:0|3:0,3:0:0:0:
369,257,799034,5,8,3:0:0:0:
319,252,799101,1,8,2:0:0:0:
269,247,799167,1,8,3:0:0:0:
220,242,799234,1,8,2:0:0:0:
170,237,799301,2,0,L|156:298,3,50,0|0|0|0,3:0|3:0|3:0|3:0,3:0:0:0:
389,354,799567,6,0,L|402:227,1,100,6|0,3:0|3:0,3:0:0:0:
78,160,799834,6,0,L|88:259,1,100,6|0,3:0|3:0,3:0:0:0:
468,264,800101,6,0,L|481:137,1,100,6|0,3:0|3:0,3:0:0:0:
146,43,800367,6,0,L|156:142,1,100,6|0,3:0|3:0,3:0:0:0:
434,39,800634,6,0,B|423:10|423:10|315:29|347:158,1,200,6|0,3:0|3:0,3:0:0:0:
247,197,801034,2,0,B|261:167|261:167|338:146,1,100,0|2,3:0|3:0,3:0:0:0:
447,171,801301,1,0,3:0:0:0:
288,277,801434,2,0,B|319:288|319:288|388:248,1,100,2|0,3:0|3:0,3:0:0:0:
193,258,801701,6,0,B|179:281|179:281|193:369,1,100,10|0,3:0|3:0,3:0:0:0:
52,201,801967,2,0,B|66:224|66:224|52:312,1,100,0|0,3:0|3:0,3:0:0:0:
268,80,802234,2,0,B|244:92|244:92|212:176,1,100,2|0,3:0|3:0,3:0:0:0:
47,35,802501,2,0,B|70:47|70:47|102:131,1,100,0|0,3:0|3:0,3:0:0:0:
384,75,802767,6,0,P|342:52|300:84,1,100,2|0,3:0|3:0,3:0:0:0:
465,219,803034,1,0,3:0:0:0:
397,83,803167,2,0,P|362:49|308:35,1,100,0|2,3:0|3:0,3:0:0:0:
474,228,803434,1,0,3:0:0:0:
408,91,803567,2,0,P|388:45|353:-12,1,100,0|0,3:0|3:0,3:0:0:0:
297,229,803834,6,0,P|278:265|265:301,2,66.6666666666667,10|0|0,3:0|2:0|2:0,3:0:0:0:
379,189,804101,2,0,B|433:188|433:188|430:186|430:186|506:184,1,100,0|0,3:0|3:0,3:0:0:0:
218,143,804367,6,0,P|199:179|189:208,2,50.0000000000001,2|0|0,3:0|2:0|2:0,3:0:0:0:
300,103,804634,2,0,B|354:102|354:102|351:100|351:100|427:98,1,100,0|0,3:0|3:0,3:0:0:0:
167,8,804901,5,4,3:1:0:0:
158,18,804989,1,0,3:0:0:0:
151,29,805078,1,0,3:0:0:0:
147,41,805167,1,0,3:0:0:0:
144,54,805256,1,0,3:0:0:0:
143,67,805345,1,0,3:0:0:0:
197,114,805434,5,4,3:1:0:0:
184,109,805523,1,0,3:0:0:0:
170,107,805612,1,0,3:0:0:0:
156,108,805701,1,0,3:0:0:0:
143,111,805789,1,0,3:0:0:0:
131,117,805878,1,0,3:0:0:0:
88,181,805967,6,0,L|79:241,5,50.0000000000001,12|0|0|0|0|0,3:1|3:0|3:0|3:0|3:0|3:0,3:0:0:0:
145,280,806501,2,0,L|154:340,5,50.0000000000001,4|0|0|0|0|0,3:1|3:0|3:0|3:0|3:0|3:0,3:0:0:0:
239,364,807034,5,4,3:1:0:0:
251,356,807123,1,0,3:0:0:0:
265,351,807212,1,0,3:0:0:0:
279,349,807301,1,0,3:0:0:0:
294,349,807389,1,0,3:0:0:0:
308,352,807478,1,0,3:0:0:0:
376,379,807567,5,4,3:1:0:0:
372,369,807656,1,0,3:0:0:0:
370,359,807745,1,0,3:0:0:0:
369,349,807834,1,0,3:0:0:0:
369,339,807923,1,0,3:0:0:0:
371,329,808012,1,0,3:0:0:0:
428,284,808101,6,0,P|464:291|499:306,5,50.0000000000001,12|0|0|0|0|0,3:1|3:0|3:0|3:0|3:0|3:0,3:0:0:0:
395,204,808634,2,0,P|359:211|324:226,5,50.0000000000001,4|0|0|0|0|0,3:1|3:0|3:0|3:0|3:0|3:0,3:0:0:0:
471,140,809167,6,0,L|479:56,1,75.0000000000002,6|0,3:0|3:0,3:0:0:0:
332,211,809434,1,0,3:0:0:0:
399,107,809567,2,0,L|407:23,1,75.0000000000002,0|2,3:0|3:0,3:0:0:0:
260,178,809834,1,0,3:0:0:0:
327,74,809967,2,0,L|335:-10,1,75.0000000000002,0|0,3:0|3:0,3:0:0:0:
164,28,810234,6,0,B|176:53|176:53|162:118,1,75.0000000000002,10|0,3:0|3:0,3:0:0:0:
57,170,810501,2,0,B|45:145|45:145|59:80,1,75.0000000000002,0|0,3:0|3:0,3:0:0:0:
215,206,810767,2,0,B|220:233|220:233|189:292,1,75.0000000000002,2|0,3:0|3:0,3:0:0:0:
74,315,811034,2,0,B|68:287|68:287|99:228,1,75.0000000000002,0|0,3:0|3:0,3:0:0:0:
279,332,811301,6,0,P|249:355|209:354,1,75.0000000000002,2|0,3:0|3:0,3:0:0:0:
306,199,811567,1,0,3:0:0:0:
363,313,811701,2,0,P|354:358|337:391,1,75.0000000000002,0|2,3:0|3:0,3:0:0:0:
295,188,811967,1,0,3:0:0:0:
432,268,812101,2,0,P|443:321|446:368,1,75.0000000000002,0|0,3:0|3:0,3:0:0:0:
423,147,812367,6,0,P|441:112|467:86,2,50.0000000000001,10|0|0,3:0|2:0|2:0,3:0:0:0:
350,87,812634,2,0,L|356:-4,1,75.0000000000002,0|0,3:0|3:0,3:0:0:0:
297,208,812901,6,0,P|295:179|302:153,2,33.3333333333333,2|0|0,3:0|2:0|2:0,3:0:0:0:
203,192,813167,2,0,L|162:110,1,75.0000000000002,0|0,3:0|3:0,3:0:0:0:
121,341,813434,5,4,3:1:0:0:
140,346,813523,1,0,3:0:0:0:
160,345,813612,1,0,3:0:0:0:
179,341,813701,1,0,3:0:0:0:
197,332,813789,1,0,3:0:0:0:
210,317,813878,1,0,3:0:0:0:
243,259,813967,5,4,3:1:0:0:
238,273,814056,1,0,3:0:0:0:
235,287,814145,1,0,3:0:0:0:
234,302,814234,1,0,3:0:0:0:
236,316,814323,1,0,3:0:0:0:
241,330,814412,1,0,3:0:0:0:
315,354,814501,6,0,L|321:285,5,50.0000000000001,12|0|0|0|0|0,3:1|3:0|3:0|3:0|3:0|3:0,3:0:0:0:
410,378,815034,2,0,L|416:309,5,50.0000000000001,4|0|0|0|0|0,3:1|3:0|3:0|3:0|3:0|3:0,3:0:0:0:
506,235,815567,5,4,3:1:0:0:
493,226,815656,1,0,3:0:0:0:
483,214,815745,1,0,3:0:0:0:
476,200,815834,1,0,3:0:0:0:
471,185,815923,1,0,3:0:0:0:
470,169,816012,1,0,3:0:0:0:
463,113,816101,5,4,3:1:0:0:
455,126,816189,1,0,3:0:0:0:
444,136,816278,1,0,3:0:0:0:
430,143,816367,1,0,3:0:0:0:
415,148,816456,1,0,3:0:0:0:
400,150,816545,1,0,3:0:0:0:
339,103,816634,6,0,L|344:47,5,50.0000000000001,12|0|0|0|0|0,3:1|3:0|3:0|3:0|3:0|3:0,3:0:0:0:
243,49,817167,2,0,L|248:-7,5,50.0000000000001,4|0|0|0|0|0,3:1|3:0|3:0|3:0|3:0|3:0,3:0:0:0:
185,132,817701,6,0,B|155:97|155:97|5:152,1,200,6|0,3:0|3:0,3:0:0:0:
196,117,818101,2,0,B|166:82|166:82|16:137,1,200,2|0,3:0|3:0,3:0:0:0:
223,250,818501,2,0,B|239:232|241:195|241:195|243:224|276:236,1,100,0|0,3:0|3:0,3:0:0:0:
47,378,818767,6,0,P|1:270|47:259,1,200,14|2,3:0|3:0,3:0:0:0:
150,356,819167,1,0,3:0:0:0:
164,346,819301,2,0,P|184:305|166:253,1,75.0000000000002,2|0,3:0|3:0,3:0:0:0:
125,203,819567,2,0,P|123:239|141:272,1,75.0000000000002,0|0,3:0|3:0,3:0:0:0:
251,136,819834,2,0,P|197:129|164:148,1,75.0000000000002,2|0,3:0|3:0,3:0:0:0:
251,220,820101,5,0,3:0:0:0:
368,139,820234,1,2,3:1:0:0:
416,246,820367,2,0,P|453:250|493:232,1,75.0000000000002,8|0,3:0|3:0,3:0:0:0:
501,64,820634,6,0,P|491:87|483:117,1,50,4|0,3:2|3:0,3:0:0:0:
496,30,820901,2,0,P|463:76|453:140,1,100,4|0,3:2|3:0,3:0:0:0:
505,253,821167,1,0,3:0:0:0:
476,128,821301,1,2,3:1:0:0:
399,229,821434,6,0,L|412:326,1,75.0000000000002,8|0,3:0|3:0,3:0:0:0:
506,384,821701,2,0,L|515:314,1,50,4|0,3:2|3:0,3:0:0:0:
318,337,821967,5,8,3:0:0:0:
425,240,822101,2,0,B|395:225|395:225|329:257,1,100,8|0,3:0|3:0,3:0:0:0:
214,198,822367,2,0,B|244:213|244:213|310:181,1,100,8|0,3:0|3:0,3:0:0:0:
405,115,822634,1,8,3:0:0:0:
238,65,822767,1,8,3:0:0:0:
412,103,822901,1,0,3:0:0:0:
244,56,823034,6,0,B|178:71|116:27|116:27|136:71|89:109,1,200,14|0,3:0|3:0,3:0:0:0:
123,100,823434,1,0,3:0:0:0:
33,299,823567,6,0,B|23:228|23:228|18:223|18:223|-2:95,1,200,14|0,3:0|3:0,3:0:0:0:
49,307,823967,1,0,3:0:0:0:
165,352,824101,5,8,3:0:0:0:
334,300,824234,2,0,L|219:331,1,100,8|0,3:0|3:0,3:0:0:0:
146,185,824501,2,0,B|141:220|126:242|126:242|147:267|142:292,1,100,8|0,3:0|3:0,3:0:0:0:
284,86,824767,1,8,3:0:0:0:
251,172,824901,1,8,3:0:0:0:
183,110,825034,1,0,3:0:0:0:
377,0,825167,6,0,B|405:41|405:41|351:213,1,200,14|0,3:0|3:0,3:0:0:0:
345,200,825567,1,0,3:0:0:0:
511,367,825701,6,0,B|524:347|523:319|523:319|473:279|403:297|379:343,1,200,14|0,3:0|3:0,3:0:0:0:
378,352,826101,1,0,3:0:0:0:
188,249,826234,5,8,3:0:0:0:
300,276,826367,1,0,3:0:0:0:
184,257,826501,1,0,3:0:0:0:
256,193,826634,5,8,3:0:0:0:
230,349,826767,1,0,3:0:0:0:
266,199,826901,1,0,3:0:0:0:
308,302,827034,5,8,3:0:0:0:
178,230,827167,1,0,3:0:0:0:
463,55,827301,6,0,B|547:68|536:198|434:199|399:140|399:140|389:147|389:147|338:90|261:132,1,375,14|0,3:0|3:0,3:0:0:0:
97,27,827834,2,0,P|120:79|112:121,1,75.0000000000002,2|0,3:0|3:0,3:0:0:0:
169,213,828101,2,0,P|172:175|191:144,1,75.0000000000002,0|0,3:0|3:0,3:0:0:0:
11,299,828367,2,0,P|55:271|103:279,1,75.0000000000002,2|0,3:0|3:0,3:0:0:0:
202,315,828634,5,0,3:0:0:0:
88,253,828767,1,2,3:1:0:0:
210,301,828901,2,0,L|296:291,1,75.0000000000002,8|0,3:0|3:0,3:0:0:0:
429,369,829167,6,0,P|408:339|402:319,1,50,4|0,3:2|3:0,3:0:0:0:
512,331,829434,2,0,P|440:323|405:290,1,100,4|0,3:2|3:0,3:0:0:0:
394,142,829701,1,0,3:0:0:0:
508,187,829834,1,2,3:1:0:0:
376,234,829967,6,0,B|359:211|359:211|380:147,1,75.0000000000002,8|0,3:0|3:0,3:0:0:0:
331,32,830234,2,0,B|318:48|318:48|333:94,1,50,4|0,3:2|3:0,3:0:0:0:
475,99,830501,5,8,3:0:0:0:
318,1,830634,2,0,B|288:6|288:6|264:32|264:32|195:53,1,100,8|0,3:0|3:0,3:0:0:0:
315,288,830901,2,0,B|335:253|335:253|309:176,1,100,8|0,3:0|3:0,3:0:0:0:
118,192,831167,1,8,3:0:0:0:
266,130,831301,1,8,3:0:0:0:
115,179,831434,1,0,3:0:0:0:
332,367,831567,6,0,P|282:327|189:345,1,125,14|0,3:0|3:0,3:0:0:0:
208,310,831834,2,0,P|169:338|158:385,1,75.0000000000002,0|0,3:0|3:0,3:0:0:0:
16,137,832101,6,0,B|-3:168|-3:168|-4:216|51:249,1,125,14|0,3:0|3:0,3:0:0:0:
5,124,832367,2,0,P|29:75|17:52,1,75.0000000000002,0|0,3:0|3:0,3:0:0:0:
183,19,832634,5,8,3:0:0:0:
151,191,832767,2,0,B|144:147|144:147|145:141|145:141|137:85,1,100,8|0,3:0|3:0,3:0:0:0:
238,225,833034,2,0,B|231:181|231:181|232:175|232:175|224:119,1,100,8|0,3:0|3:0,3:0:0:0:
318,0,833301,2,0,B|335:32|335:32|303:101,1,100,8|0,3:0|3:0,3:0:0:0:
315,109,833567,1,8,3:0:0:0:
477,199,833701,6,0,B|483:183|483:183|370:210,1,110,8|8,3:0|3:0,3:0:0:0:
324,294,833967,1,8,3:0:0:0:
312,283,834101,1,8,3:0:0:0:
226,373,834234,6,0,P|194:339|142:335,1,75.0000000000002,8|8,3:0|3:0,3:0:0:0:
118,257,834501,5,8,3:0:0:0:
110,265,834634,1,8,3:0:0:0:
16,345,834767,5,8,3:0:0:0:
87,369,834901,1,8,3:0:0:0:
12,354,835034,1,8,3:0:0:0:
229,217,835167,5,8,3:0:0:0:
126,236,835301,1,8,3:0:0:0:
217,206,835434,1,0,3:0:0:0:
133,223,835567,1,8,3:0:0:0:
204,194,835701,1,0,3:0:0:0:
39,116,835834,6,0,P|11:156|32:240,1,120,10|0,3:0|3:0,3:0:0:0:
145,148,836101,2,0,P|152:109|125:51,1,100,0|0,3:0|3:0,3:0:0:0:
137,335,836367,6,0,B|142:320|158:314|158:314|199:353|260:332,1,130,6|0,3:0|3:0,3:0:0:0:
362,228,836634,2,0,P|314:237|274:213,1,90.0000000000001,0|0,3:0|3:0,3:0:0:0:
231,42,836901,5,8,3:0:0:0:
243,32,837034,2,0,L|348:43,1,80,8|0,3:0|3:0,3:0:0:0:
424,127,837301,2,0,L|340:135,1,69.9999999999999,8|0,3:0|3:0,3:0:0:0:
262,54,837567,1,8,3:0:0:0:
273,55,837701,1,8,3:0:0:0:
284,56,837834,1,0,3:0:0:0:
285,249,837967,5,8,3:0:0:0:
252,142,838101,1,8,3:0:0:0:
288,235,838234,1,8,3:0:0:0:
265,150,838367,1,0,3:0:0:0:
361,315,838501,5,8,3:0:0:0:
382,233,838634,1,8,3:0:0:0:
357,305,838767,1,8,3:0:0:0:
372,238,838901,1,8,3:0:0:0:
496,357,839034,5,8,3:0:0:0:
488,374,839167,2,0,L|377:387,1,90.0000000000001,8|8,3:0|3:0,3:0:0:0:
281,325,839434,2,0,L|181:313,1,80,0|8,3:0|3:0,3:0:0:0:
129,376,839701,2,0,L|29:387,1,69.9999999999999,8|8,3:0|3:0,3:0:0:0:
0,308,839967,1,0,3:0:0:0:
158,192,840101,5,10,3:0:0:0:
127,301,840234,1,0,3:0:0:0:
164,204,840367,1,0,3:0:0:0:
139,294,840501,1,0,3:0:0:0:
44,145,840634,5,6,3:0:0:0:
176,116,840767,1,0,3:0:0:0:
56,132,840901,1,0,3:0:0:0:
157,114,841034,1,0,3:0:0:0:
25,222,841167,5,8,3:0:0:0:
37,235,841301,2,0,P|87:240|128:209,1,90.0000000000001,8|0,3:0|3:0,3:0:0:0:
204,261,841567,2,0,P|230:226|232:174,1,80,8|0,3:0|3:0,3:0:0:0:
311,155,841834,5,8,3:0:0:0:
308,121,841967,1,8,3:0:0:0:
284,108,842101,1,0,3:0:0:0:
347,233,842234,5,8,3:0:0:0:
491,182,842367,1,8,3:0:0:0:
378,126,842501,5,8,3:0:0:0:
488,170,842634,1,0,3:0:0:0:
386,113,842767,5,8,3:0:0:0:
472,75,842901,1,8,3:0:0:0:
405,28,843034,5,8,3:0:0:0:
471,62,843167,1,8,3:0:0:0:
315,167,843301,5,8,3:0:0:0:
301,91,843434,1,8,3:0:0:0:
306,169,843567,1,8,3:0:0:0:
212,13,843701,5,8,3:0:0:0:
191,105,843834,1,8,3:0:0:0:
218,24,843967,1,0,3:0:0:0:
203,100,844101,1,8,3:0:0:0:
225,35,844234,1,0,3:0:0:0:
99,183,844367,6,0,P|101:139|55:75,1,120,10|0,3:0|3:0,3:0:0:0:
179,272,844634,2,0,P|183:231|238:180,1,100,0|0,3:0|3:0,3:0:0:0:
99,361,844901,6,0,B|106:372|105:384|105:384|157:356|226:391,1,130,6|0,3:0|3:0,3:0:0:0:
285,304,845167,2,0,P|327:314|372:366,1,90.0000000000001,0|0,3:0|3:0,3:0:0:0:
478,362,845434,5,8,3:0:0:0:
494,352,845567,2,0,L|488:253,1,80,8|0,3:0|3:0,3:0:0:0:
411,176,845834,2,0,L|400:245,1,69.9999999999999,8|0,3:0|3:0,3:0:0:0:
484,126,846101,1,8,3:0:0:0:
481,114,846234,1,8,3:0:0:0:
479,102,846367,1,0,3:0:0:0:
323,54,846501,5,8,3:0:0:0:
419,31,846634,1,0,3:0:0:0:
336,59,846767,1,0,3:0:0:0:
413,39,846901,1,0,3:0:0:0:
300,146,847034,5,0,3:0:0:0:
384,128,847167,1,0,3:0:0:0:
312,153,847301,1,0,3:0:0:0:
379,137,847434,1,0,3:0:0:0:
267,0,847567,5,8,3:0:0:0:
253,7,847701,2,0,P|238:39|252:109,1,90.0000000000001,8|8,3:0|3:0,3:0:0:0:
185,157,847967,2,0,P|210:194|210:239,1,80,0|8,3:0|3:0,3:0:0:0:
284,266,848234,2,0,P|272:283|265:331,1,69.9999999999999,8|8,3:0|3:0,3:0:0:0:
201,374,848501,1,0,3:0:0:0:
93,222,848634,5,10,3:0:0:0:
203,246,848767,1,0,3:0:0:0:
104,236,848901,1,0,3:0:0:0:
193,253,849034,1,0,3:0:0:0:
17,331,849167,5,6,3:0:0:0:
134,317,849301,1,0,3:0:0:0:
29,339,849434,1,0,3:0:0:0:
127,327,849567,1,0,3:0:0:0:
13,156,849701,5,8,3:0:0:0:
4,170,849834,2,0,P|-2:208|25:259,1,90.0000000000001,8|0,3:0|3:0,3:0:0:0:
117,189,850101,2,0,P|125:147|97:83,1,80,8|0,3:0|3:0,3:0:0:0:
47,49,850367,5,8,3:0:0:0:
34,63,850501,1,8,3:0:0:0:
29,84,850634,1,0,3:0:0:0:
196,183,850767,5,8,3:0:0:0:
227,24,850901,1,8,3:0:0:0:
285,164,851034,5,8,3:0:0:0:
238,22,851167,1,0,3:0:0:0:
340,95,851301,5,8,3:0:0:0:
243,15,851434,1,8,3:0:0:0:
335,7,851567,5,8,3:0:0:0:
242,5,851701,1,8,3:0:0:0:
368,181,851834,6,0,P|402:170|430:111,1,80,6|0,3:0|3:0,3:0:0:0:
439,52,852101,1,2,3:2:0:0:
512,219,852234,2,0,B|464:217|464:217|457:214|457:214|399:211,1,100,2|2,3:2|3:1,3:0:0:0:
374,337,852501,5,0,3:0:0:0:
382,339,852634,1,2,3:2:0:0:
389,342,852767,1,2,3:2:0:0:
240,234,852901,5,10,3:1:0:0:
226,347,853034,1,0,3:0:0:0:
243,220,853167,1,2,3:2:0:0:
225,360,853301,1,2,3:2:0:0:
150,282,853434,5,2,3:1:0:0:
322,228,853567,1,0,3:0:0:0:
138,281,853701,1,2,3:2:0:0:
335,225,853834,1,2,3:2:0:0:
176,185,853967,6,0,P|122:208|90:240,1,80,2|0,3:1|3:0,3:0:0:0:
27,284,854234,1,2,3:2:0:0:
110,103,854367,2,0,P|90:128|73:166,1,59.9999999999999,2|2,3:2|3:1,3:0:0:0:
31,296,854634,1,0,3:0:0:0:
7,122,854767,2,0,P|5:173|6:178,1,39.9999999999998,2|2,3:2|3:2,3:0:0:0:
266,224,855034,5,10,3:1:0:0:
112,191,855167,1,0,3:0:0:0:
248,222,855301,1,2,3:2:0:0:
125,196,855434,1,2,3:2:0:0:
221,24,855567,5,2,3:1:0:0:
200,162,855701,1,0,3:0:0:0:
224,40,855834,1,2,3:2:0:0:
205,146,855967,1,2,3:2:0:0:
320,77,856101,6,0,L|314:33,1,25,2|0,3:1|3:0,3:0:0:0:
373,139,856234,2,0,L|481:125,1,100,0|2,3:0|3:2,3:0:0:0:
285,245,856501,2,0,L|177:231,1,100,2|2,3:2|3:1,3:0:0:0:
371,346,856767,1,0,3:0:0:0:
382,351,856901,1,2,3:2:0:0:
392,355,857034,1,2,3:2:0:0:
479,202,857167,5,10,3:1:0:0:
366,219,857301,1,0,3:0:0:0:
492,198,857434,1,2,3:2:0:0:
358,222,857567,1,2,3:2:0:0:
425,111,857701,5,2,3:1:0:0:
451,276,857834,1,0,3:0:0:0:
425,94,857967,1,2,3:2:0:0:
454,288,858101,1,2,3:2:0:0:
332,178,858234,6,0,L|324:65,1,100,2|0,3:1|3:0,3:0:0:0:
107,187,858501,1,2,3:2:0:0:
260,209,858634,2,0,L|252:308,1,80,2|2,3:2|3:1,3:0:0:0:
96,189,858901,1,0,3:0:0:0:
188,181,859034,2,0,L|182:101,1,59.9999999999999,2|2,3:2|3:2,3:0:0:0:
194,4,859301,5,10,3:1:0:0:
349,29,859434,1,0,3:0:0:0:
254,126,859567,5,2,3:2:0:0:
355,36,859701,1,2,3:2:0:0:
347,155,859834,5,2,3:1:0:0:
358,44,859967,1,0,3:0:0:0:
446,106,860101,5,2,3:2:0:0:
362,53,860234,1,2,3:2:0:0:
429,201,860367,6,0,L|424:311,1,100,6|0,3:0|3:0,3:0:0:0:
347,364,860634,1,0,3:0:0:0:
252,270,860767,2,0,B|302:254|302:254|346:274,1,100,0|2,3:0|3:0,3:0:0:0:
172,353,861034,1,0,3:0:0:0:
161,356,861167,1,0,3:0:0:0:
150,359,861301,1,0,3:0:0:0:
119,172,861434,5,10,3:0:0:0:
135,285,861567,1,0,3:0:0:0:
118,157,861701,1,0,3:0:0:0:
138,300,861834,1,0,3:0:0:0:
242,207,861967,5,2,3:0:0:0:
33,168,862101,1,0,3:0:0:0:
256,207,862234,1,0,3:0:0:0:
22,153,862367,1,0,3:0:0:0:
173,88,862501,6,0,L|156:-12,1,100,2|0,3:0|3:0,3:0:0:0:
233,226,862767,1,0,3:0:0:0:
262,125,862901,2,0,L|245:25,1,80,0|2,3:0|3:0,3:0:0:0:
234,238,863167,1,0,3:0:0:0:
348,193,863301,2,0,L|334:113,1,59.9999999999999,0|0,3:0|3:0,3:0:0:0:
477,201,863567,5,10,3:0:0:0:
268,164,863701,1,0,3:0:0:0:
463,200,863834,1,0,3:0:0:0:
279,168,863967,1,0,3:0:0:0:
370,27,864101,5,2,3:0:0:0:
396,181,864234,1,0,3:0:0:0:
373,46,864367,1,0,3:0:0:0:
396,172,864501,1,0,3:0:0:0:
257,58,864634,6,0,L|292:63,1,25,2|0,3:0|3:0,3:0:0:0:
186,109,864767,2,0,L|68:122,1,100,0|0,3:0|3:0,3:0:0:0:
25,255,865034,2,0,L|124:244,1,100,0|2,3:0|3:0,3:0:0:0:
219,348,865301,1,0,3:0:0:0:
206,345,865434,1,0,3:0:0:0:
193,343,865567,1,0,3:0:0:0:
284,236,865701,5,10,3:0:0:0:
313,364,865834,1,0,3:0:0:0:
283,223,865967,1,0,3:0:0:0:
319,375,866101,1,0,3:0:0:0:
200,258,866232,5,2,3:0:0:0:
392,212,866369,1,0,3:0:0:0:
188,251,866507,1,0,3:0:0:0:
404,209,866644,1,0,3:0:0:0:
257,118,866782,6,0,L|267:8,1,100,2|0,3:0|3:0,3:0:0:0:
345,146,867061,1,0,3:0:0:0:
174,153,867200,2,0,L|166:232,1,80.5733333333333,0|2,3:0|3:0,3:0:0:0:
276,211,867482,1,0,3:0:0:0:
89,144,867624,2,0,L|95:74,1,69.9999999999999,0|0,3:0|3:0,3:0:0:0:
237,6,867908,5,10,3:0:0:0:
270,100,868050,1,0,3:0:0:0:
367,70,868192,5,0,3:0:0:0:
338,157,868334,1,0,3:0:0:0:
447,171,868476,5,2,3:0:0:0:
385,221,868618,1,0,3:0:0:0:
446,284,868761,5,2,3:0:0:0:
387,314,868903,1,0,3:0:0:0:
272,218,869046,6,0,P|247:272|241:298,2,50,6|0|0,3:0|3:0|3:0,3:0:0:0:
121,363,869346,2,0,P|111:339|98:318,2,50,4|0|0,3:1|3:0|3:0,3:0:0:0:
114,94,869646,5,4,3:1:0:0:
181,166,869796,1,0,3:0:0:0:
0,264,869946,6,0,B|19:251|38:226|38:226|79:247|139:233,1,150,12|0,3:1|3:0,3:0:0:0:
255,58,870246,6,0,B|194:37|194:37|188:39|188:39|108:10,1,150,12|0,3:1|3:0,3:0:0:0:
249,298,870546,6,0,B|299:267|282:197|282:197|256:234,1,150,12|0,3:1|3:0,3:0:0:0:
329,29,870846,6,0,P|341:54|352:86,2,50,4|0|0,3:1|3:0|3:0,3:0:0:0:
448,241,871146,2,0,P|456:217|467:195,1,50,4|0,3:1|3:0,3:0:0:0:
512,132,871296,1,0,3:0:0:0:
471,339,871446,5,4,3:1:0:0:
428,237,871596,1,0,3:0:0:0:
301,371,871746,6,0,B|277:339|277:339|207:333|159:383,1,150,12|0,3:1|3:0,3:0:0:0:
276,166,872046,6,0,B|231:191|231:191|193:204|193:204|135:245,1,150,12|0,3:1|3:0,3:0:0:0:
116,31,872346,6,0,B|78:23|78:23|88:66|88:66|87:70|87:70|108:150,1,150,12|0,3:1|3:0,3:0:0:0:
24,341,872646,6,0,L|32:268,1,50,4|0,3:1|3:0,3:0:0:0:
41,219,872796,1,0,3:0:0:0:
145,361,872946,1,4,3:1:0:0:
143,346,873021,1,0,3:0:0:0:
141,331,873096,1,0,3:0:0:0:
244,384,873246,5,4,3:1:0:0:
261,260,873396,1,0,3:0:0:0:
392,384,873546,5,12,3:1:0:0:
167,322,873696,1,0,3:0:0:0:
391,183,873846,5,12,3:1:0:0:
174,231,873996,1,0,3:0:0:0:
329,69,874146,5,12,3:1:0:0:
460,257,874446,5,4,3:1:0:0:
474,254,874521,1,0,3:0:0:0:
488,251,874596,1,0,3:0:0:0:
378,329,874746,1,4,3:1:0:0:
392,332,874821,1,0,3:0:0:0:
406,335,874896,1,0,3:0:0:0:
276,209,875046,6,0,L|286:252,1,37.5000000000001,4|0,3:1|3:0,3:0:0:0:
297,299,875196,2,0,L|307:256,1,37.5000000000001,0|0,3:0|3:0,3:0:0:0:
218,30,875346,6,0,B|185:30|185:30|160:81|215:157,1,150,12|0,3:1|3:0,3:0:0:0:
389,201,875646,6,0,B|405:173|405:173|373:125|279:134,1,150,12|0,3:1|3:0,3:0:0:0:
156,263,875946,6,0,B|172:290|172:290|228:286|268:201,1,150,12|0,3:1|3:0,3:0:0:0:
54,31,876246,6,0,L|-9:21,1,50,4|0,3:1|3:0,3:0:0:0:
95,97,876396,2,0,L|158:87,1,50,0|0,3:0|3:0,3:0:0:0:
34,155,876546,1,4,3:1:0:0:
33,169,876621,1,0,3:0:0:0:
33,183,876696,1,0,3:0:0:0:
111,357,876846,6,0,B|115:345|115:345|105:309,1,37.5000000000001,4|0,3:1|3:0,3:0:0:0:
81,268,876996,2,0,B|77:280|77:280|87:316,1,37.5000000000001,0|0,3:0|3:0,3:0:0:0:
209,365,877146,6,0,B|244:351|244:351|308:383|308:383|390:360,1,150,12|0,3:1|3:0,3:0:0:0:
504,247,877446,6,0,B|399:222|399:222|437:255,1,150,12|0,3:1|3:0,3:0:0:0:
254,52,877746,6,0,B|291:40|291:40|318:102|267:174,1,150,12|0,3:1|3:0,3:0:0:0:
476,52,878046,5,4,3:1:0:0:
463,43,878121,1,0,3:0:0:0:
448,39,878196,1,0,3:0:0:0:
405,146,878346,1,4,3:1:0:0:
399,117,878421,1,0,3:0:0:0:
385,94,878496,1,0,3:0:0:0:
332,283,878646,5,4,3:1:0:0:
272,167,878796,1,0,3:0:0:0:
176,324,878946,5,12,3:1:0:0:
380,188,879096,1,0,3:0:0:0:
157,166,879246,5,12,3:1:0:0:
306,354,879396,1,0,3:0:0:0:
321,96,879546,5,12,3:1:0:0:
79,29,879846,5,4,3:1:0:0:
103,25,879921,1,0,3:0:0:0:
126,20,879996,1,0,3:0:0:0:
57,42,880146,1,4,3:1:0:0:
93,50,880221,1,0,3:0:0:0:
130,56,880296,1,0,3:0:0:0:
14,152,880446,6,0,L|54:136,1,37.5000000000001,4|0,3:1|3:0,3:0:0:0:
5,169,880596,2,0,L|45:153,1,37.5000000000001,0|0,3:0|3:0,3:0:0:0:
223,361,880746,6,0,B|260:326|205:243|115:289|176:339|85:360|26:303,1,225,12|0,3:1|3:0,3:0:0:0:
248,376,881046,6,0,B|271:340|271:340|341:331|388:386,1,150,12|0,3:1|3:0,3:0:0:0:
44,370,881346,6,0,B|26:320|31:264|31:264|20:289|-3:304,1,150,12|0,3:1|3:0,3:0:0:0:
228,156,881646,5,4,3:1:0:0:
242,173,881721,1,0,3:0:0:0:
247,194,881796,1,0,3:0:0:0:
315,227,881946,1,4,3:1:0:0:
312,256,882021,1,0,3:0:0:0:
293,279,882096,1,0,3:0:0:0:
361,125,882246,5,4,3:1:0:0:
417,213,882396,1,0,3:0:0:0:
474,36,882546,6,0,B|396:37|432:104|336:102,1,150,12|0,3:1|3:0,3:0:0:0:
487,319,882846,6,0,B|526:272|503:215|503:215|505:234|481:262,1,150,12|0,3:1|3:0,3:0:0:0:
214,365,883146,6,0,B|192:333|223:313|273:290|342:364,1,150,12|0,3:1|3:0,3:0:0:0:
201,374,883446,5,6,3:0:0:0:
184,363,883521,1,0,3:0:0:0:
175,346,883596,1,0,3:0:0:0:
172,328,883671,1,0,3:0:0:0:
175,311,883746,1,10,3:0:0:0:
183,297,883821,1,0,3:0:0:0:
195,288,883896,1,0,3:0:0:0:
205,279,883971,1,0,3:0:0:0:
211,267,884046,1,2,3:0:0:0:
212,255,884121,1,0,3:0:0:0:
209,244,884196,1,0,3:0:0:0:
202,236,884271,1,0,3:0:0:0:
194,231,884346,6,0,P|225:242|242:242,3,45,10|0|0|0,3:0|3:0|3:0|3:0,3:0:0:0:
146,179,884646,2,0,P|131:189|107:191,3,40,2|0|0|0,3:0|3:0|3:0|3:0,3:0:0:0:
199,134,884946,2,0,P|216:139|240:140,3,35,10|0|0|0,3:0|3:0|3:0|3:0,3:0:0:0:
129,92,885246,5,2,3:0:0:0:
120,103,885321,1,0,3:0:0:0:
114,117,885396,1,0,3:0:0:0:
112,130,885471,1,0,3:0:0:0:
113,145,885546,1,10,3:0:0:0:
117,159,885621,1,0,3:0:0:0:
124,171,885696,1,0,3:0:0:0:
132,185,885771,1,0,3:0:0:0:
139,202,885846,1,2,3:0:0:0:
143,222,885921,1,0,3:0:0:0:
142,244,885996,1,0,3:0:0:0:
134,267,886071,1,0,3:0:0:0:
119,290,886146,5,10,3:0:0:0:
150,265,886221,1,0,3:0:0:0:
187,258,886296,1,0,3:0:0:0:
222,262,886371,1,0,3:0:0:0:
251,278,886446,1,2,3:0:0:0:
271,302,886521,1,0,3:0:0:0:
281,330,886596,1,0,3:0:0:0:
301,348,886671,1,0,3:0:0:0:
324,353,886746,1,10,3:0:0:0:
344,346,886821,1,0,3:0:0:0:
354,331,886896,1,0,3:0:0:0:
352,316,886971,1,0,3:0:0:0:
342,308,887046,5,2,3:0:0:0:
332,305,887121,1,0,3:0:0:0:
322,309,887196,1,0,3:0:0:0:
317,317,887271,1,0,3:0:0:0:
315,326,887346,1,10,3:0:0:0:
318,335,887421,1,0,3:0:0:0:
324,342,887496,1,0,3:0:0:0:
333,344,887571,1,0,3:0:0:0:
342,342,887646,1,2,3:0:0:0:
348,334,887721,1,0,3:0:0:0:
348,324,887796,1,0,3:0:0:0:
342,315,887871,1,0,3:0:0:0:
332,310,887946,6,0,P|314:316|288:359,3,60,10|0|0|0,3:0|3:0|3:0|3:0,3:0:0:0:
367,235,888246,2,0,P|326:229|301:235,3,55,2|0|0|0,3:0|3:0|3:0|3:0,3:0:0:0:
437,201,888546,2,0,P|418:176|395:161,3,50,10|0|0|0,3:0|3:0|3:0|3:0,3:0:0:0:
512,245,888846,5,2,3:0:0:0:
501,262,888921,1,0,3:0:0:0:
487,275,888996,1,0,3:0:0:0:
470,281,889071,1,0,3:0:0:0:
453,282,889146,1,10,3:0:0:0:
437,278,889221,1,0,3:0:0:0:
424,269,889296,1,0,3:0:0:0:
410,264,889371,1,0,3:0:0:0:
397,264,889446,1,2,3:0:0:0:
385,266,889521,1,0,3:0:0:0:
375,272,889596,1,0,3:0:0:0:
368,279,889671,1,0,3:0:0:0:
364,287,889746,5,10,3:0:0:0:
324,266,889821,1,0,3:0:0:0:
308,226,889896,1,0,3:0:0:0:
317,187,889971,1,0,3:0:0:0:
346,163,890046,1,2,3:0:0:0:
355,129,890121,1,0,3:0:0:0:
345,97,890196,1,0,3:0:0:0:
318,82,890271,1,0,3:0:0:0:
290,84,890346,1,10,3:0:0:0:
267,73,890421,1,0,3:0:0:0:
255,53,890496,1,0,3:0:0:0:
257,33,890571,1,0,3:0:0:0:
268,20,890646,6,0,P|298:44|295:89,1,57.5000000000001,2|0,3:0|3:0,3:0:0:0:
412,94,890796,2,0,P|385:110|370:147,1,50,0|0,3:0|3:0,3:0:0:0:
302,185,890946,2,0,P|319:201|327:237,1,42.5000000000001,10|0,3:0|3:0,3:0:0:0:
380,299,891096,5,0,3:0:0:0:
385,307,891171,1,0,3:0:0:0:
384,316,891246,1,2,3:0:0:0:
375,321,891321,1,0,3:0:0:0:
365,318,891396,1,0,3:0:0:0:
358,310,891471,1,0,3:0:0:0:
359,300,891546,6,0,P|341:316|301:321,3,55,14|0|0|0,3:0|3:0|3:0|3:0,3:0:0:0:
249,369,891846,2,0,P|222:352|208:332,3,50,2|0|0|0,3:0|3:0|3:0|3:0,3:0:0:0:
135,333,892146,2,0,P|134:298|143:270,3,45,10|0|0|0,3:0|3:0|3:0|3:0,3:0:0:0:
66,259,892446,5,2,3:0:0:0:
60,245,892521,1,0,3:0:0:0:
60,228,892596,1,0,3:0:0:0:
67,210,892671,1,0,3:0:0:0:
84,198,892746,1,10,3:0:0:0:
106,198,892821,1,0,3:0:0:0:
128,209,892896,1,0,3:0:0:0:
155,211,892971,1,0,3:0:0:0:
183,200,893046,1,2,3:0:0:0:
202,173,893121,1,0,3:0:0:0:
202,138,893196,1,0,3:0:0:0:
178,109,893271,1,0,3:0:0:0:
138,104,893346,5,14,3:0:0:0:
144,153,893421,1,0,3:0:0:0:
174,189,893496,1,0,3:0:0:0:
218,199,893571,1,0,3:0:0:0:
258,180,893646,1,2,3:0:0:0:
269,139,893721,1,0,3:0:0:0:
248,104,893796,1,0,3:0:0:0:
205,99,893871,1,0,3:0:0:0:
173,131,893946,1,10,3:0:0:0:
165,177,894021,1,0,3:0:0:0:
182,223,894096,1,0,3:0:0:0:
228,247,894171,1,0,3:0:0:0:
290,247,894246,5,2,3:0:0:0:
317,259,894321,1,0,3:0:0:0:
327,285,894396,1,0,3:0:0:0:
322,311,894471,1,0,3:0:0:0:
301,325,894546,1,10,3:0:0:0:
277,323,894621,1,0,3:0:0:0:
260,307,894696,1,0,3:0:0:0:
258,286,894771,1,0,3:0:0:0:
270,270,894846,1,2,3:0:0:0:
287,267,894921,1,0,3:0:0:0:
301,275,894996,1,0,3:0:0:0:
306,288,895071,1,0,3:0:0:0:
301,300,895146,5,14,3:0:0:0:
325,349,895221,1,0,3:0:0:0:
370,375,895296,1,0,3:0:0:0:
419,382,895371,1,0,3:0:0:0:
463,364,895446,1,2,3:0:0:0:
490,328,895521,1,0,3:0:0:0:
494,285,895596,1,0,3:0:0:0:
477,248,895671,1,0,3:0:0:0:
443,231,895746,1,10,3:0:0:0:
408,234,895821,1,0,3:0:0:0:
386,258,895896,1,0,3:0:0:0:
384,287,895971,1,0,3:0:0:0:
394,301,896046,6,0,P|371:279|313:285,2,60,2|0|0,3:0|3:0|3:0,3:0:0:0:
288,186,896346,2,0,P|257:189|232:207,2,55,10|0|0,3:0|3:0|3:0,3:0:0:0:
210,330,896646,5,8,2:0:0:0:
189,344,896721,1,8,2:0:0:0:
155,352,896796,1,8,2:0:0:0:
111,339,896871,1,8,2:0:0:0:
87,289,896946,5,8,2:0:0:0:
218,311,897096,1,8,2:0:0:0:
57,366,897246,1,8,2:0:0:0:
127,186,897396,5,8,2:0:0:0:
234,379,897546,1,8,2:0:0:0:
13,281,897696,1,8,2:0:0:0:
261,127,897846,6,0,B|346:150|363:247|311:227|321:367|420:376,1,300,4|0,3:1|3:0,3:0:0:0:
498,300,898446,1,4,3:1:0:0:
498,300,898596,1,0,3:0:0:0:
409,154,898746,6,0,B|423:82|423:82|426:80|426:80|440:-5,1,130,12|0,3:1|3:0,3:0:0:0:
237,238,899046,2,0,B|248:310|248:310|251:312|251:312|265:384,1,130,12|0,3:1|3:0,3:0:0:0:
82,160,899346,6,0,B|96:88|96:88|99:86|99:86|113:1,1,130,12|0,3:1|3:0,3:0:0:0:
11,210,899646,5,4,3:1:0:0:
25,226,899721,1,0,3:0:0:0:
34,248,899796,1,0,3:0:0:0:
123,289,899946,1,4,3:1:0:0:
116,309,900021,1,0,3:0:0:0:
102,327,900096,1,0,3:0:0:0:
197,227,900246,1,4,3:1:0:0:
197,227,900396,1,0,3:0:0:0:
340,343,900546,6,0,B|250:356|250:356|246:360|246:360|132:377,1,195,12|0,3:1|3:0,3:0:0:0:
156,245,900846,2,0,B|178:223|178:223|234:283|187:353,1,130,12|0,3:1|3:0,3:0:0:0:
49,199,901146,2,0,L|40:59,1,100,12|0,3:1|3:0,3:0:0:0:
196,12,901446,6,0,P|207:46|216:73,2,50,4|0|0,3:1|3:0|3:0,3:0:0:0:
348,25,901746,2,0,P|330:49|299:103,1,50,4|0,3:1|3:0,3:0:0:0:
298,154,901896,1,0,3:0:0:0:
416,131,902046,1,4,3:1:0:0:
416,131,902196,1,0,3:0:0:0:
482,320,902346,6,0,P|433:287|470:228,1,130,12|0,3:1|3:0,3:0:0:0:
305,150,902646,2,0,L|324:290,1,130,12|0,3:1|3:0,3:0:0:0:
136,326,902946,2,0,B|191:283|191:283|286:334,1,130,12|0,3:1|3:0,3:0:0:0:
42,311,903246,5,4,3:1:0:0:
33,299,903321,1,0,3:0:0:0:
23,289,903396,1,0,3:0:0:0:
64,203,903546,1,4,3:1:0:0:
49,200,903621,1,0,3:0:0:0:
35,200,903696,1,0,3:0:0:0:
12,109,903846,1,4,3:1:0:0:
12,109,903996,1,0,3:0:0:0:
151,12,904146,5,12,3:1:0:0:
134,201,904296,1,0,3:0:0:0:
285,64,904446,5,12,3:1:0:0:
131,213,904596,1,0,3:0:0:0:
318,213,904746,2,0,L|491:191,1,165,12|0,3:1|3:0,3:0:0:0:
501,178,905046,6,0,P|486:152|477:104,2,55,4|0|0,3:1|3:0|3:0,3:0:0:0:
381,87,905346,2,0,P|388:58|416:17,2,55,4|0|0,3:1|3:0|3:0,3:0:0:0:
280,131,905646,2,0,P|237:146|187:113,1,100,4|0,3:1|3:0,3:0:0:0:
99,1,905946,6,0,B|126:23|126:23|96:154,1,130,12|0,3:1|3:0,3:0:0:0:
0,244,906246,2,0,L|32:101,1,130,12|0,3:1|3:0,3:0:0:0:
179,297,906546,2,0,B|116:269|116:269|36:318,1,130,12|0,3:1|3:0,3:0:0:0:
243,376,906846,6,0,L|308:359,2,55,4|0|0,3:1|3:0|3:0,3:0:0:0:
281,270,907146,2,0,L|350:284,1,55,4|0,3:1|3:0,3:0:0:0:
406,348,907296,1,0,3:0:0:0:
492,270,907446,1,4,3:1:0:0:
492,270,907596,1,0,3:0:0:0:
311,167,907746,6,0,B|328:197|358:191|358:191|462:173,1,130,12|0,3:1|3:0,3:0:0:0:
453,13,908046,2,0,P|415:18|418:110,1,130,12|0,3:1|3:0,3:0:0:0:
297,180,908346,2,0,B|266:24|266:24|255:63,1,195,12|0,3:1|3:0,3:0:0:0:
230,73,908646,6,0,P|204:66|175:38,2,50,4|0|0,3:1|3:0|3:0,3:0:0:0:
97,76,908946,2,0,P|83:52|82:12,2,50,4|0|0,3:1|3:0|3:0,3:0:0:0:
23,154,909246,1,4,3:1:0:0:
23,154,909396,1,0,3:0:0:0:
173,206,909546,6,0,B|203:226|203:226|228:271|199:336|199:336|186:306,1,130,12|0,3:1|3:0,3:0:0:0:
9,297,909846,2,0,B|50:269|50:269|129:319,1,130,12|0,3:1|3:0,3:0:0:0:
277,380,910146,2,0,L|475:372,1,165,12|0,3:1|3:0,3:0:0:0:
470,370,910446,6,0,P|482:338|509:291,2,55,4|0|0,3:1|3:0|3:0,3:0:0:0:
408,266,910746,2,0,P|439:239|460:229,1,50,4|0,3:1|3:0,3:0:0:0:
492,165,910896,1,0,3:0:0:0:
339,182,911046,1,4,3:1:0:0:
339,182,911196,1,0,3:0:0:0:
386,40,911346,5,12,3:1:0:0:
490,154,911496,1,0,3:0:0:0:
292,218,911646,5,12,3:1:0:0:
295,66,911796,1,0,3:0:0:0:
443,291,911946,5,12,3:1:0:0:
108,379,912246,5,6,3:0:0:0:
77,353,912321,1,0,3:0:0:0:
71,313,912396,1,0,3:0:0:0:
96,282,912471,1,0,3:0:0:0:
134,271,912546,2,0,L|217:300,3,50,10|0|0|0,3:0|3:0|3:0|3:0,3:0:0:0:
264,185,912846,6,0,L|235:268,1,50,2|0,3:0|3:0,3:0:0:0:
276,201,912996,2,0,L|247:284,1,50,0|0,3:0|3:0,3:0:0:0:
132,150,913146,5,10,3:0:0:0:
94,147,913221,1,0,3:0:0:0:
56,142,913296,2,0,B|46:107|46:107|70:59,1,75,0|0,3:0|3:0,3:0:0:0:
271,14,913446,5,2,3:0:0:0:
233,17,913521,1,0,3:0:0:0:
195,22,913596,2,0,B|185:57|185:57|209:105,1,75,0|0,3:0|3:0,3:0:0:0:
385,171,913746,5,10,3:0:0:0:
347,168,913821,1,0,3:0:0:0:
309,163,913896,2,0,B|299:128|299:128|323:80,1,75,0|0,3:0|3:0,3:0:0:0:
455,9,914046,5,2,3:0:0:0:
479,27,914121,1,0,3:0:0:0:
487,55,914196,1,0,3:0:0:0:
484,84,914271,1,0,3:0:0:0:
467,108,914346,1,10,3:0:0:0:
445,129,914421,1,0,3:0:0:0:
430,155,914496,1,0,3:0:0:0:
433,184,914571,1,0,3:0:0:0:
451,207,914646,6,0,L|509:197,1,50,2|0,3:0|3:0,3:0:0:0:
512,293,914796,2,0,L|454:283,1,50,0|0,3:0|3:0,3:0:0:0:
390,335,914946,5,10,3:0:0:0:
363,308,915021,1,0,3:0:0:0:
325,302,915096,2,0,P|304:336|306:379,1,75,0|0,3:0|3:0,3:0:0:0:
148,374,915246,5,2,3:0:0:0:
184,364,915321,1,0,3:0:0:0:
209,334,915396,2,0,P|190:298|151:279,1,75,0|0,3:0|3:0,3:0:0:0:
236,145,915546,5,10,3:0:0:0:
226,181,915621,1,0,3:0:0:0:
239,217,915696,2,0,P|278:218|315:194,1,75,0|0,3:0|3:0,3:0:0:0:
202,32,915846,5,2,3:0:0:0:
202,32,915921,1,0,3:0:0:0:
202,32,915996,2,0,B|184:48|184:48|125:38,1,50,0|0,3:0|3:0,3:0:0:0:
121,109,916146,1,10,3:0:0:0:
121,109,916221,1,0,3:0:0:0:
121,109,916296,2,0,B|98:101|98:101|77:45,1,50,0|0,3:0|3:0,3:0:0:0:
238,132,916446,6,0,L|226:221,1,50,2|0,3:0|3:0,3:0:0:0:
252,146,916596,2,0,L|240:235,1,50,0|0,3:0|3:0,3:0:0:0:
384,278,916746,5,10,3:0:0:0:
421,274,916821,1,0,3:0:0:0:
446,246,916896,2,0,P|436:196|411:169,1,75,0|0,3:0|3:0,3:0:0:0:
262,282,917046,5,2,3:0:0:0:
246,316,917121,1,0,3:0:0:0:
258,351,917196,2,0,P|306:367|342:359,1,75,0|0,3:0|3:0,3:0:0:0:
319,174,917346,5,10,3:0:0:0:
298,143,917421,1,0,3:0:0:0:
261,136,917496,2,0,P|222:169|211:204,1,75,0|0,3:0|3:0,3:0:0:0:
100,313,917646,5,2,3:0:0:0:
98,283,917721,1,0,3:0:0:0:
96,253,917796,1,0,3:0:0:0:
94,223,917871,1,0,3:0:0:0:
92,193,917946,1,10,3:0:0:0:
90,163,918021,1,0,3:0:0:0:
88,133,918096,1,0,3:0:0:0:
87,103,918171,1,0,3:0:0:0:
86,73,918246,6,0,B|109:64|109:64|146:68,1,50,2|0,3:0|3:0,3:0:0:0:
195,32,918396,2,0,B|172:23|172:23|135:27,1,50,0|0,3:0|3:0,3:0:0:0:
220,132,918546,5,10,3:0:0:0:
237,142,918621,1,0,3:0:0:0:
256,143,918696,1,0,3:0:0:0:
275,137,918771,1,0,3:0:0:0:
289,123,918846,5,2,3:0:0:0:
270,164,918921,1,0,3:0:0:0:
277,208,918996,1,0,3:0:0:0:
311,236,919071,1,0,3:0:0:0:
351,265,919146,1,10,3:0:0:0:
364,318,919221,1,0,3:0:0:0:
335,370,919296,1,0,3:0:0:0:
271,382,919371,1,0,3:0:0:0:
213,342,919446,6,0,L|204:284,3,50,2|0|0|0,3:0|3:0|3:0|3:0,3:0:0:0:
289,226,919746,1,10,3:0:0:0:
289,226,919821,1,0,3:0:0:0:
289,226,919896,2,0,L|298:168,1,50,0|0,3:0|3:0,3:0:0:0:
193,47,920046,6,0,B|189:70|189:70|227:132,1,50,2|0,3:0|3:0,3:0:0:0:
183,60,920196,2,0,B|179:83|179:83|217:145,1,50,0|0,3:0|3:0,3:0:0:0:
68,248,920346,5,14,3:0:0:0:
23,220,920421,1,0,3:0:0:0:
9,169,920496,1,0,3:0:0:0:
37,124,920571,1,0,3:0:0:0:
86,106,920646,5,2,3:0:0:0:
93,118,920721,1,0,3:0:0:0:
98,132,920796,1,0,3:0:0:0:
95,146,920871,1,0,3:0:0:0:
85,157,920946,5,10,3:0:0:0:
51,127,921021,1,0,3:0:0:0:
66,84,921096,2,0,B|101:69|101:69|154:76,1,75,0|0,3:0|3:0,3:0:0:0:
220,205,921246,5,2,3:0:0:0:
241,225,921321,1,0,3:0:0:0:
270,230,921396,1,0,3:0:0:0:
298,220,921471,1,0,3:0:0:0:
317,196,921546,1,10,3:0:0:0:
339,176,921621,1,0,3:0:0:0:
366,165,921696,1,0,3:0:0:0:
394,174,921771,1,0,3:0:0:0:
415,194,921846,6,0,L|427:274,1,50,2|0,3:0|3:0,3:0:0:0:
500,256,921996,2,0,L|492:206,1,50,0|0,3:0|3:0,3:0:0:0:
468,39,922146,5,14,3:0:0:0:
438,62,922221,1,0,3:0:0:0:
400,66,922296,2,0,P|361:51|335:16,1,75,0|0,3:0|3:0,3:0:0:0:
342,257,922446,5,2,3:0:0:0:
337,219,922521,1,0,3:0:0:0:
352,184,922596,2,0,P|384:157|427:152,1,75,0|0,3:0|3:0,3:0:0:0:
216,38,922746,5,10,3:0:0:0:
251,53,922821,1,0,3:0:0:0:
274,84,922896,2,0,P|280:125|263:165,1,75,0|0,3:0|3:0,3:0:0:0:
100,249,923046,5,2,3:0:0:0:
121,228,923121,1,0,3:0:0:0:
150,222,923196,1,0,3:0:0:0:
179,226,923271,1,0,3:0:0:0:
203,243,923346,1,10,3:0:0:0:
215,270,923421,1,0,3:0:0:0:
214,299,923496,1,0,3:0:0:0:
200,326,923571,1,0,3:0:0:0:
175,343,923646,6,0,L|121:347,1,50,2|0,3:0|3:0,3:0:0:0:
68,297,923796,2,0,L|18:300,1,50,0|0,3:0|3:0,3:0:0:0:
52,173,923946,5,14,3:0:0:0:
87,137,924021,1,0,3:0:0:0:
136,128,924096,1,0,3:0:0:0:
183,142,924171,1,0,3:0:0:0:
211,183,924246,1,2,3:0:0:0:
249,215,924321,1,0,3:0:0:0:
297,226,924396,1,0,3:0:0:0:
341,202,924471,1,0,3:0:0:0:
366,159,924546,6,0,L|355:88,3,50,10|0|0|0,3:0|3:0|3:0|3:0,3:0:0:0:
236,0,924846,5,8,3:0:0:0:
196,38,924921,1,8,3:0:0:0:
186,92,924996,1,8,3:0:0:0:
216,138,925071,1,8,3:0:0:0:
262,167,925146,1,8,3:0:0:0:
284,211,925221,1,8,3:0:0:0:
280,255,925296,1,8,3:0:0:0:
253,284,925371,1,8,3:0:0:0:
221,282,925446,1,8,3:0:0:0:
204,261,925521,1,8,3:0:0:0:
209,240,925596,1,8,3:0:0:0:
220,237,925671,1,8,3:0:0:0:
225,247,925746,5,4,3:1:0:0:
197,288,925821,1,8,3:0:0:0:
142,291,925896,1,8,3:0:0:0:
104,244,925971,1,8,3:0:0:0:
124,182,926046,1,4,3:1:0:0:
177,146,926121,1,8,3:0:0:0:
194,84,926196,1,8,3:0:0:0:
154,33,926271,1,8,3:0:0:0:
91,24,926346,5,8,3:0:0:0:
75,51,926421,1,8,3:0:0:0:
82,65,926496,1,8,3:0:0:0:
101,68,926571,1,8,3:0:0:0:
103,52,926646,5,6,3:0:0:0:
76,65,926721,1,0,3:0:0:0:
50,95,926796,1,0,3:0:0:0:
40,144,926871,1,0,3:0:0:0:
57,196,926946,1,0,3:0:0:0:
104,224,927021,1,0,3:0:0:0:
163,226,927096,5,4,3:0:0:0:
219,193,927171,1,0,3:0:0:0:
283,195,927246,1,0,3:0:0:0:
324,244,927321,1,0,3:0:0:0:
324,309,927396,2,0,P|317:337|292:373,1,50,4|0,3:2|3:0,3:0:0:0:
507,253,927546,5,8,3:0:0:0:
473,202,927621,1,0,3:0:0:0:
420,186,927696,1,0,3:0:0:0:
376,199,927771,1,0,3:0:0:0:
354,232,927846,1,2,3:0:0:0:
359,261,927921,1,0,3:0:0:0:
376,270,927996,1,0,3:0:0:0:
393,259,928071,1,0,3:0:0:0:
396,241,928146,1,4,3:0:0:0:
385,230,928221,1,0,3:0:0:0:
370,231,928296,1,0,3:0:0:0:
358,240,928371,1,0,3:0:0:0:
351,253,928446,5,4,3:2:0:0:
338,244,928521,1,0,3:0:0:0:
328,226,928596,1,0,3:0:0:0:
326,191,928671,1,0,3:0:0:0:
344,155,928746,1,0,3:0:0:0:
384,135,928821,1,0,3:0:0:0:
431,149,928896,5,4,3:2:0:0:
382,175,928971,1,0,3:0:0:0:
330,156,929046,1,0,3:0:0:0:
309,104,929121,1,0,3:0:0:0:
338,51,929196,1,2,3:0:0:0:
402,44,929271,1,0,3:0:0:0:
452,89,929346,5,12,3:0:0:0:
411,133,929421,1,0,3:0:0:0:
351,131,929496,1,0,3:0:0:0:
304,92,929571,1,0,3:0:0:0:
274,39,929646,1,8,3:0:0:0:
229,6,929721,1,8,3:0:0:0:
184,11,929796,1,8,3:0:0:0:
159,36,929871,1,8,3:0:0:0:
157,65,929946,1,8,3:0:0:0:
172,84,930021,1,8,3:0:0:0:
191,84,930096,1,8,3:0:0:0:
203,76,930171,1,8,3:0:0:0:
204,61,930246,5,4,3:1:0:0:
154,55,930321,1,0,3:0:0:0:
112,73,930396,1,0,3:0:0:0:
89,105,930471,1,0,3:0:0:0:
84,134,930546,1,0,3:0:0:0:
92,157,930621,1,0,3:0:0:0:
105,171,930696,5,4,3:0:0:0:
153,159,930771,1,0,3:0:0:0:
201,172,930846,1,0,3:0:0:0:
231,211,930921,1,0,3:0:0:0:
235,260,930996,2,0,P|228:294|206:338,1,50,4|0,3:2|3:0,3:0:0:0:
41,347,931146,5,12,3:1:0:0:
73,324,931221,1,0,3:0:0:0:
112,321,931296,1,0,3:0:0:0:
149,336,931371,1,0,3:0:0:0:
174,367,931446,2,0,P|193:347|216:333,3,50,2|0|0|0,3:0|3:0|3:0|3:0,3:0:0:0:
271,235,931746,2,0,P|298:234|324:240,3,50,4|0|0|0,3:0|3:0|3:0|3:0,3:0:0:0:
438,324,932046,5,4,3:0:0:0:
399,355,932121,1,0,3:0:0:0:
349,355,932196,1,0,3:0:0:0:
312,321,932271,1,0,3:0:0:0:
301,272,932346,1,0,3:0:0:0:
328,230,932421,1,0,3:0:0:0:
376,217,932496,1,4,3:1:0:0:
406,184,932571,1,0,3:0:0:0:
404,144,932646,1,0,3:0:0:0:
382,116,932721,1,0,3:0:0:0:
352,108,932796,1,4,3:2:0:0:
333,114,932871,1,0,3:0:0:0:
324,126,932946,5,12,3:0:0:0:
343,142,933021,1,0,3:0:0:0:
372,143,933096,1,0,3:0:0:0:
401,123,933171,1,0,3:0:0:0:
412,84,933246,5,2,3:2:0:0:
362,90,933321,1,2,3:2:0:0:
328,133,933396,1,2,3:2:0:0:
322,187,933471,1,2,3:2:0:0:
353,238,933546,1,2,3:2:0:0:
362,302,933621,1,2,3:2:0:0:
328,350,933696,1,2,3:2:0:0:
261,354,933771,1,2,3:2:0:0:
220,297,933846,5,4,3:1:0:0:
226,289,933921,1,0,3:0:0:0:
233,282,933996,1,0,3:0:0:0:
242,277,934071,1,0,3:0:0:0:
251,274,934146,1,0,3:0:0:0:
260,274,934221,1,0,3:0:0:0:
267,272,934296,5,6,3:0:0:0:
233,282,934371,1,0,3:0:0:0:
194,269,934446,1,0,3:0:0:0:
160,239,934521,1,0,3:0:0:0:
156,189,934596,1,4,3:2:0:0:
183,146,934671,1,0,3:0:0:0:
232,132,934746,5,12,3:0:0:0:
233,185,934821,1,0,3:0:0:0:
198,227,934896,1,0,3:0:0:0:
144,235,934971,1,0,3:0:0:0:
94,211,935046,2,0,P|89:184|97:146,3,50,4|0|0|0,3:2|3:0|3:0|3:0,3:0:0:0:
52,77,935346,2,0,P|67:54|99:32,3,50,4|0|0|0,3:0|3:0|3:0|3:0,3:0:0:0:
195,12,935646,5,6,3:0:0:0:
212,22,935721,1,0,3:0:0:0:
231,27,935796,1,0,3:0:0:0:
250,28,935871,1,0,3:0:0:0:
269,26,935946,1,0,3:0:0:0:
288,23,936021,1,0,3:0:0:0:
307,16,936096,5,4,3:2:0:0:
280,46,936171,1,0,3:0:0:0:
266,88,936246,1,0,3:0:0:0:
272,132,936321,1,0,3:0:0:0:
301,166,936396,2,0,P|331:184|368:187,1,50,4|0,3:2|3:0,3:0:0:0:
305,380,936546,5,12,3:0:0:0:
247,364,936621,1,0,3:0:0:0:
216,311,936696,1,0,3:0:0:0:
235,252,936771,1,0,3:0:0:0:
281,221,936846,1,8,3:0:0:0:
312,175,936921,1,8,3:0:0:0:
304,126,936996,1,8,3:0:0:0:
273,99,937071,1,8,3:0:0:0:
243,100,937146,1,8,3:0:0:0:
221,113,937221,1,8,3:0:0:0:
215,132,937296,1,8,3:0:0:0:
222,145,937371,1,8,3:0:0:0:
231,151,937446,5,4,3:1:0:0:
237,121,937521,1,0,3:0:0:0:
228,92,937596,1,0,3:0:0:0:
205,72,937671,1,0,3:0:0:0:
176,62,937746,1,0,3:0:0:0:
146,65,937821,1,0,3:0:0:0:
120,80,937896,5,4,3:0:0:0:
144,111,937971,1,0,3:0:0:0:
156,148,938046,1,0,3:0:0:0:
152,187,938121,1,0,3:0:0:0:
129,220,938196,2,0,P|100:236|48:242,1,50,2|0,3:0|3:0,3:0:0:0:
23,50,938346,5,12,3:0:0:0:
67,48,938421,1,0,3:0:0:0:
108,65,938496,1,0,3:0:0:0:
142,94,938571,1,0,3:0:0:0:
165,132,938646,2,0,P|181:164|192:206,3,50,2|0|0|0,3:0|3:0|3:0|3:0,3:0:0:0:
281,83,938946,2,0,P|289:59|301:37,3,50,4|0|0|0,3:0|3:0|3:0|3:0,3:0:0:0:
472,134,939246,5,8,3:0:0:0:
504,178,939321,1,8,3:0:0:0:
505,232,939396,1,8,3:0:0:0:
481,281,939471,1,8,3:0:0:0:
430,303,939546,1,8,3:0:0:0:
375,301,939621,1,8,3:0:0:0:
330,268,939696,1,8,3:0:0:0:
310,216,939771,1,8,3:0:0:0:
276,172,939846,1,8,3:0:0:0:
223,157,939921,1,8,3:0:0:0:
170,173,939996,1,8,3:0:0:0:
142,220,940071,1,8,3:0:0:0:
148,274,940146,5,8,3:0:0:0:
197,266,940221,1,8,3:0:0:0:
227,226,940296,1,8,3:0:0:0:
224,176,940371,1,8,3:0:0:0:
191,138,940446,1,8,3:0:0:0:
164,95,940521,1,8,3:0:0:0:
170,45,940596,1,8,3:0:0:0:
204,16,940671,1,8,3:0:0:0:
243,15,940746,1,8,3:0:0:0:
272,34,940821,1,8,3:0:0:0:
280,62,940896,1,8,3:0:0:0:
273,80,940971,1,8,3:0:0:0:
260,87,941046,5,2,3:0:0:0:
255,78,941121,1,0,3:0:0:0:
259,58,941196,1,0,3:0:0:0:
281,37,941271,1,0,3:0:0:0:
319,28,941346,1,6,3:2:0:0:
361,43,941421,1,0,3:0:0:0:
394,86,941496,1,0,3:0:0:0:
398,140,941571,1,0,3:0:0:0:
371,188,941646,1,6,3:2:0:0:
326,220,941721,1,0,3:0:0:0:
321,274,941796,1,0,3:0:0:0:
343,324,941871,1,0,3:0:0:0:
393,346,941946,5,14,3:2:0:0:
408,287,942021,1,0,3:0:0:0:
383,232,942096,1,0,3:0:0:0:
329,205,942171,1,0,3:0:0:0:
269,214,942246,1,6,3:2:0:0:
225,255,942321,1,0,3:0:0:0:
206,312,942396,1,0,3:0:0:0:
152,339,942471,1,0,3:0:0:0:
93,323,942546,1,6,3:2:0:0:
60,272,942621,1,0,3:0:0:0:
73,213,942696,1,0,3:0:0:0:
125,183,942771,1,0,3:0:0:0:
184,193,942846,5,6,3:2:0:0:
147,227,942921,1,0,3:0:0:0:
97,227,942996,1,0,3:0:0:0:
63,190,943071,1,0,3:0:0:0:
61,140,943146,1,6,3:2:0:0:
92,101,943221,1,0,3:0:0:0:
140,89,943296,1,0,3:0:0:0:
185,109,943371,1,0,3:0:0:0:
226,137,943446,1,6,3:2:0:0:
275,139,943521,1,0,3:0:0:0:
315,109,943596,1,0,3:0:0:0:
324,59,943671,1,0,3:0:0:0:
301,14,943746,5,14,3:2:0:0:
261,51,943821,1,0,3:0:0:0:
254,105,943896,1,0,3:0:0:0:
285,150,943971,1,0,3:0:0:0:
338,162,944046,1,6,3:2:0:0:
390,146,944121,1,0,3:0:0:0:
444,156,944196,1,0,3:0:0:0:
483,194,944271,1,0,3:0:0:0:
486,248,944346,1,6,3:2:0:0:
453,292,944421,1,0,3:0:0:0:
398,297,944496,1,0,3:0:0:0:
356,260,944571,1,0,3:0:0:0:
360,205,944646,5,6,3:2:0:0:
398,227,944721,1,0,3:0:0:0:
408,270,944796,1,0,3:0:0:0:
389,310,944871,1,0,3:0:0:0:
345,322,944946,1,6,3:2:0:0:
302,306,945021,1,0,3:0:0:0:
274,270,945096,1,0,3:0:0:0:
239,241,945171,1,0,3:0:0:0:
194,239,945246,1,6,3:2:0:0:
156,263,945321,1,0,3:0:0:0:
139,304,945396,1,0,3:0:0:0:
151,347,945471,1,0,3:0:0:0:
198,370,945546,5,14,3:2:0:0:
229,338,945621,1,0,3:0:0:0:
237,293,945696,1,0,3:0:0:0:
219,252,945771,1,0,3:0:0:0:
180,228,945846,1,6,3:2:0:0:
149,195,945921,1,0,3:0:0:0:
137,151,945996,1,0,3:0:0:0:
150,108,946071,1,0,3:0:0:0:
188,84,946146,1,6,3:2:0:0:
232,87,946221,1,0,3:0:0:0:
262,118,946296,1,0,3:0:0:0:
264,163,946371,1,0,3:0:0:0:
226,202,946446,5,6,3:2:0:0:
196,169,946521,1,0,3:0:0:0:
191,124,946596,1,0,3:0:0:0:
214,85,946671,1,0,3:0:0:0:
249,65,946746,1,6,3:2:0:0:
279,63,946821,1,0,3:0:0:0:
303,71,946896,1,0,3:0:0:0:
317,86,946971,1,0,3:0:0:0:
323,99,947046,1,6,3:2:0:0:
324,113,947121,1,0,3:0:0:0:
318,126,947196,1,0,3:0:0:0:
306,134,947271,1,0,3:0:0:0:
298,134,947346,5,14,3:2:0:0:
275,107,947421,1,0,3:0:0:0:
242,95,947496,1,0,3:0:0:0:
207,98,947571,1,0,3:0:0:0:
176,115,947646,1,6,3:2:0:0:
160,146,947721,1,0,3:0:0:0:
133,168,947796,1,0,3:0:0:0:
98,171,947871,1,0,3:0:0:0:
67,153,947946,1,6,3:2:0:0:
57,119,948021,1,0,3:0:0:0:
68,85,948096,1,0,3:0:0:0:
98,67,948171,1,0,3:0:0:0:
130,70,948246,5,6,3:0:0:0:
106,98,948321,1,0,3:0:0:0:
76,95,948396,1,0,3:0:0:0:
63,61,948471,1,0,3:0:0:0:
81,21,948546,1,6,3:0:0:0:
134,8,948621,1,0,3:0:0:0:
189,29,948696,1,0,3:0:0:0:
213,83,948771,1,0,3:0:0:0:
250,129,948846,1,6,3:0:0:0:
308,143,948921,1,0,3:0:0:0:
364,122,948996,1,0,3:0:0:0:
390,67,949071,1,0,3:0:0:0:
372,9,949146,5,14,3:0:0:0:
313,38,949221,1,0,3:0:0:0:
294,100,949296,1,0,3:0:0:0:
319,159,949371,1,0,3:0:0:0:
375,190,949446,1,6,3:0:0:0:
407,246,949521,1,0,3:0:0:0:
402,310,949596,1,0,3:0:0:0:
358,358,949671,1,0,3:0:0:0:
293,364,949746,1,6,3:0:0:0:
246,318,949821,1,0,3:0:0:0:
199,272,949896,1,0,3:0:0:0:
134,267,949971,1,0,3:0:0:0:
80,303,950046,5,6,3:0:0:0:
111,347,950121,1,0,3:0:0:0:
164,360,950196,1,0,3:0:0:0:
213,336,950271,1,0,3:0:0:0:
236,286,950346,1,6,3:0:0:0:
220,233,950421,1,0,3:0:0:0:
175,200,950496,1,0,3:0:0:0:
149,151,950571,1,0,3:0:0:0:
164,98,950646,1,6,3:0:0:0:
213,73,950721,1,0,3:0:0:0:
265,90,950796,1,0,3:0:0:0:
288,139,950871,1,0,3:0:0:0:
276,192,950946,5,6,3:0:0:0:
225,169,951021,1,0,3:0:0:0:
209,116,951096,1,0,3:0:0:0:
228,64,951171,1,0,3:0:0:0:
276,37,951246,1,6,3:0:0:0:
326,37,951321,1,0,3:0:0:0:
362,62,951396,1,0,3:0:0:0:
373,100,951471,1,0,3:0:0:0:
365,129,951546,5,12,3:0:0:0:
354,118,951621,1,0,3:0:0:0:
350,103,951696,1,0,3:0:0:0:
354,88,951771,1,0,3:0:0:0:
364,76,951846,5,12,3:0:0:0:
383,74,951921,1,0,3:0:0:0:
404,86,951996,1,0,3:0:0:0:
417,112,952071,1,0,3:0:0:0:
417,146,952146,1,6,3:0:0:0:
397,180,952221,1,0,3:0:0:0:
355,197,952296,1,0,3:0:0:0:
305,194,952371,1,0,3:0:0:0:
261,217,952446,1,6,3:0:0:0:
241,268,952521,1,0,3:0:0:0:
251,322,952596,1,0,3:0:0:0:
297,359,952671,1,0,3:0:0:0:
356,358,952746,5,14,3:0:0:0:
356,293,952821,1,0,3:0:0:0:
307,249,952896,1,0,3:0:0:0:
242,246,952971,1,0,3:0:0:0:
185,277,953046,1,6,3:0:0:0:
120,269,953121,1,0,3:0:0:0:
79,217,953196,1,0,3:0:0:0:
81,152,953271,1,0,3:0:0:0:
111,94,953346,1,6,3:0:0:0:
173,75,953421,1,0,3:0:0:0:
234,96,953496,1,0,3:0:0:0:
267,151,953571,1,0,3:0:0:0:
250,213,953646,5,8,3:0:0:0:
194,190,953721,1,8,3:0:0:0:
178,131,953796,1,8,3:0:0:0:
200,75,953871,1,8,3:0:0:0:
253,47,953946,1,8,3:0:0:0:
312,50,954021,1,8,3:0:0:0:
356,89,954096,1,8,3:0:0:0:
371,147,954171,1,8,3:0:0:0:
425,172,954246,1,8,3:0:0:0:
482,155,954321,1,8,3:0:0:0:
500,98,954396,1,8,3:0:0:0:
477,42,954471,1,8,3:0:0:0:
420,20,954546,5,8,3:0:0:0:
382,59,954621,1,8,3:0:0:0:
376,113,954696,1,8,3:0:0:0:
401,161,954771,1,8,3:0:0:0:
444,195,954846,1,8,3:0:0:0:
464,240,954921,1,8,3:0:0:0:
453,283,954996,1,8,3:0:0:0:
418,302,955071,1,8,3:0:0:0:
383,297,955146,1,8,3:0:0:0:
361,276,955221,1,8,3:0:0:0:
359,256,955296,1,8,3:0:0:0:
364,242,955371,1,8,3:0:0:0:
372,237,955446,5,6,3:0:0:0:
256,192,955521,12,0,969066,2:0:0:0:
