osu file format v14

[General]
AudioFilename: audio.mp3
AudioLeadIn: 0
PreviewTime: 898118
Countdown: 0
SampleSet: Normal
StackLeniency: 0.7
Mode: 1
LetterboxInBreaks: 0
WidescreenStoryboard: 0

[Editor]
DistanceSpacing: 0.7
BeatDivisor: 4
GridSize: 4
TimelineZoom: 2.599998

[Metadata]
Title:Painters of the Tempest (Part II): Triptych Lux
TitleUnicode:Painters of the Tempest (Part II): Triptych Lux
Artist:Ne Obliviscaris
ArtistUnicode:Ne Obliviscaris
Creator:3san
Version:The Fall of the Rebel Angels
Source:osu!
Tags:english pt. I - wyrmholes creator cynosure curator pt. III - reveries from the stained glass womb citadel progressive metal movement marathon fa featured artist mg mpg mappers' guild
BeatmapID:2443086
BeatmapSetID:1171206

[Difficulty]
HPDrainRate:3
CircleSize:5
OverallDifficulty:7
ApproachRate:5
SliderMultiplier:1.4
SliderTickRate:1

[Events]
//Background and Video events
0,0,"-qd8a2VK.png",0,-50
//Break Periods
2,102355,107653
2,255718,260985
2,424370,442880
2,660250,664052
//Storyboard Layer 0 (Background)
//Storyboard Layer 1 (Fail)
//Storyboard Layer 2 (Pass)
//Storyboard Layer 3 (Foreground)
//Storyboard Layer 4 (Overlay)
//Storyboard Sound Samples

[TimingPoints]
17,279.06976744186,3,1,0,60,1,0
17,-133.333333333333,3,1,0,60,0,0
7691,-126.315736288111,3,1,0,60,0,0
7830,-120.000048000019,3,1,0,60,0,0
7970,-114.285714285714,3,1,0,60,0,0
8110,-109.090869421502,3,1,0,60,0,0
8249,-104.347862381865,3,1,0,60,0,0
8389,-100,3,1,0,60,0,0
10482,-100,3,1,0,60,0,0
10900,-114.285714285714,3,1,0,60,0,0
11319,-133.333333333333,3,1,0,60,0,0
11737,-100,3,1,0,80,0,0
15086,-86.9565217391304,3,1,0,80,0,0
15225,-87.6289021150112,3,1,0,80,0,0
15295,-87.968929374145,3,1,0,80,0,0
15365,-88.3116837240684,3,1,0,80,0,0
15504,-89.005268221826,3,1,0,80,0,0
15644,-89.7097530649337,3,1,0,80,0,0
15714,-90.066234709005,3,1,0,80,0,0
15784,-90.4255607741151,3,1,0,80,0,0
15853,-90.7876830166205,3,1,0,80,0,0
15923,-91.152800350756,3,1,0,80,0,0
15993,-91.5208662999121,3,1,0,80,0,0
16063,-91.8919167275451,3,1,0,80,0,0
16202,-92.6430315764509,3,1,0,80,0,0
16272,-93.0232558139535,3,1,0,80,0,0
16342,-93.4066139355195,3,1,0,80,0,0
16481,-94.1827993953464,3,1,0,80,0,0
16621,-94.972082956215,3,1,0,80,0,0
16760,-95.774615512806,3,1,0,80,0,0
16830,-96.1810357928107,3,1,0,80,0,0
16900,-96.59092006715,3,1,0,80,0,0
16970,-97.0043128117476,3,1,0,80,0,0
17039,-97.4211643582722,3,1,0,80,0,0
17179,-98.2659016338671,3,1,0,80,0,0
17318,-99.1253181922714,3,1,0,80,0,0
17388,-99.5607380238388,3,1,0,80,0,0
17458,-100,3,1,0,80,0,0
17597,-100,3,1,0,80,0,0
17667,-98.7738217764669,3,1,0,80,0,0
17737,-97.5773495650002,3,1,0,80,0,0
17807,-96.4096097242589,3,1,0,80,0,0
17877,-95.2693980403085,3,1,0,80,0,0
17946,-94.1558410988363,3,1,0,80,0,0
18016,-93.0680150360685,3,1,0,80,0,0
18086,-92.0050381958916,3,1,0,80,0,0
18156,-90.9661514950287,3,1,0,80,0,0
18225,-89.9503833685339,3,1,0,80,0,0
18295,-88.9570497572362,3,1,0,80,0,0
18365,-87.9854155375205,3,1,0,80,0,0
18435,-87.0347773563361,3,1,0,80,0,0
18574,-87.6289021150112,3,1,0,80,0,0
18644,-87.968929374145,3,1,0,80,0,0
18714,-88.3116837240684,3,1,0,80,0,0
18853,-89.005268221826,3,1,0,80,0,0
18993,-89.7097530649337,3,1,0,80,0,0
19063,-90.066234709005,3,1,0,80,0,0
19132,-90.4255607741151,3,1,0,80,0,0
19202,-90.7876830166205,3,1,0,80,0,0
19272,-91.152800350756,3,1,0,80,0,0
19342,-91.5208662999121,3,1,0,80,0,0
19411,-91.8919167275451,3,1,0,80,0,0
19551,-92.6430315764509,3,1,0,80,0,0
19621,-93.0232558139535,3,1,0,80,0,0
19690,-93.4066139355195,3,1,0,80,0,0
19830,-94.1827993953464,3,1,0,80,0,0
19970,-94.972082956215,3,1,0,80,0,0
20109,-95.774615512806,3,1,0,80,0,0
20179,-96.1810357928107,3,1,0,80,0,0
20249,-96.59092006715,3,1,0,80,0,0
20318,-97.0043128117476,3,1,0,80,0,0
20388,-97.4211643582722,3,1,0,80,0,0
20528,-98.2659016338671,3,1,0,80,0,0
20667,-99.1253181922714,3,1,0,80,0,0
20737,-99.5607380238388,3,1,0,80,0,0
20807,-100,3,1,0,80,0,0
20946,-100,3,1,0,80,0,0
21016,-98.7738217764669,3,1,0,80,0,0
21086,-97.5773495650002,3,1,0,80,0,0
21156,-96.4096097242589,3,1,0,80,0,0
21225,-95.2693980403085,3,1,0,80,0,0
21295,-94.1558410988363,3,1,0,80,0,0
21365,-93.0680150360685,3,1,0,80,0,0
21435,-92.0050381958916,3,1,0,80,0,0
21504,-90.9661514950287,3,1,0,80,0,0
21574,-89.9503833685339,3,1,0,80,0,0
21644,-88.9570497572362,3,1,0,80,0,0
21714,-87.9854155375205,3,1,0,80,0,0
21784,-87.0347773563361,3,1,0,80,0,0
21923,-87.6289021150112,3,1,0,80,0,0
21993,-87.968929374145,3,1,0,80,0,0
22063,-88.3116837240684,3,1,0,80,0,0
22202,-89.005268221826,3,1,0,80,0,0
22342,-89.7097530649337,3,1,0,80,0,0
22411,-90.066234709005,3,1,0,80,0,0
22481,-90.4255607741151,3,1,0,80,0,0
22551,-90.7876830166205,3,1,0,80,0,0
22621,-91.152800350756,3,1,0,80,0,0
22690,-91.5208662999121,3,1,0,80,0,0
22760,-91.8919167275451,3,1,0,80,0,0
22900,-92.6430315764509,3,1,0,80,0,0
22970,-93.0232558139535,3,1,0,80,0,0
23039,-93.4066139355195,3,1,0,80,0,0
23179,-94.1827993953464,3,1,0,80,0,0
23318,-94.972082956215,3,1,0,80,0,0
23458,-95.774615512806,3,1,0,80,0,0
23528,-96.1810357928107,3,1,0,80,0,0
23597,-96.59092006715,3,1,0,80,0,0
23667,-97.0043128117476,3,1,0,80,0,0
23737,-97.4211643582722,3,1,0,80,0,0
23877,-98.2659016338671,3,1,0,80,0,0
24016,-99.1253181922714,3,1,0,80,0,0
24086,-99.5607380238388,3,1,0,80,0,0
24156,-100,3,1,0,80,0,0
24295,-100,3,1,0,80,0,0
24365,-98.7654320987654,3,1,0,80,0,0
24435,-97.5609756097561,3,1,0,80,0,0
24504,-96.3855421686747,3,1,0,80,0,0
24574,-95.2380952380952,3,1,0,80,0,0
24644,-94.1176470588235,3,1,0,80,0,0
24714,-93.0232558139535,3,1,0,80,0,0
24784,-91.9540229885058,3,1,0,80,0,0
24853,-90.9090909090909,3,1,0,80,0,0
24923,-89.8876404494382,3,1,0,80,0,0
24993,-88.8888888888889,3,1,0,80,0,0
25063,-87.9120879120879,3,1,0,80,0,0
25132,-86.9565217391304,3,1,0,80,0,0
25272,-87.6289021150112,3,1,0,80,0,0
25342,-87.968929374145,3,1,0,80,0,0
25411,-88.3116837240684,3,1,0,80,0,0
25551,-89.005268221826,3,1,0,80,0,0
25690,-89.7097530649337,3,1,0,80,0,0
25760,-90.066234709005,3,1,0,80,0,0
25830,-90.4255607741151,3,1,0,80,0,0
25900,-90.7876830166205,3,1,0,80,0,0
25970,-91.152800350756,3,1,0,80,0,0
26039,-91.5208662999121,3,1,0,80,0,0
26109,-91.8919167275451,3,1,0,80,0,0
26249,-92.6430315764509,3,1,0,80,0,0
26318,-93.0232558139535,3,1,0,80,0,0
26388,-93.4066139355195,3,1,0,80,0,0
26528,-94.1827993953464,3,1,0,80,0,0
26667,-94.972082956215,3,1,0,80,0,0
26807,-95.774615512806,3,1,0,80,0,0
26877,-96.1810357928107,3,1,0,80,0,0
26946,-96.59092006715,3,1,0,80,0,0
27016,-97.0043128117476,3,1,0,80,0,0
27086,-97.4211643582722,3,1,0,80,0,0
27225,-98.2659016338671,3,1,0,80,0,0
27365,-99.1253181922714,3,1,0,80,0,0
27435,-99.5607380238388,3,1,0,80,0,0
27504,-100,3,1,0,80,0,0
27644,-100,3,1,0,80,0,0
27714,-97.959215660152,3,1,0,80,0,0
27784,-95.9999692800098,3,1,0,80,0,0
27853,-94.1176470588235,3,1,0,80,0,0
27923,-92.3077207100679,3,1,0,80,0,0
27993,-90.5660103951667,3,1,0,80,0,0
28063,-88.8888888888889,3,1,0,80,0,0
28132,-87.2727526611644,3,1,0,80,0,0
28202,-85.7142612244968,3,1,0,80,0,0
28272,-84.2105263157895,3,1,0,80,0,0
28342,-82.7586435196258,3,1,0,80,0,0
28411,-81.3559101407701,3,1,0,80,0,0
28481,-80,3,1,0,80,0,0
28900,-100,3,1,0,80,0,0
28970,-97.5609756097561,3,1,0,80,0,0
29039,-95.2380952380952,3,1,0,80,0,0
29109,-93.0232558139535,3,1,0,80,0,0
29179,-90.9090909090909,3,1,0,80,0,0
29249,-88.8888888888889,3,1,0,80,0,0
29318,-86.9565217391304,3,1,0,80,0,0
29737,-100,3,1,0,80,0,0
29877,-95.3002673172498,3,1,0,80,0,0
30016,-91.0224552397076,3,1,0,80,0,0
30156,-87.1121874305825,3,1,0,80,0,0
30574,-100,3,1,0,80,0,0
30644,-98.6363524276872,3,1,0,80,0,0
30714,-97.3093952221087,3,1,0,80,0,0
30784,-96.0176672507742,3,1,0,80,0,0
30853,-94.7597839476926,3,1,0,80,0,0
30923,-93.5345198498958,3,1,0,80,0,0
30993,-92.3404518587671,3,1,0,80,0,0
31063,-91.1764866782035,3,1,0,80,0,0
31132,-90.0415001274087,3,1,0,80,0,0
31202,-88.9344233136255,3,1,0,80,0,0
31272,-87.8542392745348,3,1,0,80,0,0
31342,-86.7999798624047,3,1,0,80,0,0
31411,-85.770722849921,3,1,0,80,0,0
31551,-83.7838109569117,3,1,0,80,0,0
31690,-81.8868029590615,3,1,0,80,0,0
31830,-80.0737960104032,3,1,0,80,0,0
32249,-100,3,1,0,80,0,0
34202,-100,3,1,0,80,0,0
34342,-97.9142310501693,3,1,0,80,0,0
34481,-95.9136930224707,3,1,0,80,0,0
34551,-94.9438596957619,3,1,0,80,0,0
34621,-93.9933546698248,3,1,0,80,0,0
34760,-92.1483182471178,3,1,0,80,0,0
34900,-90.3743214018142,3,1,0,80,0,0
34970,-89.5126928998532,3,1,0,80,0,0
35039,-88.6673387650945,3,1,0,80,0,0
35179,-87.023719184901,3,1,0,80,0,0
35458,-100,3,1,0,80,0,0
36714,-100,3,1,0,80,0,0
36853,-98.1191539381594,3,1,0,80,0,0
36993,-96.3076606002471,3,1,0,80,0,0
37063,-95.4268586527827,3,1,0,80,0,0
37132,-94.5619323920008,3,1,0,80,0,0
37202,-93.7125442674631,3,1,0,80,0,0
37272,-92.8783655636742,3,1,0,80,0,0
37342,-92.0588219048443,3,1,0,80,0,0
37411,-91.2536147838156,3,1,0,80,0,0
37481,-90.4624531065259,3,1,0,80,0,0
37551,-89.6848116977694,3,1,0,80,0,0
37690,-88.1690376790383,3,1,0,80,0,0
37830,-86.7035734877813,3,1,0,80,0,0
37900,-85.9890329587364,3,1,0,80,0,0
37970,-85.286100753588,3,1,0,80,0,0
38039,-84.5945678444204,3,1,0,80,0,0
38109,-83.9142295876539,3,1,0,80,0,0
38179,-83.2446777515279,3,1,0,80,0,0
38249,-82.5857260482813,3,1,0,80,0,0
38318,-81.9371918649478,3,1,0,80,0,0
38388,-81.2986979200541,3,1,0,80,0,0
38458,-80.6700779353623,3,1,0,80,0,0
38528,-80.0511687070375,3,1,0,80,0,0
38946,-100,3,1,0,80,0,0
39016,-97.5935385270012,3,1,0,80,0,0
39086,-95.3002673172498,3,1,0,80,0,0
39156,-93.1122104559426,3,1,0,80,0,0
39225,-91.0224552397076,3,1,0,80,0,0
39295,-89.024364187991,3,1,0,80,0,0
39365,-87.1121874305825,3,1,0,80,0,0
39784,-100,3,1,0,80,0,0
39923,-95.2380952380952,3,1,0,80,0,0
40063,-90.9090909090909,3,1,0,80,0,0
40202,-86.9565217391304,3,1,0,80,0,0
40621,-100,3,1,0,80,0,0
40690,-98.6363524276872,3,1,0,80,0,0
40760,-97.3093952221087,3,1,0,80,0,0
40830,-96.0176672507742,3,1,0,80,0,0
40900,-94.7597839476926,3,1,0,80,0,0
40970,-93.5345198498958,3,1,0,80,0,0
41039,-92.3404518587671,3,1,0,80,0,0
41109,-91.1764866782035,3,1,0,80,0,0
41179,-90.0415001274087,3,1,0,80,0,0
41249,-88.9344233136255,3,1,0,80,0,0
41318,-87.8542392745348,3,1,0,80,0,0
41388,-86.7999798624047,3,1,0,80,0,0
41458,-85.770722849921,3,1,0,80,0,0
41597,-83.7838109569117,3,1,0,80,0,0
41737,-81.8868029590615,3,1,0,80,0,0
41877,-80.0737960104032,3,1,0,80,0,0
42295,-100,3,1,0,80,0,0
44249,-100,3,1,0,80,0,0
44388,-97.9020568243118,3,1,0,80,0,0
44528,-95.8904240945786,3,1,0,80,0,0
44597,-94.9152928468988,3,1,0,80,0,0
44667,-93.9597063195419,3,1,0,80,0,0
44807,-92.1052873961283,3,1,0,80,0,0
44946,-90.3225689906363,3,1,0,80,0,0
45016,-89.4568804417738,3,1,0,80,0,0
45086,-88.6076285851754,3,1,0,80,0,0
45225,-86.9565217391304,3,1,0,80,0,0
45295,-87.4731457442565,3,1,0,80,0,0
45365,-87.9960225797794,3,1,0,80,0,0
45435,-88.5251097047422,3,1,0,80,0,0
45504,-89.0606770392668,3,1,0,80,0,0
45574,-89.6026837795846,3,1,0,80,0,0
45644,-90.1514092919058,3,1,0,80,0,0
45714,-90.7068147122825,3,1,0,80,0,0
45784,-91.2691893470602,3,1,0,80,0,0
45853,-91.8384964936062,3,1,0,80,0,0
45923,-92.4150359263452,3,1,0,80,0,0
45993,-92.9987733461796,3,1,0,80,0,0
46063,-93.5899319694784,3,1,0,80,0,0
46132,-94.188742938199,3,1,0,80,0,0
46202,-94.7951760630805,3,1,0,80,0,0
46272,-95.4095598470775,3,1,0,80,0,0
46342,-96.0318672148166,3,1,0,80,0,0
46411,-96.6624392959881,3,1,0,80,0,0
46481,-97.3012524617217,3,1,0,80,0,0
46551,-97.9486611887245,3,1,0,80,0,0
46621,-98.6046456592756,3,1,0,80,0,0
46690,-99.2695744710421,3,1,0,80,0,0
46760,-100,3,1,0,80,0,0
46900,-98.1191539381594,3,1,0,80,0,0
47039,-96.3076606002471,3,1,0,80,0,0
47109,-95.4268586527827,3,1,0,80,0,0
47179,-94.5619323920008,3,1,0,80,0,0
47249,-93.7125442674631,3,1,0,80,0,0
47318,-92.8783655636742,3,1,0,80,0,0
47388,-92.0588219048443,3,1,0,80,0,0
47458,-91.2536147838156,3,1,0,80,0,0
47528,-90.4624531065259,3,1,0,80,0,0
47597,-89.6848116977694,3,1,0,80,0,0
47737,-88.1690376790383,3,1,0,80,0,0
47877,-86.7035734877813,3,1,0,80,0,0
47946,-85.9890329587364,3,1,0,80,0,0
48016,-85.286100753588,3,1,0,80,0,0
48086,-84.5945678444204,3,1,0,80,0,0
48156,-83.9142295876539,3,1,0,80,0,0
48295,-82.5857260482813,3,1,0,80,0,0
48365,-81.9371918649478,3,1,0,80,0,0
48435,-81.2986979200541,3,1,0,80,0,0
48504,-80.6700779353623,3,1,0,80,0,0
48574,-80.0511687070375,3,1,0,80,0,0
48644,-80.804685378877,3,1,0,80,0,0
48714,-81.6257232039076,3,1,0,80,0,0
48784,-82.4636170521566,3,1,0,80,0,0
48853,-83.3189608125932,3,1,0,80,0,0
48923,-84.1921635618,3,1,0,80,0,0
48993,-85.0838629094767,3,1,0,80,0,0
49063,-85.9946528524856,3,1,0,80,0,0
49132,-86.9251530969259,3,1,0,80,0,0
49202,-87.8760104642753,3,1,0,80,0,0
49272,-88.8479003908419,3,1,0,80,0,0
49342,-89.8415285278298,3,1,0,80,0,0
49411,-90.8577150011539,3,1,0,80,0,0
49481,-91.8970679321506,3,1,0,80,0,0
49551,-92.9604750652118,3,1,0,80,0,0
49621,-94.0487812218442,3,1,0,80,0,0
49690,-95.1628712541515,3,1,0,80,0,0
49760,-96.303672444245,3,1,0,80,0,0
49830,-97.4721570783306,3,1,0,80,0,0
49900,-98.6694425669842,3,1,0,80,0,0
49970,-99.8964074254998,3,1,0,80,0,0
53458,-100,3,1,0,80,0,0
53597,-98.8628791638573,3,1,0,80,0,0
53667,-98.3040583847464,3,1,0,80,0,0
53737,-97.751423993869,3,1,0,80,0,0
53807,-97.2049683403418,3,1,0,80,0,0
53877,-96.6645883780165,3,1,0,80,0,0
53946,-96.1301833394857,3,1,0,80,0,0
54016,-95.6017460702902,3,1,0,80,0,0
54086,-95.0789963841458,3,1,0,80,0,0
54156,-94.5619323920008,3,1,0,80,0,0
54225,-94.0504618347928,3,1,0,80,0,0
54295,-93.5444944387798,3,1,0,80,0,0
54365,-93.0440284342551,3,1,0,80,0,0
54435,-92.548803297699,3,1,0,80,0,0
54504,-92.0588219048443,3,1,0,80,0,0
54574,-91.5740014084082,3,1,0,80,0,0
54644,-91.094260697199,3,1,0,80,0,0
54714,-90.6196024699279,3,1,0,80,0,0
54784,-90.1497838658932,3,1,0,80,0,0
54853,-89.6848116977694,3,1,0,80,0,0
54923,-89.2246113598991,3,1,0,80,0,0
54993,-88.7691097701058,3,1,0,80,0,0
55132,-87.8719951072873,3,1,0,80,0,0
55272,-86.9565217391304,3,1,0,80,0,0
55342,-87.527352297593,3,1,0,80,0,0
55411,-88.1057268722467,3,1,0,80,0,0
55481,-88.6917960088692,3,1,0,80,0,0
55551,-89.2857142857143,3,1,0,80,0,0
55621,-89.8876404494382,3,1,0,80,0,0
55690,-90.4977375565611,3,1,0,80,0,0
55760,-91.1161731207289,3,1,0,80,0,0
55830,-91.743119266055,3,1,0,80,0,0
55900,-92.378752886836,3,1,0,80,0,0
55970,-93.0232558139535,3,1,0,80,0,0
56039,-93.6768149882904,3,1,0,80,0,0
56109,-94.3396226415094,3,1,0,80,0,0
56179,-95.0118764845606,3,1,0,80,0,0
56249,-95.6937799043062,3,1,0,80,0,0
56318,-96.3855421686747,3,1,0,80,0,0
56388,-97.0873786407767,3,1,0,80,0,0
56458,-97.799511002445,3,1,0,80,0,0
56528,-98.5221674876847,3,1,0,80,0,0
56597,-99.2555831265509,3,1,0,80,0,0
56667,-100,3,1,0,80,0,0
60156,-100,3,1,0,80,0,0
60295,-98.1191539381594,3,1,0,80,0,0
60365,-97.2049683403418,3,1,0,80,0,0
60435,-96.3076606002471,3,1,0,80,0,0
60504,-95.4268586527827,3,1,0,80,0,0
60574,-94.5619323920008,3,1,0,80,0,0
60644,-93.7125442674631,3,1,0,80,0,0
60714,-92.8783655636742,3,1,0,80,0,0
60784,-92.0588219048443,3,1,0,80,0,0
60853,-91.2536147838156,3,1,0,80,0,0
60923,-90.4624531065259,3,1,0,80,0,0
60993,-89.6848116977694,3,1,0,80,0,0
61063,-88.9204259999769,3,1,0,80,0,0
61132,-88.1690376790383,3,1,0,80,0,0
61202,-87.430165155582,3,1,0,80,0,0
61272,-86.7035734877813,3,1,0,80,0,0
61342,-85.9890329587364,3,1,0,80,0,0
61411,-85.286100753588,3,1,0,80,0,0
61481,-84.5945678444204,3,1,0,80,0,0
61551,-83.9142295876539,3,1,0,80,0,0
61621,-83.2446777515279,3,1,0,80,0,0
61690,-82.5857260482813,3,1,0,80,0,0
61760,-81.9371918649478,3,1,0,80,0,0
61830,-81.2986979200541,3,1,0,80,0,0
61900,-80.6700779353623,3,1,0,80,0,0
61970,-80,3,1,0,80,0,0
62039,-80.3347065212501,3,1,0,80,0,0
62109,-80.6722906009521,3,1,0,80,0,0
62179,-81.0126582278481,3,1,0,80,0,0
62249,-81.3559101407701,3,1,0,80,0,0
62318,-81.7021499103727,3,1,0,80,0,0
62388,-82.0512820512821,3,1,0,80,0,0
62458,-82.4034108419816,3,1,0,80,0,0
62528,-82.7586435196258,3,1,0,80,0,0
62597,-83.1168831168831,3,1,0,80,0,0
62667,-83.4782376408382,3,1,0,80,0,0
62737,-83.8428181918793,3,1,0,80,0,0
62807,-84.2105263157895,3,1,0,80,0,0
62877,-84.5814739505977,3,1,0,80,0,0
62946,-84.9557762706623,3,1,0,80,0,0
63016,-85.3333333333333,3,1,0,80,0,0
63086,-85.7142612244968,3,1,0,80,0,0
63156,-86.0986794184551,3,1,0,80,0,0
63225,-86.4864864864865,3,1,0,80,0,0
63295,-86.8778028951159,3,1,0,80,0,0
63365,-87.2727526611644,3,1,0,80,0,0
63435,-87.6712328767123,3,1,0,80,0,0
63504,-88.0733686390111,3,1,0,80,0,0
63574,-88.4792887680852,3,1,0,80,0,0
63644,-88.8888888888889,3,1,0,80,0,0
63714,-89.3022989983854,3,1,0,80,0,0
63784,-89.71965300027,3,1,0,80,0,0
63853,-90.1408450704225,3,1,0,80,0,0
63923,-90.5660103951667,3,1,0,80,0,0
63993,-90.9952882639737,3,1,0,80,0,0
64063,-91.4285714285714,3,1,0,80,0,0
64132,-91.8660005769185,3,1,0,80,0,0
64202,-92.3077207100679,3,1,0,80,0,0
64272,-92.7536231884058,3,1,0,80,0,0
64342,-93.2038545386083,3,1,0,80,0,0
64411,-93.6585658251132,3,1,0,80,0,0
64481,-94.1176470588235,3,1,0,80,0,0
64551,-94.5812509694578,3,1,0,80,0,0
64621,-95.0495350651992,3,1,0,80,0,0
64690,-95.5223880597015,3,1,0,80,0,0
64760,-95.9999692800098,3,1,0,80,0,0
64830,-96.4824430898309,3,1,0,80,0,0
64900,-96.969696969697,3,1,0,80,0,0
64970,-97.4618972712618,3,1,0,80,0,0
65039,-97.959215660152,3,1,0,80,0,0
65109,-98.4615384615385,3,1,0,80,0,0
65179,-98.9690395153684,3,1,0,80,0,0
65249,-99.4818982737901,3,1,0,80,0,0
65318,-100,3,1,0,80,0,0
65388,-99.6889704123136,3,1,0,80,0,0
65458,-99.379968377294,3,1,0,80,0,0
65528,-99.0727778718969,3,1,0,80,0,0
65597,-98.767578159723,3,1,0,80,0,0
65667,-98.4641560932574,3,1,0,80,0,0
65737,-98.1625925918655,3,1,0,80,0,0
65807,-97.862966402665,3,1,0,80,0,0
65877,-97.565068583365,3,1,0,80,0,0
65946,-97.2690734926212,3,1,0,80,0,0
66016,-96.9747749215474,3,1,0,80,0,0
66086,-96.6823453203328,3,1,0,80,0,0
66156,-96.3915811593015,3,1,0,80,0,0
66225,-96.1025606527286,3,1,0,80,0,0
66295,-95.8153599687259,3,1,0,80,0,0
66365,-95.529779498163,3,1,0,80,0,0
66435,-95.2459870484507,3,1,0,80,0,0
66504,-94.9637855603765,3,1,0,80,0,0
66574,-94.6832513849793,3,1,0,80,0,0
66644,-94.4044589114033,3,1,0,80,0,0
66714,-94.1272148133646,3,1,0,80,0,0
66784,-93.8516824321851,3,1,0,80,0,0
66853,-93.5776708704876,3,1,0,80,0,0
66923,-93.3053417308141,3,1,0,80,0,0
66993,-93.0345064984603,3,1,0,80,0,0
67063,-92.7652390096383,3,1,0,80,0,0
67132,-92.4976112491895,3,1,0,80,0,0
67202,-92.2314381924852,3,1,0,80,0,0
67272,-91.9668772095042,3,1,0,80,0,0
67342,-91.7037455477832,3,1,0,80,0,0
67411,-91.4421153121651,3,1,0,80,0,0
67481,-91.1820568301287,3,1,0,80,0,0
67551,-90.9233906787158,3,1,0,80,0,0
67621,-90.6662701528452,3,1,0,80,0,0
67690,-90.4105179980218,3,1,0,80,0,0
67760,-90.1562859216452,3,1,0,80,0,0
67830,-89.9033987979916,3,1,0,80,0,0
67900,-89.6519263957684,3,1,0,80,0,0
67970,-89.4019368035589,3,1,0,80,0,0
68039,-89.153258016661,3,1,0,80,0,0
68109,-88.9060378757502,3,1,0,80,0,0
68179,-88.6601064098597,3,1,0,80,0,0
68249,-88.4155317796367,3,1,0,80,0,0
68318,-88.172380530833,3,1,0,80,0,0
68388,-87.9304856752446,3,1,0,80,0,0
68458,-87.6899913274599,3,1,0,80,0,0
68528,-87.4507324436096,3,1,0,80,0,0
68597,-87.2128516858244,3,1,0,80,0,0
68667,-86.9565217391304,3,1,0,80,0,0
68737,-87.1930803571429,3,1,0,80,0,0
68807,-87.4308531240355,3,1,0,80,0,0
68877,-87.6700030947511,3,1,0,80,0,0
68946,-87.9103876672275,3,1,0,80,0,0
69016,-88.1521718050568,3,1,0,80,0,0
69086,-88.3952895918082,3,1,0,80,0,0
69156,-88.6396735223545,3,1,0,80,0,0
69225,-88.8854914878809,3,1,0,80,0,0
69295,-89.1325972169238,3,1,0,80,0,0
69365,-89.3811605964941,3,1,0,80,0,0
69435,-89.6310338491599,3,1,0,80,0,0
69504,-89.882388894132,3,1,0,80,0,0
69574,-90.1351576689245,3,1,0,80,0,0
69644,-90.3892704320426,3,1,0,80,0,0
69714,-90.644902221344,3,1,0,80,0,0
69784,-90.9019013950715,3,1,0,80,0,0
69853,-91.1604451182214,3,1,0,80,0,0
69923,-91.4204637394444,3,1,0,80,0,0
69993,-91.6818858597194,3,1,0,80,0,0
70063,-91.9448919095851,3,1,0,80,0,0
70132,-92.2093262356741,3,1,0,80,0,0
70202,-92.4753714966861,3,1,0,80,0,0
70272,-92.7428703918386,3,1,0,80,0,0
70342,-93.0120078502135,3,1,0,80,0,0
70411,-93.2827119150008,3,1,0,80,0,0
70481,-93.5549087792862,3,1,0,80,0,0
70551,-93.828786859466,3,1,0,80,0,0
70621,-94.1041846248819,3,1,0,80,0,0
70690,-94.3812928727023,3,1,0,80,0,0
70760,-94.6600379397432,3,1,0,80,0,0
70830,-94.9403442347001,3,1,0,80,0,0
70900,-95.2224062130716,3,1,0,80,0,0
70970,-95.5060579492557,3,1,0,80,0,0
71039,-95.7914963972818,3,1,0,80,0,0
71109,-96.0785538256078,3,1,0,80,0,0
71179,-96.3674297360978,3,1,0,80,0,0
71249,-96.6580479907208,3,1,0,80,0,0
71318,-96.950330406726,3,1,0,80,0,0
71388,-97.2444804032923,3,1,0,80,0,0
71458,-97.5403256091149,3,1,0,80,0,0
71528,-97.8380721203565,3,1,0,80,0,0
71597,-98.1376419683663,3,1,0,80,0,0
71667,-98.4389550508044,3,1,0,80,0,0
71737,-98.7422215814949,3,1,0,80,0,0
71807,-99.0472643640819,3,1,0,80,0,0
71877,-99.3542964275176,3,1,0,80,0,0
71946,-99.6631385915605,3,1,0,80,0,0
72016,-100,3,1,0,80,0,0
72086,-99.7091484140761,3,1,0,80,0,0
72156,-99.4200826578567,3,1,0,80,0,0
72225,-99.1325898389095,3,1,0,80,0,0
72295,-98.8467549104597,3,1,0,80,0,0
72365,-98.5626607187386,3,1,0,80,0,0
72435,-98.2800982800983,3,1,0,80,0,0
72504,-97.9991513273495,3,1,0,80,0,0
72574,-97.7199015374272,3,1,0,80,0,0
72644,-97.442143727162,3,1,0,80,0,0
72714,-97.1659604320776,3,1,0,80,0,0
72784,-96.8914321813265,3,1,0,80,0,0
72853,-96.6183574879227,3,1,0,80,0,0
72923,-96.3468177127844,3,1,0,80,0,0
72993,-96.0768922584123,3,1,0,80,0,0
73063,-95.8083832335329,3,1,0,80,0,0
73132,-95.5413708466972,3,1,0,80,0,0
73202,-95.2759333945005,3,1,0,80,0,0
73272,-95.0118764845606,3,1,0,80,0,0
73342,-94.7492791948585,3,1,0,80,0,0
73411,-94.4882187364469,3,1,0,80,0,0
73481,-94.2285041224971,3,1,0,80,0,0
73551,-93.9702133217813,3,1,0,80,0,0
73621,-93.7134224797884,3,1,0,80,0,0
73690,-93.4579439252336,3,1,0,80,0,0
73760,-94.0607237220205,3,1,0,80,0,0
73830,-94.6713295452179,3,1,0,80,0,0
73900,-95.2899148012872,3,1,0,80,0,0
73970,-95.9167289326099,3,1,0,80,0,0
74039,-96.5517507728968,3,1,0,80,0,0
74109,-97.1952370446039,3,1,0,80,0,0
74179,-97.8473581213307,3,1,0,80,0,0
74249,-98.5082889799762,3,1,0,80,0,0
74318,-99.1782093572657,3,1,0,80,0,0
74388,-99.8573039127087,3,1,0,80,0,0
74458,-100.545863492903,3,1,0,80,0,0
74528,-101.24388233841,3,1,0,80,0,0
74597,-101.951660639624,3,1,0,80,0,0
74667,-102.669404517454,3,1,0,80,0,0
74737,-103.397325938357,3,1,0,80,0,0
74807,-104.135642923046,3,1,0,80,0,0
74877,-104.884579764198,3,1,0,80,0,0
74946,-105.644478861068,3,1,0,80,0,0
75016,-106.415356161556,3,1,0,80,0,0
75086,-107.197566186457,3,1,0,80,0,0
75156,-107.991360691145,3,1,0,80,0,0
75226,-108.796998943581,3,1,0,80,0,0
75296,-109.614748006656,3,1,0,80,0,0
75365,279.06976744186,4,1,0,80,1,0
75365,-110.444883033347,4,1,0,80,0,0
75504,-112.14357966792,4,1,0,80,0,0
75644,-113.895216400911,4,1,0,80,0,0
75783,-115.702441090102,4,1,0,80,0,0
75923,-117.568080736352,4,1,0,80,0,0
76062,-80,4,1,0,80,0,0
76481,-86.9565217391304,4,1,0,80,0,0
76620,-88.5976585410801,4,1,0,80,0,0
76760,-90.3019335450011,4,1,0,80,0,0
76899,-92.0729770416032,4,1,0,80,0,0
77039,-93.914967510117,4,1,0,80,0,0
77178,-95.8321633823387,4,1,0,80,0,0
77318,-97.82926640768,4,1,0,80,0,0
77458,-99.9112787844394,4,1,0,80,0,0
77597,-80,4,1,0,80,0,0
79551,-80,4,1,0,80,0,0
79690,-82.7586435196258,4,1,0,80,0,0
79830,-85.7142612244968,4,1,0,80,0,0
79969,-88.8888888888889,4,1,0,80,0,0
80039,-90.5660103951667,4,1,0,80,0,0
80109,-92.3077207100679,4,1,0,80,0,0
80248,-95.9999692800098,4,1,0,80,0,0
80388,-100,4,1,0,80,0,0
80527,-80,4,1,0,80,0,0
80946,-86.9565217391304,4,1,0,80,0,0
81085,-88.5976585410801,4,1,0,80,0,0
81225,-90.3019335450011,4,1,0,80,0,0
81364,-92.0729770416032,4,1,0,80,0,0
81504,-93.914967510117,4,1,0,80,0,0
81644,-95.8321633823387,4,1,0,80,0,0
81783,-97.82926640768,4,1,0,80,0,0
81923,-99.9112787844394,4,1,0,80,0,0
82062,-80,4,1,0,80,0,0
84016,-80,4,1,0,80,0,0
84155,-82.7586435196258,4,1,0,80,0,0
84295,-85.7142612244968,4,1,0,80,0,0
84434,-88.8888888888889,4,1,0,80,0,0
84504,-90.5660103951667,4,1,0,80,0,0
84574,-92.3077207100679,4,1,0,80,0,0
84713,-95.9999692800098,4,1,0,80,0,0
84853,-100,4,1,0,80,0,0
84992,-80,4,1,0,80,0,0
85411,-86.9565217391304,4,1,0,80,0,0
85551,-88.5976585410801,4,1,0,80,0,0
85690,-90.3019335450011,4,1,0,80,0,0
85830,-92.0729770416032,4,1,0,80,0,0
85969,-93.914967510117,4,1,0,80,0,0
86109,-95.8321633823387,4,1,0,80,0,0
86248,-97.82926640768,4,1,0,80,0,0
86388,-99.9112787844394,4,1,0,80,0,0
86527,-80,4,1,0,80,0,0
88481,-80,4,1,0,80,0,0
88620,-82.7586435196258,4,1,0,80,0,0
88760,-85.7142612244968,4,1,0,80,0,0
88899,-88.8888888888889,4,1,0,80,0,0
88969,-90.5660103951667,4,1,0,80,0,0
89039,-92.3077207100679,4,1,0,80,0,0
89178,-95.9999692800098,4,1,0,80,0,0
89318,-100,4,1,0,80,0,0
89458,-80,4,1,0,80,0,0
89876,-86.9565217391304,4,1,0,80,0,0
90016,-88.5976585410801,4,1,0,80,0,0
90155,-90.3019335450011,4,1,0,80,0,0
90295,-92.0729770416032,4,1,0,80,0,0
90434,-93.914967510117,4,1,0,80,0,0
90574,-95.8321633823387,4,1,0,80,0,0
90713,-97.82926640768,4,1,0,80,0,0
90853,-100,4,1,0,80,0,0
90992,-80,4,1,0,80,0,0
93225,-80,4,1,0,80,0,1
95458,-80,4,1,0,80,0,1
95527,-80.5031122503196,4,1,0,80,0,1
95597,-81.0126582278481,4,1,0,80,0,1
95667,-81.5286956550097,4,1,0,80,0,1
95737,-82.0512820512821,4,1,0,80,0,1
95806,-82.5806110634896,4,1,0,80,0,1
95876,-83.1168831168831,4,1,0,80,0,1
95946,-83.6601657140562,4,1,0,80,0,1
96016,-84.2105263157895,4,1,0,80,0,1
96085,-84.7681759922963,4,1,0,80,0,1
96155,-85.3333333333333,4,1,0,80,0,1
96225,-85.906077167711,4,1,0,80,0,1
96295,-86.4864864864865,4,1,0,80,0,1
96364,-87.0747920218593,4,1,0,80,0,1
96434,-87.6712328767123,4,1,0,80,0,1
96504,-88.2759010321218,4,1,0,80,0,1
96574,-88.8888888888889,4,1,0,80,0,1
96644,-89.5104494498688,4,1,0,80,0,1
96713,-90.1408450704225,4,1,0,80,0,1
96783,-90.7801830491611,4,1,0,80,0,1
96853,-91.4285714285714,4,1,0,80,0,1
96923,-92.0862885358096,4,1,0,80,0,1
96992,-92.7536231884058,4,1,0,80,0,1
97062,-93.4307005807652,4,1,0,80,0,1
97132,-94.1176470588235,4,1,0,80,0,1
97202,-94.8147698655906,4,1,0,80,0,1
97271,-95.5223880597015,4,1,0,80,0,1
97341,-96.2406478150486,4,1,0,80,0,1
97411,-96.969696969697,4,1,0,80,0,1
97481,-97.7098759279995,4,1,0,80,0,1
97551,-98.4615384615385,4,1,0,80,0,1
97620,-99.2248554293856,4,1,0,80,0,1
97690,-100,4,1,0,80,0,1
97760,-99.2268245828504,4,1,0,80,0,1
97830,-98.4655134385733,4,1,0,80,0,1
97899,-97.7157000792474,4,1,0,80,0,1
97969,-96.9773140969133,4,1,0,80,0,1
98039,-96.2500036093751,4,1,0,80,0,1
98109,-95.5335212796142,4,1,0,80,0,1
98178,-94.8276270808737,4,1,0,80,0,1
98248,-94.1319994201469,4,1,0,80,0,1
98318,-93.4465906011419,4,1,0,80,0,1
98388,-92.7710910436933,4,1,0,80,0,1
98458,-92.1052873961283,4,1,0,80,0,1
98527,-91.4489723878973,4,1,0,80,0,1
98597,-90.8018621645893,4,1,0,80,0,1
98667,-90.1639270357437,4,1,0,80,0,1
98737,-89.5348930908609,4,1,0,80,0,1
98806,-88.9145753217596,4,1,0,80,0,1
98876,-88.3027158383283,4,1,0,80,0,1
98946,-87.6992966516409,4,1,0,80,0,1
99016,-87.1040684568295,4,1,0,80,0,1
99085,-86.5168655977796,4,1,0,80,0,1
99155,-85.9375268554771,4,1,0,80,0,1
99225,-85.3658224271381,4,1,0,80,0,1
99295,-84.8017462375585,4,1,0,80,0,1
99364,-84.2450756647147,4,1,0,80,0,1
99434,-83.6956658199455,4,1,0,80,0,1
99504,-83.1533755697046,4,1,0,80,0,1
99574,-82.6179991572964,4,1,0,80,0,1
99644,-82.0895399866358,4,1,0,80,0,1
99713,-81.5677983383008,4,1,0,80,0,1
99783,-81.052646936291,4,1,0,80,0,1
99853,-80.5439616997353,4,1,0,80,0,1
99923,-80.0415575766938,4,1,0,80,0,1
99992,-80.5031122503196,4,1,0,80,0,1
100062,-81.0126582278481,4,1,0,80,0,1
100132,-81.5286956550097,4,1,0,80,0,1
100202,-82.0512820512821,4,1,0,80,0,1
100271,-82.5806110634896,4,1,0,80,0,1
100341,-83.1168831168831,4,1,0,80,0,1
100411,-83.6601657140562,4,1,0,80,0,1
100481,-84.2105263157895,4,1,0,80,0,1
100551,-84.7681759922963,4,1,0,80,0,1
100620,-85.3333333333333,4,1,0,80,0,1
100690,-85.906077167711,4,1,0,80,0,1
100760,-86.4864864864865,4,1,0,80,0,1
100830,-87.0747920218593,4,1,0,80,0,1
100899,-87.6712328767123,4,1,0,80,0,1
100969,-88.2759010321218,4,1,0,80,0,1
101039,-88.8888888888889,4,1,0,80,0,1
101109,-89.5104494498688,4,1,0,80,0,1
101178,-90.1408450704225,4,1,0,80,0,1
101248,-90.7801830491611,4,1,0,80,0,1
101318,-91.4285714285714,4,1,0,80,0,1
101388,-92.0862885358096,4,1,0,80,0,1
101458,-92.7536231884058,4,1,0,80,0,1
101527,-93.4307005807652,4,1,0,80,0,1
101597,-94.1176470588235,4,1,0,80,0,1
101667,-94.8147698655906,4,1,0,80,0,1
101737,-95.5223880597015,4,1,0,80,0,1
101806,-96.2406478150486,4,1,0,80,0,1
101876,-96.969696969697,4,1,0,80,0,1
101946,-97.7098759279995,4,1,0,80,0,1
102016,-98.4615384615385,4,1,0,80,0,1
102085,-99.2248554293856,4,1,0,80,0,1
102155,-99.9999999999998,4,1,0,80,0,0
102224,-133.333333333333,4,1,0,60,0,0
108852,-133.333333333333,4,1,0,60,0,0
108922,-132.743421567886,4,1,0,60,0,0
108992,-132.158532088752,4,1,0,60,0,0
109061,-131.578947368421,4,1,0,60,0,0
109131,-131.004424019399,4,1,0,60,0,0
109271,-129.87012987013,4,1,0,60,0,0
109410,-128.755309547077,4,1,0,60,0,0
109689,-126.582278481013,4,1,0,60,0,0
109829,-125.522960032234,4,1,0,60,0,0
109968,-124.481379452855,4,1,0,60,0,0
110108,-123.456790123457,4,1,0,60,0,0
110248,-122.448929612682,4,1,0,60,0,0
110387,-121.457539051635,4,1,0,60,0,0
110527,-120.481927710843,4,1,0,60,0,0
110666,-119.521864732325,4,1,0,60,0,0
110806,-118.577121967242,4,1,0,60,0,0
110945,-117.647058823529,4,1,0,60,0,0
126992,-117.647058823529,4,1,0,60,0,0
127271,-114.754041924242,4,1,0,60,0,0
127410,-113.360305528695,4,1,0,60,0,0
127550,-112.000017920003,4,1,0,60,0,0
127689,-110.671989251536,4,1,0,60,0,0
127829,-109.374965820323,4,1,0,60,0,0
127968,-108.108108108108,4,1,0,60,0,0
128108,-106.870261639775,4,1,0,60,0,0
128248,-105.660329512304,4,1,0,60,0,0
128387,-104.166666666667,4,1,0,60,0,0
128527,-103.092783505155,4,1,0,64,0,0
128596,-102.564102564103,4,1,0,68,0,0
128666,-102.040816326531,4,1,0,72,0,0
128806,-101.010101010101,4,1,0,76,0,0
128945,-100,4,1,0,80,0,0
146806,-80,4,1,0,80,0,1
153503,-80,4,1,0,80,0,1
153573,-80.5018161209717,4,1,0,80,0,1
153643,-81.0099674663971,4,1,0,80,0,1
153713,-81.5246412304351,4,1,0,80,0,1
153782,-82.0458291592518,4,1,0,80,0,1
153852,-82.5737238850276,4,1,0,80,0,1
153922,-83.1084557036087,4,1,0,80,0,1
153992,-83.6501583079246,4,1,0,80,0,1
154061,-84.1990397941502,4,1,0,80,0,1
154131,-84.7551001381508,4,1,0,80,0,1
154201,-85.3185538846391,4,1,0,80,0,1
154271,-85.8895494749572,4,1,0,80,0,1
154341,-86.468239351004,4,1,0,80,0,1
154410,-87.0548558763334,4,1,0,80,0,1
154480,-87.6494093744549,4,1,0,80,0,1
154550,-88.2521398937621,4,1,0,80,0,1
154620,-88.8632172927821,4,1,0,80,0,1
154689,-89.4828962392128,4,1,0,80,0,1
154759,-90.1111972173662,4,1,0,80,0,1
154829,-90.748383771285,4,1,0,80,0,1
154899,-91.3946457360742,4,1,0,80,0,1
154968,-92.0501783932457,4,1,0,80,0,1
155038,-92.7152686285836,4,1,0,80,0,1
155108,-93.3899525485651,4,1,0,80,0,1
155178,-94.0745277223522,4,1,0,80,0,1
155248,-94.769213273376,4,1,0,80,0,1
155317,-95.4742348456134,4,1,0,80,0,1
155387,-96.189917372861,4,1,0,80,0,1
155457,-96.9163166372364,4,1,0,80,0,1
155527,-97.6537705097331,4,1,0,80,0,1
155596,-98.4025332748166,4,1,0,80,0,1
155666,-99.1628670761432,4,1,0,80,0,1
155736,-99.9351420927818,4,1,0,80,0,1
163480,-100,4,1,0,80,0,1
163550,-99.1253181922714,4,1,0,80,0,1
163620,-98.2659016338671,4,1,0,80,0,1
163689,-97.4211643582722,4,1,0,80,0,1
163759,-96.59092006715,4,1,0,80,0,1
163829,-95.774615512806,4,1,0,80,0,1
163899,-94.972082956215,4,1,0,80,0,1
163968,-94.1827993953464,4,1,0,80,0,1
164038,-93.4066139355195,4,1,0,80,0,1
164108,-92.6430315764509,4,1,0,80,0,1
164178,-91.8919167275451,4,1,0,80,0,1
164248,-91.152800350756,4,1,0,80,0,1
164317,-90.4255607741151,4,1,0,80,0,1
164387,-89.7097530649337,4,1,0,80,0,1
164457,-89.005268221826,4,1,0,80,0,1
164527,-88.3116837240684,4,1,0,80,0,1
164596,-87.6289021150112,4,1,0,80,0,1
164666,-86.9565217391304,4,1,0,80,0,1
164945,-80,4,1,0,80,0,1
171364,-80,4,1,0,80,0,1
171434,-80.5031122503196,4,1,0,80,0,1
171503,-81.0126582278481,4,1,0,80,0,1
171573,-81.5286956550097,4,1,0,80,0,1
171643,-82.0512820512821,4,1,0,80,0,1
171713,-82.5806110634896,4,1,0,80,0,1
171782,-83.1168831168831,4,1,0,80,0,1
171852,-83.6601657140562,4,1,0,80,0,1
171922,-84.2105263157895,4,1,0,80,0,1
171992,-84.7681759922963,4,1,0,80,0,1
172061,-85.3333333333333,4,1,0,80,0,1
172131,-85.906077167711,4,1,0,80,0,1
172201,-86.4864864864865,4,1,0,80,0,1
172271,-87.0747920218593,4,1,0,80,0,1
172341,-87.6712328767123,4,1,0,80,0,1
172410,-88.2759010321218,4,1,0,80,0,1
172480,-88.8888888888889,4,1,0,80,0,1
172550,-89.5104494498688,4,1,0,80,0,1
172620,-90.1408450704225,4,1,0,80,0,1
172689,-90.7801830491611,4,1,0,80,0,1
172759,-91.4285714285714,4,1,0,80,0,1
172829,-92.0862885358096,4,1,0,80,0,1
172899,-92.7536231884058,4,1,0,80,0,1
172968,-93.4307005807652,4,1,0,80,0,1
173038,-94.1176470588235,4,1,0,80,0,1
173108,-94.8147698655906,4,1,0,80,0,1
173178,-95.5223880597015,4,1,0,80,0,1
173248,-96.2406478150486,4,1,0,80,0,1
173317,-96.969696969697,4,1,0,80,0,1
173387,-97.7098759279995,4,1,0,80,0,1
173457,-98.4615384615385,4,1,0,80,0,1
173527,-99.2248554293856,4,1,0,80,0,1
173596,-100,4,1,0,80,0,1
181410,-100,4,1,0,80,0,1
181689,-94.1463561594312,4,1,0,80,0,1
181759,-92.7884793823999,4,1,0,80,0,1
181829,-91.4692151209589,4,1,0,80,0,1
181899,-90.1869394881711,4,1,0,80,0,1
181968,-88.9401183970856,4,1,0,80,0,1
182038,-87.7273014380259,4,1,0,80,0,1
182108,-86.5471162500865,4,1,0,80,0,1
182178,-85.3982633409167,4,1,0,80,0,1
182248,-84.2795113136816,4,1,0,80,0,1
182317,-83.1896232591532,4,1,0,80,0,1
182387,-82.1276312666462,4,1,0,80,0,1
182457,-81.0924121019072,4,1,0,80,0,1
182527,279.06976744186,3,1,0,80,1,0
182527,-80.082965952727,4,1,0,80,0,0
182945,-100,4,1,0,80,0,0
183015,-97.5935385270012,4,1,0,80,0,0
183085,-95.3002673172498,4,1,0,80,0,0
183154,-93.1122104559426,4,1,0,80,0,0
183224,-91.0224552397076,4,1,0,80,0,0
183294,-89.024364187991,4,1,0,80,0,0
183364,-87.1121874305825,4,1,0,80,0,0
183782,-100,4,1,0,80,0,0
183922,-95.3002673172498,4,1,0,80,0,0
184061,-91.0224552397076,4,1,0,80,0,0
184201,-87.1121874305825,4,1,0,80,0,0
184620,-100,4,1,0,80,0,0
184689,-98.6301261775204,4,1,0,80,0,0
184759,-97.2972762600484,4,1,0,80,0,0
184829,-95.9999692800098,4,1,0,80,0,0
184899,-94.7368022160833,4,1,0,80,0,0
184968,-93.5065323663511,4,1,0,80,0,0
185038,-92.3077207100679,4,1,0,80,0,0
185108,-91.1392589649132,4,1,0,80,0,0
185178,-90.0000090000009,4,1,0,80,0,0
185247,-88.8888888888889,4,1,0,80,0,0
185317,-87.8048694824518,4,1,0,80,0,0
185387,-86.7469712294995,4,1,0,80,0,0
185457,-85.7142612244968,4,1,0,80,0,0
185596,-83.7209613845438,4,1,0,80,0,0
185736,-81.8181966942176,4,1,0,80,0,0
185875,-80,4,1,0,80,0,0
186294,-100,4,1,0,80,0,0
190759,-100,4,1,0,80,0,0
190899,-98.1191539381594,4,1,0,80,0,0
191038,-96.3076606002471,4,1,0,80,0,0
191108,-95.4268586527827,4,1,0,80,0,0
191178,-94.5619323920008,4,1,0,80,0,0
191247,-93.7125442674631,4,1,0,80,0,0
191317,-92.8783655636742,4,1,0,80,0,0
191387,-92.0588219048443,4,1,0,80,0,0
191457,-91.2536147838156,4,1,0,80,0,0
191527,-90.4624531065259,4,1,0,80,0,0
191596,-89.6848116977694,4,1,0,80,0,0
191736,-88.1690376790383,4,1,0,80,0,0
191875,-86.7035734877813,4,1,0,80,0,0
191945,-85.9890329587364,4,1,0,80,0,0
192015,-85.286100753588,4,1,0,80,0,0
192085,-84.5945678444204,4,1,0,80,0,0
192154,-83.9142295876539,4,1,0,80,0,0
192224,-83.2446777515279,4,1,0,80,0,0
192294,-82.5857260482813,4,1,0,80,0,0
192364,-81.9371918649478,4,1,0,80,0,0
192433,-81.2986979200541,4,1,0,80,0,0
192503,-80.6700779353623,4,1,0,80,0,0
192573,-80.0511687070375,4,1,0,80,0,0
192992,-100,4,1,0,80,0,0
193061,-97.5609756097561,4,1,0,80,0,0
193131,-95.2380952380952,4,1,0,80,0,0
193201,-93.0232558139535,4,1,0,80,0,0
193271,-90.9090909090909,4,1,0,80,0,0
193340,-88.8888888888889,4,1,0,80,0,0
193410,-86.9565217391304,4,1,0,80,0,0
193829,-100,4,1,0,80,0,0
193968,-95.2380952380952,4,1,0,80,0,0
194108,-90.9090909090909,4,1,0,80,0,0
194247,-86.9565217391304,4,1,0,80,0,0
194666,-100,4,1,0,80,0,0
194736,-98.6363524276872,4,1,0,80,0,0
194806,-97.3093952221087,4,1,0,80,0,0
194875,-96.0176672507742,4,1,0,80,0,0
194945,-94.7597839476926,4,1,0,80,0,0
195015,-93.5345198498958,4,1,0,80,0,0
195085,-92.3404518587671,4,1,0,80,0,0
195154,-91.1764866782035,4,1,0,80,0,0
195224,-90.0415001274087,4,1,0,80,0,0
195294,-88.9344233136255,4,1,0,80,0,0
195364,-87.8542392745348,4,1,0,80,0,0
195433,-86.7999798624047,4,1,0,80,0,0
195503,-85.770722849921,4,1,0,80,0,0
195643,-83.7838109569117,4,1,0,80,0,0
195782,-81.8868029590615,4,1,0,80,0,0
195922,-80.0737960104032,4,1,0,80,0,0
196340,-100,4,1,0,80,0,0
198294,-100,4,1,0,80,0,0
198433,-97.9142310501693,4,1,0,80,0,0
198573,-95.9136930224707,4,1,0,80,0,0
198643,-94.9438596957619,4,1,0,80,0,0
198713,-93.9933546698248,4,1,0,80,0,0
198852,-92.1483182471178,4,1,0,80,0,0
198992,-90.3743214018142,4,1,0,80,0,0
199061,-89.5126928998532,4,1,0,80,0,0
199131,-88.6673387650945,4,1,0,80,0,0
199271,-87.023719184901,4,1,0,80,0,0
199340,-87.4731457442565,4,1,0,80,0,0
199410,-87.9960225797794,4,1,0,80,0,0
199480,-88.5251097047422,4,1,0,80,0,0
199550,-89.0606770392668,4,1,0,80,0,0
199620,-89.6026837795846,4,1,0,80,0,0
199689,-90.1514092919058,4,1,0,80,0,0
199759,-90.7068147122825,4,1,0,80,0,0
199829,-91.2691893470602,4,1,0,80,0,0
199899,-91.8384964936062,4,1,0,80,0,0
199968,-92.4150359263452,4,1,0,80,0,0
200038,-92.9987733461796,4,1,0,80,0,0
200108,-93.5899319694784,4,1,0,80,0,0
200178,-94.188742938199,4,1,0,80,0,0
200247,-94.7951760630805,4,1,0,80,0,0
200317,-95.4095598470775,4,1,0,80,0,0
200387,-96.0318672148166,4,1,0,80,0,0
200457,-96.6624392959881,4,1,0,80,0,0
200526,-97.3012524617217,4,1,0,80,0,0
200596,-97.9486611887245,4,1,0,80,0,0
200666,-98.6046456592756,4,1,0,80,0,0
200736,-99.2695744710421,4,1,0,80,0,0
200806,-100,4,1,0,80,0,0
200945,-98.1191539381594,4,1,0,80,0,0
201085,-96.3076606002471,4,1,0,80,0,0
201154,-95.4268586527827,4,1,0,80,0,0
201224,-94.5619323920008,4,1,0,80,0,0
201294,-93.7125442674631,4,1,0,80,0,0
201364,-92.8783655636742,4,1,0,80,0,0
201433,-92.0588219048443,4,1,0,80,0,0
201503,-91.2536147838156,4,1,0,80,0,0
201573,-90.4624531065259,4,1,0,80,0,0
201643,-89.6848116977694,4,1,0,80,0,0
201782,-88.1690376790383,4,1,0,80,0,0
201922,-86.7035734877813,4,1,0,80,0,0
201992,-85.9890329587364,4,1,0,80,0,0
202061,-85.286100753588,4,1,0,80,0,0
202131,-84.5945678444204,4,1,0,80,0,0
202201,-83.9142295876539,4,1,0,80,0,0
202271,-83.2446777515279,4,1,0,80,0,0
202340,-82.5857260482813,4,1,0,80,0,0
202410,-81.9371918649478,4,1,0,80,0,0
202480,-81.2986979200541,4,1,0,80,0,0
202550,-80.6700779353623,4,1,0,80,0,0
202620,-80.0511687070375,4,1,0,80,0,0
203038,-100,4,1,0,80,0,0
203108,-97.5935385270012,4,1,0,80,0,0
203178,-95.3002673172498,4,1,0,80,0,0
203247,-93.1122104559426,4,1,0,80,0,0
203317,-91.0224552397076,4,1,0,80,0,0
203387,-89.024364187991,4,1,0,80,0,0
203457,-87.1121874305825,4,1,0,80,0,0
203875,-100,4,1,0,80,0,0
204015,-95.3002673172498,4,1,0,80,0,0
204154,-91.0224552397076,4,1,0,80,0,0
204294,-87.1121874305825,4,1,0,80,0,0
204713,-100,4,1,0,80,0,0
204782,-98.6301261775204,4,1,0,80,0,0
204852,-97.2972762600484,4,1,0,80,0,0
204922,-95.9999692800098,4,1,0,80,0,0
204992,-94.7368022160833,4,1,0,80,0,0
205061,-93.5065323663511,4,1,0,80,0,0
205131,-92.3077207100679,4,1,0,80,0,0
205201,-91.1392589649132,4,1,0,80,0,0
205271,-90.0000090000009,4,1,0,80,0,0
205340,-88.8888888888889,4,1,0,80,0,0
205410,-87.8048694824518,4,1,0,80,0,0
205480,-86.7469712294995,4,1,0,80,0,0
205550,-85.7142612244968,4,1,0,80,0,0
205689,-83.7209613845438,4,1,0,80,0,0
205829,-81.8181966942176,4,1,0,80,0,0
205968,-80,4,1,0,80,0,0
206387,-100,4,1,0,80,0,0
210852,-100,4,1,0,80,0,0
210992,-98.1191539381594,4,1,0,80,0,0
211131,-96.3076606002471,4,1,0,80,0,0
211201,-95.4268586527827,4,1,0,80,0,0
211271,-94.5619323920008,4,1,0,80,0,0
211340,-93.7125442674631,4,1,0,80,0,0
211410,-92.8783655636742,4,1,0,80,0,0
211480,-92.0588219048443,4,1,0,80,0,0
211550,-91.2536147838156,4,1,0,80,0,0
211620,-90.4624531065259,4,1,0,80,0,0
211689,-89.6848116977694,4,1,0,80,0,0
211829,-88.1690376790383,4,1,0,80,0,0
211968,-86.7035734877813,4,1,0,80,0,0
212038,-85.9890329587364,4,1,0,80,0,0
212108,-85.286100753588,4,1,0,80,0,0
212178,-84.5945678444204,4,1,0,80,0,0
212247,-83.9142295876539,4,1,0,80,0,0
212317,-83.2446777515279,4,1,0,80,0,0
212387,-82.5857260482813,4,1,0,80,0,0
212457,-81.9371918649478,4,1,0,80,0,0
212526,-81.2986979200541,4,1,0,80,0,0
212596,-80.6700779353623,4,1,0,80,0,0
212666,-80,4,1,0,80,0,1
212806,-81.1287277636298,4,1,0,80,0,1
213085,-83.4845795633089,4,1,0,80,0,1
213364,-85.9813437680292,4,1,0,80,0,1
213503,-87.2865407645603,4,1,0,80,0,1
213782,-90.0195342389299,4,1,0,80,0,1
213922,-91.4513140639318,4,1,0,80,0,1
214061,-92.9292891745742,4,1,0,80,0,1
214201,-94.4558211233442,4,1,0,80,0,1
214340,-96.0334350007299,4,1,0,80,0,1
214620,-99.352026085868,4,1,0,80,0,1
214759,-101.098945537998,4,1,0,80,0,1
215038,-104.783579993881,4,1,0,80,0,1
215178,-106.728483804486,4,1,0,80,0,1
215457,-110.843362810278,4,1,0,80,0,1
215596,-113.022063036925,4,1,0,80,0,1
215666,-114.143914930823,4,1,0,80,0,1
215736,-115.2882610034,4,1,0,80,0,1
215875,-117.647058823529,4,1,0,80,0,1
216015,-86.9565217391304,4,1,0,80,0,0
216154,-87.9120879120879,4,1,0,80,0,0
216294,-88.8888888888889,4,1,0,80,0,0
216364,-89.3854748603352,4,1,0,80,0,0
216433,-89.8876404494382,4,1,0,80,0,0
216573,-90.9090909090909,4,1,0,80,0,0
216713,-91.9540229885058,4,1,0,80,0,0
216782,-92.485549132948,4,1,0,80,0,0
216852,-93.0232558139535,4,1,0,80,0,0
216922,-93.5672514619883,4,1,0,80,0,0
216992,-94.1176470588235,4,1,0,80,0,0
217131,-95.2380952380952,4,1,0,80,0,0
217271,-96.3855421686747,4,1,0,80,0,0
217410,-97.5609756097561,4,1,0,80,0,0
217480,-98.159509202454,4,1,0,80,0,0
217550,-98.7654320987654,4,1,0,80,0,0
217689,-100,4,1,0,80,0,0
217829,-98.7696267594574,4,1,0,80,0,0
217899,-98.1657725400884,4,1,0,80,0,0
217968,-97.5692570979195,4,1,0,80,0,0
218038,-96.9798534052536,4,1,0,80,0,0
218108,-96.397620906716,4,1,0,80,0,0
218247,-95.2537894338782,4,1,0,80,0,0
218387,-94.1367845133693,4,1,0,80,0,0
218526,-93.0457599047211,4,1,0,80,0,0
218596,-92.5095909318399,4,1,0,80,0,0
218666,-91.9796504221406,4,1,0,80,0,0
218806,-90.9376949476836,4,1,0,80,0,0
218945,-89.9190818182717,4,1,0,80,0,0
219085,-88.9231144075898,4,1,0,80,0,0
219224,-87.9488911403805,4,1,0,80,0,0
219364,-86.9565217391304,4,1,0,80,0,1
219503,-88.8888888888889,4,1,0,80,0,1
219782,-93.0232558139535,4,1,0,80,0,1
220061,-97.5609756097561,4,1,0,80,0,1
220201,-100,4,1,0,80,0,1
220480,-100,4,1,0,80,0,1
220620,-96.3855421686747,4,1,0,80,0,1
220759,-93.0232558139535,4,1,0,80,0,1
220899,-89.8876404494382,4,1,0,80,0,1
221038,-86.9565217391304,4,1,0,80,0,1
221457,-93.5899319694784,4,1,0,80,0,1
221736,-98.6046456592756,4,1,0,80,0,1
221875,-101.319073011537,4,1,0,80,0,1
222154,-107.222278216079,4,1,0,80,0,1
222294,-110.439638111394,4,1,0,80,0,1
222433,-113.856054067963,4,1,0,80,0,1
222573,-117.490589003821,4,1,0,80,0,1
222713,-80,4,1,0,80,0,0
222782,-80.3493590129885,4,1,0,80,0,0
222852,-80.7017827023799,4,1,0,80,0,0
222922,-81.0572458693228,4,1,0,80,0,0
222992,-81.4159205576014,4,1,0,80,0,0
223061,-81.7777835930868,4,1,0,80,0,0
223131,-82.1428776785766,4,1,0,80,0,0
223201,-82.5111782018669,4,1,0,80,0,0
223271,-82.8828649622634,4,1,0,80,0,0
223340,-83.257915538175,4,1,0,80,0,0
223410,-83.6363758016547,4,1,0,80,0,0
223480,-84.018292462635,4,1,0,80,0,0
223550,-84.4036418483385,4,1,0,80,0,0
223620,-84.7926142241306,4,1,0,80,0,0
223689,-85.1851883401922,4,1,0,80,0,0
223759,-85.5814144553856,4,1,0,80,0,0
223829,-85.9813437680292,4,1,0,80,0,0
223899,-86.3849538142844,4,1,0,80,0,0
223968,-86.7924462798154,4,1,0,80,0,0
224038,-87.2038013881101,4,1,0,80,0,0
224108,-87.6190743220036,4,1,0,80,0,0
224178,-88.0382438131124,4,1,0,80,0,0
224247,-88.4615214497074,4,1,0,80,0,0
224317,-88.8888888888889,4,1,0,80,0,0
224387,-89.3204056932827,4,1,0,80,0,0
224457,-89.7561325877591,4,1,0,80,0,0
224526,-90.1960501345725,4,1,0,80,0,0
224596,-90.6403833725655,4,1,0,80,0,0
224666,-91.0891161258706,4,1,0,80,0,0
224736,-91.5423140615402,4,1,0,80,0,0
224806,-91.9999595200178,4,1,0,80,0,0
224875,-92.4622892553272,4,1,0,80,0,0
224945,-92.9292891745742,4,1,0,80,0,0
225015,-93.4010304001674,4,1,0,80,0,0
225085,-93.8775855060518,4,1,0,80,0,0
225154,-94.3589395187505,4,1,0,80,0,0
225224,-94.8453451801492,4,1,0,80,0,0
225294,-95.3367915165509,4,1,0,80,0,0
225364,-95.8333572916727,4,1,0,80,0,0
225433,-96.3351229188001,4,1,0,80,0,0
225503,-96.84207672023,4,1,0,80,0,0
225573,-97.3544891128475,4,1,0,80,0,0
225643,-97.8723529198748,4,1,0,80,0,0
225713,-98.3957556006864,4,1,0,80,0,0
225782,-98.9246886345425,4,1,0,80,0,0
225852,-99.4594379547161,4,1,0,80,0,0
225922,-100,4,1,0,80,0,0
226061,-97.9142310501693,4,1,0,80,0,1
226201,-95.9136930224707,4,1,0,80,0,1
226271,-94.9438596957619,4,1,0,80,0,1
226340,-93.9933546698248,4,1,0,80,0,1
226480,-92.1483182471178,4,1,0,80,0,1
226620,-90.3743214018142,4,1,0,80,0,1
226689,-89.5126928998532,4,1,0,80,0,1
226759,-88.6673387650945,4,1,0,80,0,1
226899,-86.9565217391304,4,1,0,80,0,1
226968,-88.1057268722467,4,1,0,80,0,1
227038,-89.2857142857143,4,1,0,80,0,1
227108,-90.4977375565611,4,1,0,80,0,1
227178,-91.743119266055,4,1,0,80,0,1
227247,-93.0232558139535,4,1,0,80,0,1
227317,-94.3396226415094,4,1,0,80,0,1
227387,-95.6937799043062,4,1,0,80,0,1
227457,-97.0873786407767,4,1,0,80,0,1
227526,-98.5221674876847,4,1,0,80,0,1
227596,-100,4,1,0,80,0,1
227736,-97.9142310501693,4,1,0,80,0,1
227875,-95.9136930224707,4,1,0,80,0,1
227945,-94.9438596957619,4,1,0,80,0,1
228015,-93.9933546698248,4,1,0,80,0,1
228154,-92.1483182471178,4,1,0,80,0,1
228294,-90.3743214018142,4,1,0,80,0,1
228364,-89.5126928998532,4,1,0,80,0,1
228433,-88.6673387650945,4,1,0,80,0,1
228573,-86.9565217391304,4,1,0,80,0,1
228643,-88.0961022760509,4,1,0,80,0,1
228713,-89.2659482543151,4,1,0,80,0,1
228782,-90.4672816029355,4,1,0,80,0,1
228852,-91.7013909266976,4,1,0,80,0,1
228922,-92.9696361168442,4,1,0,80,0,1
228992,-94.2734533497243,4,1,0,80,0,1
229061,-95.614360512034,4,1,0,80,0,1
229131,-96.9939630957369,4,1,0,80,0,1
229201,-98.4139606107964,4,1,0,80,0,1
229271,-99.8761535695737,4,1,0,80,0,1
229410,-97.9020568243118,4,1,0,80,0,1
229550,-95.8904240945786,4,1,0,80,0,1
229620,-94.9152928468988,4,1,0,80,0,1
229689,-93.9597063195419,4,1,0,80,0,1
229829,-92.1052873961283,4,1,0,80,0,1
229968,-90.3225689906363,4,1,0,80,0,1
230038,-89.4568804417738,4,1,0,80,0,1
230108,-88.6076285851754,4,1,0,80,0,1
230247,-86.9565217391304,4,1,0,80,0,1
230317,-87.2905789896814,4,1,0,80,0,1
230387,-87.6272128061914,4,1,0,80,0,1
230457,-87.9664531134407,4,1,0,80,0,1
230526,-88.308330301414,4,1,0,80,0,1
230596,-88.652875234376,4,1,0,80,0,1
230666,-89.0001192601598,4,1,0,80,0,1
230736,-89.3500942196743,4,1,0,80,0,1
230806,-89.7028324566377,4,1,0,80,0,1
230875,-90.0583668275409,4,1,0,80,0,1
230945,-90.4167307118509,4,1,0,80,0,1
231015,-90.7779580224567,4,1,0,80,0,1
231085,-91.1420832163677,4,1,0,80,0,1
231154,-91.5091413056707,4,1,0,80,0,1
231224,-91.8791678687524,4,1,0,80,0,1
231294,-92.2521990617951,4,1,0,80,0,1
231364,-92.628271630554,4,1,0,80,0,1
231433,-93.0074229224234,4,1,0,80,0,1
231503,-93.3896908988011,4,1,0,80,0,1
231573,-93.7751141477577,4,1,0,80,0,1
231643,-94.1637318970225,4,1,0,80,0,1
231713,-94.5555840272925,4,1,0,80,0,1
231782,-94.9507110858753,4,1,0,80,0,1
231852,-95.3490633861504,4,1,0,80,0,1
231922,-95.7508639121696,4,1,0,80,0,1
231992,-96.1560651399648,4,1,0,80,0,1
232061,-96.5647104265746,4,1,0,80,0,1
232131,-96.9768438692209,4,1,0,80,0,1
232201,-97.3925103211713,4,1,0,80,0,1
232271,-97.8117554080119,4,1,0,80,0,1
232340,-98.2346255443426,4,1,0,80,0,1
232410,-98.6611679509062,4,1,0,80,0,1
232480,-99.0914306721669,4,1,0,80,0,1
232550,-99.5254625943501,4,1,0,80,0,1
232620,-99.9633134639587,4,1,0,80,0,1
232759,-97.9020568243118,4,1,0,80,0,1
232899,-95.8904240945786,4,1,0,80,0,1
232968,-94.9152928468988,4,1,0,80,0,1
233038,-93.9597063195419,4,1,0,80,0,1
233178,-92.1052873961283,4,1,0,80,0,1
233317,-90.3225689906363,4,1,0,80,0,1
233387,-89.4568804417738,4,1,0,80,0,1
233457,-88.6076285851754,4,1,0,80,0,1
233596,-86.9565217391304,4,1,0,80,0,1
233666,-88.0961022760509,4,1,0,80,0,1
233736,-89.2659482543151,4,1,0,80,0,1
233806,-90.4672816029355,4,1,0,80,0,1
233875,-91.7013909266976,4,1,0,80,0,1
233945,-92.9696361168442,4,1,0,80,0,1
234015,-94.2734533497243,4,1,0,80,0,1
234085,-95.614360512034,4,1,0,80,0,1
234154,-96.9939630957369,4,1,0,80,0,1
234224,-98.4139606107964,4,1,0,80,0,1
234294,-99.8761535695737,4,1,0,80,0,1
234433,-97.9142310501693,4,1,0,80,0,1
234573,-95.9136930224707,4,1,0,80,0,1
234643,-94.9438596957619,4,1,0,80,0,1
234713,-93.9933546698248,4,1,0,80,0,1
234852,-92.1483182471178,4,1,0,80,0,1
234992,-90.3743214018142,4,1,0,80,0,1
235061,-89.5126928998532,4,1,0,80,0,1
235131,-88.6673387650945,4,1,0,80,0,1
235271,-86.9565217391304,4,1,0,80,0,1
235340,-88.1057268722467,4,1,0,80,0,1
235410,-89.2857142857143,4,1,0,80,0,1
235480,-90.4977375565611,4,1,0,80,0,1
235550,-91.743119266055,4,1,0,80,0,1
235620,-93.0232558139535,4,1,0,80,0,1
235689,-94.3396226415094,4,1,0,80,0,1
235759,-95.6937799043062,4,1,0,80,0,1
235829,-97.0873786407767,4,1,0,80,0,1
235899,-98.5221674876847,4,1,0,80,0,1
235968,-100,4,1,0,80,0,1
236108,-97.9142310501693,4,1,0,80,0,1
236247,-95.9136930224707,4,1,0,80,0,1
236317,-94.9438596957619,4,1,0,80,0,1
236387,-93.9933546698248,4,1,0,80,0,1
236526,-92.1483182471178,4,1,0,80,0,1
236666,-90.3743214018142,4,1,0,80,0,1
236736,-89.5126928998532,4,1,0,80,0,1
236806,-88.6673387650945,4,1,0,80,0,1
236945,-86.9565217391304,4,1,0,80,0,1
237015,-87.2719910144758,4,1,0,80,0,1
237085,-87.5897576041048,4,1,0,80,0,1
237154,-87.9098466940184,4,1,0,80,0,1
237224,-88.2322838397278,4,1,0,80,0,1
237294,-88.5570949730565,4,1,0,80,0,1
237364,-88.8843064090918,4,1,0,80,0,1
237433,-89.2139448532921,4,1,0,80,0,1
237503,-89.5460374087526,4,1,0,80,0,1
237573,-89.8806115836335,4,1,0,80,0,1
237643,-90.2176952987559,4,1,0,80,0,1
237713,-90.5573168953692,4,1,0,80,0,1
237782,-90.8995877703695,4,1,0,80,0,1
237852,-91.2443725033259,4,1,0,80,0,1
237922,-91.5917827516187,4,1,0,80,0,1
237992,-91.9418486195851,4,1,0,80,0,1
238061,-92.294600673566,4,1,0,80,0,1
238131,-92.6500699508028,4,1,0,80,0,1
238201,-93.0082879685409,4,1,0,80,0,1
238271,-93.3692867333448,4,1,0,80,0,1
238340,-93.7330987506315,4,1,0,80,0,1
238410,-94.0997570344273,4,1,0,80,0,1
238480,-94.4692951173545,4,1,0,80,0,1
238550,-94.8417470608542,4,1,0,80,0,1
238620,-95.2171474656528,4,1,0,80,0,1
238689,-95.5955314824764,4,1,0,80,0,1
238759,-95.9769348230233,4,1,0,80,0,1
238829,-96.3613937711995,4,1,0,80,0,1
238899,-96.748945194625,4,1,0,80,0,1
238968,-97.1396265564197,4,1,0,80,0,1
239038,-97.5334759272751,4,1,0,80,0,1
239108,-97.930531997822,4,1,0,80,0,1
239178,-98.3308340913002,4,1,0,80,0,1
239247,-98.7344221765411,4,1,0,80,0,1
239317,-99.1413368812713,4,1,0,80,0,1
239457,-99.9654119674593,4,1,0,80,0,0
240294,-86.9565217391304,4,1,0,80,0,0
240364,-87.9120879120879,4,1,0,80,0,0
240433,-88.8888888888889,4,1,0,80,0,0
240503,-89.8876404494382,4,1,0,80,0,0
240573,-90.9090909090909,4,1,0,80,0,0
240643,-91.9540229885058,4,1,0,80,0,0
240713,-93.0232558139535,4,1,0,80,0,0
240782,-94.1176470588235,4,1,0,80,0,0
240852,-95.2380952380952,4,1,0,80,0,0
240922,-96.3855421686747,4,1,0,80,0,0
240992,-97.5609756097561,4,1,0,80,0,0
241061,-98.7654320987654,4,1,0,80,0,0
241131,-100,4,1,0,80,0,0
241968,-86.9565217391304,4,1,0,80,0,0
242038,-88.0961022760509,4,1,0,80,0,0
242108,-89.2659482543151,4,1,0,80,0,0
242178,-90.4672816029355,4,1,0,80,0,0
242247,-91.7013909266976,4,1,0,80,0,0
242317,-92.9696361168442,4,1,0,80,0,0
242387,-94.2734533497243,4,1,0,80,0,0
242457,-95.614360512034,4,1,0,80,0,0
242526,-96.9939630957369,4,1,0,80,0,0
242596,-98.4139606107964,4,1,0,80,0,0
242666,-99.8761535695737,4,1,0,80,0,0
242806,-97.9142310501693,4,1,0,80,0,1
242945,-95.9136930224707,4,1,0,80,0,1
243015,-94.9438596957619,4,1,0,80,0,1
243085,-93.9933546698248,4,1,0,80,0,1
243224,-92.1483182471178,4,1,0,80,0,1
243364,-90.3743214018142,4,1,0,80,0,1
243433,-89.5126928998532,4,1,0,80,0,1
243503,-88.6673387650945,4,1,0,80,0,1
243643,-86.9565217391304,4,1,0,80,0,1
243713,-87.2914171586993,4,1,0,80,0,1
243782,-87.6289021150112,4,1,0,80,0,1
243852,-87.968929374145,4,1,0,80,0,1
243922,-88.3116837240684,4,1,0,80,0,1
243992,-88.6571194769939,4,1,0,80,0,1
244061,-89.005268221826,4,1,0,80,0,1
244131,-89.3560822004471,4,1,0,80,0,1
244201,-89.7097530649337,4,1,0,80,0,1
244271,-90.066234709005,4,1,0,80,0,1
244340,-90.4255607741151,4,1,0,80,0,1
244410,-90.7876830166205,4,1,0,80,0,1
244480,-91.152800350756,4,1,0,80,0,1
244550,-91.5208662999121,4,1,0,80,0,1
244620,-91.8919167275451,4,1,0,80,0,1
244689,-92.2659029510326,4,1,0,80,0,1
244759,-92.6430315764509,4,1,0,80,0,1
244829,-93.0232558139535,4,1,0,80,0,1
244899,-93.4066139355195,4,1,0,80,0,1
244968,-93.7931448466294,4,1,0,80,0,1
245038,-94.1827993953464,4,1,0,80,0,1
245108,-94.5757944603174,4,1,0,80,0,1
245178,-94.972082956215,4,1,0,80,0,1
245247,-95.3717064573321,4,1,0,80,0,1
245317,-95.774615512806,4,1,0,80,0,1
245387,-96.1810357928107,4,1,0,80,0,1
245457,-96.59092006715,4,1,0,80,0,1
245526,-97.0043128117476,4,1,0,80,0,1
245596,-97.4211643582722,4,1,0,80,0,1
245666,-97.8417097251724,4,1,0,80,0,1
245736,-98.2659016338671,4,1,0,80,0,1
245806,-98.693787719532,4,1,0,80,0,1
245875,-99.1253181922714,4,1,0,80,0,1
245945,-99.5607380238388,4,1,0,80,0,1
246015,-100,4,1,0,80,0,1
246154,-97.9142310501693,4,1,0,80,0,1
246294,-95.9136930224707,4,1,0,80,0,1
246364,-94.9438596957619,4,1,0,80,0,1
246433,-93.9933546698248,4,1,0,80,0,1
246573,-92.1483182471178,4,1,0,80,0,1
246713,-90.3743214018142,4,1,0,80,0,1
246782,-89.5126928998532,4,1,0,80,0,1
246852,-88.6673387650945,4,1,0,80,0,1
246992,-86.9565217391304,4,1,0,80,0,1
247061,-88.1057268722467,4,1,0,80,0,1
247131,-89.2857142857143,4,1,0,80,0,1
247201,-90.4977375565611,4,1,0,80,0,1
247271,-91.743119266055,4,1,0,80,0,1
247340,-93.0232558139535,4,1,0,80,0,1
247410,-94.3396226415094,4,1,0,80,0,1
247480,-95.6937799043062,4,1,0,80,0,1
247550,-97.0873786407767,4,1,0,80,0,1
247620,-98.5221674876847,4,1,0,80,0,1
247689,-100,4,1,0,80,0,1
247829,-97.9142310501693,4,1,0,80,0,1
247968,-95.9136930224707,4,1,0,80,0,1
248038,-94.9438596957619,4,1,0,80,0,1
248108,-93.9933546698248,4,1,0,80,0,1
248247,-92.1483182471178,4,1,0,80,0,1
248387,-90.3743214018142,4,1,0,80,0,1
248457,-89.5126928998532,4,1,0,80,0,1
248526,-88.6673387650945,4,1,0,80,0,1
248666,-86.9565217391304,4,1,0,80,0,1
248736,-88.0961022760509,4,1,0,80,0,1
248806,-89.2659482543151,4,1,0,80,0,1
248875,-90.4672816029355,4,1,0,80,0,1
248945,-91.7013909266976,4,1,0,80,0,1
249015,-92.9696361168442,4,1,0,80,0,1
249085,-94.2734533497243,4,1,0,80,0,1
249154,-95.614360512034,4,1,0,80,0,1
249224,-96.9939630957369,4,1,0,80,0,1
249294,-98.4139606107964,4,1,0,80,0,1
249364,-99.8761535695737,4,1,0,80,0,1
249503,-97.9020568243118,4,1,0,80,0,1
249643,-95.8904240945786,4,1,0,80,0,1
249713,-94.9152928468988,4,1,0,80,0,1
249782,-93.9597063195419,4,1,0,80,0,1
249922,-92.1052873961283,4,1,0,80,0,1
250061,-90.3225689906363,4,1,0,80,0,1
250131,-89.4568804417738,4,1,0,80,0,1
250201,-88.6076285851754,4,1,0,80,0,1
250340,-86.9565217391304,4,1,0,80,0,1
250410,-87.2719910144758,4,1,0,80,0,1
250480,-87.5897576041048,4,1,0,80,0,1
250550,-87.9098466940184,4,1,0,80,0,1
250620,-88.2322838397278,4,1,0,80,0,1
250689,-88.5570949730565,4,1,0,80,0,1
250759,-88.8843064090918,4,1,0,80,0,1
250829,-89.2139448532921,4,1,0,80,0,1
250899,-89.5460374087526,4,1,0,80,0,1
250968,-89.8806115836335,4,1,0,80,0,1
251038,-90.2176952987559,4,1,0,80,0,1
251108,-90.5573168953692,4,1,0,80,0,1
251178,-90.8995877703695,4,1,0,80,0,1
251247,-91.2443725033259,4,1,0,80,0,1
251317,-91.5917827516187,4,1,0,80,0,1
251387,-91.9418486195851,4,1,0,80,0,1
251457,-92.294600673566,4,1,0,80,0,1
251526,-92.6500699508028,4,1,0,80,0,1
251596,-93.0082879685409,4,1,0,80,0,1
251666,-93.3692867333448,4,1,0,80,0,1
251736,-93.7330987506315,4,1,0,80,0,1
251806,-94.0997570344273,4,1,0,80,0,1
251875,-94.4692951173545,4,1,0,80,0,1
251945,-94.8417470608542,4,1,0,80,0,1
252015,-95.2171474656528,4,1,0,80,0,1
252085,-95.5955314824764,4,1,0,80,0,1
252154,-95.9769348230233,4,1,0,80,0,1
252224,-96.3613937711995,4,1,0,80,0,1
252294,-96.748945194625,4,1,0,80,0,1
252364,-97.1396265564197,4,1,0,80,0,1
252433,-97.5334759272751,4,1,0,80,0,1
252503,-97.930531997822,4,1,0,80,0,1
252573,-98.3308340913002,4,1,0,80,0,1
252643,-98.7344221765411,4,1,0,80,0,1
252713,-99.1413368812713,4,1,0,80,0,1
252782,-99.5517186110942,4,1,0,80,0,1
252852,333.333333333333,4,1,0,80,1,0
252852,-83.7209302325581,4,1,0,80,0,0
252935,-117.647058823529,4,1,0,60,0,0
255018,-117.647058823529,4,1,0,60,0,0
255102,-119.967081032965,4,1,0,60,0,0
255185,-122.380596311694,4,1,0,60,0,0
255268,-124.893060317103,4,1,0,60,0,0
255352,-127.510847985392,4,1,0,60,0,0
255435,-130.240893556723,4,1,0,60,0,0
255518,-133.0902218614,4,1,0,60,0,0
262185,-133.333333333333,4,1,0,40,0,0
262435,-142.222222222222,4,1,0,40,0,0
262685,-152.380952380952,4,1,0,40,0,0
262852,-160,4,1,0,40,0,0
263518,-200,4,1,0,25,0,0
274185,-133.410355578621,4,1,0,40,0,0
284851,-133.333333333333,4,1,0,40,0,0
285185,-130.236992254806,4,1,0,40,0,0
285351,-128.742214314589,4,1,0,40,0,0
285518,-127.281359263092,4,1,0,40,0,0
285851,-124.45674630239,4,1,0,40,0,0
285935,-123.770188464866,4,1,0,40,0,0
286018,-123.091012263558,4,1,0,40,0,0
286101,-122.419249202745,4,1,0,40,0,0
286185,-121.754926813113,4,1,0,40,0,0
286351,-120.447389784616,4,1,0,40,0,0
286685,-117.915072847932,4,1,0,40,0,0
286851,-116.68829289695,4,1,0,40,0,0
287185,-114.310013328548,4,1,0,40,0,0
287351,-113.15673339142,4,1,0,40,0,0
287518,-112.026617524324,4,1,0,40,0,0
287685,-110.918851768046,4,1,0,40,0,0
288018,-108.767651630264,4,1,0,40,0,0
288185,-107.723099926102,4,1,0,40,0,0
288518,-105.692938760454,4,1,0,40,0,0
288685,-104.706340597161,4,1,0,40,0,0
288851,-103.737991030813,4,1,0,40,0,0
289018,-102.787282746229,4,1,0,40,0,0
289185,-101.853945516287,4,1,0,40,0,0
289351,-100.937405686612,4,1,0,40,0,0
289518,-100,4,1,0,40,0,0
289851,-101.754346691305,4,1,0,40,0,0
290018,-102.654859989036,4,1,0,40,0,0
290351,-104.504455547462,4,1,0,40,0,0
290518,-105.454530115705,4,1,0,40,0,0
290851,-107.407463100166,4,1,0,40,0,0
291185,-109.433974652903,4,1,0,40,0,0
291351,-110.476240979615,4,1,0,40,0,0
291518,-111.538427218945,4,1,0,40,0,0
291685,-112.621363596946,4,1,0,40,0,0
292018,-114.851439662796,4,1,0,40,0,0
292185,-115.99999536,4,1,0,40,0,0
292351,-117.171755045416,4,1,0,40,0,0
292518,-118.367288962961,4,1,0,40,0,0
292685,-119.587614071635,4,1,0,40,0,0
292851,-120.833363541674,4,1,0,40,0,0
293018,-122.105191180098,4,1,0,40,0,0
293185,-123.40422906293,4,1,0,40,0,0
293518,-126.08702778832,4,1,0,40,0,0
293851,-128.88890034568,4,1,0,40,0,0
294018,-130.337143088026,4,1,0,40,0,0
294185,-131.818127892584,4,1,0,40,0,0
294351,-133.410355578621,4,1,0,5,0,0
297472,279.06976744186,4,1,0,80,1,8
297472,-80,4,1,0,80,0,0
297752,279.06976744186,4,1,0,80,1,1
297752,-80,4,1,0,80,0,1
304449,-80,4,1,0,80,0,1
304519,-80.5018161209717,4,1,0,80,0,1
304589,-81.0099674663971,4,1,0,80,0,1
304658,-81.5246412304351,4,1,0,80,0,1
304728,-82.0458291592518,4,1,0,80,0,1
304798,-82.5737238850276,4,1,0,80,0,1
304868,-83.1084557036087,4,1,0,80,0,1
304938,-83.6501583079246,4,1,0,80,0,1
305007,-84.1990397941502,4,1,0,80,0,1
305077,-84.7551001381508,4,1,0,80,0,1
305147,-85.3185538846391,4,1,0,80,0,1
305217,-85.8895494749572,4,1,0,80,0,1
305286,-86.468239351004,4,1,0,80,0,1
305356,-87.0548558763334,4,1,0,80,0,1
305426,-87.6494093744549,4,1,0,80,0,1
305496,-88.2521398937621,4,1,0,80,0,1
305565,-88.8632172927821,4,1,0,80,0,1
305635,-89.4828962392128,4,1,0,80,0,1
305705,-90.1111972173662,4,1,0,80,0,1
305775,-90.748383771285,4,1,0,80,0,1
305845,-91.3946457360742,4,1,0,80,0,1
305914,-92.0501783932457,4,1,0,80,0,1
305984,-92.7152686285836,4,1,0,80,0,1
306054,-93.3899525485651,4,1,0,80,0,1
306124,-94.0745277223522,4,1,0,80,0,1
306193,-94.769213273376,4,1,0,80,0,1
306263,-95.4742348456134,4,1,0,80,0,1
306333,-96.189917372861,4,1,0,80,0,1
306403,-96.9163166372364,4,1,0,80,0,1
306472,-97.6537705097331,4,1,0,80,0,1
306542,-98.4025332748166,4,1,0,80,0,1
306612,-99.1628670761432,4,1,0,80,0,1
306682,-99.9351420927818,4,1,0,80,0,1
314426,-100,4,1,0,80,0,1
314496,-99.1253181922714,4,1,0,80,0,1
314565,-98.2659016338671,4,1,0,80,0,1
314635,-97.4211643582722,4,1,0,80,0,1
314705,-96.59092006715,4,1,0,80,0,1
314775,-95.774615512806,4,1,0,80,0,1
314845,-94.972082956215,4,1,0,80,0,1
314914,-94.1827993953464,4,1,0,80,0,1
314984,-93.4066139355195,4,1,0,80,0,1
315054,-92.6430315764509,4,1,0,80,0,1
315124,-91.8919167275451,4,1,0,80,0,1
315193,-91.152800350756,4,1,0,80,0,1
315263,-90.4255607741151,4,1,0,80,0,1
315333,-89.7097530649337,4,1,0,80,0,1
315403,-89.005268221826,4,1,0,80,0,1
315472,-88.3116837240684,4,1,0,80,0,1
315542,-87.6289021150112,4,1,0,80,0,1
315612,-86.9565217391304,4,1,0,80,0,1
315891,-80,4,1,0,80,0,1
322310,-80,4,1,0,80,0,1
322379,-80.5031122503196,4,1,0,80,0,1
322449,-81.0126582278481,4,1,0,80,0,1
322519,-81.5286956550097,4,1,0,80,0,1
322589,-82.0512820512821,4,1,0,80,0,1
322658,-82.5806110634896,4,1,0,80,0,1
322728,-83.1168831168831,4,1,0,80,0,1
322798,-83.6601657140562,4,1,0,80,0,1
322868,-84.2105263157895,4,1,0,80,0,1
322938,-84.7681759922963,4,1,0,80,0,1
323007,-85.3333333333333,4,1,0,80,0,1
323077,-85.906077167711,4,1,0,80,0,1
323147,-86.4864864864865,4,1,0,80,0,1
323217,-87.0747920218593,4,1,0,80,0,1
323286,-87.6712328767123,4,1,0,80,0,1
323356,-88.2759010321218,4,1,0,80,0,1
323426,-88.8888888888889,4,1,0,80,0,1
323496,-89.5104494498688,4,1,0,80,0,1
323565,-90.1408450704225,4,1,0,80,0,1
323635,-90.7801830491611,4,1,0,80,0,1
323705,-91.4285714285714,4,1,0,80,0,1
323775,-92.0862885358096,4,1,0,80,0,1
323845,-92.7536231884058,4,1,0,80,0,1
323914,-93.4307005807652,4,1,0,80,0,1
323984,-94.1176470588235,4,1,0,80,0,1
324054,-94.8147698655906,4,1,0,80,0,1
324124,-95.5223880597015,4,1,0,80,0,1
324193,-96.2406478150486,4,1,0,80,0,1
324263,-96.969696969697,4,1,0,80,0,1
324333,-97.7098759279995,4,1,0,80,0,1
324403,-98.4615384615385,4,1,0,80,0,1
324472,-99.2248554293856,4,1,0,80,0,1
324542,-100,4,1,0,80,0,1
332356,-100,4,1,0,80,0,1
332635,-96.3855421686747,4,1,0,80,0,1
332705,-95.5223880597015,4,1,0,80,0,1
332775,-94.6745562130178,4,1,0,80,0,1
332845,-93.841642228739,4,1,0,80,0,1
332914,-93.0232558139535,4,1,0,80,0,1
332984,-92.2190201729107,4,1,0,80,0,1
333054,-91.4285714285714,4,1,0,80,0,1
333124,-90.6515580736544,4,1,0,80,0,1
333193,-89.8876404494382,4,1,0,80,0,1
333263,-89.1364902506964,4,1,0,80,0,1
333333,-88.3977900552486,4,1,0,80,0,1
333403,-87.6712328767123,4,1,0,80,0,1
333472,-86.9565217391304,4,1,0,80,0,1
333751,-80,4,1,0,80,0,1
337100,-80,4,1,0,80,0,1
337379,-82.1762236245138,4,1,0,80,0,1
337519,-83.3093818860411,4,1,0,80,0,1
337658,-84.4742281800957,4,1,0,80,0,1
337798,-85.6721105581452,4,1,0,80,0,1
337938,-86.9043791116634,4,1,0,80,0,1
338217,-80,4,1,0,80,0,1
341565,-80,4,1,0,80,0,1
341845,-75.0323201719141,4,1,0,80,0,1
342124,-70.6455662489394,4,1,0,80,0,1
342263,-68.6390321347357,4,1,0,80,0,1
342403,-66.6666666666667,4,1,0,80,0,1
342472,-66.8463496545381,4,1,0,80,0,1
342542,-67.0270487655293,4,1,0,80,0,1
342612,-67.2086822864125,4,1,0,80,0,1
342682,-67.3913028827978,4,1,0,80,0,1
342751,-67.5749186229042,4,1,0,80,0,1
342821,-67.7595835767032,4,1,0,80,0,1
342891,-67.9452144147131,4,1,0,80,0,1
342961,-68.1318651370609,4,1,0,80,0,1
343031,-68.3195441720013,4,1,0,80,0,1
343100,-68.5083069747622,4,1,0,80,0,1
343170,-68.6980685538026,4,1,0,80,0,1
343240,-68.8888842962966,4,1,0,80,0,1
343310,-69.0807630108436,4,1,0,80,0,1
343379,-69.273761592964,4,1,0,80,0,1
343449,-69.4677933416509,4,1,0,80,0,1
343519,-69.6629150864795,4,1,0,80,0,1
343589,-69.8591360380928,4,1,0,80,0,1
343658,-70.05651459032,4,1,0,80,0,1
343728,-70.2549622836235,4,1,0,80,0,1
343798,-70.454537448348,4,1,0,80,0,1
343868,-70.6552497203818,4,1,0,80,0,1
343938,-70.8571590530649,4,1,0,80,0,1
344007,-71.0601751775439,4,1,0,80,0,1
344077,-71.2643579865253,4,1,0,80,0,1
344147,-71.4697175659701,4,1,0,80,0,1
344217,-71.6763154933373,4,1,0,80,0,1
344286,-71.8840596378912,4,1,0,80,0,1
344356,-72.0930115197423,4,1,0,80,0,1
344426,-72.3031817015108,4,1,0,80,0,1
344496,-72.5146334530308,4,1,0,80,0,1
344565,-72.7272727272727,4,1,0,80,0,1
344635,-72.941162740487,4,1,0,80,0,1
344705,-73.1563680789504,4,1,0,80,0,1
344775,-73.3727932215279,4,1,0,80,0,1
344845,-73.590502704083,4,1,0,80,0,1
344914,-73.8095079932007,4,1,0,80,0,1
344984,-74.0298754965554,4,1,0,80,0,1
345054,-74.2515076768634,4,1,0,80,0,1
345124,-74.4744708961215,4,1,0,80,0,1
345193,-74.6987771810175,4,1,0,80,0,1
345263,-74.9244948403247,4,1,0,80,0,1
345333,-75.1515242607908,4,1,0,80,0,1
345403,-75.3799337108863,4,1,0,80,0,1
345472,-75.6097358120221,4,1,0,80,0,1
345542,-75.8410008585201,4,1,0,80,0,1
345612,-76.0736270992517,4,1,0,80,0,1
345682,-76.3076847943203,4,1,0,80,0,1
345751,-76.5431871970803,4,1,0,80,0,1
345821,-76.7802066769603,4,1,0,80,0,1
345891,-77.0186392808924,4,1,0,80,0,1
345961,-77.2585573509586,4,1,0,80,0,1
346031,-77.4999748125082,4,1,0,80,0,1
346100,-77.7429662051326,4,1,0,80,0,1
346170,-77.9874253075434,4,1,0,80,0,1
346240,-78.2334266397335,4,1,0,80,0,1
346310,-78.4809848421826,4,1,0,80,0,1
346379,-78.7301767256277,4,1,0,80,0,1
346449,-78.9808937319973,4,1,0,80,0,1
346519,-79.2332126611504,4,1,0,80,0,1
346589,-79.4871489151991,4,1,0,80,0,1
346658,-79.742781683402,4,1,0,80,0,1
346728,-80,4,1,0,80,0,1
346798,-80.2588830531763,4,1,0,80,0,1
346868,-80.5195118907189,4,1,0,80,0,1
346938,-80.7817736930923,4,1,0,80,0,1
347007,-81.0457495151438,4,1,0,80,0,1
347077,-81.3114562150005,4,1,0,80,0,1
347147,-81.5789774238338,4,1,0,80,0,1
347217,-81.848197784533,4,1,0,80,0,1
347286,-82.1192009473271,4,1,0,80,0,1
347356,-82.3920046798659,4,1,0,80,0,1
347426,-82.6666953244544,4,1,0,80,0,1
347496,-82.9431549087833,4,1,0,80,0,1
347565,-83.2214698076669,4,1,0,80,0,1
347635,-83.5016587604513,4,1,0,80,0,1
347705,-83.7838109569117,4,1,0,80,0,1
347775,-84.0678057293891,4,1,0,80,0,1
347845,-84.35373231524,4,1,0,80,0,1
347914,-84.6416104928512,4,1,0,80,0,1
347984,-84.9315324451194,4,1,0,80,0,1
348054,-85.2233747263264,4,1,0,80,0,1
348124,-85.5172295838304,4,1,0,80,0,1
348193,-85.8131179080821,4,1,0,80,0,1
348263,-86.1111350308708,4,1,0,80,0,1
348333,-86.4111546431306,4,1,0,80,0,1
348403,-86.7132721600103,4,1,0,80,0,1
348472,-87.0175096632944,4,1,0,80,0,1
348542,-87.323965800442,4,1,0,80,0,1
348612,-87.6325113111664,4,1,0,80,0,1
348682,-87.9432449474407,4,1,0,80,0,1
348751,-88.2561900685309,4,1,0,80,0,1
348821,-88.5714488163312,4,1,0,80,0,1
348891,-88.8888888888889,4,1,0,80,0,1
348961,-89.2086125562906,4,1,0,80,0,1
349031,-89.5307247064511,4,1,0,80,0,1
349100,-89.8550906952358,4,1,0,80,0,1
349170,-90.1818155583472,4,1,0,80,0,1
349240,-90.5109251212168,4,1,0,80,0,1
349310,-90.8425281112203,4,1,0,80,0,1
349379,-91.1764866782035,4,1,0,80,0,1
349449,-91.5129097261751,4,1,0,80,0,1
349519,-91.8518246364964,4,1,0,80,0,1
349589,-92.1933441937093,4,1,0,80,0,1
349658,-92.5373272443772,4,1,0,80,0,1
349728,-92.8838867819727,4,1,0,80,0,1
349798,-93.2330518627498,4,1,0,80,0,1
349868,-93.584939562846,4,1,0,80,0,1
349938,-93.9394053259885,4,1,0,80,0,1
350007,-94.2965664734216,4,1,0,80,0,1
350077,-94.6564538663375,4,1,0,80,0,1
350147,-95.0191891252438,4,1,0,80,0,1
350217,-95.3846241893499,4,1,0,80,0,1
350286,-95.752880964806,4,1,0,80,0,1
350356,-96.1239922600961,4,1,0,80,0,1
350426,-96.4980845130224,4,1,0,80,0,1
350496,-96.8750060546879,4,1,0,80,0,1
350565,-97.2548836539827,4,1,0,80,0,1
350635,-97.6377522227234,4,1,0,80,0,1
350705,-98.0237433111048,4,1,0,80,0,1
350775,-98.4127015369112,4,1,0,80,0,1
350845,-98.8047588324044,4,1,0,80,0,1
350914,-99.1999523840229,4,1,0,80,0,1
350984,-99.5984191738909,4,1,0,80,0,1
351054,-100,4,1,0,80,0,1
351333,279.06976744186,3,1,0,80,1,0
357193,-100,3,1,0,80,0,1
358030,-100,3,1,0,80,0,0
363891,-100,3,1,0,80,0,1
364728,-100,3,1,0,80,0,0
370588,-100,3,1,0,80,0,1
371426,-100,3,1,0,80,0,0
377286,-100,3,1,0,80,0,1
377426,-95.9999692800098,3,1,0,80,0,1
377565,-92.3077207100679,3,1,0,80,0,1
377705,-88.8888888888889,3,1,0,80,0,1
377844,-85.7142612244968,3,1,0,80,0,1
377984,-82.7586435196258,3,1,0,80,0,1
378123,-80,3,1,0,80,0,1
378193,-80.3341256955931,3,1,0,80,0,1
378263,-80.6711191746377,3,1,0,80,0,1
378332,-81.0108862428933,3,1,0,80,0,1
378402,-81.3535274482734,3,1,0,80,0,1
378472,-81.6991461622235,3,1,0,80,0,1
378542,-82.0476467093971,3,1,0,80,0,1
378612,-82.3991331611191,3,1,0,80,0,1
378681,-82.753644056716,3,1,0,80,0,1
378751,-83.1112876764245,3,1,0,80,0,1
378821,-83.4719663574587,3,1,0,80,0,1
378891,-83.8357891630505,3,1,0,80,0,1
378960,-84.2028682865053,3,1,0,80,0,1
379030,-84.5731045687237,3,1,0,80,0,1
379100,-84.946611054952,3,1,0,80,0,1
379170,-85.323504065665,3,1,0,80,0,1
379239,-85.7036829443672,3,1,0,80,0,1
379309,-86.0872649387231,3,1,0,80,0,1
379379,-86.4743707260042,3,1,0,80,0,1
379449,-86.8648981552502,3,1,0,80,0,1
379519,-87.2589689131197,3,1,0,80,0,1
379588,-87.6566314433103,3,1,0,80,0,1
379658,-88.0580126187132,3,1,0,80,0,1
379728,-88.4630083084457,3,1,0,80,0,1
379798,-88.8717465164497,3,1,0,80,0,1
379867,-89.2843590766926,3,1,0,80,0,1
379937,-89.7007403899112,3,1,0,80,0,1
380007,-90.1210235224884,3,1,0,80,0,1
380077,-90.5453455617841,3,1,0,80,0,1
380146,-90.9735994614363,3,1,0,80,0,1
380216,-91.4059236522882,3,1,0,80,0,1
380286,-91.8424607901574,3,1,0,80,0,1
380356,-92.2831024102501,3,1,0,80,0,1
380426,-92.7279926336883,3,1,0,80,0,1
380495,-93.1771932047737,3,1,0,80,0,1
380565,-93.6308547373467,3,1,0,80,0,1
380635,-94.0888669348199,3,1,0,80,0,1
380705,-94.5513820575515,3,1,0,80,0,1
380774,-95.0185571242064,3,1,0,80,0,1
380844,-95.4902805217971,3,1,0,80,0,1
380914,-95.966711067265,3,1,0,80,0,1
380984,-96.4480125922525,3,1,0,80,0,1
381053,-96.9340722294546,3,1,0,80,0,1
381123,-97.4250557758444,3,1,0,80,0,1
381193,-97.9210384330284,3,1,0,80,0,1
381263,-98.4221938110156,3,1,0,80,0,1
381332,-98.9284074900676,3,1,0,80,0,1
381402,-99.4398552951226,3,1,0,80,0,1
381472,-99.9567187407852,3,1,0,80,0,1
381751,-100,3,1,0,80,0,1
381821,-99.4360978888722,3,1,0,80,0,1
381891,-98.8785198281096,3,1,0,80,0,1
381960,-98.3271600264697,3,1,0,80,0,1
382030,-97.7819150392497,3,1,0,80,0,1
382100,-97.2426837035849,3,1,0,80,0,1
382170,-96.7093670758762,3,1,0,80,0,1
382239,-96.1817758618368,3,1,0,80,0,1
382309,-95.660001396636,3,1,0,80,0,1
382379,-95.143857512559,3,1,0,80,0,1
382449,-94.6332535575006,3,1,0,80,0,1
382519,-94.1281008149611,3,1,0,80,0,1
382588,-93.6283124526592,3,1,0,80,0,1
382658,-93.1338034727733,3,1,0,80,0,1
382728,-92.6444906637514,3,1,0,80,0,1
382798,-92.1602925536327,3,1,0,80,0,1
382867,-91.681129364824,3,1,0,80,0,1
382937,-91.2069229702811,3,1,0,80,0,1
383007,-90.7375968510424,3,1,0,80,0,1
383077,-90.2730760550666,3,1,0,80,0,1
383146,-89.8132064931356,3,1,0,80,0,1
383216,-89.3580783723962,3,1,0,80,0,1
383286,-88.907539714998,3,1,0,80,0,1
383356,-88.4615214497074,3,1,0,80,0,1
383426,-88.0199558843981,3,1,0,80,0,1
383495,-87.5827766718019,3,1,0,80,0,1
383565,-87.1499187762757,3,1,0,80,0,1
383635,-86.7213184415485,3,1,0,80,0,1
383705,-86.2969131594163,3,1,0,80,0,1
383774,-85.8766416393507,3,1,0,80,0,1
383844,-85.4604437789925,3,1,0,80,0,1
383914,-85.0482606354976,3,1,0,80,0,1
383984,-84.64003439771,3,1,0,80,0,1
384123,-83.8351566082643,3,1,0,80,0,1
384263,-83.0455114316299,3,1,0,80,0,1
384402,-82.2706028213881,3,1,0,80,0,1
384542,-81.510022064763,3,1,0,80,0,1
384681,-80.7633754245125,3,1,0,80,0,1
384821,-80,3,1,0,80,0,1
384891,-80.3341256955931,3,1,0,80,0,1
384960,-80.6711191746377,3,1,0,80,0,1
385030,-81.0108862428933,3,1,0,80,0,1
385100,-81.3535274482734,3,1,0,80,0,1
385170,-81.6991461622235,3,1,0,80,0,1
385239,-82.0476467093971,3,1,0,80,0,1
385309,-82.3991331611191,3,1,0,80,0,1
385379,-82.753644056716,3,1,0,80,0,1
385449,-83.1112876764245,3,1,0,80,0,1
385519,-83.4719663574587,3,1,0,80,0,1
385588,-83.8357891630505,3,1,0,80,0,1
385658,-84.2028682865053,3,1,0,80,0,1
385728,-84.5731045687237,3,1,0,80,0,1
385798,-84.946611054952,3,1,0,80,0,1
385867,-85.323504065665,3,1,0,80,0,1
385937,-85.7036829443672,3,1,0,80,0,1
386007,-86.0872649387231,3,1,0,80,0,1
386077,-86.4743707260042,3,1,0,80,0,1
386146,-86.8648981552502,3,1,0,80,0,1
386216,-87.2589689131197,3,1,0,80,0,1
386286,-87.6566314433103,3,1,0,80,0,1
386356,-88.0580126187132,3,1,0,80,0,1
386426,-88.4630083084457,3,1,0,80,0,1
386495,-88.8717465164497,3,1,0,80,0,1
386565,-89.2843590766926,3,1,0,80,0,1
386635,-89.7007403899112,3,1,0,80,0,1
386705,-90.1210235224884,3,1,0,80,0,1
386774,-90.5453455617841,3,1,0,80,0,1
386844,-90.9735994614363,3,1,0,80,0,1
386914,-91.4059236522882,3,1,0,80,0,1
386984,-91.8424607901574,3,1,0,80,0,1
387053,-92.2831024102501,3,1,0,80,0,1
387123,-92.7279926336883,3,1,0,80,0,1
387193,-93.1771932047737,3,1,0,80,0,1
387263,-93.6308547373467,3,1,0,80,0,1
387332,-94.0888669348199,3,1,0,80,0,1
387402,-94.5513820575515,3,1,0,80,0,1
387472,-95.0185571242064,3,1,0,80,0,1
387542,-95.4902805217971,3,1,0,80,0,1
387612,-95.966711067265,3,1,0,80,0,1
387681,-96.4480125922525,3,1,0,80,0,1
387751,-96.9340722294546,3,1,0,80,0,1
387821,-97.4250557758444,3,1,0,80,0,1
387891,-97.9210384330284,3,1,0,80,0,1
387960,-98.4221938110156,3,1,0,80,0,1
388030,-98.9284074900676,3,1,0,80,0,1
388100,-99.4398552951226,3,1,0,80,0,1
388170,-99.9567187407852,3,1,0,80,0,1
388449,-100,3,1,0,80,0,1
388519,-99.4530084535057,3,1,0,80,0,1
388588,-98.9119683481701,3,1,0,80,0,1
388658,-98.3767830791933,3,1,0,80,0,1
388728,-97.8473581213307,3,1,0,80,0,1
388798,-97.323600973236,3,1,0,80,0,1
388867,-96.8054211035818,3,1,0,80,0,1
388937,-96.2927298988926,3,1,0,80,0,1
389007,-95.7854406130268,3,1,0,80,0,1
389077,-95.2834683182468,3,1,0,80,0,1
389146,-94.7867298578199,3,1,0,80,0,1
389216,-94.2951438000943,3,1,0,80,0,1
389286,-93.8086303939962,3,1,0,80,0,1
389356,-93.3271115258983,3,1,0,80,0,1
389426,-92.8505106778087,3,1,0,80,0,1
389495,-92.378752886836,3,1,0,80,0,1
389565,-91.9117647058823,3,1,0,80,0,1
389635,-91.4494741655236,3,1,0,80,0,1
389705,-90.9918107370337,3,1,0,80,0,1
389774,-90.5387052965143,3,1,0,80,0,1
389844,-90.0900900900901,3,1,0,80,0,1
389914,-91.2723548815193,3,1,0,80,0,1
389984,-92.4860623504038,3,1,0,80,0,1
390053,-93.7324837421007,3,1,0,80,0,1
390123,-95.0129597677123,3,1,0,80,0,1
390193,-96.328812622157,3,1,0,80,0,1
390263,-97.6817197452852,3,1,0,80,0,1
390332,-99.0731704900654,3,1,0,80,0,1
390402,-100.504835790174,3,1,0,80,0,1
390472,-101.978484579323,3,1,0,80,0,1
390542,-103.495991082785,3,1,0,80,0,1
390612,-105.059342769764,3,1,0,80,0,1
390681,-106.670649037564,3,1,0,80,0,1
390751,-108.332033348933,3,1,0,80,0,1
390821,-110.046109319805,3,1,0,80,0,1
390891,-111.815299016473,3,1,0,80,0,1
390960,-113.642304029529,3,1,0,80,0,1
391030,-115.530005453016,3,1,0,80,0,1
391100,-117.481479044829,3,1,0,80,0,1
391519,-117.481479044829,3,1,0,80,0,0
394867,-80,3,1,0,80,0,1
394937,-80.3341256955931,3,1,0,80,0,1
395007,-80.6711191746377,3,1,0,80,0,1
395077,-81.0108862428933,3,1,0,80,0,1
395146,-81.3535274482734,3,1,0,80,0,1
395216,-81.6991461622235,3,1,0,80,0,1
395286,-82.0476467093971,3,1,0,80,0,1
395356,-82.3991331611191,3,1,0,80,0,1
395426,-82.753644056716,3,1,0,80,0,1
395495,-83.1112876764245,3,1,0,80,0,1
395565,-83.4719663574587,3,1,0,80,0,1
395635,-83.8357891630505,3,1,0,80,0,1
395705,-84.2028682865053,3,1,0,80,0,1
395774,-84.5731045687237,3,1,0,80,0,1
395844,-84.946611054952,3,1,0,80,0,1
395914,-85.323504065665,3,1,0,80,0,1
395984,-85.7036829443672,3,1,0,80,0,1
396053,-86.0872649387231,3,1,0,80,0,1
396123,-86.4743707260042,3,1,0,80,0,1
396193,-86.8648981552502,3,1,0,80,0,1
396263,-87.2589689131197,3,1,0,80,0,1
396332,-87.6566314433103,3,1,0,80,0,1
396402,-88.0580126187132,3,1,0,80,0,1
396472,-88.4630083084457,3,1,0,80,0,1
396542,-88.8717465164497,3,1,0,80,0,1
396612,-89.2843590766926,3,1,0,80,0,1
396681,-89.7007403899112,3,1,0,80,0,1
396751,-90.1210235224884,3,1,0,80,0,1
396821,-90.5453455617841,3,1,0,80,0,1
396891,-90.9735994614363,3,1,0,80,0,1
396960,-91.4059236522882,3,1,0,80,0,1
397030,-91.8424607901574,3,1,0,80,0,1
397100,-92.2831024102501,3,1,0,80,0,1
397170,-92.7279926336883,3,1,0,80,0,1
397239,-93.1771932047737,3,1,0,80,0,1
397309,-93.6308547373467,3,1,0,80,0,1
397379,-94.0888669348199,3,1,0,80,0,1
397449,-94.5513820575515,3,1,0,80,0,1
397519,-95.0185571242064,3,1,0,80,0,1
397588,-95.4902805217971,3,1,0,80,0,1
397658,-95.966711067265,3,1,0,80,0,1
397728,-96.4480125922525,3,1,0,80,0,1
397798,-96.9340722294546,3,1,0,80,0,1
397867,-97.4250557758444,3,1,0,80,0,1
397937,-97.9210384330284,3,1,0,80,0,1
398007,-98.4221938110156,3,1,0,80,0,1
398077,-98.9284074900676,3,1,0,80,0,1
398146,-99.4398552951226,3,1,0,80,0,1
398216,-100,3,1,0,80,0,0
398356,-98.970802623518,3,1,0,80,0,0
398426,-98.4641560932574,3,1,0,80,0,0
398495,-97.9626703448384,3,1,0,80,0,0
398635,-96.9747749215474,3,1,0,80,0,0
398774,-96.0066974272125,3,1,0,80,0,0
398914,-95.0576667335239,3,1,0,80,0,0
399053,-94.1272148133646,3,1,0,80,0,0
399123,-93.6688301044126,3,1,0,80,0,0
399193,-93.2148882819564,3,1,0,80,0,0
399263,-92.7652390096383,3,1,0,80,0,0
399332,-92.3199921712647,3,1,0,80,0,0
399472,-91.4421153121651,3,1,0,80,0,0
399612,-90.5808588152386,3,1,0,80,0,0
399751,-89.7355940720667,3,1,0,80,0,0
399891,-88.9060378757502,3,1,0,80,0,0
400030,-88.0916011705612,3,1,0,80,0,0
400100,-87.6899913274599,3,1,0,80,0,0
400170,-87.2919505473642,3,1,0,80,0,0
400309,-86.5067618010362,3,1,0,80,0,0
400449,-85.7354991263553,3,1,0,80,0,0
400588,-84.9779397268469,3,1,0,80,0,0
400728,-84.233579716554,3,1,0,80,0,0
400798,-83.8663036933043,3,1,0,80,0,0
400867,-83.5021468401953,3,1,0,80,0,0
400937,-83.1412078588395,3,1,0,80,0,0
401007,-82.7833757736106,3,1,0,80,0,0
401146,-82.0768058333627,3,1,0,80,0,0
401286,-81.3822614340043,3,1,0,80,0,0
401426,-80.6993079227353,3,1,0,80,0,0
401565,-80,3,1,0,80,0,1
401635,-80.5018161209717,3,1,0,80,0,1
401705,-81.0099674663971,3,1,0,80,0,1
401774,-81.5246412304351,3,1,0,80,0,1
401844,-82.0458291592518,3,1,0,80,0,1
401914,-82.5737238850276,3,1,0,80,0,1
401984,-83.1084557036087,3,1,0,80,0,1
402053,-83.6501583079246,3,1,0,80,0,1
402123,-84.1990397941502,3,1,0,80,0,1
402193,-84.7551001381508,3,1,0,80,0,1
402263,-85.3185538846391,3,1,0,80,0,1
402332,-85.8895494749572,3,1,0,80,0,1
402402,-86.468239351004,3,1,0,80,0,1
402472,-87.0548558763334,3,1,0,80,0,1
402542,-87.6494093744549,3,1,0,80,0,1
402612,-88.2521398937621,3,1,0,80,0,1
402681,-88.8632172927821,3,1,0,80,0,1
402751,-89.4828962392128,3,1,0,80,0,1
402821,-90.1111972173662,3,1,0,80,0,1
402891,-90.748383771285,3,1,0,80,0,1
402960,-91.3946457360742,3,1,0,80,0,1
403030,-92.0501783932457,3,1,0,80,0,1
403100,-92.7152686285836,3,1,0,80,0,1
403170,-93.3899525485651,3,1,0,80,0,1
403239,-94.0745277223522,3,1,0,80,0,1
403309,-94.769213273376,3,1,0,80,0,1
403379,-95.4742348456134,3,1,0,80,0,1
403449,-96.189917372861,3,1,0,80,0,1
403519,-96.9163166372364,3,1,0,80,0,1
403588,-97.6537705097331,3,1,0,80,0,1
403658,-98.4025332748166,3,1,0,80,0,1
403728,-99.1628670761432,3,1,0,80,0,1
403798,-100,3,1,0,80,0,1
404077,-103.896103896104,3,1,0,80,0,1
404356,-108.108108108108,3,1,0,80,0,1
404635,-112.676056338028,3,1,0,80,0,1
404914,-117.647058823529,3,1,0,80,0,0
418030,-117.647058823529,3,1,0,5,0,0
418309,-117.647058823529,3,1,0,5,0,0
419146,-124.992187988251,3,1,0,5,0,0
419984,-133.315735656227,3,1,0,5,0,0
420821,-142.826741165095,3,1,0,5,0,0
421658,-153.799304211948,3,1,0,5,0,0
422495,-166.597806240087,3,1,0,5,0,0
423332,-181.720052989567,3,1,0,5,0,0
424170,-199.861296260395,3,1,0,5,0,0
424849,533.333333333333,4,1,0,5,1,0
424849,-104.651162790698,4,1,0,5,0,0
425915,511.727078891258,4,1,0,5,1,8
425915,-109.06976744186,4,1,0,5,0,0
426938,489.795918367347,4,1,0,5,1,0
426938,-113.953488372093,4,1,0,5,0,0
427917,510.63829787234,4,1,0,5,1,8
427917,-109.302325581395,4,1,0,5,0,0
428938,493.827160493827,4,1,0,5,1,0
428938,-113.023255813954,4,1,0,5,0,0
430913,477.4,4,1,0,5,1,0
430913,-116.912344969359,4,1,0,5,0,0
431867,495.867768595041,4,1,0,5,1,8
431867,-112.558139534884,4,1,0,5,0,0
432858,504.201680672269,4,1,0,5,1,0
432858,-110.697674418605,4,1,0,5,0,0
433866,487.80487804878,4,1,0,5,1,8
433866,-114.418604651163,4,1,0,5,0,0
434841,487.80487804878,4,1,0,5,1,0
434841,-114.418604651163,4,1,0,5,0,0
436792,491.803278688525,4,1,0,5,1,0
436792,-113.488372093023,4,1,0,5,0,0
438759,512.820512820513,4,1,0,5,1,0
438759,-113.488372093023,4,1,0,5,0,0
439529,615.384615384615,4,1,0,5,1,8
439529,-90.6976744186047,4,1,0,5,0,0
440452,725.772727272727,4,1,0,5,1,0
440452,-76.9027980675259,4,1,0,5,0,0
443355,375,4,1,0,5,1,8
444080,375,4,1,0,60,1,0
455142,-100,4,1,0,60,0,0
455330,-103.854346356322,4,1,0,60,0,0
455376,-104.864892073053,4,1,0,60,0,0
455611,-110.227332851272,4,1,0,60,0,0
455892,-117.433468068666,4,1,0,60,0,0
456080,-100,4,1,0,60,0,0
464330,-100,4,1,0,60,0,0
464705,-97.5659252957223,4,1,0,60,0,0
464892,-96.3927890482369,4,1,0,60,0,0
465080,-95.2475292790905,4,1,0,60,0,0
465267,-94.1291640388942,4,1,0,60,0,0
465455,-93.0367569619405,4,1,0,60,0,0
465642,-91.9694146514635,4,1,0,60,0,0
465830,-90.9262842428386,4,1,0,60,0,0
466205,-88.909436847627,4,1,0,60,0,0
466392,-87.9341970816399,4,1,0,60,0,0
466580,-86.9801198238131,4,1,0,60,0,0
466767,-86.0465236343987,4,1,0,60,0,0
467142,-84.2381919114488,4,1,0,60,0,0
467330,-83.36223224051,4,1,0,60,0,0
467517,-82.5043025993806,4,1,0,60,0,0
467705,-81.6638519859016,4,1,0,60,0,0
468080,363.636363636364,4,1,0,60,1,0
468080,-82.6446280991736,4,1,0,60,0,0
468443,-83.5509138381201,4,1,0,60,0,0
468807,-84.4772967265047,4,1,0,60,0,0
469170,-85.4244527495996,4,1,0,60,0,0
469352,-85.906077167711,4,1,0,60,0,0
469534,-86.3930885529158,4,1,0,60,0,0
469898,-87.3839432004369,4,1,0,60,0,0
470261,-88.3977900552486,4,1,0,60,0,0
470443,-88.9135475794176,4,1,0,60,0,0
470625,-89.4354387926216,4,1,0,60,0,0
470989,-90.4977375565611,4,1,0,60,0,0
471352,-91.5855752718947,4,1,0,60,0,0
471716,-92.6998841251448,4,1,0,60,0,0
471898,-93.267225523882,4,1,0,60,0,0
472080,-93.841642228739,4,1,0,60,0,0
472261,-94.4231782464105,4,1,0,60,0,0
472443,-95.0118764845606,4,1,0,60,0,0
472807,-96.2116656644618,4,1,0,60,0,0
472989,-96.8229485879825,4,1,0,60,0,0
473170,-97.442143727162,4,1,0,60,0,0
473352,-98.0692133279984,4,1,0,60,0,0
473534,-98.7045033929673,4,1,0,60,0,0
473716,-99.3480779127366,4,1,0,60,0,0
473898,-100,4,1,0,60,0,0
480080,-100,4,1,0,60,0,0
480443,-97.9020568243118,4,1,0,60,0,0
480625,-96.8857997389896,4,1,0,60,0,0
480807,-95.8904240945786,4,1,0,60,0,0
480989,-94.9152928468988,4,1,0,60,0,0
481170,-93.9597063195419,4,1,0,60,0,0
481534,-92.1052873961283,4,1,0,60,0,0
481898,-90.3225689906363,4,1,0,60,0,0
482080,-89.4568804417738,4,1,0,60,0,0
482261,-88.6076285851754,4,1,0,60,0,0
482443,-87.7742726584896,4,1,0,60,0,0
482625,-86.9565217391304,4,1,0,60,0,0
482989,-88.3977900552486,4,1,0,60,0,0
483352,-89.8876404494382,4,1,0,60,0,0
483534,-90.6515580736544,4,1,0,60,0,0
483716,-91.4285714285714,4,1,0,60,0,0
483898,-92.2190201729107,4,1,0,60,0,0
484080,-93.0232558139535,4,1,0,60,0,0
484443,-94.6745562130178,4,1,0,60,0,0
484625,-95.5223880597015,4,1,0,60,0,0
484807,-96.3855421686747,4,1,0,60,0,0
484989,-97.2644376899696,4,1,0,60,0,0
485170,-98.159509202454,4,1,0,60,0,0
485352,-99.0712074303406,4,1,0,60,0,0
485534,-100,4,1,0,60,0,0
489898,-100,4,1,0,60,0,0
490261,-94.1176470588235,4,1,0,60,0,0
490443,-91.4285714285714,4,1,0,60,0,0
490625,-88.8888888888889,4,1,0,60,0,0
490807,-86.4864864864865,4,1,0,60,0,0
490989,-84.2105263157895,4,1,0,60,0,0
491170,-82.0512820512821,4,1,0,60,0,0
491352,-80,4,1,0,60,0,0
491716,-81.1576983352121,4,1,0,60,0,0
492080,-82.349327494217,4,1,0,60,0,0
492261,-82.9584303601308,4,1,0,60,0,0
492352,-83.2663039586466,4,1,0,60,0,0
492443,-83.5765410678408,4,1,0,60,0,0
492625,-84.2039318183923,4,1,0,60,0,0
492807,-84.8408131822262,4,1,0,60,0,0
492989,-85.4874752300041,4,1,0,60,0,0
493170,-86.1439965818062,4,1,0,60,0,0
493352,-86.8106797970714,4,1,0,60,0,0
493534,-87.4878391903525,4,1,0,60,0,0
493898,-88.8741950219786,4,1,0,60,0,0
494080,-89.5840612038306,4,1,0,60,0,0
494261,-90.3052769888608,4,1,0,60,0,0
494443,-91.0381996285641,4,1,0,60,0,0
494625,-91.7831164957206,4,1,0,60,0,0
494807,-92.5404100835732,4,1,0,60,0,0
494989,-93.310217282172,4,1,0,60,0,0
495170,-94.0929393599234,4,1,0,60,0,0
495352,-94.8889941102401,4,1,0,60,0,0
495534,-95.6985419370151,4,1,0,60,0,0
495625,-96.1085642341589,4,1,0,60,0,0
495716,-96.5220219819253,4,1,0,60,0,0
495898,-97.3598918136882,4,1,0,60,0,0
496080,-98.2123390054233,4,1,0,60,0,0
496261,-99.079845475073,4,1,0,60,0,0
496443,-100,4,1,0,60,0,0
496807,-98.5251766310104,4,1,0,60,0,0
496989,-97.804006638936,4,1,0,60,0,0
497170,-97.093223087215,4,1,0,60,0,0
497352,-96.3927890482369,4,1,0,60,0,0
497534,-95.7023885402132,4,1,0,60,0,0
497898,-94.3507489090695,4,1,0,60,0,0
498080,-93.6891020836456,4,1,0,60,0,0
498261,-93.0367569619405,4,1,0,60,0,0
498443,-92.3934334139004,4,1,0,60,0,0
498625,-91.7588613826409,4,1,0,60,0,0
498807,-91.1330296173233,4,1,0,60,0,0
498989,-90.5155949318508,4,1,0,60,0,0
499170,-89.9065511307547,4,1,0,60,0,0
499352,-89.3055688273554,4,1,0,60,0,0
499534,-88.712646431312,4,1,0,60,0,0
499716,-88.1275452336658,4,1,0,60,0,0
499898,-87.5500348449139,4,1,0,60,0,0
499989,-87.2641468271629,4,1,0,60,0,0
500080,-86.9565217391304,4,1,0,60,0,0
500261,-87.7742726584896,4,1,0,60,0,0
500443,-88.6076285851754,4,1,0,60,0,0
500625,-89.4568804417738,4,1,0,60,0,0
500807,-90.3225689906363,4,1,0,60,0,0
500989,-91.2051760761527,4,1,0,60,0,0
501170,-92.1052873961283,4,1,0,60,0,0
501534,-93.9597063195419,4,1,0,60,0,0
501716,-94.9152928468988,4,1,0,60,0,0
501898,-95.8904240945786,4,1,0,60,0,0
502080,-96.8857997389896,4,1,0,60,0,0
502261,-97.9020568243118,4,1,0,60,0,0
502443,-98.9399572975144,4,1,0,60,0,0
502625,-100,4,1,0,60,0,0
511716,-100,4,1,0,60,0,0
511898,-100.946372239748,4,1,0,60,0,0
512261,-102.893890675241,4,1,0,60,0,0
512443,-103.896103896104,4,1,0,60,0,0
512807,-105.960264900662,4,1,0,60,0,0
512989,-107.023411371237,4,1,0,60,0,0
513170,-108.108108108108,4,1,0,60,0,0
513352,-109.215017064846,4,1,0,60,0,0
513534,-110.344827586207,4,1,0,60,0,0
513716,-111.498257839721,4,1,0,60,0,0
513898,-112.676056338028,4,1,0,60,0,0
514080,-113.879003558719,4,1,0,60,0,0
514261,-115.107913669065,4,1,0,60,0,0
514625,-117.647058823529,4,1,0,60,0,0
523352,-117.647058823529,4,1,0,60,0,0
523716,-111.153720037125,4,1,0,60,0,0
523898,-108.168565565835,4,1,0,60,0,0
524080,-105.339667758688,4,1,0,60,0,0
524443,-100.103507026265,4,1,0,60,0,0
524807,-117.647058823529,4,1,0,60,0,0
526261,-133.333333333333,4,1,0,60,0,0
528080,-133.333333333333,4,1,0,25,0,0
528170,-129.729785829097,4,1,0,28,0,0
528261,-126.315736288111,4,1,0,31,0,0
528352,-123.076923076923,4,1,0,34,0,0
528443,-120.000048000019,4,1,0,37,0,0
528534,-117.073125044634,4,1,0,40,0,0
528625,-114.285714285714,4,1,0,42,0,0
528716,-111.627948512725,4,1,0,45,0,0
528807,-109.090869421502,4,1,0,48,0,0
528898,-106.666666666667,4,1,0,51,0,0
528989,-104.347862381865,4,1,0,54,0,0
529080,-102.127624807617,4,1,0,57,0,0
529170,-100,4,1,0,60,0,0
530625,-117.647058823529,4,1,0,40,0,0
530867,-119.987521297785,4,1,0,40,0,0
531110,-122.423145809639,4,1,0,40,0,0
531352,-124.959544347517,4,1,0,40,0,0
531595,-127.6032661332,4,1,0,40,0,0
531837,-130.361440128901,4,1,0,40,0,0
532080,-133.241308003272,4,1,0,40,0,0
533898,-133.333333333333,4,1,0,25,0,0
533988,-129.729785829097,4,1,0,28,0,0
534079,-126.315736288111,4,1,0,31,0,0
534170,-123.076923076923,4,1,0,34,0,0
534261,-120.000048000019,4,1,0,37,0,0
534352,-117.073125044634,4,1,0,40,0,0
534443,-114.285714285714,4,1,0,42,0,0
534534,-111.627948512725,4,1,0,45,0,0
534625,-109.090869421502,4,1,0,48,0,0
534716,-106.666666666667,4,1,0,51,0,0
534807,-104.347862381865,4,1,0,54,0,0
534898,-102.127624807617,4,1,0,57,0,0
534988,-100,4,1,0,60,0,0
536443,-117.647058823529,4,1,0,40,0,0
536989,-123.047543109707,4,1,0,40,0,0
537170,-124.959544347517,4,1,0,40,0,0
537898,-133.333333333333,4,1,0,60,0,0
540080,-120.481927710843,4,1,0,25,0,0
540170,-117.474302496329,4,1,0,29,0,0
540261,-114.613180515759,4,1,0,34,0,0
540352,-111.888111888112,4,1,0,38,0,0
540443,-109.289617486339,4,1,0,42,0,0
540534,-106.809078771696,4,1,0,47,0,0
540625,-104.43864229765,4,1,0,51,0,0
540716,-102.171136653895,4,1,0,56,0,0
540807,-100,4,1,0,60,0,0
542261,-117.647058823529,4,1,0,40,0,0
542503,-119.987521297785,4,1,0,40,0,0
542746,-122.423145809639,4,1,0,40,0,0
542988,-124.959544347517,4,1,0,40,0,0
543231,-127.6032661332,4,1,0,40,0,0
543473,-130.361440128901,4,1,0,40,0,0
543716,-133.241308003272,4,1,0,40,0,0
545534,-133.333333333333,4,1,0,25,0,0
545624,-129.729785829097,4,1,0,28,0,0
545715,-126.315736288111,4,1,0,31,0,0
545806,-123.076923076923,4,1,0,34,0,0
545897,-120.000048000019,4,1,0,37,0,0
545988,-117.073125044634,4,1,0,40,0,0
546079,-114.285714285714,4,1,0,42,0,0
546170,-111.627948512725,4,1,0,45,0,0
546261,-109.090869421502,4,1,0,48,0,0
546352,-106.666666666667,4,1,0,51,0,0
546443,-104.347862381865,4,1,0,54,0,0
546534,-102.127624807617,4,1,0,57,0,0
546624,-100,4,1,0,60,0,0
548080,-117.647058823529,4,1,0,60,0,0
549534,-80,4,1,0,60,0,0
549898,-81.0126582278481,4,1,0,60,0,0
550080,-81.5286956550097,4,1,0,60,0,0
550261,-82.0512820512821,4,1,0,60,0,0
550443,-82.5806110634896,4,1,0,60,0,0
550625,-83.1168831168831,4,1,0,60,0,0
550989,-84.2105263157895,4,1,0,60,0,0
551170,-84.7681759922963,4,1,0,60,0,0
551352,-85.3333333333333,4,1,0,60,0,0
551534,-85.906077167711,4,1,0,60,0,0
551716,-86.4864864864865,4,1,0,60,0,0
551898,-87.0747920218593,4,1,0,60,0,0
552080,-87.6712328767123,4,1,0,60,0,0
552261,-88.2759010321218,4,1,0,60,0,0
552352,-88.5813344955205,4,1,0,60,0,0
552443,-88.8888888888889,4,1,0,60,0,0
552625,-89.5104494498688,4,1,0,60,0,0
552807,-90.1408450704225,4,1,0,60,0,0
552989,-90.7801830491611,4,1,0,60,0,0
553170,-91.4285714285714,4,1,0,60,0,0
553352,-92.0862885358096,4,1,0,60,0,0
553534,-92.7536231884058,4,1,0,60,0,0
553898,-94.1176470588235,4,1,0,60,0,0
554080,-94.8147698655906,4,1,0,60,0,0
554261,-95.5223880597015,4,1,0,60,0,0
554443,-96.2406478150486,4,1,0,60,0,0
554625,-96.969696969697,4,1,0,60,0,0
554989,-98.4615384615385,4,1,0,60,0,0
555170,-99.2248554293856,4,1,0,60,0,0
555352,-100,4,1,0,60,0,0
572989,-100,4,1,0,60,0,0
573352,-97.7443535530561,4,1,0,60,0,0
573534,-96.6543110239074,4,1,0,60,0,0
573716,-95.5882212370263,4,1,0,60,0,0
573898,-94.5454820495948,4,1,0,60,0,0
574080,-93.5251596708288,4,1,0,60,0,0
574170,-93.0232558139535,4,1,0,60,0,0
574261,-92.526710148052,4,1,0,60,0,0
574443,-91.5492699861211,4,1,0,60,0,0
574625,-90.5923471208846,4,1,0,60,0,0
574807,-89.6551414982271,4,1,0,60,0,0
574989,-88.737207422335,4,1,0,60,0,0
575352,-86.9565217391304,4,1,0,60,0,0
575716,-86.9565217391304,4,1,0,60,0,0
575898,-87.6712328767123,4,1,0,60,0,0
576080,-88.3977900552486,4,1,0,60,0,0
576261,-89.1364902506964,4,1,0,60,0,0
576352,-89.5104494498688,4,1,0,60,0,0
576443,-89.8876404494382,4,1,0,60,0,0
576625,-90.6515580736544,4,1,0,60,0,0
576807,-91.4285714285714,4,1,0,60,0,0
577170,-93.0232558139535,4,1,0,60,0,0
577352,-93.841642228739,4,1,0,60,0,0
577534,-94.6745562130178,4,1,0,60,0,0
577716,-95.5223880597015,4,1,0,60,0,0
577807,-95.9520700219826,4,1,0,60,0,0
577898,-96.3855421686747,4,1,0,60,0,0
577989,-96.823042334907,4,1,0,60,0,0
578080,-97.2644376899696,4,1,0,60,0,0
578261,-98.159509202454,4,1,0,60,0,0
578625,-100,4,1,0,60,0,0
579352,-100,4,1,0,60,0,0
579534,-98.7696267594574,4,1,0,60,0,0
579716,-97.5692570979195,4,1,0,60,0,0
579898,-96.397620906716,4,1,0,60,0,0
579989,-95.8222459009639,4,1,0,60,0,0
580080,-95.2537894338782,4,1,0,60,0,0
580170,-94.6920378199999,4,1,0,60,0,0
580261,-94.1367845133693,4,1,0,60,0,0
580443,-93.0457599047211,4,1,0,60,0,0
580625,-91.9796504221406,4,1,0,60,0,0
580716,-91.4556632090329,4,1,0,60,0,0
580807,-90.9376949476836,4,1,0,60,0,0
580989,-89.9190818182717,4,1,0,60,0,0
581170,-88.9231144075898,4,1,0,60,0,0
581261,-88.4332806270981,4,1,0,60,0,0
581352,-87.9488911403805,4,1,0,60,0,0
581443,-87.4697026817336,4,1,0,60,0,0
581534,-86.9565217391304,4,1,0,60,0,0
581716,-87.6712328767123,4,1,0,60,0,0
582080,-89.1364902506964,4,1,0,60,0,0
582261,-89.8876404494382,4,1,0,60,0,0
582443,-90.6515580736544,4,1,0,60,0,0
582625,-91.4285714285714,4,1,0,60,0,0
582807,-92.2190201729107,4,1,0,60,0,0
582898,-92.6193492934996,4,1,0,60,0,0
582989,-93.0232558139535,4,1,0,60,0,0
583170,-93.841642228739,4,1,0,60,0,0
583261,-94.2563036259457,4,1,0,60,0,0
583352,-94.6745562130178,4,1,0,60,0,0
583534,-95.5223880597015,4,1,0,60,0,0
583716,-96.3855421686747,4,1,0,60,0,0
583898,-97.2644376899696,4,1,0,60,0,0
584080,-98.159509202454,4,1,0,60,0,0
584443,-100,4,1,0,60,0,0
590261,-100,4,1,0,60,0,0
590625,-101.910828025478,4,1,0,60,0,0
590989,-103.896103896104,4,1,0,60,0,0
591170,-104.918032786885,4,1,0,60,0,0
591352,-105.960264900662,4,1,0,60,0,0
591534,-107.023411371237,4,1,0,60,0,0
591625,-107.562967361093,4,1,0,60,0,0
591716,-108.108108108108,4,1,0,60,0,0
591898,-109.215017064846,4,1,0,60,0,0
592080,-110.344827586207,4,1,0,60,0,0
592261,-111.498257839721,4,1,0,60,0,0
592443,-112.676056338028,4,1,0,60,0,0
592625,-113.879003558719,4,1,0,60,0,0
592807,-115.107913669065,4,1,0,60,0,0
592989,-116.363636363636,4,1,0,60,0,0
593170,-117.647058823529,4,1,0,60,0,0
594443,-117.647058823529,4,1,0,60,0,0
594534,-115.394823388223,4,1,0,60,0,0
594625,-113.227201702937,4,1,0,60,0,0
594807,-109.127536260352,4,1,0,60,0,0
594989,-105.314263026584,4,1,0,60,0,0
595170,-101.758488438709,4,1,0,60,0,0
595352,-98.4349822177204,4,1,0,60,0,0
595534,-95.3217968539994,4,1,0,60,0,0
595716,-92.3994093829752,4,1,0,60,0,0
595898,-89.6508815371182,4,1,0,60,0,0
595991,352.941176470588,4,1,0,60,1,8
596080,352.941176470588,4,1,0,80,1,1
596080,-86.9565217391304,4,1,0,80,0,1
596256,-87.3124528512755,4,1,0,80,0,1
596432,-87.6712328767123,4,1,0,80,0,1
596609,-88.0330511287158,4,1,0,80,0,1
596785,-88.3977900552486,4,1,0,80,0,1
596962,-88.7656427253893,4,1,0,80,0,1
597050,-88.9506404001356,4,1,0,80,0,1
597138,-89.1364902506964,4,1,0,80,0,1
597315,-89.5104494498688,4,1,0,80,0,1
597491,-89.8876404494382,4,1,0,80,0,1
597668,-90.2680238163154,4,1,0,80,0,1
597844,-90.6515580736544,4,1,0,80,0,1
597932,-90.8445912493039,4,1,0,80,0,1
598021,-91.0383653879418,4,1,0,80,0,1
598109,-91.2330511799171,4,1,0,80,0,1
598197,-91.4285714285714,4,1,0,80,0,1
598374,-91.8221368480399,4,1,0,80,0,1
598550,-92.2190201729107,4,1,0,80,0,1
598727,-92.6193492934996,4,1,0,80,0,1
598903,-93.0232558139535,4,1,0,80,0,1
598991,-93.2265330171089,4,1,0,80,0,1
599080,-93.4307005807652,4,1,0,80,0,1
599168,-93.6356766909901,4,1,0,80,0,1
599256,-93.841642228739,4,1,0,80,0,1
599432,-94.2563036259457,4,1,0,80,0,1
599609,-94.6745562130178,4,1,0,80,0,1
599785,-95.0966276833891,4,1,0,80,0,1
599962,-95.5223880597015,4,1,0,80,0,1
600138,-95.9519779540736,4,1,0,80,0,1
600315,-96.3855421686747,4,1,0,80,0,1
600403,-96.603796915634,4,1,0,80,0,1
600491,-96.823042334907,4,1,0,80,0,1
600580,-97.0431910130242,4,1,0,80,0,1
600668,-97.2644376899696,4,1,0,80,0,1
600844,-97.7098759279995,4,1,0,80,0,1
601021,-98.159509202454,4,1,0,80,0,1
601197,-98.6132025327815,4,1,0,80,0,1
601374,-99.0712074303406,4,1,0,80,0,1
601550,-99.5333874794961,4,1,0,80,0,1
601727,-100,4,1,0,80,0,1
604374,-100,4,1,0,80,0,1
604550,-98.5507132115115,4,1,0,80,0,1
604727,-97.1428349387806,4,1,0,80,0,1
604815,-96.4538733464189,4,1,0,80,0,1
604903,-95.774615512806,4,1,0,80,0,1
604991,-95.1048578610347,4,1,0,80,0,1
605080,-94.4444024691545,4,1,0,80,0,1
605168,-93.7931448466294,4,1,0,80,0,1
605256,-93.1507206605504,4,1,0,80,0,1
605344,-92.5170370123658,4,1,0,80,0,1
605432,-91.8919167275451,4,1,0,80,0,1
605609,-90.6666811733357,4,1,0,80,0,1
605785,-89.4736889196678,4,1,0,80,0,1
605874,-88.8888888888889,4,1,0,80,0,1
605962,-88.3116837240684,4,1,0,80,0,1
606050,-87.7419264266399,4,1,0,80,0,1
606138,-87.1794737672604,4,1,0,80,0,1
606227,-86.624186165771,4,1,0,80,0,1
606315,-86.0759275757145,4,1,0,80,0,1
606403,-85.534565373213,4,1,0,80,0,1
606491,-84.9999702500104,4,1,0,80,0,1
606668,-83.9506504496397,4,1,0,80,0,1
606844,-82.9268535395669,4,1,0,80,0,1
607021,-81.9277266366702,4,1,0,80,0,1
607197,-80.9523886621323,4,1,0,80,0,1
607374,-80,4,1,0,80,0,1
611256,-80,4,1,0,80,0,1
611432,-81.1559199997403,4,1,0,80,0,1
611609,-82.3457335028558,4,1,0,80,0,1
611697,-82.9538196086239,4,1,0,80,0,1
611785,-83.5709534108649,4,1,0,80,0,1
611874,-84.1974092457175,4,1,0,80,0,1
611962,-84.8332559936816,4,1,0,80,0,1
612138,-86.1342022551657,4,1,0,80,0,1
612315,-87.4756708290507,4,1,0,80,0,1
612491,-88.8595849724224,4,1,0,80,0,1
612580,-89.5680936953915,4,1,0,80,0,1
612668,-90.2879916068283,4,1,0,80,0,1
612844,-91.7630714201161,4,1,0,80,0,1
613021,-93.2872369999571,4,1,0,80,0,0
613109,-94.0684216071402,4,1,0,80,0,0
613197,-94.8627999324577,4,1,0,80,0,0
613285,-95.6707090730274,4,1,0,80,0,0
613374,-96.4924977083032,4,1,0,80,0,0
613462,-97.3285266018329,4,1,0,80,0,0
613550,-98.1791691293275,4,1,0,80,0,0
613638,-99.0448118346665,4,1,0,80,0,0
613727,-99.9258550155784,4,1,0,80,0,1
614080,-100,4,1,0,80,0,1
614256,-99.304865938431,4,1,0,80,0,1
614432,-98.6193293885602,4,1,0,80,0,1
614609,-97.9431929480901,4,1,0,80,0,1
614785,-97.2762645914397,4,1,0,80,0,1
614962,-96.6183574879227,4,1,0,80,0,1
615138,-95.9692898272553,4,1,0,80,0,1
615315,-95.3288846520496,4,1,0,80,0,1
615491,-94.6969696969697,4,1,0,80,0,1
615668,-94.0733772342427,4,1,0,80,0,1
615844,-93.4579439252336,4,1,0,80,0,0
615932,-94.2205136902406,4,1,0,80,0,0
616021,-94.9956302010108,4,1,0,80,0,0
616109,-95.7835139331488,4,1,0,80,0,0
616197,-96.5846695017487,4,1,0,80,0,0
616285,-97.3993402168694,4,1,0,80,0,0
616374,-98.227870979656,4,1,0,80,0,0
616462,-99.0706185275926,4,1,0,80,0,0
616550,-99.9278520907905,4,1,0,80,0,1
616903,-100,4,1,0,80,0,1
617080,-98.5281859581571,4,1,0,80,0,1
617256,-97.0990682373412,4,1,0,80,0,1
617432,-95.7109071192644,4,1,0,80,0,1
617609,-94.3617887598124,4,1,0,80,0,1
617785,-93.0501754461058,4,1,0,80,0,1
617962,-91.7745246767931,4,1,0,80,0,1
618138,-90.5334593559087,4,1,0,80,0,1
618315,-89.3254322011037,4,1,0,80,0,1
618491,-88.1492189979197,4,1,0,80,0,1
618668,-87.0035793272535,4,1,0,80,0,1
618756,-87.1141604939024,4,1,0,80,0,1
618844,-87.2723718361583,4,1,0,80,0,1
618932,-87.431158891268,4,1,0,80,0,1
619021,-87.5905248073884,4,1,0,80,0,1
619109,-87.750472755672,4,1,0,80,0,1
619197,-87.9110059304765,4,1,0,80,0,1
619285,-88.0720499826498,4,1,0,80,0,1
619374,-88.2337630023479,4,1,0,80,0,1
619550,-88.5589771792372,4,1,0,80,0,1
619727,-88.8865975899288,4,1,0,80,0,1
619903,-89.2166510388833,4,1,0,80,0,1
620080,-89.549164730166,4,1,0,80,0,1
620168,-89.7163527790537,4,1,0,80,0,1
620256,-89.8841662749215,4,1,0,80,0,1
620344,-90.0526087340224,4,1,0,80,0,1
620432,-90.2216022995682,4,1,0,80,0,1
620609,-90.561663436634,4,1,0,80,0,1
620785,-90.9042977733901,4,1,0,80,0,1
620962,-91.2495346273734,4,1,0,80,0,1
621138,-91.5974037631877,4,1,0,80,0,1
621315,-91.9479354010585,4,1,0,80,0,1
621491,-92.301160225584,4,1,0,80,0,1
621580,-92.4787923009556,4,1,0,80,0,1
621668,-92.65702354137,4,1,0,80,0,1
621756,-92.836029291624,4,1,0,80,0,1
621844,-93.0157280294525,4,1,0,80,0,1
621932,-93.1961237868195,4,1,0,80,0,1
622021,-93.377220627028,4,1,0,80,0,1
622109,-93.5590226450258,4,1,0,80,0,1
622197,-93.7415339677136,4,1,0,80,0,1
622374,-94.1087011964039,4,1,0,80,0,1
622551,-94.4787559793243,4,1,0,80,0,1
622727,-94.8517325143202,4,1,0,80,0,1
622904,-95.2275748583966,4,1,0,80,0,1
622992,-95.4166607031254,4,1,0,80,0,1
623080,-95.6064989473724,4,1,0,80,0,1
623168,-95.7970940909478,4,1,0,80,0,1
623256,-95.9884506696154,4,1,0,80,0,1
623433,-96.373466457215,4,1,0,80,0,1
623609,-96.7615833291403,4,1,0,80,0,1
623785,-97.1528389031056,4,1,0,80,0,1
623962,-97.5471762531154,4,1,0,80,0,1
624139,-97.9448237629814,4,1,0,80,0,1
624315,-98.3457265339721,4,1,0,80,0,0
624403,-98.5474111595088,4,1,0,80,0,0
624491,-98.7499247031824,4,1,0,80,0,0
624580,-98.9532722857612,4,1,0,80,0,0
624668,-99.1574590702798,4,1,0,80,0,0
624756,-99.362490262476,4,1,0,80,0,0
624844,-99.5683711112328,4,1,0,80,0,0
624932,-99.7751069090271,4,1,0,80,0,0
625021,-99.9827029923823,4,1,0,80,0,1
625374,-100,4,1,0,80,0,1
625550,-99.304865938431,4,1,0,80,0,1
625727,-98.6193293885602,4,1,0,80,0,1
625903,-97.9431929480901,4,1,0,80,0,1
626080,-97.2762645914397,4,1,0,80,0,1
626256,-96.6183574879227,4,1,0,80,0,1
626432,-95.9692898272553,4,1,0,80,0,1
626609,-95.3288846520496,4,1,0,80,0,1
626785,-94.6969696969697,4,1,0,80,0,1
626962,-94.0733772342427,4,1,0,80,0,1
627138,-93.4579439252336,4,1,0,80,0,0
627227,-94.2205136902406,4,1,0,80,0,0
627315,-94.9956302010108,4,1,0,80,0,0
627403,-95.7835139331488,4,1,0,80,0,0
627491,-96.5846695017487,4,1,0,80,0,0
627580,-97.3993402168694,4,1,0,80,0,0
627668,-98.227870979656,4,1,0,80,0,0
627756,-99.0706185275926,4,1,0,80,0,0
627844,-99.9278520907905,4,1,0,80,0,1
628197,-100,4,1,0,80,0,1
628374,-99.3077258431474,4,1,0,80,0,1
628550,-98.6249706590712,4,1,0,80,0,1
628727,-97.9515394553699,4,1,0,80,0,1
628903,-97.2872425293127,4,1,0,80,0,1
629080,-96.6318952896783,4,1,0,80,0,1
629256,-95.9853180857456,4,1,0,80,0,1
629432,-95.3473360431046,4,1,0,80,0,1
629609,-94.7177789059718,4,1,0,80,0,1
629785,-94.0964808857113,4,1,0,80,0,1
629962,-93.4579439252336,4,1,0,80,0,1
630050,-92.9204814395984,4,1,0,80,0,1
630138,-92.3891653378025,4,1,0,80,0,1
630227,-91.8638907848575,4,1,0,80,0,1
630315,-91.3445553164358,4,1,0,80,0,1
630403,-90.8309762694991,4,1,0,80,0,1
630491,-90.3232216486698,4,1,0,80,0,1
630580,-89.8211122727975,4,1,0,80,0,1
630668,-89.3245545161155,4,1,0,80,0,1
630756,-88.8334568118383,4,1,0,80,0,1
630844,-88.347729595871,4,1,0,80,0,1
630932,-87.8672852523548,4,1,0,80,0,1
631021,-87.3920380609804,4,1,0,80,0,1
631109,-86.921904146001,4,1,0,80,0,1
631197,-86.4567266791626,4,1,0,80,0,1
631285,-85.996575616359,4,1,0,80,0,1
631374,-85.5412967718426,4,1,0,80,0,1
631462,-85.0908131703561,4,1,0,80,0,1
631550,-84.6450494496379,4,1,0,80,0,1
631638,-84.2039318183923,4,1,0,80,0,1
631727,-83.7673880155673,4,1,0,80,0,1
631815,-83.3353472708924,4,1,0,80,0,1
631903,-82.9077402666313,4,1,0,80,0,1
631991,-82.4844310636367,4,1,0,80,0,1
632080,-82.0654899022518,4,1,0,80,0,1
632168,-81.6507828677061,4,1,0,80,0,1
632256,-81.2402460929535,4,1,0,80,0,1
632344,-80.833816989005,4,1,0,80,0,1
632432,-80.4314342131192,4,1,0,80,0,1
632521,-80.0330376379369,4,1,0,80,0,1
632785,-93.4579439252336,4,1,0,80,0,1
632874,-92.970500460204,4,1,0,80,0,1
632962,-92.4880297367513,4,1,0,80,0,1
633050,-92.0106253870197,4,1,0,80,0,1
633138,-91.5380404634754,4,1,0,80,0,1
633227,-91.0703682521411,4,1,0,80,0,1
633315,-90.6074504694372,4,1,0,80,0,1
633403,-90.1491337118996,4,1,0,80,0,1
633491,-89.6955106499965,4,1,0,80,0,1
633580,-89.2463502705057,4,1,0,80,0,1
633668,-88.8017447766814,4,1,0,80,0,1
633756,-88.3615471753464,4,1,0,80,0,1
633844,-87.9256149297694,4,1,0,80,0,1
633932,-87.4940394685612,4,1,0,80,0,1
634021,-87.0666800168909,4,1,0,80,0,1
634109,-86.6434000256464,4,1,0,80,0,1
634197,-86.2242900723077,4,1,0,80,0,1
634285,-85.8091415910903,4,1,0,80,0,1
634374,-85.3980445555758,4,1,0,80,0,1
634462,-84.9908677312623,4,1,0,80,0,1
634550,-84.5874837592031,4,1,0,80,0,1
634638,-84.1879816604901,4,1,0,80,0,1
634727,-83.7921652649634,4,1,0,80,0,1
634903,-83.0117320480904,4,1,0,80,0,0
634991,-82.6268735643581,4,1,0,80,0,0
635080,-82.2456348129323,4,1,0,80,0,0
635168,-81.8678309363797,4,1,0,80,0,0
635256,-81.493548563228,4,1,0,80,0,0
635344,-81.1226728947247,4,1,0,80,0,0
635609,-80.0299632182289,4,1,0,80,0,1
635697,-80.2585609800533,4,1,0,80,0,1
635785,-80.5187987239381,4,1,0,80,0,1
635962,-81.0443044899355,4,1,0,80,0,1
636050,-81.3096711349041,4,1,0,80,0,1
636138,-81.5767812902021,4,1,0,80,0,1
636315,-82.1163013175561,4,1,0,80,0,1
636668,-83.2169682726987,4,1,0,80,0,1
636844,-83.7784763040958,4,1,0,80,0,1
637021,-84.3476133842793,4,1,0,80,0,1
637197,-84.9244639355525,4,1,0,80,0,1
637374,-85.5093320609545,4,1,0,80,0,1
637462,-85.8047975178388,4,1,0,80,0,1
637550,-86.1023119331777,4,1,0,80,0,1
637727,-86.7034983127499,4,1,0,80,0,1
638080,-87.9315681364135,4,1,0,80,0,1
638256,-88.5586634726509,4,1,0,80,0,1
638432,-89.1948470352971,4,1,0,80,0,1
638521,-89.5163788118312,4,1,0,80,0,1
638609,-89.8402371063538,4,1,0,80,0,1
638785,-90.4949530964658,4,1,0,80,0,1
638874,-90.8259438859153,4,1,0,80,0,1
638962,-91.1593648015461,4,1,0,80,0,1
639138,-91.8336048546917,4,1,0,80,0,1
639491,-93.2123685356057,4,1,0,80,0,1
639668,-93.9174371809742,4,1,0,80,0,1
639844,-94.6332535575006,4,1,0,80,0,1
640021,-95.3599743672389,4,1,0,80,0,1
640197,-96.0980353717649,4,1,0,80,0,1
640374,-96.8476102852162,4,1,0,80,0,1
640550,-97.6088753798205,4,1,0,80,0,1
640727,-98.3822998436705,4,1,0,80,0,1
640903,-99.1680789853915,4,1,0,80,0,1
641080,-99.966411285808,4,1,0,80,0,1
641256,-100,4,1,0,80,0,1
641344,-99.6109197474664,4,1,0,80,0,1
641432,-99.2248554293856,4,1,0,80,0,1
641609,-98.4615384615385,4,1,0,80,0,1
641697,-98.0843152390658,4,1,0,80,0,1
641785,-97.7098759279995,4,1,0,80,0,1
641962,-96.969696969697,4,1,0,80,0,1
642315,-95.5223880597015,4,1,0,80,0,1
642491,-94.8147698655906,4,1,0,80,0,1
642844,-93.4307005807652,4,1,0,80,0,1
643021,-92.7536231884058,4,1,0,80,0,1
643197,-92.0862885358096,4,1,0,80,0,1
643374,-91.4285714285714,4,1,0,80,0,1
643727,-90.1408450704225,4,1,0,80,0,1
643903,-89.5104494498688,4,1,0,80,0,1
644080,-88.8888888888889,4,1,0,80,0,1
644168,-88.5813344955205,4,1,0,80,0,1
644256,-88.2759010321218,4,1,0,80,0,1
644432,-87.6712328767123,4,1,0,80,0,1
644521,-87.3720327365532,4,1,0,80,0,1
644609,-87.0747920218593,4,1,0,80,0,1
644785,-86.4864864864865,4,1,0,80,0,1
645138,-85.3333333333333,4,1,0,80,0,1
645315,-84.7681759922963,4,1,0,80,0,1
645668,-83.6601657140562,4,1,0,80,0,1
645844,-83.1168831168831,4,1,0,80,0,1
646021,-82.5806110634896,4,1,0,80,0,1
646197,-82.0512820512821,4,1,0,80,0,1
646550,-81.0126582278481,4,1,0,80,0,1
646727,-80.5031122503196,4,1,0,80,0,1
646903,-80,4,1,0,80,0,1
646991,-80.2585609800533,4,1,0,80,0,1
647080,-80.5187987239381,4,1,0,80,0,1
647256,-81.0443044899355,4,1,0,80,0,1
647344,-81.3096711349041,4,1,0,80,0,1
647432,-81.5767812902021,4,1,0,80,0,1
647609,-82.1163013175561,4,1,0,80,0,1
647962,-83.2169682726987,4,1,0,80,0,1
648138,-83.7784763040958,4,1,0,80,0,1
648315,-84.3476133842793,4,1,0,80,0,1
648491,-84.9244639355525,4,1,0,80,0,1
648668,-85.5093320609545,4,1,0,80,0,1
648844,-86.1023119331777,4,1,0,80,0,1
649021,-86.7034983127499,4,1,0,80,0,1
649374,-87.9315681364135,4,1,0,80,0,1
649550,-88.5586634726509,4,1,0,80,0,1
649727,-89.1948470352971,4,1,0,80,0,1
649844,-89.6240450557999,4,1,0,80,0,1
649962,-90.0573935769266,4,1,0,80,0,1
650080,-90.4949530964658,4,1,0,80,0,1
650197,-90.9368679887675,4,1,0,80,0,1
650315,-91.3830365669221,4,1,0,80,0,1
650432,-91.8336048546917,4,1,0,80,0,1
650550,-92.288638253456,4,1,0,80,0,1
650668,-92.7482034672989,4,1,0,80,0,1
650785,-93.2123685356057,4,1,0,80,0,1
650903,-93.6812028666448,4,1,0,80,0,1
651021,-94.1547772721666,4,1,0,80,0,1
651138,-94.6332535575006,4,1,0,80,0,1
651256,-95.1165272575432,4,1,0,80,0,1
651374,-95.6047622644179,4,1,0,80,0,1
651491,-96.0980353717649,4,1,0,80,0,1
651609,-96.596424966312,4,1,0,80,0,1
651727,-97.1000110694013,4,1,0,80,0,1
651844,-97.6088753798205,4,1,0,80,0,1
651962,-98.1231013179895,4,1,0,80,0,1
652080,-98.6428713756143,4,1,0,80,0,1
652197,-99.1680789853915,4,1,0,80,0,1
652374,-99.966411285808,4,1,0,80,0,1
652550,-100,4,1,0,80,0,1
652638,-99.173586503665,4,1,0,80,0,1
652727,-98.3606234883202,4,1,0,80,0,1
652903,-96.774224765879,4,1,0,80,0,1
652991,-95.9999692800098,4,1,0,80,0,1
653080,-95.2380952380952,4,1,0,80,0,1
653256,-93.7499707031342,4,1,0,80,0,1
653609,-90.9090909090909,4,1,0,80,0,1
653785,-89.5522120739665,4,1,0,80,0,1
653962,-88.2353200692118,4,1,0,80,0,1
654138,-86.9565217391304,4,1,0,80,0,1
654315,-85.7142612244968,4,1,0,80,0,1
654491,-84.5070660583285,4,1,0,80,0,1
654668,-83.3333333333333,4,1,0,80,0,1
655021,-81.0811029948927,4,1,0,80,0,1
655197,-80,4,1,0,80,0,1
655374,-66.6666666666667,4,1,0,80,0,0
656080,-66.6666666666667,4,1,0,80,0,1
656168,-16.6666666666667,4,1,0,5,0,1
656785,-66.6666666666667,4,1,0,5,0,1
658197,-73.5228703916784,4,1,0,5,0,1
659609,-81.9508901095929,4,1,0,5,0,1
660050,-81.9508901095929,4,1,0,5,0,0
661021,-92.5613959739495,4,1,0,5,0,0
662432,-106.328004882582,4,1,0,5,0,0
663844,-124.905228158135,4,1,0,5,0,0
665252,533.333333333333,4,1,0,25,1,0
716452,266.666666666667,4,1,0,25,1,0
716452,-133.333333333333,4,1,0,25,0,0
733518,-117.647058823529,4,1,0,50,0,0
733785,-118.517394798035,4,1,0,50,0,0
734052,-119.400703986551,4,1,0,50,0,0
734318,-120.297278634963,4,1,0,50,0,0
734452,-120.750634242706,4,1,0,50,0,0
734585,-121.207272921204,4,1,0,50,0,0
734718,-121.66752645052,4,1,0,50,0,0
734852,-122.131288692719,4,1,0,50,0,0
735118,-123.069501039322,4,1,0,50,0,0
735385,-124.022239668017,4,1,0,50,0,0
735518,-124.504162174141,4,1,0,50,0,0
735652,-124.989844575128,4,1,0,50,0,0
735785,-125.47933104459,4,1,0,50,0,0
735918,-125.972666450834,4,1,0,50,0,0
736185,-126.971067102939,4,1,0,50,0,0
736452,-127.985419900965,4,1,0,50,0,0
736585,-128.498698308186,4,1,0,50,0,0
736718,-129.015943790334,4,1,0,50,0,0
736852,-129.53753803546,4,1,0,50,0,0
736985,-130.06336687234,4,1,0,50,0,0
737252,-131.127936282313,4,1,0,50,0,0
737518,-132.210076523192,4,1,0,50,0,0
737652,-132.757872209927,4,1,0,50,0,0
737785,-133.333333333333,4,1,0,50,0,0
738052,-132.232803785032,4,1,0,50,0,0
738318,-131.150292989755,4,1,0,50,0,0
738585,-130.085362014554,4,1,0,50,0,0
738718,-129.559355675412,4,1,0,50,0,0
738852,-129.037752575271,4,1,0,50,0,0
738985,-128.520167384666,4,1,0,50,0,0
739118,-128.00671779255,4,1,0,50,0,0
739385,-126.992028710358,4,1,0,50,0,0
739652,-125.993299676323,4,1,0,50,0,0
739785,-125.499802965309,4,1,0,50,0,0
739918,-125.010157075262,4,1,0,50,0,0
740052,-124.524317108645,4,1,0,50,0,0
740185,-124.042238863178,4,1,0,50,0,0
740452,-123.089194122737,4,1,0,50,0,0
740718,-122.15068263909,4,1,0,50,0,0
740852,-121.686773377854,4,1,0,50,0,0
740985,-121.226521453457,4,1,0,50,0,0
741118,-120.76959214901,4,1,0,50,0,0
741252,-120.316094443321,4,1,0,50,0,0
741518,-119.419240350328,4,1,0,50,0,0
741652,-118.975808648827,4,1,0,50,0,0
741785,-118.535657896608,4,1,0,50,0,0
741918,-118.098751814292,4,1,0,50,0,0
742052,-117.647058823529,4,1,0,50,0,0
742318,-118.518518518519,4,1,0,50,0,0
742585,-119.402985074627,4,1,0,50,0,0
742852,-120.300751879699,4,1,0,50,0,0
742985,-120.754716981132,4,1,0,50,0,0
743118,-121.212121212121,4,1,0,50,0,0
743252,-121.673003802281,4,1,0,50,0,0
743385,-122.137404580153,4,1,0,50,0,0
743652,-123.076923076923,4,1,0,50,0,0
743918,-124.031007751938,4,1,0,50,0,0
744052,-124.513618677043,4,1,0,50,0,0
744185,-125,4,1,0,50,0,0
744318,-125.490196078431,4,1,0,50,0,0
744452,-125.984251968504,4,1,0,50,0,0
744718,-126.984126984127,4,1,0,50,0,0
744985,-128,4,1,0,50,0,0
745118,-128.5140562249,4,1,0,50,0,0
745251,-129.032258064516,4,1,0,50,0,0
745385,-129.554655870445,4,1,0,50,0,0
745518,-130.081300813008,4,1,0,50,0,0
745785,-131.147540983607,4,1,0,50,0,0
746052,-132.231404958678,4,1,0,50,0,0
746185,-132.780082987552,4,1,0,50,0,0
746318,-133.333333333333,4,1,0,50,0,0
746585,-132.077365637696,4,1,0,50,0,0
746852,-130.844838956172,4,1,0,50,0,0
747118,-129.634935059379,4,1,0,50,0,0
747252,-129.038418608372,4,1,0,50,0,0
747385,-128.447366764758,4,1,0,50,0,0
747518,-127.86170478011,4,1,0,50,0,0
747652,-127.281359263092,4,1,0,50,0,0
747918,-126.136330668914,4,1,0,50,0,0
748185,-125.01156356963,4,1,0,50,0,0
748318,-124.45674630239,4,1,0,50,0,0
748452,-123.906831974901,4,1,0,50,0,0
748585,-123.361755881889,4,1,0,50,0,0
748718,-122.821454451664,4,1,0,50,0,0
748985,-121.754926813113,4,1,0,50,0,0
749252,-120.706616533185,4,1,0,50,0,0
749385,-120.189274068804,4,1,0,50,0,0
749518,-119.676347286399,4,1,0,50,0,0
749652,-119.167779892344,4,1,0,50,0,0
749785,-118.663516545847,4,1,0,50,0,0
750052,-117.667685276596,4,1,0,50,0,0
750584,266.666666666667,4,1,0,80,1,1
750584,-80,4,1,0,80,0,1
756984,-80,4,1,0,80,0,0
759117,-80,4,1,0,80,0,1
765517,-80,4,1,0,80,0,1
765784,-82.0512820512821,4,1,0,80,0,1
766050,-84.2105263157895,4,1,0,80,0,1
766317,-86.4864864864865,4,1,0,80,0,1
766583,-88.8888888888889,4,1,0,80,0,1
766650,-89.5104494498688,4,1,0,80,0,1
766717,-90.1408450704225,4,1,0,80,0,1
766784,-90.7801830491611,4,1,0,80,0,1
766850,-91.4285714285714,4,1,0,80,0,1
767117,-94.1176470588235,4,1,0,80,0,1
767384,-96.969696969697,4,1,0,80,0,1
767650,-100,4,1,0,80,0,0
767717,-99.7404752833128,4,1,0,80,0,0
767784,-99.4822941412887,4,1,0,80,0,0
767850,-99.2254461672187,4,1,0,80,0,0
767917,-98.969921061591,4,1,0,80,0,0
767984,-98.7157086307144,4,1,0,80,0,0
768050,-98.4628957346858,4,1,0,80,0,0
768117,-98.2112779938971,4,1,0,80,0,0
768184,-97.960942972037,4,1,0,80,0,0
768250,-97.7118808853087,4,1,0,80,0,0
768317,-97.4640820491628,4,1,0,80,0,0
768384,-97.2175368770422,4,1,0,80,0,0
768450,-96.9722358791454,4,1,0,80,0,0
768517,-96.7281696612096,4,1,0,80,0,0
768584,-96.4853289233106,4,1,0,80,0,0
768650,-96.2437044586821,4,1,0,80,0,0
768717,-96.0032871525521,4,1,0,80,0,0
768784,-95.7641596886516,4,1,0,80,0,0
768850,-95.5261292621371,4,1,0,80,0,0
768917,-95.2892791937765,4,1,0,80,0,0
768984,-95.0536007254491,4,1,0,80,0,0
769050,-94.8190851854661,4,1,0,80,0,0
769117,-94.5857239875071,4,1,0,80,0,0
769184,-94.3535086295719,4,1,0,80,0,0
769250,-94.1224306929482,4,1,0,80,0,0
769317,-93.892481841194,4,1,0,80,0,0
769384,-93.6636538191355,4,1,0,80,0,0
769450,-93.4359384518786,4,1,0,80,0,0
769517,-93.2094145237046,4,1,0,80,0,0
769584,-92.9838998377431,4,1,0,80,0,0
769650,-92.7594737569535,4,1,0,80,0,0
769717,-92.5361284179376,4,1,0,80,0,0
769784,-92.313856032849,4,1,0,80,0,0
769850,-92.0926488884878,4,1,0,80,0,0
769917,-91.8724993454084,4,1,0,80,0,0
769984,-91.6533998370403,4,1,0,80,0,0
770050,-91.4353428688205,4,1,0,80,0,0
770117,-91.2183210173397,4,1,0,80,0,0
770184,-91.0023269294996,4,1,0,80,0,0
770250,-90.7874357451923,4,1,0,80,0,0
770317,-90.5734750144012,4,1,0,80,0,0
770384,-90.3605204043091,4,1,0,80,0,0
770450,-90.1485648348478,4,1,0,80,0,0
770517,-89.9376012922234,4,1,0,80,0,0
770584,-89.7276228281429,4,1,0,80,0,0
770650,-89.518622559051,4,1,0,80,0,0
770717,-89.3105936653782,4,1,0,80,0,0
770784,-89.1035293907992,4,1,0,80,0,0
770850,-88.8974230415009,4,1,0,80,0,0
770917,-88.6923466487153,4,1,0,80,0,0
770984,-88.4881359531721,4,1,0,80,0,0
771050,-88.2848634718729,4,1,0,80,0,0
771117,-88.0825227539177,4,1,0,80,0,0
771184,-87.8811074074107,4,1,0,80,0,0
771250,-87.6806110987871,4,1,0,80,0,0
771317,-87.4810275521496,4,1,0,80,0,0
771384,-87.2823505486132,4,1,0,80,0,0
771450,-87.0845739256594,4,1,0,80,0,0
771517,-86.887691576499,4,1,0,80,0,0
771584,-86.6916974494436,4,1,0,80,0,0
771650,-86.4966603639433,4,1,0,80,0,0
771717,-86.3024244077065,4,1,0,80,0,0
771784,-86.1090588452086,4,1,0,80,0,0
771850,-85.9165578390267,4,1,0,80,0,0
771917,-85.7249156038206,4,1,0,80,0,0
771984,-85.5341264057534,4,1,0,80,0,0
772050,-85.3441845619198,4,1,0,80,0,0
772117,-85.1550844397817,4,1,0,80,0,0
772184,-84.9668204566117,4,1,0,80,0,0
772250,-84.7793870789432,4,1,0,80,0,0
772317,-84.5927788220286,4,1,0,80,0,0
772384,-84.4070614947646,4,1,0,80,0,0
772450,-84.2220869054026,4,1,0,80,0,0
772517,-84.0379212715946,4,1,0,80,0,0
772584,-83.8545592981709,4,1,0,80,0,0
772650,-83.6719957360751,4,1,0,80,0,0
772717,-83.4902253818634,4,1,0,80,0,0
772784,-83.3092430772102,4,1,0,80,0,0
772850,-83.1290437084199,4,1,0,80,0,0
772917,-82.9496222059457,4,1,0,80,0,0
772984,-82.7709735439137,4,1,0,80,0,0
773050,-82.5930927396542,4,1,0,80,0,0
773117,-82.4160427772228,4,1,0,80,0,0
773184,-82.2396826206168,4,1,0,80,0,0
773250,-82.0640756302521,4,1,0,80,0,0
773317,-81.889216991685,4,1,0,80,0,0
773384,-81.7151019314181,4,1,0,80,0,0
773450,-81.5417257164664,4,1,0,80,0,0
773517,-81.3690836539275,4,1,0,80,0,0
773584,-81.1971710905592,4,1,0,80,0,0
773650,-81.0259834123607,4,1,0,80,0,0
773717,-80.85551604416,4,1,0,80,0,0
773784,-80.6857644492067,4,1,0,80,0,0
773850,-80.5167889582496,4,1,0,80,0,0
773917,-80.3484551804265,4,1,0,80,0,0
773984,-80.1808237938198,4,1,0,80,0,0
774050,-80,4,1,0,80,0,1
774317,-82.0458291592518,4,1,0,80,0,1
774584,-84.1990397941502,4,1,0,80,0,1
774650,-84.7551001381508,4,1,0,80,0,1
774717,-85.3185538846391,4,1,0,80,0,1
774784,-85.8895494749572,4,1,0,80,0,1
774850,-86.468239351004,4,1,0,80,0,1
774917,-87.0548558763334,4,1,0,80,0,1
774984,-87.6494093744549,4,1,0,80,0,1
775050,-88.2521398937621,4,1,0,80,0,1
775117,-88.8632172927821,4,1,0,80,0,1
775384,-91.3946457360742,4,1,0,80,0,1
775650,-94.0745277223522,4,1,0,80,0,1
775717,-94.769213273376,4,1,0,80,0,1
775784,-95.4742348456134,4,1,0,80,0,1
775850,-96.189917372861,4,1,0,80,0,1
775917,-96.9163166372364,4,1,0,80,0,1
775984,-97.6537705097331,4,1,0,80,0,1
776050,-98.4025332748166,4,1,0,80,0,1
776117,-99.1628670761432,4,1,0,80,0,1
776184,-100,4,1,0,80,0,0
776250,-99.7404752833128,4,1,0,80,0,0
776317,-99.4822941412887,4,1,0,80,0,0
776384,-99.2254461672187,4,1,0,80,0,0
776450,-98.969921061591,4,1,0,80,0,0
776517,-98.7157086307144,4,1,0,80,0,0
776584,-98.4628957346858,4,1,0,80,0,0
776650,-98.2112779938971,4,1,0,80,0,0
776717,-97.960942972037,4,1,0,80,0,0
776784,-97.7118808853087,4,1,0,80,0,0
776850,-97.4640820491628,4,1,0,80,0,0
776917,-97.2175368770422,4,1,0,80,0,0
776984,-96.9722358791454,4,1,0,80,0,0
777050,-96.7281696612096,4,1,0,80,0,0
777117,-96.4853289233106,4,1,0,80,0,0
777184,-96.2437044586821,4,1,0,80,0,0
777250,-96.0032871525521,4,1,0,80,0,0
777317,-95.7641596886516,4,1,0,80,0,0
777384,-95.5261292621371,4,1,0,80,0,0
777450,-95.2892791937765,4,1,0,80,0,0
777517,-95.0536007254491,4,1,0,80,0,0
777584,-94.8190851854661,4,1,0,80,0,0
777650,-94.5857239875071,4,1,0,80,0,0
777717,-94.3535086295719,4,1,0,80,0,0
777784,-94.1224306929482,4,1,0,80,0,0
777850,-93.892481841194,4,1,0,80,0,0
777917,-93.6636538191355,4,1,0,80,0,0
777984,-93.4359384518786,4,1,0,80,0,0
778050,-93.2094145237046,4,1,0,80,0,0
778117,-92.9838998377431,4,1,0,80,0,0
778184,-92.7594737569535,4,1,0,80,0,0
778250,-92.5361284179376,4,1,0,80,0,0
778317,-92.313856032849,4,1,0,80,0,0
778384,-92.0926488884878,4,1,0,80,0,0
778450,-91.8724993454084,4,1,0,80,0,0
778517,-91.6533998370403,4,1,0,80,0,0
778584,-91.4353428688205,4,1,0,80,0,0
778650,-91.2183210173397,4,1,0,80,0,0
778717,-91.0023269294996,4,1,0,80,0,0
778784,-90.7874357451923,4,1,0,80,0,0
778850,-90.5734750144012,4,1,0,80,0,0
778917,-90.3605204043091,4,1,0,80,0,0
778984,-90.1485648348478,4,1,0,80,0,0
779050,-89.9376012922234,4,1,0,80,0,0
779117,-89.7276228281429,4,1,0,80,0,0
779184,-89.518622559051,4,1,0,80,0,0
779250,-89.3105936653782,4,1,0,80,0,0
779317,-89.1035293907992,4,1,0,80,0,0
779384,-88.8974230415009,4,1,0,80,0,0
779450,-88.6923466487153,4,1,0,80,0,0
779517,-88.4881359531721,4,1,0,80,0,0
779584,-88.2848634718729,4,1,0,80,0,0
779650,-88.0825227539177,4,1,0,80,0,0
779717,-87.8811074074107,4,1,0,80,0,0
779784,-87.6806110987871,4,1,0,80,0,0
779850,-87.4810275521496,4,1,0,80,0,0
779917,-87.2823505486132,4,1,0,80,0,0
779984,-87.0845739256594,4,1,0,80,0,0
780050,-86.887691576499,4,1,0,80,0,0
780117,-86.6916974494436,4,1,0,80,0,0
780184,-86.4966603639433,4,1,0,80,0,0
780250,-86.3024244077065,4,1,0,80,0,0
780317,-86.1090588452086,4,1,0,80,0,0
780384,-85.9165578390267,4,1,0,80,0,0
780450,-85.7249156038206,4,1,0,80,0,0
780517,-85.5341264057534,4,1,0,80,0,0
780584,-85.3441845619198,4,1,0,80,0,0
780650,-85.1550844397817,4,1,0,80,0,0
780717,-84.9668204566117,4,1,0,80,0,0
780784,-84.7793870789432,4,1,0,80,0,0
780850,-84.5927788220286,4,1,0,80,0,0
780917,-84.4070614947646,4,1,0,80,0,0
780984,-84.2220869054026,4,1,0,80,0,0
781050,-84.0379212715946,4,1,0,80,0,0
781117,-83.8545592981709,4,1,0,80,0,0
781184,-83.6719957360751,4,1,0,80,0,0
781250,-83.4902253818634,4,1,0,80,0,0
781317,-83.3092430772102,4,1,0,80,0,0
781384,-83.1290437084199,4,1,0,80,0,0
781450,-82.9496222059457,4,1,0,80,0,0
781517,-82.7709735439137,4,1,0,80,0,0
781584,-82.5930927396542,4,1,0,80,0,0
781650,-82.4160427772228,4,1,0,80,0,0
781717,-82.2396826206168,4,1,0,80,0,0
781784,-82.0640756302521,4,1,0,80,0,0
781850,-81.889216991685,4,1,0,80,0,0
781917,-81.7151019314181,4,1,0,80,0,0
781984,-81.5417257164664,4,1,0,80,0,0
782050,-81.3690836539275,4,1,0,80,0,0
782117,-81.1971710905592,4,1,0,80,0,0
782184,-81.0259834123607,4,1,0,80,0,0
782250,-80.85551604416,4,1,0,80,0,0
782317,-80.6857644492067,4,1,0,80,0,0
782384,-80.5167889582496,4,1,0,80,0,0
782450,-80.3484551804265,4,1,0,80,0,0
782517,-80.1808237938198,4,1,0,80,0,0
782584,-80,4,1,0,80,0,1
782850,-82.0512820512821,4,1,0,80,0,1
783117,-84.2105263157895,4,1,0,80,0,1
783184,-84.7681759922963,4,1,0,80,0,1
783250,-85.3333333333333,4,1,0,80,0,1
783317,-85.906077167711,4,1,0,80,0,1
783384,-86.4864864864865,4,1,0,80,0,1
783450,-87.0747920218593,4,1,0,80,0,1
783517,-87.6712328767123,4,1,0,80,0,1
783584,-88.2759010321218,4,1,0,80,0,1
783650,-88.8888888888889,4,1,0,80,0,1
783784,-90.1408450704225,4,1,0,80,0,1
783917,-91.4285714285714,4,1,0,80,0,1
784184,-94.1176470588235,4,1,0,80,0,1
784450,-96.969696969697,4,1,0,80,0,1
784717,-100,4,1,0,80,0,0
784784,-99.7404752833128,4,1,0,80,0,0
784850,-99.4822941412887,4,1,0,80,0,0
784917,-99.2254461672187,4,1,0,80,0,0
784984,-98.969921061591,4,1,0,80,0,0
785050,-98.7157086307144,4,1,0,80,0,0
785117,-98.4628957346858,4,1,0,80,0,0
785184,-98.2112779938971,4,1,0,80,0,0
785250,-97.960942972037,4,1,0,80,0,0
785317,-97.7118808853087,4,1,0,80,0,0
785384,-97.4640820491628,4,1,0,80,0,0
785450,-97.2175368770422,4,1,0,80,0,0
785517,-96.9722358791454,4,1,0,80,0,0
785584,-96.7281696612096,4,1,0,80,0,0
785650,-96.4853289233106,4,1,0,80,0,0
785717,-96.2437044586821,4,1,0,80,0,0
785784,-96.0032871525521,4,1,0,80,0,0
785850,-95.7641596886516,4,1,0,80,0,0
785917,-95.5261292621371,4,1,0,80,0,0
785984,-95.2892791937765,4,1,0,80,0,0
786050,-95.0536007254491,4,1,0,80,0,0
786117,-94.8190851854661,4,1,0,80,0,0
786184,-94.5857239875071,4,1,0,80,0,0
786250,-94.3535086295719,4,1,0,80,0,0
786317,-94.1224306929482,4,1,0,80,0,0
786384,-93.892481841194,4,1,0,80,0,0
786450,-93.6636538191355,4,1,0,80,0,0
786517,-93.4359384518786,4,1,0,80,0,0
786584,-93.2094145237046,4,1,0,80,0,0
786650,-92.9838998377431,4,1,0,80,0,0
786717,-92.7594737569535,4,1,0,80,0,0
786784,-92.5361284179376,4,1,0,80,0,0
786850,-92.313856032849,4,1,0,80,0,0
786917,-92.0926488884878,4,1,0,80,0,0
786984,-91.8724993454084,4,1,0,80,0,0
787050,-91.6533998370403,4,1,0,80,0,0
787117,-91.4353428688205,4,1,0,80,0,0
787184,-91.2183210173397,4,1,0,80,0,0
787250,-91.0023269294996,4,1,0,80,0,0
787317,-90.7874357451923,4,1,0,80,0,0
787384,-90.5734750144012,4,1,0,80,0,0
787450,-90.3605204043091,4,1,0,80,0,0
787517,-90.1485648348478,4,1,0,80,0,0
787584,-89.9376012922234,4,1,0,80,0,0
787650,-89.7276228281429,4,1,0,80,0,0
787717,-89.518622559051,4,1,0,80,0,0
787784,-89.3105936653782,4,1,0,80,0,0
787850,-89.1035293907992,4,1,0,80,0,0
787917,-88.8974230415009,4,1,0,80,0,0
787984,-88.6923466487153,4,1,0,80,0,0
788050,-88.4881359531721,4,1,0,80,0,0
788117,-88.2848634718729,4,1,0,80,0,0
788184,-88.0825227539177,4,1,0,80,0,0
788250,-87.8811074074107,4,1,0,80,0,0
788317,-87.6806110987871,4,1,0,80,0,0
788384,-87.4810275521496,4,1,0,80,0,0
788450,-87.2823505486132,4,1,0,80,0,0
788517,-87.0845739256594,4,1,0,80,0,0
788584,-86.887691576499,4,1,0,80,0,0
788650,-86.6916974494436,4,1,0,80,0,0
788717,-86.4966603639433,4,1,0,80,0,0
788784,-86.3024244077065,4,1,0,80,0,0
788850,-86.1090588452086,4,1,0,80,0,0
788917,-85.9165578390267,4,1,0,80,0,0
788984,-85.7249156038206,4,1,0,80,0,0
789050,-85.5341264057534,4,1,0,80,0,0
789117,-85.3441845619198,4,1,0,80,0,0
789184,-85.1550844397817,4,1,0,80,0,0
789250,-84.9668204566117,4,1,0,80,0,0
789317,-84.7793870789432,4,1,0,80,0,0
789384,-84.5927788220286,4,1,0,80,0,0
789450,-84.4070614947646,4,1,0,80,0,0
789517,-84.2220869054026,4,1,0,80,0,0
789584,-84.0379212715946,4,1,0,80,0,0
789650,-83.8545592981709,4,1,0,80,0,0
789717,-83.6719957360751,4,1,0,80,0,0
789784,-83.4902253818634,4,1,0,80,0,0
789850,-83.3092430772102,4,1,0,80,0,0
789917,-83.1290437084199,4,1,0,80,0,0
789984,-82.9496222059457,4,1,0,80,0,0
790050,-82.7709735439137,4,1,0,80,0,0
790117,-82.5930927396542,4,1,0,80,0,0
790184,-82.4160427772228,4,1,0,80,0,0
790250,-82.2396826206168,4,1,0,80,0,0
790317,-82.0640756302521,4,1,0,80,0,0
790384,-81.889216991685,4,1,0,80,0,0
790450,-81.7151019314181,4,1,0,80,0,0
790517,-81.5417257164664,4,1,0,80,0,0
790584,-81.3690836539275,4,1,0,80,0,0
790650,-81.1971710905592,4,1,0,80,0,0
790717,-81.0259834123607,4,1,0,80,0,0
790784,-80.85551604416,4,1,0,80,0,0
790850,-80.6857644492067,4,1,0,80,0,0
790917,-80.5167889582496,4,1,0,80,0,0
790984,-80.3484551804265,4,1,0,80,0,0
791050,-80.1808237938198,4,1,0,80,0,0
791117,-80,4,1,0,80,0,1
791384,-82.0512820512821,4,1,0,80,0,1
791650,-84.2105263157895,4,1,0,80,0,1
791917,-86.4864864864865,4,1,0,80,0,1
792050,-87.6712328767123,4,1,0,80,0,1
792183,-88.8888888888889,4,1,0,80,0,1
792450,-91.4285714285714,4,1,0,80,0,1
792717,-94.1176470588235,4,1,0,80,0,1
792984,-96.969696969697,4,1,0,80,0,1
793117,-98.4615384615385,4,1,0,80,0,1
793250,-100,4,1,0,80,0,0
793317,-99.7404752833128,4,1,0,80,0,0
793384,-99.4822941412887,4,1,0,80,0,0
793450,-99.2254461672187,4,1,0,80,0,0
793517,-98.969921061591,4,1,0,80,0,0
793584,-98.7157086307144,4,1,0,80,0,0
793650,-98.4628957346858,4,1,0,80,0,0
793717,-98.2112779938971,4,1,0,80,0,0
793784,-97.960942972037,4,1,0,80,0,0
793850,-97.7118808853087,4,1,0,80,0,0
793917,-97.4640820491628,4,1,0,80,0,0
793984,-97.2175368770422,4,1,0,80,0,0
794050,-96.9722358791454,4,1,0,80,0,0
794117,-96.7281696612096,4,1,0,80,0,0
794184,-96.4853289233106,4,1,0,80,0,0
794250,-96.2437044586821,4,1,0,80,0,0
794317,-96.0032871525521,4,1,0,80,0,0
794384,-95.7641596886516,4,1,0,80,0,0
794450,-95.5261292621371,4,1,0,80,0,0
794517,-95.2892791937765,4,1,0,80,0,0
794584,-95.0536007254491,4,1,0,80,0,0
794650,-94.8190851854661,4,1,0,80,0,0
794717,-94.5857239875071,4,1,0,80,0,0
794784,-94.3535086295719,4,1,0,80,0,0
794850,-94.1224306929482,4,1,0,80,0,0
794917,-93.892481841194,4,1,0,80,0,0
794984,-93.6636538191355,4,1,0,80,0,0
795050,-93.4359384518786,4,1,0,80,0,0
795117,-93.2094145237046,4,1,0,80,0,0
795184,-92.9838998377431,4,1,0,80,0,0
795250,-92.7594737569535,4,1,0,80,0,0
795317,-92.5361284179376,4,1,0,80,0,0
795384,-92.313856032849,4,1,0,80,0,0
795450,-92.0926488884878,4,1,0,80,0,0
795517,-91.8724993454084,4,1,0,80,0,0
795584,-91.6533998370403,4,1,0,80,0,0
795650,-91.4353428688205,4,1,0,80,0,0
795717,-91.2183210173397,4,1,0,80,0,0
795784,-91.0023269294996,4,1,0,80,0,0
795850,-90.7874357451923,4,1,0,80,0,0
795917,-90.5734750144012,4,1,0,80,0,0
795984,-90.3605204043091,4,1,0,80,0,0
796050,-90.1485648348478,4,1,0,80,0,0
796117,-89.9376012922234,4,1,0,80,0,0
796184,-89.7276228281429,4,1,0,80,0,0
796250,-89.518622559051,4,1,0,80,0,0
796317,-89.3105936653782,4,1,0,80,0,0
796384,-89.1035293907992,4,1,0,80,0,0
796450,-88.8974230415009,4,1,0,80,0,0
796517,-88.6923466487153,4,1,0,80,0,0
796584,-88.4881359531721,4,1,0,80,0,0
796650,-88.2848634718729,4,1,0,80,0,0
796717,-88.0825227539177,4,1,0,80,0,0
796784,-87.8811074074107,4,1,0,80,0,0
796850,-87.6806110987871,4,1,0,80,0,0
796917,-87.4810275521496,4,1,0,80,0,0
796984,-87.2823505486132,4,1,0,80,0,0
797050,-87.0845739256594,4,1,0,80,0,0
797117,-86.887691576499,4,1,0,80,0,0
797184,-86.6916974494436,4,1,0,80,0,0
797250,-86.4966603639433,4,1,0,80,0,0
797317,-86.3024244077065,4,1,0,80,0,0
797384,-86.1090588452086,4,1,0,80,0,0
797450,-85.9165578390267,4,1,0,80,0,0
797517,-85.7249156038206,4,1,0,80,0,0
797584,-85.5341264057534,4,1,0,80,0,0
797650,-85.3441845619198,4,1,0,80,0,0
797717,-85.1550844397817,4,1,0,80,0,0
797784,-84.9668204566117,4,1,0,80,0,0
797850,-84.7793870789432,4,1,0,80,0,0
797917,-84.5927788220286,4,1,0,80,0,0
797984,-84.4070614947646,4,1,0,80,0,0
798050,-84.2220869054026,4,1,0,80,0,0
798117,-84.0379212715946,4,1,0,80,0,0
798184,-83.8545592981709,4,1,0,80,0,0
798250,-83.6719957360751,4,1,0,80,0,0
798317,-83.4902253818634,4,1,0,80,0,0
798384,-83.3092430772102,4,1,0,80,0,0
798450,-83.1290437084199,4,1,0,80,0,0
798517,-82.9496222059457,4,1,0,80,0,0
798584,-82.7709735439137,4,1,0,80,0,0
798650,-82.5930927396542,4,1,0,80,0,0
798717,-82.4160427772228,4,1,0,80,0,0
798784,-82.2396826206168,4,1,0,80,0,0
798850,-82.0640756302521,4,1,0,80,0,0
798917,-81.889216991685,4,1,0,80,0,0
798984,-81.7151019314181,4,1,0,80,0,0
799050,-81.5417257164664,4,1,0,80,0,0
799117,-81.3690836539275,4,1,0,80,0,0
799184,-81.1971710905592,4,1,0,80,0,0
799250,-81.0259834123607,4,1,0,80,0,0
799317,-80.85551604416,4,1,0,80,0,0
799384,-80.6857644492067,4,1,0,80,0,0
799450,-80.5167889582496,4,1,0,80,0,0
799517,-80.3484551804265,4,1,0,80,0,0
799584,-80.1808237938198,4,1,0,80,0,0
799650,-80,4,1,0,80,0,0
799717,-80.5738144771807,4,1,0,80,0,0
799784,-81.1559199997403,4,1,0,80,0,0
799850,-81.7464975713116,4,1,0,80,0,0
799917,-82.3457335028558,4,1,0,80,0,0
800050,-83.5709534108649,4,1,0,80,0,0
800184,-84.8332559936816,4,1,0,80,0,0
800250,-85.4787794656038,4,1,0,80,0,0
800317,-86.1342022551657,4,1,0,80,0,0
800384,-86.7997538358981,4,1,0,80,0,0
800450,-87.4756708290507,4,1,0,80,0,0
800517,-88.1621972840753,4,1,0,80,0,0
800584,-88.8595849724224,4,1,0,80,0,0
800650,-89.5680936953915,4,1,0,80,0,0
800717,-90.2879916068283,4,1,0,80,0,0
800984,-93.2872369999571,4,1,0,80,0,0
801250,-96.4924977083032,4,1,0,80,0,0
801517,-99.9258550155784,4,1,0,80,0,0
801717,-80,4,1,0,80,0,0
801784,-80,4,1,0,80,0,1
802050,-80.5031122503196,4,1,0,80,0,1
802184,-80.7571140960735,4,1,0,80,0,1
802317,-81.0126582278481,4,1,0,80,0,1
802450,-81.2698247578769,4,1,0,80,0,1
802584,-81.5286956550097,4,1,0,80,0,1
802717,-81.7891541038526,4,1,0,80,0,1
802850,-82.0512820512821,4,1,0,80,0,1
802984,-82.315095600752,4,1,0,80,0,1
803117,-82.5806110634896,4,1,0,80,0,1
803250,-82.8479135995679,4,1,0,80,0,1
803384,-83.1168831168831,4,1,0,80,0,1
803517,-83.3876047661019,4,1,0,80,0,1
803650,-83.6601657140562,4,1,0,80,0,1
803784,-83.9344438419817,4,1,0,80,0,1
803917,-84.2105263157895,4,1,0,80,0,1
804050,-84.4884309991433,4,1,0,80,0,1
804184,-84.7681759922963,4,1,0,80,0,1
804317,-85.0498519707326,4,1,0,80,0,1
804450,-85.3333333333333,4,1,0,80,0,1
804584,-85.618710770577,4,1,0,80,0,1
804717,-85.906077167711,4,1,0,80,0,1
804850,-86.1953047693586,4,1,0,80,0,1
804984,-86.4864864864865,4,1,0,80,0,1
805117,-86.7796421901793,4,1,0,80,0,1
805250,-87.0747920218593,4,1,0,80,0,1
805384,-87.3720327365532,4,1,0,80,0,1
805517,-87.6712328767123,4,1,0,80,0,1
805650,-87.9724892431639,4,1,0,80,0,1
805784,-88.2759010321218,4,1,0,80,0,1
805917,-88.5813344955205,4,1,0,80,0,1
806050,-88.8888888888889,4,1,0,80,0,1
806139,-89.0951143803078,4,1,0,80,0,0
806228,-89.3022989983854,4,1,0,80,0,0
806317,-89.5104494498688,4,1,0,80,0,0
806406,-89.71965300027,4,1,0,80,0,0
806495,-89.9297558676917,4,1,0,80,0,0
806584,-90.1408450704225,4,1,0,80,0,0
806672,-90.3529275703827,4,1,0,80,0,0
806761,-90.5660103951667,4,1,0,80,0,0
806850,-90.7801830491611,4,1,0,80,0,0
806939,-90.9952882639737,4,1,0,80,0,0
807028,-91.2114152910465,4,1,0,80,0,0
807117,-91.4285714285714,4,1,0,80,0,0
807206,-91.6467640444084,4,1,0,80,0,0
807295,-91.8660005769185,4,1,0,80,0,0
807384,-92.0862885358096,4,1,0,80,0,0
807472,-92.3077207100679,4,1,0,80,0,0
807561,-92.5301347516352,4,1,0,80,0,0
807650,-92.7536231884058,4,1,0,80,0,0
807739,-92.9781938242024,4,1,0,80,0,0
807828,-93.2038545386083,4,1,0,80,0,0
807917,-93.4307005807652,4,1,0,80,0,0
808006,-93.6585658251132,4,1,0,80,0,0
808095,-93.8875452537968,4,1,0,80,0,0
808184,-94.1176470588235,4,1,0,80,0,0
808272,-94.3488795127069,4,1,0,80,0,0
808361,-94.5812509694578,4,1,0,80,0,0
808450,-94.8147698655906,4,1,0,80,0,0
808539,-95.0495350651992,4,1,0,80,0,0
808628,-95.2853749336576,4,1,0,80,0,0
808717,-95.5223880597015,4,1,0,80,0,0
808806,-95.7605832202561,4,1,0,80,0,0
808895,-95.9999692800098,4,1,0,80,0,0
808984,-96.2406478150486,4,1,0,80,0,0
809072,-96.4824430898309,4,1,0,80,0,0
809161,-96.725456399066,4,1,0,80,0,0
809250,-96.969696969697,4,1,0,80,0,0
809339,-97.2151741220984,4,1,0,80,0,0
809428,-97.4618972712618,4,1,0,80,0,0
809517,-97.7098759279995,4,1,0,80,0,0
809606,-97.959215660152,4,1,0,80,0,0
809695,-98.2097347453274,4,1,0,80,0,0
809784,-98.4615384615385,4,1,0,80,0,0
809872,-98.7146367153297,4,1,0,80,0,0
809961,-98.9690395153684,4,1,0,80,0,0
810050,-99.2248554293856,4,1,0,80,0,0
810139,-99.4818982737901,4,1,0,80,0,0
810228,-99.7402763204615,4,1,0,80,0,0
810317,-100,4,1,0,80,0,0
852984,-100,4,1,0,80,0,1
867383,275.229357798165,4,1,0,80,1,9
867383,-96.8992248062015,4,1,0,80,0,1
867658,-97.9911807937286,4,1,0,80,0,1
867795,-98.5464400098546,4,1,0,80,0,1
867933,279.06976744186,4,1,0,80,1,1
867933,-97.7441558087306,4,1,0,80,0,1
868072,-98.3043640279184,4,1,0,80,0,1
868212,-98.8710307879791,4,1,0,80,0,1
868351,-99.4442684255197,4,1,0,80,0,1
868491,285.714285714286,4,1,0,80,1,9
868633,-98.2711300478018,4,1,0,80,0,1
868776,-98.8509750942614,4,1,0,80,0,1
869062,285.714285714286,4,1,0,80,1,1
869062,-100.031438452085,4,1,0,80,0,1
869204,-100.63230632474,4,1,0,80,0,1
869347,-101.240436394491,4,1,0,80,0,1
869490,-101.855961120125,4,1,0,80,0,1
869633,292.682926829268,4,1,0,80,1,9
869633,-100.03903962522,4,1,0,80,0,1
869779,-100.654746853312,4,1,0,80,0,1
869925,-101.27807996522,4,1,0,80,0,1
870218,300,3,1,0,80,1,0
870218,-100.047022100387,4,1,0,80,0,0
892718,-86.9565217391304,4,1,0,80,0,0
892868,-87.9960225797794,4,1,0,80,0,0
892943,-88.5251097047422,4,1,0,80,0,0
893018,-89.0606770392668,4,1,0,80,0,0
893093,-89.6026837795846,4,1,0,80,0,0
893168,-90.1514092919058,4,1,0,80,0,0
893243,-90.7068147122825,4,1,0,80,0,0
893318,-91.2691893470602,4,1,0,80,0,0
893393,-91.8384964936062,4,1,0,80,0,0
893468,-92.4150359263452,4,1,0,80,0,0
893543,-92.9987733461796,4,1,0,80,0,0
893618,-93.5899319694784,4,1,0,80,0,0
893693,-94.188742938199,4,1,0,80,0,0
893768,-94.7951760630805,4,1,0,80,0,0
893843,-95.4095598470775,4,1,0,80,0,0
893918,-96.0318672148166,4,1,0,80,0,0
893993,-96.6624392959881,4,1,0,80,0,0
894068,-97.3012524617217,4,1,0,80,0,0
894143,-97.9486611887245,4,1,0,80,0,0
894218,-98.6046456592756,4,1,0,80,0,0
894293,-99.2695744710421,4,1,0,80,0,0
894368,-99.9434320174781,4,1,0,80,0,0
894518,-86.9565217391304,4,1,0,80,0,0
894668,-87.9960225797794,4,1,0,80,0,0
894743,-88.5251097047422,4,1,0,80,0,0
894818,-89.0606770392668,4,1,0,80,0,0
894893,-89.6026837795846,4,1,0,80,0,0
894968,-90.1514092919058,4,1,0,80,0,0
895043,-90.7068147122825,4,1,0,80,0,0
895118,-91.2691893470602,4,1,0,80,0,0
895193,-91.8384964936062,4,1,0,80,0,0
895268,-92.4150359263452,4,1,0,80,0,0
895343,-92.9987733461796,4,1,0,80,0,0
895418,-93.5899319694784,4,1,0,80,0,0
895493,-94.188742938199,4,1,0,80,0,0
895568,-94.7951760630805,4,1,0,80,0,0
895643,-95.4095598470775,4,1,0,80,0,0
895718,-96.0318672148166,4,1,0,80,0,0
895793,-96.6624392959881,4,1,0,80,0,0
895868,-97.3012524617217,4,1,0,80,0,0
895943,-97.9486611887245,4,1,0,80,0,0
896018,-98.6046456592756,4,1,0,80,0,0
896093,-99.2695744710421,4,1,0,80,0,0
896168,-99.9434320174781,4,1,0,80,0,0
896318,-86.9565217391304,4,1,0,80,0,0
896468,-87.9087647675736,4,1,0,80,0,0
896543,-88.3927111370396,4,1,0,80,0,0
896618,-88.8820153463688,4,1,0,80,0,0
896693,-89.376846749096,4,1,0,80,0,0
896768,-89.877137952419,4,1,0,80,0,0
896843,-90.3831431822639,4,1,0,80,0,0
896918,-90.8947956366862,4,1,0,80,0,0
896993,-91.41227392602,4,1,0,80,0,0
897068,-91.9357626439254,4,1,0,80,0,0
897143,-92.4651961001879,4,1,0,80,0,0
897218,-93.0007626062534,4,1,0,80,0,0
897293,-93.5426568546656,4,1,0,80,0,0
897368,-94.090814572409,4,1,0,80,0,0
897443,-94.6455241185189,4,1,0,80,0,0
897518,-95.2067223562521,4,1,0,80,0,0
897593,-95.774615512806,4,1,0,80,0,0
897668,-96.3494169415034,4,1,0,80,0,0
897743,-96.9310655341241,4,1,0,80,0,0
897818,-97.5197794492668,4,1,0,80,0,0
897893,-98.1157844749432,4,1,0,80,0,0
897968,-98.7190219709055,4,1,0,80,0,0
898043,-99.3298216930371,4,1,0,80,0,0
898118,-100,4,1,0,80,0,0
898268,-96.0265186833996,4,1,0,80,0,0
898418,-92.3566555438468,4,1,0,80,0,0
898568,-88.9570497572362,4,1,0,80,0,0
898718,-85.7988343370367,4,1,0,80,0,0
898868,-82.8571120816441,4,1,0,80,0,0
899018,-80,4,1,0,80,0,0
899093,-80.1741382282317,4,1,0,80,0,0
899168,-80.3490362133106,4,1,0,80,0,0
899318,-80.7011314298627,4,1,0,80,0,0
899393,-80.8783387589219,4,1,0,80,0,0
899468,-81.0563260409659,4,1,0,80,0,0
899618,-81.4145948687637,4,1,0,80,0,0
899768,-81.7761117257949,4,1,0,80,0,0
899918,-82.1408534927523,4,1,0,80,0,0
900068,-82.5088635146631,4,1,0,80,0,0
900218,-82.880185916833,4,1,0,80,0,0
900368,-83.2548656224841,4,1,0,80,0,0
900518,-83.632948370872,4,1,0,80,0,0
900818,-84.3994389125301,4,1,0,80,0,0
900893,-84.5932797406709,4,1,0,80,0,0
900968,-84.7880130098727,4,1,0,80,0,0
901118,-85.1801816382193,4,1,0,80,0,0
901193,-85.3776295242673,4,1,0,80,0,0
901268,-85.5759949065168,4,1,0,80,0,0
901418,-85.9755038594404,4,1,0,80,0,0
901568,-86.3787604993383,4,1,0,80,0,0
901718,-86.785817808797,4,1,0,80,0,0
901868,-87.196653741216,4,1,0,80,0,0
902018,-87.6114746500579,4,1,0,80,0,0
902168,-88.0302612826185,4,1,0,80,0,0
902318,-88.4530707810318,4,1,0,80,0,0
902618,-89.3109924862662,4,1,0,80,0,0
902693,-89.5280795868816,4,1,0,80,0,0
902768,-89.7462246006966,4,1,0,80,0,0
902918,-90.1856381175011,4,1,0,80,0,0
902993,-90.4070032881027,4,1,0,80,0,0
903068,-90.6294578364573,4,1,0,80,0,0
903218,-91.0776673916449,4,1,0,80,0,0
903368,-91.5303322368,4,1,0,80,0,0
903518,-91.987519133404,4,1,0,80,0,0
903668,-92.4492961835082,4,1,0,80,0,0
903818,-92.9157328635514,4,1,0,80,0,0
903968,-93.3869000592073,4,1,0,80,0,0
904118,-93.8627819989957,4,1,0,80,0,0
904418,-94.8294255707546,4,1,0,80,0,0
904493,-95.0742054173282,4,1,0,80,0,0
904568,-95.3202522173874,4,1,0,80,0,0
904718,-95.8161862283395,4,1,0,80,0,0
904793,-96.066093472309,4,1,0,80,0,0
904868,-96.3173077386141,4,1,0,80,0,0
905018,-96.8236985684616,4,1,0,80,0,0
905168,-97.3353475261248,4,1,0,80,0,0
905318,-97.8525284114816,4,1,0,80,0,0
905468,-98.3752346249346,4,1,0,80,0,0
905618,-98.9035551871948,4,1,0,80,0,0
905768,-99.4375810416285,4,1,0,80,0,0
905918,-99.9774051064459,4,1,0,80,0,0
921518,-86.9565217391304,4,1,0,80,0,0
921668,-87.9960225797794,4,1,0,80,0,0
921743,-88.5251097047422,4,1,0,80,0,0
921818,-89.0606770392668,4,1,0,80,0,0
921893,-89.6026837795846,4,1,0,80,0,0
921968,-90.1514092919058,4,1,0,80,0,0
922043,-90.7068147122825,4,1,0,80,0,0
922118,-91.2691893470602,4,1,0,80,0,0
922193,-91.8384964936062,4,1,0,80,0,0
922268,-92.4150359263452,4,1,0,80,0,0
922343,-92.9987733461796,4,1,0,80,0,0
922418,-93.5899319694784,4,1,0,80,0,0
922493,-94.188742938199,4,1,0,80,0,0
922568,-94.7951760630805,4,1,0,80,0,0
922643,-95.4095598470775,4,1,0,80,0,0
922718,-96.0318672148166,4,1,0,80,0,0
922793,-96.6624392959881,4,1,0,80,0,0
922868,-97.3012524617217,4,1,0,80,0,0
922943,-97.9486611887245,4,1,0,80,0,0
923018,-98.6046456592756,4,1,0,80,0,0
923093,-99.2695744710421,4,1,0,80,0,0
923168,-99.9434320174781,4,1,0,80,0,0
923318,-86.9565217391304,4,1,0,80,0,0
923468,-87.9960225797794,4,1,0,80,0,0
923543,-88.5251097047422,4,1,0,80,0,0
923618,-89.0606770392668,4,1,0,80,0,0
923693,-89.6026837795846,4,1,0,80,0,0
923768,-90.1514092919058,4,1,0,80,0,0
923843,-90.7068147122825,4,1,0,80,0,0
923918,-91.2691893470602,4,1,0,80,0,0
923993,-91.8384964936062,4,1,0,80,0,0
924068,-92.4150359263452,4,1,0,80,0,0
924143,-92.9987733461796,4,1,0,80,0,0
924218,-93.5899319694784,4,1,0,80,0,0
924293,-94.188742938199,4,1,0,80,0,0
924368,-94.7951760630805,4,1,0,80,0,0
924443,-95.4095598470775,4,1,0,80,0,0
924518,-96.0318672148166,4,1,0,80,0,0
924593,-96.6624392959881,4,1,0,80,0,0
924668,-97.3012524617217,4,1,0,80,0,0
924743,-97.9486611887245,4,1,0,80,0,0
924818,-98.6046456592756,4,1,0,80,0,0
924893,-99.2695744710421,4,1,0,80,0,0
924968,-99.9434320174781,4,1,0,80,0,0
925118,-86.9565217391304,4,1,0,80,0,0
925268,-87.9960225797794,4,1,0,80,0,0
925343,-88.5251097047422,4,1,0,80,0,0
925418,-89.0606770392668,4,1,0,80,0,0
925493,-89.6026837795846,4,1,0,80,0,0
925568,-90.1514092919058,4,1,0,80,0,0
925643,-90.7068147122825,4,1,0,80,0,0
925718,-91.2691893470602,4,1,0,80,0,0
925793,-91.8384964936062,4,1,0,80,0,0
925868,-92.4150359263452,4,1,0,80,0,0
925943,-92.9987733461796,4,1,0,80,0,0
926018,-93.5899319694784,4,1,0,80,0,0
926093,-94.188742938199,4,1,0,80,0,0
926168,-94.7951760630805,4,1,0,80,0,0
926243,-95.4095598470775,4,1,0,80,0,0
926318,-96.0318672148166,4,1,0,80,0,0
926393,-96.6624392959881,4,1,0,80,0,0
926468,-97.3012524617217,4,1,0,80,0,0
926543,-97.9486611887245,4,1,0,80,0,0
926618,-98.6046456592756,4,1,0,80,0,0
926693,-99.2695744710421,4,1,0,80,0,0
926768,-99.9434320174781,4,1,0,80,0,0
926918,-86.9565217391304,4,1,0,80,0,0
927218,-92.9564136671956,4,1,0,80,0,0
927518,-100,4,1,0,80,0,0
927593,-99.5222929936306,4,1,0,80,0,0
927668,-99.0491283676704,4,1,0,80,0,0
927743,-98.5804416403786,4,1,0,80,0,0
927818,-98.116169544741,4,1,0,80,0,1
927893,-97.65625,4,1,0,80,0,1
927968,-97.2006220839813,4,1,0,80,0,1
928043,-96.7492260061919,4,1,0,80,0,1
928118,-96.3020030816641,4,1,0,80,0,1
928193,-95.8588957055215,4,1,0,80,0,1
928268,-95.4198473282443,4,1,0,80,0,1
928343,-94.9848024316109,4,1,0,80,0,1
928418,-94.553706505295,4,1,0,80,0,1
928493,-94.1265060240964,4,1,0,80,0,1
928568,-93.7031484257871,4,1,0,80,0,1
928643,-93.2835820895522,4,1,0,80,0,1
928718,-92.8677563150074,4,1,0,80,0,1
928793,-92.4556213017752,4,1,0,80,0,1
928868,-92.0471281296024,4,1,0,80,0,1
928943,-91.6422287390029,4,1,0,80,0,1
929018,-91.2408759124088,4,1,0,80,0,1
929093,-90.8430232558139,4,1,0,80,0,1
929168,-90.4486251808973,4,1,0,80,0,1
929243,-90.0576368876081,4,1,0,80,0,1
929318,-89.6700143472023,4,1,0,80,0,1
929393,-89.2857142857143,4,1,0,80,0,1
929468,-88.9046941678521,4,1,0,80,0,1
929543,-88.5269121813031,4,1,0,80,0,1
929618,-88.1523272214386,4,1,0,80,0,1
929693,-87.7808988764045,4,1,0,80,0,1
929768,-87.4125874125874,4,1,0,80,0,1
929843,-87.0473537604457,4,1,0,80,0,1
929918,-86.6851595006935,4,1,0,80,0,1
929993,-86.3259668508287,4,1,0,80,0,1
930068,-85.9697386519945,4,1,0,80,0,1
930143,-85.6164383561644,4,1,0,80,0,1
930218,-85.2660300136426,4,1,0,80,0,1
930293,-84.9184782608696,4,1,0,80,0,1
930368,-84.573748308525,4,1,0,80,0,1
930443,-84.2318059299191,4,1,0,80,0,1
930518,-83.8926174496644,4,1,0,80,0,1
930593,-83.5561497326203,4,1,0,80,0,1
930668,-83.2223701731025,4,1,0,80,0,1
930743,-82.8912466843501,4,1,0,80,0,1
930818,-82.5627476882431,4,1,0,80,0,1
930893,-82.2368421052632,4,1,0,80,0,1
930968,-81.913499344692,4,1,0,80,0,1
931043,-81.5926892950392,4,1,0,80,0,1
931118,-81.2743823146944,4,1,0,80,0,1
931193,-80.9585492227979,4,1,0,80,0,1
931268,-80.6451612903226,4,1,0,80,0,1
931343,-80.3341902313625,4,1,0,80,0,1
931418,-80,4,1,0,80,0,1
931493,-80.4458631519333,4,1,0,80,0,1
931568,-80.8967894491171,4,1,0,80,0,1
931643,-81.3527332484553,4,1,0,80,0,1
931718,-81.8139126194688,4,1,0,80,0,1
931793,-82.2802828467003,4,1,0,80,0,1
931868,-82.7520005296128,4,1,0,80,0,1
931943,-83.2292274413421,4,1,0,80,0,1
932018,-83.7119204937664,4,1,0,80,0,1
932093,-84.2003159195853,4,1,0,80,0,1
932168,-84.6943718895992,4,1,0,80,0,1
932243,-85.1942599515415,4,1,0,80,0,1
932318,-85.7001574311892,4,1,0,80,0,1
932393,-86.2120246807784,4,1,0,80,0,1
932468,-86.7301184213037,4,1,0,80,0,1
932543,-87.2544006756981,4,1,0,80,0,1
932618,-87.7851370984379,4,1,0,80,0,1
932693,-88.3222915748483,4,1,0,80,0,1
932768,-88.8660601854279,4,1,0,80,0,1
932843,-89.4166458027826,4,1,0,80,0,1
932918,-89.9740155043224,4,1,0,80,0,1
932993,-90.5384593794675,4,1,0,80,0,1
933068,-91.1099469284559,4,1,0,80,0,1
933143,-91.6886948756105,4,1,0,80,0,1
933218,-92.2749276103193,4,1,0,80,0,1
933293,-92.8686187650331,4,1,0,80,0,1
933368,-93.4700863009307,4,1,0,80,0,1
933443,-94.0793069741931,4,1,0,80,0,1
933518,-94.6965213232892,4,1,0,80,0,1
933593,-95.321978579245,4,1,0,80,0,1
933668,-95.9556608082537,4,1,0,80,0,1
933743,-96.597917928477,4,1,0,80,0,1
933818,-97.2487360095537,4,1,0,80,0,1
933893,-97.9083832094955,4,1,0,80,0,1
933968,-98.5771375959402,4,1,0,80,0,1
934043,-99.2549920298241,4,1,0,80,0,1
934118,-100,4,1,0,80,0,1
934193,-99.5856242176304,4,1,0,80,0,1
934268,-99.1746684094962,4,1,0,80,0,1
934343,-98.7670904104069,4,1,0,80,0,1
934418,-98.3628487454802,4,1,0,80,0,1
934493,-97.9619985815103,4,1,0,80,0,1
934568,-97.5643070739001,4,1,0,80,0,1
934643,-97.1698314880782,4,1,0,80,0,1
934718,-96.7785329729301,4,1,0,80,0,1
934793,-96.3903733006377,4,1,0,80,0,1
934868,-96.0053148542303,4,1,0,80,0,1
934943,-95.6233206154317,4,1,0,80,0,1
935018,-95.2443541527967,4,1,0,80,0,1
935093,-94.8683796101289,4,1,0,80,0,1
935168,-94.4954509889894,4,1,0,80,0,1
935243,-94.1253542643021,4,1,0,80,0,1
935318,-93.7581452388676,4,1,0,80,0,1
935393,-93.3937902468865,4,1,0,80,0,1
935468,-93.0322561438502,4,1,0,80,0,1
935543,-92.6735102964904,4,1,0,80,0,1
935618,-92.3175205729595,4,1,0,80,0,1
935693,-91.9642553332371,4,1,0,80,0,1
935768,-91.6136834197556,4,1,0,80,0,1
935843,-91.2658574427307,4,1,0,80,0,1
935918,-90.9205799641955,4,1,0,80,0,1
935993,-90.5779051504408,4,1,0,80,0,1
936068,-90.2378036840486,4,1,0,80,0,1
936143,-89.9002466862769,4,1,0,80,0,1
936218,-89.5652057088862,4,1,0,80,0,1
936293,-89.2326527261468,4,1,0,80,0,1
936368,-88.902560127024,4,1,0,80,0,1
936443,-88.5749007075363,4,1,0,80,0,1
936518,-88.2497255433536,4,1,0,80,0,1
936593,-87.9268518933729,4,1,0,80,0,1
936668,-87.6063321856904,4,1,0,80,0,1
936743,-87.2881407713304,4,1,0,80,0,1
936818,-86.9722523726031,4,1,0,80,0,1
936893,-86.6586420764104,4,1,0,80,0,1
936968,-86.3472853276966,4,1,0,80,0,1
937043,-86.0381579230389,4,1,0,80,0,1
937118,-85.7312360043757,4,1,0,80,0,1
937193,-85.4265690297934,4,1,0,80,0,1
937268,-85.1239873437656,4,1,0,80,0,1
937343,-84.8235415864377,4,1,0,80,0,1
937418,-84.5252092210241,4,1,0,80,0,1
937493,-84.2289680266837,4,1,0,80,0,1
937568,-83.9347960930031,4,1,0,80,0,1
937643,-83.6426718145943,4,1,0,80,0,1
937718,-83.3525738858053,4,1,0,80,0,1
937793,-83.0645502926779,4,1,0,80,0,1
937868,-82.7784418448335,4,1,0,80,0,1
937943,-82.4942975816797,4,1,0,80,0,1
938018,-82.2120973457002,4,1,0,80,0,1
938093,-81.9318212542615,4,1,0,80,0,1
938168,-81.6534496949427,4,1,0,80,0,1
938243,-81.3769633209613,4,1,0,80,0,1
938318,-81.1023430466906,4,1,0,80,0,1
938393,-80.8295700432681,4,1,0,80,0,1
938468,-80.558690631266,4,1,0,80,0,1
938543,-80.2895562556805,4,1,0,80,0,1
938618,-80,4,1,0,80,0,1
938693,-80.4458631519333,4,1,0,80,0,1
938768,-80.8967894491171,4,1,0,80,0,1
938843,-81.3527332484553,4,1,0,80,0,1
938918,-81.8139126194688,4,1,0,80,0,1
938993,-82.2802828467003,4,1,0,80,0,1
939068,-82.7520005296128,4,1,0,80,0,1
939143,-83.2292274413421,4,1,0,80,0,1
939218,-83.7119204937664,4,1,0,80,0,1
939293,-84.2003159195853,4,1,0,80,0,1
939368,-84.6943718895992,4,1,0,80,0,1
939443,-85.1942599515415,4,1,0,80,0,1
939518,-85.7001574311892,4,1,0,80,0,1
939593,-86.2120246807784,4,1,0,80,0,1
939668,-86.7301184213037,4,1,0,80,0,1
939743,-87.2544006756981,4,1,0,80,0,1
939818,-87.7851370984379,4,1,0,80,0,1
939893,-88.3222915748483,4,1,0,80,0,1
939968,-88.8660601854279,4,1,0,80,0,1
940043,-89.4166458027826,4,1,0,80,0,1
940118,-89.9740155043224,4,1,0,80,0,1
940193,-90.5384593794675,4,1,0,80,0,1
940268,-91.1099469284559,4,1,0,80,0,1
940343,-91.6886948756105,4,1,0,80,0,1
940418,-92.2749276103193,4,1,0,80,0,1
940493,-92.8686187650331,4,1,0,80,0,1
940568,-93.4700863009307,4,1,0,80,0,1
940643,-94.0793069741931,4,1,0,80,0,1
940718,-94.6965213232892,4,1,0,80,0,1
940793,-95.321978579245,4,1,0,80,0,1
940868,-95.9556608082537,4,1,0,80,0,1
940943,-96.597917928477,4,1,0,80,0,1
941018,-97.2487360095537,4,1,0,80,0,1
941093,-97.9083832094955,4,1,0,80,0,1
941168,-98.5771375959402,4,1,0,80,0,1
941243,-99.2549920298241,4,1,0,80,0,1
941318,-99.9423332737011,4,1,0,80,0,1
941393,-99.5856242176304,4,1,0,80,0,1
941468,-99.1746684094962,4,1,0,80,0,1
941543,-98.7670904104069,4,1,0,80,0,1
941618,-98.3628487454802,4,1,0,80,0,1
941693,-97.9619985815103,4,1,0,80,0,1
941768,-97.5643070739001,4,1,0,80,0,1
941843,-97.1698314880782,4,1,0,80,0,1
941918,-96.7785329729301,4,1,0,80,0,1
941993,-96.3903733006377,4,1,0,80,0,1
942068,-96.0053148542303,4,1,0,80,0,1
942143,-95.6233206154317,4,1,0,80,0,1
942218,-95.2443541527967,4,1,0,80,0,1
942293,-94.8683796101289,4,1,0,80,0,1
942368,-94.4954509889894,4,1,0,80,0,1
942443,-94.1253542643021,4,1,0,80,0,1
942518,-93.7581452388676,4,1,0,80,0,1
942593,-93.3937902468865,4,1,0,80,0,1
942668,-93.0322561438502,4,1,0,80,0,1
942743,-92.6735102964904,4,1,0,80,0,1
942818,-92.3175205729595,4,1,0,80,0,1
942893,-91.9642553332371,4,1,0,80,0,1
942968,-91.6136834197556,4,1,0,80,0,1
943043,-91.2658574427307,4,1,0,80,0,1
943118,-90.9205799641955,4,1,0,80,0,1
943193,-90.5779051504408,4,1,0,80,0,1
943268,-90.2378036840486,4,1,0,80,0,1
943343,-89.9002466862769,4,1,0,80,0,1
943418,-89.5652057088862,4,1,0,80,0,1
943493,-89.2326527261468,4,1,0,80,0,1
943568,-88.902560127024,4,1,0,80,0,1
943643,-88.5749007075363,4,1,0,80,0,1
943718,-88.2497255433536,4,1,0,80,0,1
943793,-87.9268518933729,4,1,0,80,0,1
943868,-87.6063321856904,4,1,0,80,0,1
943943,-87.2881407713304,4,1,0,80,0,1
944018,-86.9722523726031,4,1,0,80,0,1
944093,-86.6586420764104,4,1,0,80,0,1
944168,-86.3472853276966,4,1,0,80,0,1
944243,-86.0381579230389,4,1,0,80,0,1
944318,-85.7312360043757,4,1,0,80,0,1
944393,-85.4265690297934,4,1,0,80,0,1
944468,-85.1239873437656,4,1,0,80,0,1
944543,-84.8235415864377,4,1,0,80,0,1
944618,-84.5252092210241,4,1,0,80,0,1
944693,-84.2289680266837,4,1,0,80,0,1
944768,-83.9347960930031,4,1,0,80,0,1
944843,-83.6426718145943,4,1,0,80,0,1
944918,-83.3525738858053,4,1,0,80,0,1
944993,-83.0645502926779,4,1,0,80,0,1
945068,-82.7784418448335,4,1,0,80,0,1
945143,-82.4942975816797,4,1,0,80,0,1
945218,-82.2120973457002,4,1,0,80,0,1
945293,-81.9318212542615,4,1,0,80,0,1
945368,-81.6534496949427,4,1,0,80,0,1
945443,-81.3769633209613,4,1,0,80,0,1
945518,-81.1023430466906,4,1,0,80,0,1
945593,-80.8295700432681,4,1,0,80,0,1
945668,-80.558690631266,4,1,0,80,0,1
945743,-80.2895562556805,4,1,0,80,0,1
945818,-80,4,1,0,80,0,1
945893,-80.4458631519333,4,1,0,80,0,1
945968,-80.8967894491171,4,1,0,80,0,1
946043,-81.3527332484553,4,1,0,80,0,1
946118,-81.8139126194688,4,1,0,80,0,1
946193,-82.2802828467003,4,1,0,80,0,1
946268,-82.7520005296128,4,1,0,80,0,1
946343,-83.2292274413421,4,1,0,80,0,1
946418,-83.7119204937664,4,1,0,80,0,1
946493,-84.2003159195853,4,1,0,80,0,1
946568,-84.6943718895992,4,1,0,80,0,1
946643,-85.1942599515415,4,1,0,80,0,1
946718,-85.7001574311892,4,1,0,80,0,1
946793,-86.2120246807784,4,1,0,80,0,1
946868,-86.7301184213037,4,1,0,80,0,1
946943,-87.2544006756981,4,1,0,80,0,1
947018,-87.7851370984379,4,1,0,80,0,1
947093,-88.3222915748483,4,1,0,80,0,1
947168,-88.8660601854279,4,1,0,80,0,1
947243,-89.4166458027826,4,1,0,80,0,1
947318,-89.9740155043224,4,1,0,80,0,1
947393,-90.5384593794675,4,1,0,80,0,1
947468,-91.1099469284559,4,1,0,80,0,1
947543,-91.6886948756105,4,1,0,80,0,1
947618,-92.2749276103193,4,1,0,80,0,1
947693,-92.8686187650331,4,1,0,80,0,1
947768,-93.4700863009307,4,1,0,80,0,1
947843,-94.0793069741931,4,1,0,80,0,1
947918,-94.6965213232892,4,1,0,80,0,1
947993,-95.321978579245,4,1,0,80,0,1
948068,-95.9556608082537,4,1,0,80,0,1
948143,-96.597917928477,4,1,0,80,0,1
948218,-97.2487360095537,4,1,0,80,0,1
948293,-97.9083832094955,4,1,0,80,0,1
948368,-98.5771375959402,4,1,0,80,0,1
948443,-99.2549920298241,4,1,0,80,0,1
948518,-100,4,1,0,80,0,1
948593,-99.539530133602,4,1,0,80,0,1
948668,-99.0832814797494,4,1,0,80,0,1
948743,-98.6311962583269,4,1,0,80,0,1
948818,-98.1832177389583,4,1,0,80,0,1
948893,-97.7392902172744,4,1,0,80,0,1
948968,-97.299358991823,4,1,0,80,0,1
949043,-96.8633703415984,4,1,0,80,0,1
949118,-96.4312715041736,4,1,0,80,0,1
949193,-96.002918488722,4,1,0,80,0,1
949268,-95.5784455312776,4,1,0,80,0,1
949343,-95.1577096300554,4,1,0,80,0,1
949418,-94.7406616498328,4,1,0,80,0,1
949493,-94.327253313009,4,1,0,80,0,1
949568,-93.9174371809742,4,1,0,80,0,1
949643,-93.5111666359638,4,1,0,80,0,1
949718,-93.1083958633802,4,1,0,80,0,1
949793,-92.7090798345699,4,1,0,80,0,1
949868,-92.3131742900425,4,1,0,80,0,1
949943,-91.9206357231167,4,1,0,80,0,1
950018,-91.5314213639829,4,1,0,80,0,1
950093,-91.1454891641685,4,1,0,80,0,1
950168,-90.7627977813942,4,1,0,80,0,1
950243,-90.3833065648107,4,1,0,80,0,1
950318,-90.0069755406044,4,1,0,80,0,1
950393,-89.6336850559135,4,1,0,80,0,1
950468,-89.2635577954758,4,1,0,80,0,1
950543,-88.8964747213985,4,1,0,80,0,1
950618,-88.5323984312059,4,1,0,80,0,1
950693,-88.171292132652,4,1,0,80,0,1
950768,-87.8131196313254,4,1,0,80,0,1
950843,-87.4578453185565,4,1,0,80,0,1
950918,-87.1054341596155,4,1,0,80,0,1
950993,-86.755851682196,4,1,0,80,0,1
951068,-86.4090639651737,4,1,0,80,0,1
951143,-86.0650376276345,4,1,0,80,0,1
951218,-85.7237398181628,4,1,0,80,0,1
951293,-85.3851382043847,4,1,0,80,0,1
951368,-85.049200962757,4,1,0,80,0,1
951443,-84.7158967685968,4,1,0,80,0,1
951518,-84.3851947863451,4,1,0,80,0,1
951593,-84.0570646600564,4,1,0,80,0,1
951668,-83.7314063945675,4,1,0,80,0,1
951743,-83.4083313245827,4,1,0,80,0,1
951818,-83.087739822375,4,1,0,80,0,1
951893,-82.7696033597837,4,1,0,80,0,1
951968,-82.4538938439098,4,1,0,80,0,1
952043,-82.1405836088465,4,1,0,80,0,1
952118,-81.8296454075976,4,1,0,80,0,1
952193,-81.5210524041781,4,1,0,80,0,1
952268,-81.2147781658942,4,1,0,80,0,1
952343,-80.910796655795,4,1,0,80,0,1
952418,-80.6090822252943,4,1,0,80,0,1
952493,-80.3096096069567,4,1,0,80,0,1
952568,-80.0123539074433,4,1,0,80,0,1
952643,-79.717290600614,4,1,0,80,0,1
952718,-79.4243955207818,4,1,0,80,0,1
952793,-79.1336448561153,4,1,0,80,0,1
952868,-78.8450151421852,4,1,0,80,0,1
952943,-78.5584215413477,4,1,0,80,0,1
953018,-78.2739651399069,4,1,0,80,0,1
953093,-77.9915613130659,4,1,0,80,0,1
953168,-77.7111879243031,4,1,0,80,0,1
953243,-77.4328231542725,4,1,0,80,0,1
953318,-77.1564454951438,4,1,0,80,0,1
953393,-76.8820337450622,4,1,0,80,0,1
953468,-76.6095670027273,4,1,0,80,0,1
953543,-76.3390246620853,4,1,0,80,0,1
953618,-76.0703864071348,4,1,0,80,0,1
953693,-75.8036322068408,4,1,0,80,0,1
953768,-75.538742310156,4,1,0,80,0,1
953843,-75.2756972411457,4,1,0,80,0,1
953918,-75.0144777942143,4,1,0,80,0,1
953993,-74.7550650294311,4,1,0,80,0,1
954068,-74.4974402679524,4,1,0,80,0,1
954143,-74.2415299694496,4,1,0,80,0,1
954218,-73.9874265767276,4,1,0,80,0,1
954293,-73.7350566690778,4,1,0,80,0,1
954368,-73.4844025681329,4,1,0,80,0,1
954443,-73.2354468350936,4,1,0,80,0,1
954518,-72.9881722666842,4,1,0,80,0,1
954593,-72.7425618911902,4,1,0,80,0,1
954668,-72.498598964575,4,1,0,80,0,1
954743,-72.2562669666747,4,1,0,80,0,1
954818,-72.0155495974691,4,1,0,80,0,1
954893,-71.7764307734269,4,1,0,80,0,1
954968,-71.5388946239236,4,1,0,80,0,1
955043,-71.3029254877298,4,1,0,80,0,1
955118,-71.0685079095696,4,1,0,80,0,1
955193,-70.8356266367457,4,1,0,80,0,1
955268,-70.6042666158316,4,1,0,80,0,1
955343,-70.3744129894277,4,1,0,80,0,1
955418,-70.1460018883304,4,1,0,80,0,1
955493,-69.919117564801,4,1,0,80,0,1
955568,-69.6936962051782,4,1,0,80,0,1
955643,-69.4697237050149,4,1,0,80,0,1
955718,-69.2471861405912,4,1,0,80,0,1
955793,-69.0260697660292,4,1,0,80,0,1
955868,-68.8063610104627,4,1,0,80,0,1
955943,-68.5880464752603,4,1,0,80,0,1
956018,-68.3711129313021,4,1,0,80,0,1
956093,-68.1555473163072,4,1,0,80,0,1
956168,-67.9413367322119,4,1,0,80,0,1
956243,-67.7284684425974,4,1,0,80,0,1
956318,-67.5169298701649,4,1,0,80,0,1
956393,-67.306708594259,4,1,0,80,0,1
956468,-67.0977923484362,4,1,0,80,0,1
956543,-66.8901690180791,4,1,0,80,0,1
956618,303.030303030303,3,1,0,80,1,0
956618,-66.0169883716743,4,1,0,80,0,0
970208,705.882352941176,4,1,0,5,1,0
987149,731.707317073171,4,1,0,80,1,0
988612,733.496332518337,4,1,0,80,1,0
989345,740.740740740741,4,1,0,80,1,0
990085,789.473684210526,4,1,0,80,1,0
990874,877.19298245614,4,1,0,80,1,0
991800,1025.64102564103,4,1,0,80,1,0
992312,1188.11881188119,4,1,0,80,1,0
992906,1276.59574468085,4,1,0,80,1,0
993544,1621.62162162162,4,1,0,80,1,0
994354,405.405405405405,3,1,0,80,1,0

[HitObjects]
426,328,7551,5,8,0:0:0:0:
408,348,7691,1,0,0:0:0:0:
408,348,7830,1,0,0:0:0:0:
390,345,7970,1,8,0:0:0:0:
426,328,8110,1,8,0:0:0:0:
426,328,8249,1,0,0:0:0:0:
426,328,8389,1,12,0:0:0:0:
456,349,10482,1,12,0:0:0:0:
456,348,10900,1,4,0:0:0:0:
456,348,11319,1,12,0:0:0:0:
430,335,11737,1,8,0:0:0:0:
430,335,11807,1,8,0:0:0:0:
430,335,11877,1,0,0:0:0:0:
430,335,11947,1,0,0:0:0:0:
421,338,12016,1,8,0:0:0:0:
421,338,12086,1,0,0:0:0:0:
421,338,12156,1,8,0:0:0:0:
421,338,12226,1,8,0:0:0:0:
421,338,12296,1,0,0:0:0:0:
421,338,12365,1,8,0:0:0:0:
421,338,12435,1,0,0:0:0:0:
421,338,12505,1,0,0:0:0:0:
421,338,12575,1,8,0:0:0:0:
438,350,12714,1,0,0:0:0:0:
438,350,12854,1,0,0:0:0:0:
438,350,12993,1,8,0:0:0:0:
438,350,13133,1,0,0:0:0:0:
438,350,13272,1,8,0:0:0:0:
421,322,13412,1,8,0:0:0:0:
421,322,13482,1,0,0:0:0:0:
421,322,13551,1,0,0:0:0:0:
421,322,13621,1,0,0:0:0:0:
421,322,13691,1,8,0:0:0:0:
421,322,13761,1,0,0:0:0:0:
421,322,13830,1,8,0:0:0:0:
421,322,13900,1,8,0:0:0:0:
421,322,13970,1,0,0:0:0:0:
421,322,14040,1,0,0:0:0:0:
421,322,14110,1,8,0:0:0:0:
421,322,14179,1,0,0:0:0:0:
421,322,14249,1,8,0:0:0:0:
454,345,14389,1,0,0:0:0:0:
454,345,14528,1,0,0:0:0:0:
454,345,14668,1,8,0:0:0:0:
454,345,14807,1,0,0:0:0:0:
454,345,14947,1,0,0:0:0:0:
465,351,15086,1,12,0:0:0:0:
435,374,15226,1,8,0:0:0:0:
435,374,15296,1,8,0:0:0:0:
435,374,15365,1,0,0:0:0:0:
447,345,15505,1,8,0:0:0:0:
463,320,15644,1,8,0:0:0:0:
463,320,15714,1,0,0:0:0:0:
463,320,15784,1,8,0:0:0:0:
463,320,15854,1,8,0:0:0:0:
463,320,15923,1,0,0:0:0:0:
463,374,15993,1,0,0:0:0:0:
463,374,16063,1,8,0:0:0:0:
500,358,16203,1,8,0:0:0:0:
397,335,16272,1,8,0:0:0:0:
397,335,16342,1,0,0:0:0:0:
420,325,16482,1,8,0:0:0:0:
434,324,16621,1,0,0:0:0:0:
436,333,16761,1,0,0:0:0:0:
436,334,16830,1,0,0:0:0:0:
436,333,16900,1,8,0:0:0:0:
436,333,16970,1,8,0:0:0:0:
436,334,17040,1,0,0:0:0:0:
436,333,17179,1,8,0:0:0:0:
442,361,17319,1,8,0:0:0:0:
442,361,17389,1,8,0:0:0:0:
442,361,17458,1,0,0:0:0:0:
442,341,17598,1,8,0:0:0:0:
442,341,17668,1,8,0:0:0:0:
442,341,17737,1,0,0:0:0:0:
442,341,17807,1,0,0:0:0:0:
446,342,17877,1,8,0:0:0:0:
446,342,17947,1,0,0:0:0:0:
446,342,18016,1,8,0:0:0:0:
446,342,18086,1,8,0:0:0:0:
446,342,18156,1,0,0:0:0:0:
446,342,18226,1,8,0:0:0:0:
446,342,18296,1,0,0:0:0:0:
446,342,18365,1,0,0:0:0:0:
446,342,18435,1,8,0:0:0:0:
458,347,18575,1,0,0:0:0:0:
458,347,18644,1,0,0:0:0:0:
458,347,18714,1,8,0:0:0:0:
458,347,18854,1,0,0:0:0:0:
426,355,18993,1,0,0:0:0:0:
401,345,19063,1,0,0:0:0:0:
401,345,19133,1,8,0:0:0:0:
401,345,19203,1,8,0:0:0:0:
401,345,19272,1,0,0:0:0:0:
401,345,19342,1,0,0:0:0:0:
429,360,19412,1,8,0:0:0:0:
442,378,19551,1,0,0:0:0:0:
442,378,19621,1,0,0:0:0:0:
442,378,19691,1,8,0:0:0:0:
444,365,19830,1,8,0:0:0:0:
479,367,19970,1,0,0:0:0:0:
389,357,20110,1,0,0:0:0:0:
389,357,20179,1,0,0:0:0:0:
389,357,20249,1,8,0:0:0:0:
389,357,20319,1,8,0:0:0:0:
389,357,20389,1,0,0:0:0:0:
389,357,20528,1,8,0:0:0:0:
451,350,20668,1,0,0:0:0:0:
451,350,20737,1,0,0:0:0:0:
451,350,20807,1,8,0:0:0:0:
448,344,20947,1,8,0:0:0:0:
448,344,21016,1,8,0:0:0:0:
448,344,21086,1,0,0:0:0:0:
448,344,21156,1,8,0:0:0:0:
448,344,21226,1,0,0:0:0:0:
448,344,21296,1,0,0:0:0:0:
448,344,21365,1,8,0:0:0:0:
448,344,21435,1,0,0:0:0:0:
448,344,21505,1,8,0:0:0:0:
448,344,21575,1,8,0:0:0:0:
447,353,21644,1,0,0:0:0:0:
447,353,21714,1,0,0:0:0:0:
447,353,21784,1,8,0:0:0:0:
435,374,21923,1,8,0:0:0:0:
435,374,21993,1,8,0:0:0:0:
435,374,22063,1,0,0:0:0:0:
447,345,22203,1,8,0:0:0:0:
463,320,22342,1,8,0:0:0:0:
463,320,22412,1,0,0:0:0:0:
463,320,22482,1,8,0:0:0:0:
463,320,22551,1,8,0:0:0:0:
463,320,22621,1,0,0:0:0:0:
463,374,22691,1,0,0:0:0:0:
463,374,22761,1,8,0:0:0:0:
500,358,22900,1,8,0:0:0:0:
397,335,22970,1,8,0:0:0:0:
397,335,23040,1,0,0:0:0:0:
420,325,23179,1,8,0:0:0:0:
434,324,23319,1,0,0:0:0:0:
436,333,23458,1,0,0:0:0:0:
436,334,23528,1,0,0:0:0:0:
436,333,23598,1,8,0:0:0:0:
436,333,23668,1,8,0:0:0:0:
436,334,23737,1,0,0:0:0:0:
436,333,23877,1,8,0:0:0:0:
442,361,24016,1,8,0:0:0:0:
442,361,24086,1,8,0:0:0:0:
442,361,24156,1,0,0:0:0:0:
442,341,24296,1,8,0:0:0:0:
442,341,24365,1,8,0:0:0:0:
442,341,24435,1,0,0:0:0:0:
442,341,24505,1,0,0:0:0:0:
446,342,24575,1,8,0:0:0:0:
446,342,24644,1,0,0:0:0:0:
446,342,24714,1,8,0:0:0:0:
446,342,24784,1,8,0:0:0:0:
446,342,24854,1,0,0:0:0:0:
446,342,24923,1,8,0:0:0:0:
446,342,24993,1,0,0:0:0:0:
446,342,25063,1,0,0:0:0:0:
446,342,25133,1,8,0:0:0:0:
458,347,25272,1,0,0:0:0:0:
458,347,25342,1,0,0:0:0:0:
458,347,25412,1,8,0:0:0:0:
458,347,25551,1,0,0:0:0:0:
426,355,25691,1,0,0:0:0:0:
401,345,25761,1,0,0:0:0:0:
401,345,25830,1,8,0:0:0:0:
401,345,25900,1,8,0:0:0:0:
401,345,25970,1,0,0:0:0:0:
401,345,26040,1,0,0:0:0:0:
429,360,26110,1,8,0:0:0:0:
442,378,26249,1,0,0:0:0:0:
442,378,26319,1,0,0:0:0:0:
442,378,26389,1,8,0:0:0:0:
444,365,26528,1,8,0:0:0:0:
479,367,26668,1,0,0:0:0:0:
389,357,26807,1,0,0:0:0:0:
389,357,26877,1,0,0:0:0:0:
389,357,26947,1,8,0:0:0:0:
389,357,27016,1,8,0:0:0:0:
389,357,27086,1,0,0:0:0:0:
389,357,27226,1,8,0:0:0:0:
451,350,27365,1,0,0:0:0:0:
451,350,27435,1,0,0:0:0:0:
451,350,27505,1,8,0:0:0:0:
448,344,27644,1,8,0:0:0:0:
448,344,27714,1,8,0:0:0:0:
448,344,27784,1,0,0:0:0:0:
448,344,27854,1,0,0:0:0:0:
448,344,27923,1,8,0:0:0:0:
448,344,27993,1,0,0:0:0:0:
448,344,28063,1,8,0:0:0:0:
448,344,28133,1,8,0:0:0:0:
448,344,28203,1,0,0:0:0:0:
448,344,28272,1,8,0:0:0:0:
447,353,28342,1,0,0:0:0:0:
447,353,28412,1,0,0:0:0:0:
447,353,28482,1,12,0:0:0:0:
412,313,28900,1,8,0:0:0:0:
412,313,28970,1,8,0:0:0:0:
412,313,29040,1,0,0:0:0:0:
412,313,29110,1,0,0:0:0:0:
412,313,29179,1,0,0:0:0:0:
412,313,29249,1,0,0:0:0:0:
412,313,29319,1,12,0:0:0:0:
461,328,29737,1,8,0:0:0:0:
461,328,29877,1,0,0:0:0:0:
461,328,30016,1,0,0:0:0:0:
461,328,30156,1,12,0:0:0:0:
461,328,30575,1,8,0:0:0:0:
461,328,30644,1,8,0:0:0:0:
461,328,30714,1,0,0:0:0:0:
461,328,30784,1,0,0:0:0:0:
461,328,30854,1,0,0:0:0:0:
461,328,30923,1,0,0:0:0:0:
461,328,30993,1,8,0:0:0:0:
461,328,31063,1,0,0:0:0:0:
461,328,31133,1,0,0:0:0:0:
461,328,31203,1,0,0:0:0:0:
430,323,31272,1,0,0:0:0:0:
430,323,31342,1,0,0:0:0:0:
404,312,31412,1,8,0:0:0:0:
404,312,31551,1,0,0:0:0:0:
404,312,31691,1,0,0:0:0:0:
404,312,31830,1,12,0:0:0:0:
468,368,32249,1,8,0:0:0:0:
468,368,32319,1,0,0:0:0:0:
468,368,32389,1,8,0:0:0:0:
447,353,32458,1,8,0:0:0:0:
447,353,32528,1,0,0:0:0:0:
447,353,32598,1,0,0:0:0:0:
364,309,32668,1,8,0:0:0:0:
404,334,32737,1,8,0:0:0:0:
447,353,32807,1,0,0:0:0:0:
447,353,32877,1,8,0:0:0:0:
447,353,32947,1,0,0:0:0:0:
447,353,33016,1,0,0:0:0:0:
447,353,33086,1,8,0:0:0:0:
452,343,33156,1,8,0:0:0:0:
447,353,33226,1,0,0:0:0:0:
447,353,33296,1,8,0:0:0:0:
457,371,33365,1,8,0:0:0:0:
457,371,33435,1,0,0:0:0:0:
503,354,33505,1,8,0:0:0:0:
503,354,33575,1,8,0:0:0:0:
495,361,33644,1,0,0:0:0:0:
495,361,33714,1,0,0:0:0:0:
495,361,33784,1,8,0:0:0:0:
488,350,33854,1,0,0:0:0:0:
488,350,33923,1,8,0:0:0:0:
488,350,33993,1,8,0:0:0:0:
488,350,34063,1,0,0:0:0:0:
488,350,34133,1,8,0:0:0:0:
488,350,34203,1,0,0:0:0:0:
488,350,34342,1,12,0:0:0:0:
471,344,34482,1,0,0:0:0:0:
471,344,34551,1,0,0:0:0:0:
471,344,34621,1,0,0:0:0:0:
453,352,34761,1,12,0:0:0:0:
421,349,34900,1,0,0:0:0:0:
421,349,34970,1,0,0:0:0:0:
421,349,35040,1,0,0:0:0:0:
467,333,35179,1,12,0:0:0:0:
432,334,35458,1,0,0:0:0:0:
432,334,35528,1,0,0:0:0:0:
448,343,35598,1,8,0:0:0:0:
448,343,35668,1,0,0:0:0:0:
448,343,35737,1,8,0:0:0:0:
448,343,35807,1,8,0:0:0:0:
456,341,35877,1,0,0:0:0:0:
456,341,35947,1,0,0:0:0:0:
458,331,36016,1,8,0:0:0:0:
457,332,36086,1,8,0:0:0:0:
457,332,36156,1,0,0:0:0:0:
458,331,36226,1,8,0:0:0:0:
457,332,36296,1,0,0:0:0:0:
457,332,36365,1,0,0:0:0:0:
458,331,36435,1,8,0:0:0:0:
445,323,36505,1,8,0:0:0:0:
446,323,36575,1,0,0:0:0:0:
450,325,36644,1,0,0:0:0:0:
449,325,36714,1,8,0:0:0:0:
437,346,36854,1,12,0:0:0:0:
459,318,36993,1,0,0:0:0:0:
459,318,37063,1,0,0:0:0:0:
459,318,37133,1,0,0:0:0:0:
468,253,37203,1,0,0:0:0:0:
468,253,37272,1,8,0:0:0:0:
453,303,37342,1,0,0:0:0:0:
453,303,37412,1,8,0:0:0:0:
453,303,37482,1,8,0:0:0:0:
453,303,37551,1,0,0:0:0:0:
453,303,37691,1,12,0:0:0:0:
420,337,37830,1,0,0:0:0:0:
420,337,37900,1,0,0:0:0:0:
420,337,37970,1,0,0:0:0:0:
436,305,38040,1,0,0:0:0:0:
436,305,38110,1,8,0:0:0:0:
436,305,38179,1,8,0:0:0:0:
436,305,38249,1,0,0:0:0:0:
436,305,38319,1,8,0:0:0:0:
436,305,38389,1,0,0:0:0:0:
427,321,38458,1,0,0:0:0:0:
436,305,38528,1,12,0:0:0:0:
477,362,38947,1,8,0:0:0:0:
477,362,39016,1,8,0:0:0:0:
477,362,39086,1,0,0:0:0:0:
477,362,39156,1,0,0:0:0:0:
477,362,39226,1,0,0:0:0:0:
477,362,39296,1,0,0:0:0:0:
477,362,39365,1,12,0:0:0:0:
494,347,39784,1,8,0:0:0:0:
494,347,39923,1,0,0:0:0:0:
494,347,40063,1,0,0:0:0:0:
494,347,40203,1,12,0:0:0:0:
466,350,40621,1,8,0:0:0:0:
466,350,40691,1,8,0:0:0:0:
466,350,40761,1,0,0:0:0:0:
466,350,40830,1,0,0:0:0:0:
466,350,40900,1,0,0:0:0:0:
466,350,40970,1,0,0:0:0:0:
466,350,41040,1,8,0:0:0:0:
466,350,41110,1,0,0:0:0:0:
466,350,41179,1,0,0:0:0:0:
466,350,41249,1,0,0:0:0:0:
466,350,41319,1,0,0:0:0:0:
466,350,41389,1,0,0:0:0:0:
466,350,41458,1,8,0:0:0:0:
466,350,41598,1,0,0:0:0:0:
466,350,41737,1,0,0:0:0:0:
466,350,41877,1,12,0:0:0:0:
468,368,42296,1,8,0:0:0:0:
468,368,42365,1,0,0:0:0:0:
468,368,42435,1,8,0:0:0:0:
447,353,42505,1,8,0:0:0:0:
447,353,42575,1,0,0:0:0:0:
447,353,42644,1,0,0:0:0:0:
364,309,42714,1,8,0:0:0:0:
404,334,42784,1,8,0:0:0:0:
447,353,42854,1,0,0:0:0:0:
447,353,42923,1,8,0:0:0:0:
447,353,42993,1,0,0:0:0:0:
447,353,43063,1,0,0:0:0:0:
447,353,43133,1,8,0:0:0:0:
452,343,43203,1,8,0:0:0:0:
447,353,43272,1,0,0:0:0:0:
447,353,43342,1,8,0:0:0:0:
457,371,43412,1,8,0:0:0:0:
457,371,43482,1,0,0:0:0:0:
503,354,43551,1,8,0:0:0:0:
503,354,43621,1,8,0:0:0:0:
495,361,43691,1,0,0:0:0:0:
495,361,43761,1,0,0:0:0:0:
495,361,43830,1,8,0:0:0:0:
488,350,43900,1,0,0:0:0:0:
488,350,43970,1,8,0:0:0:0:
488,350,44040,1,8,0:0:0:0:
488,350,44110,1,0,0:0:0:0:
488,350,44179,1,8,0:0:0:0:
488,350,44249,1,0,0:0:0:0:
488,350,44389,1,12,0:0:0:0:
471,344,44528,1,0,0:0:0:0:
471,344,44598,1,0,0:0:0:0:
471,344,44668,1,0,0:0:0:0:
453,352,44807,1,12,0:0:0:0:
421,349,44947,1,0,0:0:0:0:
421,349,45016,1,0,0:0:0:0:
421,349,45086,1,8,0:0:0:0:
467,333,45226,1,8,0:0:0:0:
427,307,45296,1,8,0:0:0:0:
427,307,45365,1,8,0:0:0:0:
427,307,45435,1,8,0:0:0:0:
432,334,45505,1,0,0:0:0:0:
432,334,45575,1,0,0:0:0:0:
448,343,45644,1,8,0:0:0:0:
448,343,45714,1,0,0:0:0:0:
448,343,45784,1,8,0:0:0:0:
448,343,45854,1,8,0:0:0:0:
456,341,45923,1,0,0:0:0:0:
456,341,45993,1,0,0:0:0:0:
458,331,46063,1,8,0:0:0:0:
457,332,46133,1,8,0:0:0:0:
457,332,46203,1,0,0:0:0:0:
458,331,46272,1,8,0:0:0:0:
457,332,46342,1,0,0:0:0:0:
457,332,46412,1,0,0:0:0:0:
458,331,46482,1,8,0:0:0:0:
445,323,46551,1,8,0:0:0:0:
446,323,46621,1,0,0:0:0:0:
450,325,46691,1,0,0:0:0:0:
449,325,46761,1,8,0:0:0:0:
437,346,46900,1,12,0:0:0:0:
459,318,47040,1,0,0:0:0:0:
459,318,47110,1,0,0:0:0:0:
459,318,47179,1,0,0:0:0:0:
468,253,47249,1,0,0:0:0:0:
468,253,47319,1,8,0:0:0:0:
453,303,47389,1,0,0:0:0:0:
453,303,47458,1,8,0:0:0:0:
453,303,47528,1,8,0:0:0:0:
453,303,47598,1,0,0:0:0:0:
453,303,47737,1,12,0:0:0:0:
420,337,47877,1,0,0:0:0:0:
420,337,47947,1,0,0:0:0:0:
420,337,48016,1,0,0:0:0:0:
436,305,48086,1,0,0:0:0:0:
436,305,48156,1,8,0:0:0:0:
436,305,48296,1,0,0:0:0:0:
436,305,48365,1,8,0:0:0:0:
436,305,48435,1,0,0:0:0:0:
436,305,48505,1,0,0:0:0:0:
457,296,48575,1,8,0:0:0:0:
404,325,48644,1,8,0:0:0:0:
408,329,48714,1,8,0:0:0:0:
408,329,48784,1,8,0:0:0:0:
408,329,48854,1,0,0:0:0:0:
408,329,48923,1,0,0:0:0:0:
408,329,48993,1,0,0:0:0:0:
408,329,49063,1,0,0:0:0:0:
392,333,49133,1,8,0:0:0:0:
392,334,49203,1,0,0:0:0:0:
392,334,49272,1,0,0:0:0:0:
392,333,49342,1,0,0:0:0:0:
392,334,49412,1,8,0:0:0:0:
392,334,49482,1,8,0:0:0:0:
406,348,49551,1,0,0:0:0:0:
406,348,49621,1,0,0:0:0:0:
422,343,49691,1,8,0:0:0:0:
422,343,49761,1,0,0:0:0:0:
422,343,49830,1,0,0:0:0:0:
422,343,49900,1,0,0:0:0:0:
422,343,49970,1,8,0:0:0:0:
448,356,50110,1,0,0:0:0:0:
396,312,50249,1,8,0:0:0:0:
396,312,50319,1,8,0:0:0:0:
396,312,50389,1,8,0:0:0:0:
396,312,50458,1,8,0:0:0:0:
396,312,50528,1,0,0:0:0:0:
396,312,50598,1,0,0:0:0:0:
396,312,50668,1,0,0:0:0:0:
396,312,50737,1,0,0:0:0:0:
396,312,50807,1,8,0:0:0:0:
396,312,50877,1,0,0:0:0:0:
396,312,50947,1,0,0:0:0:0:
396,312,51016,1,0,0:0:0:0:
405,315,51086,1,8,0:0:0:0:
405,315,51156,1,8,0:0:0:0:
405,315,51226,1,0,0:0:0:0:
405,315,51296,1,0,0:0:0:0:
470,358,51365,1,8,0:0:0:0:
470,358,51435,1,0,0:0:0:0:
470,358,51505,1,8,0:0:0:0:
470,358,51575,1,8,0:0:0:0:
470,358,51644,1,0,0:0:0:0:
470,358,51784,1,0,0:0:0:0:
470,358,51923,1,8,0:0:0:0:
470,358,51993,1,8,0:0:0:0:
470,358,52063,1,8,0:0:0:0:
470,358,52133,1,8,0:0:0:0:
470,358,52203,1,0,0:0:0:0:
470,358,52272,1,0,0:0:0:0:
470,358,52342,1,0,0:0:0:0:
470,358,52412,1,0,0:0:0:0:
431,347,52482,1,8,0:0:0:0:
431,347,52551,1,0,0:0:0:0:
431,347,52621,1,0,0:0:0:0:
431,347,52691,1,0,0:0:0:0:
431,347,52761,1,8,0:0:0:0:
431,347,52830,1,8,0:0:0:0:
431,347,52900,1,0,0:0:0:0:
431,347,52970,1,0,0:0:0:0:
431,347,53040,1,8,0:0:0:0:
431,347,53110,1,0,0:0:0:0:
431,347,53179,1,8,0:0:0:0:
431,347,53249,1,0,0:0:0:0:
431,347,53319,1,8,0:0:0:0:
431,347,53458,1,0,0:0:0:0:
462,357,53598,1,8,0:0:0:0:
462,357,53668,1,8,0:0:0:0:
462,357,53737,1,0,0:0:0:0:
462,357,53807,1,8,0:0:0:0:
462,357,53877,1,0,0:0:0:0:
462,357,53947,1,0,0:0:0:0:
462,366,54016,1,8,0:0:0:0:
462,366,54086,1,0,0:0:0:0:
462,366,54156,1,8,0:0:0:0:
464,371,54226,1,0,0:0:0:0:
464,371,54296,1,0,0:0:0:0:
464,371,54365,1,0,0:0:0:0:
464,371,54435,1,8,0:0:0:0:
464,371,54505,1,8,0:0:0:0:
410,334,54575,1,0,0:0:0:0:
410,334,54644,1,0,0:0:0:0:
410,334,54714,1,8,0:0:0:0:
408,339,54784,1,0,0:0:0:0:
408,339,54854,1,8,0:0:0:0:
408,340,54923,1,8,0:0:0:0:
408,339,54993,1,0,0:0:0:0:
408,340,55133,1,0,0:0:0:0:
365,316,55272,1,8,0:0:0:0:
365,316,55342,1,8,0:0:0:0:
365,316,55412,1,8,0:0:0:0:
365,316,55482,1,8,0:0:0:0:
365,316,55551,1,0,0:0:0:0:
365,316,55621,1,0,0:0:0:0:
365,316,55691,1,0,0:0:0:0:
365,316,55761,1,0,0:0:0:0:
413,357,55830,1,8,0:0:0:0:
413,357,55900,1,0,0:0:0:0:
413,357,55970,1,0,0:0:0:0:
413,357,56040,1,0,0:0:0:0:
413,357,56110,1,8,0:0:0:0:
413,357,56179,1,8,0:0:0:0:
413,357,56249,1,0,0:0:0:0:
413,357,56319,1,0,0:0:0:0:
413,357,56389,1,8,0:0:0:0:
413,357,56458,1,0,0:0:0:0:
413,357,56528,1,0,0:0:0:0:
413,357,56598,1,0,0:0:0:0:
413,357,56668,1,8,0:0:0:0:
413,357,56807,1,8,0:0:0:0:
396,312,56947,1,8,0:0:0:0:
396,312,57016,1,0,0:0:0:0:
396,312,57086,1,8,0:0:0:0:
396,312,57156,1,8,0:0:0:0:
396,312,57226,1,0,0:0:0:0:
396,312,57296,1,8,0:0:0:0:
396,312,57365,1,0,0:0:0:0:
396,312,57435,1,0,0:0:0:0:
396,312,57505,1,8,0:0:0:0:
396,312,57575,1,0,0:0:0:0:
396,312,57644,1,0,0:0:0:0:
396,312,57714,1,0,0:0:0:0:
405,315,57784,1,8,0:0:0:0:
405,315,57854,1,8,0:0:0:0:
405,315,57923,1,0,0:0:0:0:
405,315,57993,1,0,0:0:0:0:
470,358,58063,1,8,0:0:0:0:
470,358,58133,1,0,0:0:0:0:
470,358,58203,1,8,0:0:0:0:
470,358,58272,1,8,0:0:0:0:
470,358,58342,1,0,0:0:0:0:
470,358,58482,1,0,0:0:0:0:
470,358,58621,1,8,0:0:0:0:
470,358,58691,1,8,0:0:0:0:
470,358,58761,1,8,0:0:0:0:
470,358,58830,1,8,0:0:0:0:
470,358,58900,1,0,0:0:0:0:
470,358,58970,1,0,0:0:0:0:
470,358,59040,1,0,0:0:0:0:
470,358,59110,1,0,0:0:0:0:
431,347,59179,1,8,0:0:0:0:
431,347,59249,1,0,0:0:0:0:
431,347,59319,1,0,0:0:0:0:
431,347,59389,1,0,0:0:0:0:
431,347,59458,1,8,0:0:0:0:
431,347,59528,1,8,0:0:0:0:
431,347,59598,1,0,0:0:0:0:
431,347,59668,1,0,0:0:0:0:
431,347,59737,1,8,0:0:0:0:
431,347,59807,1,0,0:0:0:0:
431,347,59877,1,8,0:0:0:0:
431,347,59947,1,0,0:0:0:0:
431,347,60016,1,8,0:0:0:0:
431,347,60156,1,0,0:0:0:0:
462,357,60296,1,8,0:0:0:0:
462,357,60365,1,8,0:0:0:0:
462,357,60435,1,0,0:0:0:0:
462,357,60505,1,8,0:0:0:0:
462,357,60575,1,0,0:0:0:0:
462,357,60644,1,0,0:0:0:0:
462,366,60714,1,8,0:0:0:0:
462,366,60784,1,0,0:0:0:0:
462,366,60854,1,8,0:0:0:0:
464,371,60923,1,0,0:0:0:0:
464,371,60993,1,0,0:0:0:0:
464,371,61063,1,0,0:0:0:0:
464,371,61133,1,8,0:0:0:0:
464,371,61203,1,8,0:0:0:0:
410,334,61272,1,0,0:0:0:0:
410,334,61342,1,0,0:0:0:0:
410,334,61412,1,8,0:0:0:0:
408,339,61482,1,0,0:0:0:0:
408,339,61551,1,8,0:0:0:0:
408,340,61621,1,8,0:0:0:0:
408,339,61691,1,0,0:0:0:0:
491,325,61761,1,0,0:0:0:0:
491,325,61830,1,8,0:0:0:0:
491,325,61900,1,0,0:0:0:0:
443,292,61970,1,8,0:0:0:0:
443,292,62040,1,0,0:0:0:0:
443,292,62110,1,0,0:0:0:0:
443,292,62179,1,0,0:0:0:0:
430,288,62249,1,8,0:0:0:0:
430,288,62319,1,8,0:0:0:0:
383,291,62389,1,0,0:0:0:0:
383,291,62458,1,8,0:0:0:0:
383,291,62528,1,0,0:0:0:0:
383,291,62598,1,0,0:0:0:0:
383,291,62668,1,8,0:0:0:0:
383,291,62737,1,0,0:0:0:0:
383,291,62807,1,8,0:0:0:0:
357,289,62877,1,8,0:0:0:0:
301,266,62947,1,0,0:0:0:0:
301,266,63016,1,0,0:0:0:0:
301,266,63086,1,8,0:0:0:0:
301,266,63156,1,0,0:0:0:0:
357,325,63226,1,0,0:0:0:0:
395,341,63296,1,0,0:0:0:0:
395,341,63365,1,8,0:0:0:0:
395,341,63435,1,0,0:0:0:0:
395,341,63505,1,8,0:0:0:0:
395,341,63575,1,8,0:0:0:0:
395,341,63644,1,0,0:0:0:0:
372,357,63714,1,0,0:0:0:0:
372,357,63784,1,0,0:0:0:0:
372,357,63854,1,0,0:0:0:0:
372,357,63923,1,8,0:0:0:0:
372,357,63993,1,8,0:0:0:0:
372,357,64063,1,0,0:0:0:0:
372,357,64133,1,8,0:0:0:0:
467,353,64203,1,0,0:0:0:0:
467,353,64272,1,0,0:0:0:0:
467,353,64342,1,8,0:0:0:0:
467,353,64412,1,0,0:0:0:0:
467,353,64482,1,8,0:0:0:0:
467,353,64551,1,8,0:0:0:0:
443,338,64621,1,0,0:0:0:0:
443,338,64691,1,0,0:0:0:0:
443,338,64761,1,8,0:0:0:0:
443,338,64830,1,0,0:0:0:0:
443,338,64900,1,0,0:0:0:0:
443,338,64970,1,0,0:0:0:0:
436,337,65040,1,8,0:0:0:0:
436,337,65110,1,8,0:0:0:0:
435,337,65179,1,0,0:0:0:0:
436,337,65249,1,0,0:0:0:0:
436,337,65319,1,8,0:0:0:0:
435,337,65389,1,0,0:0:0:0:
436,337,65458,1,0,0:0:0:0:
436,337,65528,1,0,0:0:0:0:
435,337,65598,1,8,0:0:0:0:
436,337,65668,1,8,0:0:0:0:
436,337,65737,1,0,0:0:0:0:
435,337,65807,1,8,0:0:0:0:
388,361,65877,1,0,0:0:0:0:
388,361,65947,1,0,0:0:0:0:
388,361,66016,1,8,0:0:0:0:
388,361,66086,1,0,0:0:0:0:
388,361,66156,1,8,0:0:0:0:
388,361,66226,1,8,0:0:0:0:
388,361,66296,1,0,0:0:0:0:
388,361,66365,1,0,0:0:0:0:
388,361,66435,1,8,0:0:0:0:
388,361,66505,1,0,0:0:0:0:
388,361,66575,1,8,0:0:0:0:
388,361,66644,1,0,0:0:0:0:
388,361,66714,1,8,0:0:0:0:
420,281,66784,1,8,0:0:0:0:
420,281,66854,1,0,0:0:0:0:
420,281,66923,1,0,0:0:0:0:
435,341,66993,1,8,0:0:0:0:
435,341,67063,1,0,0:0:0:0:
435,341,67133,1,0,0:0:0:0:
435,341,67203,1,0,0:0:0:0:
435,341,67272,1,8,0:0:0:0:
435,341,67342,1,8,0:0:0:0:
399,315,67412,1,0,0:0:0:0:
399,315,67482,1,0,0:0:0:0:
409,321,67551,1,8,0:0:0:0:
433,330,67621,1,0,0:0:0:0:
433,330,67691,1,0,0:0:0:0:
433,330,67761,1,0,0:0:0:0:
433,330,67830,1,8,0:0:0:0:
433,330,67900,1,8,0:0:0:0:
386,328,67970,1,0,0:0:0:0:
386,328,68040,1,0,0:0:0:0:
381,272,68110,1,8,0:0:0:0:
381,272,68179,1,0,0:0:0:0:
381,272,68249,1,8,0:0:0:0:
381,272,68319,1,0,0:0:0:0:
381,272,68389,1,8,0:0:0:0:
381,272,68458,1,8,0:0:0:0:
381,272,68528,1,8,0:0:0:0:
381,272,68598,1,0,0:0:0:0:
419,330,68668,1,8,0:0:0:0:
419,330,68737,1,8,0:0:0:0:
419,330,68807,1,0,0:0:0:0:
419,330,68877,1,0,0:0:0:0:
419,330,68947,1,8,0:0:0:0:
419,330,69016,1,8,0:0:0:0:
419,330,69086,1,0,0:0:0:0:
419,330,69156,1,0,0:0:0:0:
428,340,69226,1,8,0:0:0:0:
428,340,69296,1,0,0:0:0:0:
428,340,69365,1,0,0:0:0:0:
428,340,69435,1,0,0:0:0:0:
428,340,69505,1,8,0:0:0:0:
428,340,69575,1,8,0:0:0:0:
387,268,69644,1,0,0:0:0:0:
387,268,69714,1,0,0:0:0:0:
383,263,69784,1,8,0:0:0:0:
383,263,69854,1,0,0:0:0:0:
383,263,69923,1,0,0:0:0:0:
383,263,69993,1,0,0:0:0:0:
383,263,70063,1,8,0:0:0:0:
383,263,70133,1,0,0:0:0:0:
383,263,70203,1,8,0:0:0:0:
421,266,70272,1,8,0:0:0:0:
383,263,70342,1,0,0:0:0:0:
378,253,70412,1,0,0:0:0:0:
377,257,70482,1,0,0:0:0:0:
377,258,70551,1,0,0:0:0:0:
390,240,70621,1,8,0:0:0:0:
390,240,70691,1,8,0:0:0:0:
389,240,70761,1,0,0:0:0:0:
390,240,70830,1,0,0:0:0:0:
390,240,70900,1,8,0:0:0:0:
389,240,70970,1,0,0:0:0:0:
390,240,71040,1,0,0:0:0:0:
390,240,71110,1,0,0:0:0:0:
343,323,71179,1,8,0:0:0:0:
343,323,71249,1,8,0:0:0:0:
343,323,71319,1,0,0:0:0:0:
344,348,71389,1,0,0:0:0:0:
344,348,71458,1,8,0:0:0:0:
342,348,71528,1,0,0:0:0:0:
344,348,71598,1,0,0:0:0:0:
344,348,71668,1,0,0:0:0:0:
342,348,71737,1,8,0:0:0:0:
344,348,71807,1,0,0:0:0:0:
344,348,71877,1,8,0:0:0:0:
342,348,71947,1,8,0:0:0:0:
344,348,72016,1,0,0:0:0:0:
344,348,72086,1,0,0:0:0:0:
342,348,72156,1,0,0:0:0:0:
344,348,72226,1,0,0:0:0:0:
370,326,72296,1,8,0:0:0:0:
370,326,72365,1,8,0:0:0:0:
370,326,72435,1,0,0:0:0:0:
370,326,72505,1,0,0:0:0:0:
370,326,72575,1,8,0:0:0:0:
370,326,72644,1,0,0:0:0:0:
370,326,72714,1,0,0:0:0:0:
370,326,72784,1,0,0:0:0:0:
373,342,72854,1,8,0:0:0:0:
373,342,72923,1,8,0:0:0:0:
373,342,72993,1,0,0:0:0:0:
392,328,73063,1,0,0:0:0:0:
392,328,73133,1,8,0:0:0:0:
373,342,73203,1,0,0:0:0:0:
406,326,73272,1,8,0:0:0:0:
406,326,73342,1,0,0:0:0:0:
373,342,73412,1,8,0:0:0:0:
373,342,73482,1,8,0:0:0:0:
373,342,73551,1,0,0:0:0:0:
373,342,73621,1,0,0:0:0:0:
408,343,73691,1,8,0:0:0:0:
408,343,73761,1,8,0:0:0:0:
408,343,73830,1,0,0:0:0:0:
408,343,73900,1,8,0:0:0:0:
408,343,73970,1,0,0:0:0:0:
408,343,74040,1,0,0:0:0:0:
408,343,74110,1,8,0:0:0:0:
408,343,74179,1,8,0:0:0:0:
408,343,74249,1,0,0:0:0:0:
408,343,74319,1,0,0:0:0:0:
445,327,74389,1,0,0:0:0:0:
445,327,74458,1,0,0:0:0:0:
448,318,74528,1,8,0:0:0:0:
448,318,74598,1,8,0:0:0:0:
448,318,74668,1,0,0:0:0:0:
448,318,74737,1,8,0:0:0:0:
448,318,74807,1,0,0:0:0:0:
448,318,74877,1,0,0:0:0:0:
448,318,74947,1,0,0:0:0:0:
448,318,75016,1,0,0:0:0:0:
448,318,75086,1,8,0:0:0:0:
448,318,75156,1,8,0:0:0:0:
448,318,75226,1,8,0:0:0:0:
448,318,75296,1,8,0:0:0:0:
448,318,75365,1,0,0:0:0:0:
448,318,75504,1,0,0:0:0:0:
402,345,75644,1,8,0:0:0:0:
374,325,75783,1,8,0:0:0:0:
374,325,75923,1,0,0:0:0:0:
374,325,76062,1,12,0:0:0:0:
443,329,76481,1,8,0:0:0:0:
414,329,76620,1,8,0:0:0:0:
443,329,76760,1,0,0:0:0:0:
443,329,76899,1,0,0:0:0:0:
443,329,77039,1,12,0:0:0:0:
449,344,77178,1,0,0:0:0:0:
449,344,77318,1,0,0:0:0:0:
449,344,77458,1,0,0:0:0:0:
454,339,77597,1,8,0:0:0:0:
454,339,77667,1,8,0:0:0:0:
454,339,77737,1,8,0:0:0:0:
454,339,77806,1,8,0:0:0:0:
454,339,77876,1,0,0:0:0:0:
454,339,77946,1,0,0:0:0:0:
497,364,78016,1,8,0:0:0:0:
497,364,78085,1,8,0:0:0:0:
497,364,78155,1,8,0:0:0:0:
497,364,78225,1,8,0:0:0:0:
424,305,78295,1,0,0:0:0:0:
426,314,78365,1,0,0:0:0:0:
426,314,78434,1,8,0:0:0:0:
427,314,78504,1,8,0:0:0:0:
426,314,78574,1,0,0:0:0:0:
426,314,78644,1,0,0:0:0:0:
363,300,78713,1,8,0:0:0:0:
377,318,78783,1,0,0:0:0:0:
382,326,78853,1,0,0:0:0:0:
382,326,78923,1,0,0:0:0:0:
369,343,78992,1,8,0:0:0:0:
368,343,79062,1,8,0:0:0:0:
350,332,79132,1,0,0:0:0:0:
350,332,79202,1,0,0:0:0:0:
350,332,79271,1,8,0:0:0:0:
350,332,79341,1,8,0:0:0:0:
350,332,79411,1,8,0:0:0:0:
350,332,79481,1,8,0:0:0:0:
369,326,79551,1,0,0:0:0:0:
375,335,79690,1,0,0:0:0:0:
375,335,79830,1,8,0:0:0:0:
375,335,79969,1,8,0:0:0:0:
363,353,80039,1,8,0:0:0:0:
363,353,80109,1,0,0:0:0:0:
350,335,80248,1,0,0:0:0:0:
391,313,80388,1,0,0:0:0:0:
391,313,80527,1,12,0:0:0:0:
407,288,80946,1,8,0:0:0:0:
408,293,81085,1,8,0:0:0:0:
408,293,81225,1,0,0:0:0:0:
408,293,81364,1,0,0:0:0:0:
408,293,81504,1,12,0:0:0:0:
408,293,81644,1,0,0:0:0:0:
408,293,81783,1,0,0:0:0:0:
408,293,81923,1,0,0:0:0:0:
404,343,82062,1,8,0:0:0:0:
404,343,82132,1,8,0:0:0:0:
404,343,82202,1,8,0:0:0:0:
404,343,82271,1,8,0:0:0:0:
404,343,82341,1,0,0:0:0:0:
404,343,82411,1,0,0:0:0:0:
404,343,82481,1,8,0:0:0:0:
404,343,82551,1,8,0:0:0:0:
404,343,82620,1,8,0:0:0:0:
404,343,82690,1,8,0:0:0:0:
366,298,82760,1,0,0:0:0:0:
366,298,82830,1,0,0:0:0:0:
376,316,82899,1,8,0:0:0:0:
376,316,82969,1,0,0:0:0:0:
376,316,83039,1,0,0:0:0:0:
376,316,83109,1,0,0:0:0:0:
376,316,83178,1,8,0:0:0:0:
408,323,83248,1,8,0:0:0:0:
408,323,83318,1,0,0:0:0:0:
408,323,83388,1,8,0:0:0:0:
408,323,83458,1,0,0:0:0:0:
408,323,83527,1,0,0:0:0:0:
415,345,83597,1,0,0:0:0:0:
415,345,83667,1,0,0:0:0:0:
431,358,83737,1,8,0:0:0:0:
431,358,83806,1,8,0:0:0:0:
431,358,83876,1,8,0:0:0:0:
431,358,83946,1,8,0:0:0:0:
406,373,84016,1,0,0:0:0:0:
392,326,84155,1,8,0:0:0:0:
392,326,84295,1,0,0:0:0:0:
392,326,84434,1,8,0:0:0:0:
396,304,84504,1,8,0:0:0:0:
396,305,84574,1,0,0:0:0:0:
398,322,84713,1,0,0:0:0:0:
398,322,84853,1,0,0:0:0:0:
382,341,84992,1,12,0:0:0:0:
398,333,85411,1,8,0:0:0:0:
398,333,85551,1,8,0:0:0:0:
398,333,85690,1,0,0:0:0:0:
405,331,85830,1,0,0:0:0:0:
405,331,85969,1,12,0:0:0:0:
405,331,86109,1,0,0:0:0:0:
405,331,86248,1,0,0:0:0:0:
405,331,86388,1,0,0:0:0:0:
414,338,86527,1,8,0:0:0:0:
414,338,86597,1,8,0:0:0:0:
414,338,86667,1,8,0:0:0:0:
414,338,86737,1,8,0:0:0:0:
441,312,86806,1,0,0:0:0:0:
441,312,86876,1,0,0:0:0:0:
441,312,86946,1,8,0:0:0:0:
441,312,87016,1,8,0:0:0:0:
360,253,87085,1,0,0:0:0:0:
441,312,87155,1,8,0:0:0:0:
373,300,87225,1,0,0:0:0:0:
373,300,87295,1,0,0:0:0:0:
382,262,87364,1,8,0:0:0:0:
382,262,87434,1,8,0:0:0:0:
382,262,87504,1,0,0:0:0:0:
382,262,87574,1,0,0:0:0:0:
385,328,87644,1,8,0:0:0:0:
342,342,87713,1,0,0:0:0:0:
342,342,87783,1,0,0:0:0:0:
342,342,87853,1,0,0:0:0:0:
342,342,87923,1,8,0:0:0:0:
342,342,87992,1,8,0:0:0:0:
342,342,88062,1,0,0:0:0:0:
384,337,88132,1,0,0:0:0:0:
386,332,88202,1,8,0:0:0:0:
386,329,88271,1,8,0:0:0:0:
390,328,88341,1,8,0:0:0:0:
386,332,88411,1,8,0:0:0:0:
401,316,88481,1,0,0:0:0:0:
426,313,88620,1,0,0:0:0:0:
426,313,88760,1,8,0:0:0:0:
460,331,88899,1,8,0:0:0:0:
508,351,88969,1,8,0:0:0:0:
508,351,89039,1,0,0:0:0:0:
501,353,89178,1,0,0:0:0:0:
501,353,89318,1,0,0:0:0:0:
501,353,89458,1,12,0:0:0:0:
436,344,89876,1,8,0:0:0:0:
434,351,90016,1,8,0:0:0:0:
434,351,90155,1,0,0:0:0:0:
434,351,90295,1,0,0:0:0:0:
434,351,90434,1,12,0:0:0:0:
434,351,90574,1,0,0:0:0:0:
426,330,90713,1,0,0:0:0:0:
426,330,90853,1,0,0:0:0:0:
386,323,90992,1,8,0:0:0:0:
386,323,91062,1,8,0:0:0:0:
386,323,91132,1,8,0:0:0:0:
386,323,91202,1,8,0:0:0:0:
465,322,91271,1,0,0:0:0:0:
465,322,91341,1,0,0:0:0:0:
465,322,91411,1,8,0:0:0:0:
465,322,91481,1,8,0:0:0:0:
465,322,91551,1,8,0:0:0:0:
404,333,91620,1,8,0:0:0:0:
453,307,91690,1,0,0:0:0:0:
452,308,91760,1,0,0:0:0:0:
453,307,91830,1,8,0:0:0:0:
453,307,91899,1,8,0:0:0:0:
452,308,91969,1,0,0:0:0:0:
453,307,92039,1,0,0:0:0:0:
343,328,92109,1,8,0:0:0:0:
343,328,92178,1,0,0:0:0:0:
343,328,92248,1,0,0:0:0:0:
343,328,92318,1,0,0:0:0:0:
377,296,92388,1,8,0:0:0:0:
377,296,92458,1,8,0:0:0:0:
377,296,92527,1,0,0:0:0:0:
377,296,92597,1,0,0:0:0:0:
403,308,92667,1,8,0:0:0:0:
403,308,92737,1,8,0:0:0:0:
403,308,92806,1,8,0:0:0:0:
403,308,92876,1,8,0:0:0:0:
453,354,92946,1,0,0:0:0:0:
453,354,93016,1,0,0:0:0:0:
453,354,93085,1,0,0:0:0:0:
453,354,93155,1,0,0:0:0:0:
391,255,93225,1,8,0:0:0:0:
391,255,93295,1,0,0:0:0:0:
391,255,93364,1,8,0:0:0:0:
391,255,93434,1,8,0:0:0:0:
391,255,93504,1,0,0:0:0:0:
391,255,93574,1,8,0:0:0:0:
391,255,93644,1,0,0:0:0:0:
391,255,93713,1,0,0:0:0:0:
394,325,93783,1,8,0:0:0:0:
394,325,93853,1,8,0:0:0:0:
394,325,93923,1,0,0:0:0:0:
394,325,93992,1,0,0:0:0:0:
394,325,94062,1,8,0:0:0:0:
371,358,94132,1,8,0:0:0:0:
371,358,94202,1,0,0:0:0:0:
371,358,94271,1,8,0:0:0:0:
371,358,94341,1,0,0:0:0:0:
371,358,94411,1,0,0:0:0:0:
416,298,94481,1,8,0:0:0:0:
416,298,94551,1,0,0:0:0:0:
416,298,94620,1,8,0:0:0:0:
416,298,94690,1,8,0:0:0:0:
416,298,94760,1,0,0:0:0:0:
416,298,94830,1,0,0:0:0:0:
483,358,94899,1,8,0:0:0:0:
472,318,94969,1,0,0:0:0:0:
472,318,95039,1,8,0:0:0:0:
471,323,95109,1,8,0:0:0:0:
471,323,95178,1,0,0:0:0:0:
471,323,95248,1,8,0:0:0:0:
471,323,95318,1,0,0:0:0:0:
471,323,95388,1,0,0:0:0:0:
457,287,95458,1,8,0:0:0:0:
457,287,95527,1,8,0:0:0:0:
457,287,95597,1,8,0:0:0:0:
446,294,95667,1,8,0:0:0:0:
446,294,95737,1,0,0:0:0:0:
494,328,95806,1,0,0:0:0:0:
494,328,95876,1,8,0:0:0:0:
446,333,95946,1,0,0:0:0:0:
446,333,96016,1,8,0:0:0:0:
446,333,96085,1,8,0:0:0:0:
387,273,96155,1,0,0:0:0:0:
387,273,96225,1,0,0:0:0:0:
374,324,96295,1,8,0:0:0:0:
374,324,96364,1,8,0:0:0:0:
374,324,96434,1,8,0:0:0:0:
374,324,96504,1,8,0:0:0:0:
374,324,96574,1,0,0:0:0:0:
374,328,96644,1,0,0:0:0:0:
374,329,96713,1,8,0:0:0:0:
374,329,96783,1,0,0:0:0:0:
411,265,96853,1,8,0:0:0:0:
410,279,96923,1,8,0:0:0:0:
410,280,96992,1,0,0:0:0:0:
409,279,97062,1,0,0:0:0:0:
408,353,97132,1,8,0:0:0:0:
408,353,97202,1,8,0:0:0:0:
408,353,97271,1,0,0:0:0:0:
408,353,97341,1,0,0:0:0:0:
408,353,97411,1,8,0:0:0:0:
408,353,97481,1,8,0:0:0:0:
408,353,97551,1,0,0:0:0:0:
408,353,97620,1,0,0:0:0:0:
395,332,97690,1,8,0:0:0:0:
409,296,97760,1,0,0:0:0:0:
409,296,97830,1,0,0:0:0:0:
409,296,97899,1,0,0:0:0:0:
450,304,97969,1,8,0:0:0:0:
450,304,98039,1,8,0:0:0:0:
450,304,98109,1,0,0:0:0:0:
450,304,98178,1,8,0:0:0:0:
450,304,98248,1,0,0:0:0:0:
450,304,98318,1,0,0:0:0:0:
450,304,98388,1,8,0:0:0:0:
450,304,98458,1,0,0:0:0:0:
450,304,98527,1,8,0:0:0:0:
450,304,98597,1,8,0:0:0:0:
450,304,98667,1,0,0:0:0:0:
450,304,98737,1,8,0:0:0:0:
450,304,98806,1,0,0:0:0:0:
450,304,98876,1,0,0:0:0:0:
450,304,98946,1,8,0:0:0:0:
450,304,99016,1,0,0:0:0:0:
450,304,99085,1,8,0:0:0:0:
450,304,99155,1,8,0:0:0:0:
450,304,99225,1,0,0:0:0:0:
450,304,99295,1,8,0:0:0:0:
450,304,99364,1,0,0:0:0:0:
450,304,99434,1,0,0:0:0:0:
450,304,99504,1,8,0:0:0:0:
450,304,99574,1,0,0:0:0:0:
450,304,99644,1,8,0:0:0:0:
450,304,99713,1,8,0:0:0:0:
450,304,99783,1,0,0:0:0:0:
450,304,99853,1,0,0:0:0:0:
429,332,99923,1,8,0:0:0:0:
429,332,99992,1,8,0:0:0:0:
429,332,100062,1,8,0:0:0:0:
429,332,100132,1,8,0:0:0:0:
436,340,100202,1,0,0:0:0:0:
435,342,100271,1,0,0:0:0:0:
435,343,100341,1,8,0:0:0:0:
435,346,100411,1,0,0:0:0:0:
435,347,100481,1,8,0:0:0:0:
435,348,100551,1,8,0:0:0:0:
436,332,100620,1,0,0:0:0:0:
436,339,100690,1,0,0:0:0:0:
441,347,100760,1,8,0:0:0:0:
441,347,100830,1,8,0:0:0:0:
441,347,100899,1,8,0:0:0:0:
441,347,100969,1,8,0:0:0:0:
441,347,101039,1,0,0:0:0:0:
441,347,101109,1,0,0:0:0:0:
422,329,101178,1,8,0:0:0:0:
422,329,101248,1,0,0:0:0:0:
423,330,101318,1,8,0:0:0:0:
422,329,101388,1,8,0:0:0:0:
415,309,101458,1,0,0:0:0:0:
415,309,101527,1,0,0:0:0:0:
402,364,101597,1,8,0:0:0:0:
402,364,101667,1,8,0:0:0:0:
402,364,101737,1,0,0:0:0:0:
402,364,101806,1,0,0:0:0:0:
402,364,101876,1,8,0:0:0:0:
402,364,101946,1,8,0:0:0:0:
402,364,102016,1,0,0:0:0:0:
402,364,102085,1,0,0:0:0:0:
402,364,102155,1,12,0:0:0:0:
455,348,108853,5,0,0:0:0:0:
455,348,108923,1,0,0:0:0:0:
455,348,108992,5,0,0:0:0:0:
455,348,109062,1,0,0:0:0:0:
455,348,109132,1,8,0:0:0:0:
436,347,109271,1,0,0:0:0:0:
436,347,109411,1,8,0:0:0:0:
470,350,109690,1,8,0:0:0:0:
470,350,109830,1,8,0:0:0:0:
444,343,109969,1,0,0:0:0:0:
444,343,110109,1,0,0:0:0:0:
456,350,110248,1,8,0:0:0:0:
456,350,110388,1,0,0:0:0:0:
456,350,110527,1,8,0:0:0:0:
423,310,110667,1,8,0:0:0:0:
423,310,110806,1,0,0:0:0:0:
423,310,110946,1,12,0:0:0:0:
471,335,111225,1,12,0:0:0:0:
499,369,111504,1,0,0:0:0:0:
499,369,111644,1,8,0:0:0:0:
421,342,111923,1,0,0:0:0:0:
421,342,112062,1,8,0:0:0:0:
421,342,112202,1,0,0:0:0:0:
421,342,112341,1,8,0:0:0:0:
436,346,112481,1,0,0:0:0:0:
436,346,112620,1,0,0:0:0:0:
436,346,112760,1,8,0:0:0:0:
420,328,113039,1,0,0:0:0:0:
420,328,113178,1,8,0:0:0:0:
420,328,113318,1,0,0:0:0:0:
427,340,113458,1,8,0:0:0:0:
427,340,113597,1,0,0:0:0:0:
409,364,113876,1,8,0:0:0:0:
449,378,114155,1,0,0:0:0:0:
449,378,114295,1,8,0:0:0:0:
426,337,114574,1,8,0:0:0:0:
426,337,114713,1,0,0:0:0:0:
445,343,114992,1,8,0:0:0:0:
447,330,115132,1,0,0:0:0:0:
447,330,115271,1,0,0:0:0:0:
447,330,115411,1,8,0:0:0:0:
447,330,115551,1,0,0:0:0:0:
435,357,115690,1,0,0:0:0:0:
435,357,115830,1,8,0:0:0:0:
419,326,116109,1,8,0:0:0:0:
411,349,116388,1,0,0:0:0:0:
411,349,116527,1,8,0:0:0:0:
416,321,116667,1,0,0:0:0:0:
416,321,116806,1,8,0:0:0:0:
418,327,116946,1,0,0:0:0:0:
418,327,117085,1,0,0:0:0:0:
418,327,117225,1,8,0:0:0:0:
481,369,117504,1,0,0:0:0:0:
481,369,117644,1,8,0:0:0:0:
494,355,117783,1,0,0:0:0:0:
494,355,117923,1,8,0:0:0:0:
494,355,118062,1,0,0:0:0:0:
407,326,118341,1,8,0:0:0:0:
403,314,118620,1,0,0:0:0:0:
399,266,118760,1,8,0:0:0:0:
376,271,119039,1,8,0:0:0:0:
376,271,119178,1,0,0:0:0:0:
366,334,119458,1,8,0:0:0:0:
366,334,119597,1,0,0:0:0:0:
363,340,119737,1,8,0:0:0:0:
370,343,119876,1,8,0:0:0:0:
381,338,120016,1,0,0:0:0:0:
361,358,120155,1,0,0:0:0:0:
364,319,120295,1,0,0:0:0:0:
469,350,120434,1,0,0:0:0:0:
469,350,120574,1,8,0:0:0:0:
400,353,120713,1,0,0:0:0:0:
394,370,120853,1,8,0:0:0:0:
370,338,120992,1,8,0:0:0:0:
370,338,121132,1,0,0:0:0:0:
368,344,121271,1,8,0:0:0:0:
405,351,121411,1,0,0:0:0:0:
381,334,121551,1,0,0:0:0:0:
381,334,121690,1,8,0:0:0:0:
405,351,121830,1,0,0:0:0:0:
405,351,121969,1,0,0:0:0:0:
402,368,122109,1,0,0:0:0:0:
402,368,122248,1,8,0:0:0:0:
414,365,122527,1,8,0:0:0:0:
404,326,122667,1,0,0:0:0:0:
404,326,122806,1,8,0:0:0:0:
351,324,122946,1,8,0:0:0:0:
385,349,123085,1,0,0:0:0:0:
385,349,123225,1,8,0:0:0:0:
405,343,123504,1,8,0:0:0:0:
405,343,123644,1,0,0:0:0:0:
426,360,123923,1,8,0:0:0:0:
414,336,124202,1,0,0:0:0:0:
412,340,124341,1,8,0:0:0:0:
412,340,124481,1,0,0:0:0:0:
426,350,124620,1,0,0:0:0:0:
425,356,124760,1,8,0:0:0:0:
425,356,125039,1,8,0:0:0:0:
377,269,125318,1,0,0:0:0:0:
388,297,125458,1,8,0:0:0:0:
388,297,125597,1,0,0:0:0:0:
388,297,125737,1,8,0:0:0:0:
377,348,125876,1,0,0:0:0:0:
377,348,126016,1,0,0:0:0:0:
377,348,126155,1,8,0:0:0:0:
383,307,126434,1,0,0:0:0:0:
383,307,126574,1,8,0:0:0:0:
416,331,126713,1,0,0:0:0:0:
416,331,126853,1,8,0:0:0:0:
416,331,126992,1,0,0:0:0:0:
399,301,127271,1,8,0:0:0:0:
438,363,127411,1,0,0:0:0:0:
438,363,127551,1,0,0:0:0:0:
442,366,127690,1,8,0:0:0:0:
481,323,127830,1,0,0:0:0:0:
481,323,127969,1,8,0:0:0:0:
452,329,128109,1,0,0:0:0:0:
457,293,128248,1,0,0:0:0:0:
442,276,128388,1,8,0:0:0:0:
442,276,128527,1,8,0:0:0:0:
437,333,128597,1,8,0:0:0:0:
442,276,128667,1,8,0:0:0:0:
442,276,128806,1,8,0:0:0:0:
442,276,128946,1,4,0:0:0:0:
431,361,129085,1,0,0:0:0:0:
431,361,129155,1,0,0:0:0:0:
431,361,129225,1,0,0:0:0:0:
431,361,129364,1,0,0:0:0:0:
431,361,129504,1,8,0:0:0:0:
453,355,129783,1,8,0:0:0:0:
453,355,129923,1,8,0:0:0:0:
404,335,130062,1,0,0:0:0:0:
404,335,130202,1,8,0:0:0:0:
398,316,130341,1,0,0:0:0:0:
398,316,130481,1,0,0:0:0:0:
398,316,130620,1,8,0:0:0:0:
416,339,130899,1,8,0:0:0:0:
416,339,131039,1,8,0:0:0:0:
416,339,131178,1,0,0:0:0:0:
440,340,131318,1,8,0:0:0:0:
396,330,131597,1,0,0:0:0:0:
401,332,131737,1,8,0:0:0:0:
451,305,132016,1,0,0:0:0:0:
451,305,132155,1,0,0:0:0:0:
390,299,132295,1,8,0:0:0:0:
390,299,132434,1,8,0:0:0:0:
462,330,132574,1,0,0:0:0:0:
462,330,132713,1,0,0:0:0:0:
462,330,132853,1,8,0:0:0:0:
443,322,132992,1,8,0:0:0:0:
443,322,133062,1,8,0:0:0:0:
443,322,133132,1,0,0:0:0:0:
443,322,133271,1,0,0:0:0:0:
443,322,133411,1,12,0:0:0:0:
432,355,133690,1,0,0:0:0:0:
432,355,133830,1,0,0:0:0:0:
432,355,133969,1,8,0:0:0:0:
448,353,134248,1,8,0:0:0:0:
448,353,134388,1,8,0:0:0:0:
448,353,134527,1,0,0:0:0:0:
435,343,134667,1,8,0:0:0:0:
435,343,134806,1,0,0:0:0:0:
435,343,134946,1,0,0:0:0:0:
435,343,135085,1,8,0:0:0:0:
374,343,135364,1,8,0:0:0:0:
374,343,135504,1,8,0:0:0:0:
374,343,135644,1,0,0:0:0:0:
374,343,135783,1,8,0:0:0:0:
394,354,136062,1,0,0:0:0:0:
394,354,136202,1,8,0:0:0:0:
410,350,136481,1,8,0:0:0:0:
410,350,136620,1,8,0:0:0:0:
397,351,136760,1,0,0:0:0:0:
391,342,136899,1,0,0:0:0:0:
391,342,137039,1,8,0:0:0:0:
391,342,137178,1,0,0:0:0:0:
391,349,137318,1,8,0:0:0:0:
409,355,137458,1,8,0:0:0:0:
409,355,137527,1,8,0:0:0:0:
409,355,137597,1,0,0:0:0:0:
473,335,137737,1,0,0:0:0:0:
473,335,137876,1,12,0:0:0:0:
431,361,138016,1,0,0:0:0:0:
431,361,138085,1,0,0:0:0:0:
431,361,138155,1,0,0:0:0:0:
431,361,138295,1,0,0:0:0:0:
431,361,138434,1,8,0:0:0:0:
453,355,138713,1,8,0:0:0:0:
453,355,138853,1,8,0:0:0:0:
404,335,138992,1,0,0:0:0:0:
404,335,139132,1,8,0:0:0:0:
398,316,139271,1,0,0:0:0:0:
398,316,139411,1,0,0:0:0:0:
398,316,139551,1,8,0:0:0:0:
416,339,139830,1,8,0:0:0:0:
416,339,139969,1,8,0:0:0:0:
416,339,140109,1,0,0:0:0:0:
440,340,140248,1,8,0:0:0:0:
396,330,140527,1,0,0:0:0:0:
401,332,140667,1,8,0:0:0:0:
451,305,140946,1,0,0:0:0:0:
451,305,141085,1,0,0:0:0:0:
390,299,141225,1,8,0:0:0:0:
390,299,141364,1,8,0:0:0:0:
462,330,141504,1,0,0:0:0:0:
462,330,141644,1,0,0:0:0:0:
462,330,141783,1,8,0:0:0:0:
443,322,141923,1,8,0:0:0:0:
443,322,141992,1,8,0:0:0:0:
443,322,142062,1,0,0:0:0:0:
443,322,142202,1,0,0:0:0:0:
443,322,142341,1,12,0:0:0:0:
432,355,142620,1,0,0:0:0:0:
432,355,142760,1,0,0:0:0:0:
432,355,142899,1,8,0:0:0:0:
448,353,143178,1,8,0:0:0:0:
448,353,143318,1,8,0:0:0:0:
448,353,143458,1,0,0:0:0:0:
435,343,143597,1,8,0:0:0:0:
435,343,143737,1,0,0:0:0:0:
435,343,143876,1,0,0:0:0:0:
435,343,144016,1,8,0:0:0:0:
374,343,144295,1,8,0:0:0:0:
374,343,144434,1,8,0:0:0:0:
374,343,144574,1,0,0:0:0:0:
374,343,144713,1,8,0:0:0:0:
394,354,144992,1,0,0:0:0:0:
394,354,145132,1,8,0:0:0:0:
410,350,145411,1,8,0:0:0:0:
410,350,145551,1,8,0:0:0:0:
397,351,145690,1,0,0:0:0:0:
391,342,145830,1,0,0:0:0:0:
391,342,145969,1,8,0:0:0:0:
391,342,146109,1,0,0:0:0:0:
391,349,146248,1,8,0:0:0:0:
470,309,146806,1,8,0:0:0:0:
470,309,146876,1,8,0:0:0:0:
470,309,146946,1,8,0:0:0:0:
470,309,147016,1,8,0:0:0:0:
453,338,147085,1,0,0:0:0:0:
453,338,147155,1,8,0:0:0:0:
453,338,147225,1,0,0:0:0:0:
453,338,147295,1,0,0:0:0:0:
453,338,147364,1,8,0:0:0:0:
488,326,147434,1,0,0:0:0:0:
488,326,147504,1,8,0:0:0:0:
485,333,147574,1,8,0:0:0:0:
485,333,147644,1,0,0:0:0:0:
488,366,147713,1,0,0:0:0:0:
468,355,147783,1,8,0:0:0:0:
468,355,147853,1,8,0:0:0:0:
468,355,147923,1,0,0:0:0:0:
451,333,147992,1,0,0:0:0:0:
451,333,148062,1,0,0:0:0:0:
451,333,148132,1,0,0:0:0:0:
463,302,148202,1,8,0:0:0:0:
448,374,148271,1,8,0:0:0:0:
448,374,148341,1,0,0:0:0:0:
463,302,148411,1,0,0:0:0:0:
463,302,148481,1,8,0:0:0:0:
402,314,148551,1,0,0:0:0:0:
402,314,148620,1,8,0:0:0:0:
408,249,148690,1,8,0:0:0:0:
408,249,148760,1,0,0:0:0:0:
408,249,148830,1,0,0:0:0:0:
407,253,148899,1,8,0:0:0:0:
425,375,148969,1,0,0:0:0:0:
470,309,149039,1,8,0:0:0:0:
475,317,149109,1,8,0:0:0:0:
475,317,149178,1,8,0:0:0:0:
475,317,149248,1,8,0:0:0:0:
475,317,149318,1,0,0:0:0:0:
475,317,149388,1,8,0:0:0:0:
470,313,149458,1,0,0:0:0:0:
470,314,149527,1,0,0:0:0:0:
470,315,149597,1,8,0:0:0:0:
485,362,149667,1,0,0:0:0:0:
485,362,149737,1,8,0:0:0:0:
485,362,149806,1,8,0:0:0:0:
485,362,149876,1,0,0:0:0:0:
485,362,149946,1,0,0:0:0:0:
421,320,150016,1,8,0:0:0:0:
421,320,150085,1,8,0:0:0:0:
421,320,150155,1,0,0:0:0:0:
416,333,150225,1,8,0:0:0:0:
416,333,150295,1,0,0:0:0:0:
416,333,150364,1,0,0:0:0:0:
504,332,150434,1,8,0:0:0:0:
504,332,150504,1,8,0:0:0:0:
504,332,150574,1,0,0:0:0:0:
504,332,150644,1,0,0:0:0:0:
373,278,150713,1,8,0:0:0:0:
373,278,150783,1,0,0:0:0:0:
373,278,150853,1,8,0:0:0:0:
373,278,150923,1,8,0:0:0:0:
373,278,150992,1,0,0:0:0:0:
373,278,151062,1,0,0:0:0:0:
373,278,151132,1,8,0:0:0:0:
373,278,151202,1,0,0:0:0:0:
470,309,151271,1,8,0:0:0:0:
470,309,151341,1,8,0:0:0:0:
470,309,151411,1,8,0:0:0:0:
470,309,151481,1,8,0:0:0:0:
453,338,151551,1,0,0:0:0:0:
453,338,151620,1,8,0:0:0:0:
453,338,151690,1,0,0:0:0:0:
453,338,151760,1,0,0:0:0:0:
453,338,151830,1,8,0:0:0:0:
488,326,151899,1,0,0:0:0:0:
488,326,151969,1,8,0:0:0:0:
485,333,152039,1,8,0:0:0:0:
485,333,152109,1,0,0:0:0:0:
488,366,152178,1,0,0:0:0:0:
468,355,152248,1,8,0:0:0:0:
468,355,152318,1,8,0:0:0:0:
468,355,152388,1,0,0:0:0:0:
451,333,152458,1,0,0:0:0:0:
451,333,152527,1,0,0:0:0:0:
451,333,152597,1,0,0:0:0:0:
463,302,152667,1,8,0:0:0:0:
448,374,152737,1,8,0:0:0:0:
448,374,152806,1,0,0:0:0:0:
463,302,152876,1,0,0:0:0:0:
463,302,152946,1,8,0:0:0:0:
402,314,153016,1,0,0:0:0:0:
402,314,153085,1,8,0:0:0:0:
408,249,153155,1,8,0:0:0:0:
408,249,153225,1,0,0:0:0:0:
408,249,153295,1,0,0:0:0:0:
407,253,153364,1,8,0:0:0:0:
425,375,153434,1,0,0:0:0:0:
479,368,153504,1,8,0:0:0:0:
479,368,153574,1,8,0:0:0:0:
479,368,153644,1,0,0:0:0:0:
479,368,153713,1,0,0:0:0:0:
479,368,153783,1,8,0:0:0:0:
479,368,153853,1,0,0:0:0:0:
479,368,153923,1,0,0:0:0:0:
479,368,153992,1,0,0:0:0:0:
453,326,154062,1,8,0:0:0:0:
453,326,154132,1,8,0:0:0:0:
453,326,154202,1,8,0:0:0:0:
453,326,154271,1,0,0:0:0:0:
459,330,154341,1,8,0:0:0:0:
423,331,154411,1,8,0:0:0:0:
423,331,154481,1,0,0:0:0:0:
423,331,154551,1,0,0:0:0:0:
439,317,154620,1,8,0:0:0:0:
495,359,154690,1,0,0:0:0:0:
495,359,154760,1,8,0:0:0:0:
495,359,154830,1,8,0:0:0:0:
415,339,154899,1,0,0:0:0:0:
415,339,154969,1,0,0:0:0:0:
415,339,155039,1,0,0:0:0:0:
415,346,155109,1,0,0:0:0:0:
423,303,155178,1,8,0:0:0:0:
475,359,155248,1,8,0:0:0:0:
475,359,155318,1,8,0:0:0:0:
475,359,155388,1,0,0:0:0:0:
489,352,155458,1,8,0:0:0:0:
489,352,155527,1,8,0:0:0:0:
499,353,155597,1,0,0:0:0:0:
499,354,155667,1,0,0:0:0:0:
499,354,155737,1,12,0:0:0:0:
450,340,156016,1,12,0:0:0:0:
442,345,156295,1,8,0:0:0:0:
442,345,156364,1,0,0:0:0:0:
442,345,156434,1,0,0:0:0:0:
442,345,156504,1,0,0:0:0:0:
441,360,156574,1,8,0:0:0:0:
441,360,156644,1,8,0:0:0:0:
441,360,156713,1,8,0:0:0:0:
441,360,156783,1,8,0:0:0:0:
396,307,156853,1,0,0:0:0:0:
396,307,156923,1,0,0:0:0:0:
396,307,156992,1,8,0:0:0:0:
396,307,157062,1,0,0:0:0:0:
396,307,157132,1,8,0:0:0:0:
396,307,157202,1,8,0:0:0:0:
433,340,157271,1,0,0:0:0:0:
433,340,157341,1,0,0:0:0:0:
433,340,157411,1,8,0:0:0:0:
460,345,157481,1,0,0:0:0:0:
460,345,157551,1,0,0:0:0:0:
460,345,157620,1,0,0:0:0:0:
440,311,157690,1,8,0:0:0:0:
440,311,157760,1,8,0:0:0:0:
440,311,157830,1,0,0:0:0:0:
440,311,157899,1,0,0:0:0:0:
500,310,157969,1,8,0:0:0:0:
500,310,158039,1,8,0:0:0:0:
500,310,158109,1,8,0:0:0:0:
499,315,158178,1,8,0:0:0:0:
448,346,158248,1,0,0:0:0:0:
448,346,158318,1,8,0:0:0:0:
448,346,158388,1,0,0:0:0:0:
448,346,158458,1,0,0:0:0:0:
448,336,158527,1,8,0:0:0:0:
448,346,158597,1,0,0:0:0:0:
448,346,158667,1,0,0:0:0:0:
446,342,158737,1,0,0:0:0:0:
448,346,158806,1,8,0:0:0:0:
448,346,158876,1,8,0:0:0:0:
446,342,158946,1,8,0:0:0:0:
448,346,159016,1,8,0:0:0:0:
443,328,159085,1,0,0:0:0:0:
443,328,159155,1,0,0:0:0:0:
443,328,159225,1,8,0:0:0:0:
443,328,159295,1,0,0:0:0:0:
435,309,159364,1,8,0:0:0:0:
435,310,159434,1,8,0:0:0:0:
435,312,159504,1,0,0:0:0:0:
435,313,159574,1,0,0:0:0:0:
415,335,159644,1,8,0:0:0:0:
467,350,159713,1,0,0:0:0:0:
467,350,159783,1,0,0:0:0:0:
467,350,159853,1,0,0:0:0:0:
470,367,159923,1,8,0:0:0:0:
470,367,159992,1,8,0:0:0:0:
470,367,160062,1,0,0:0:0:0:
470,367,160132,1,0,0:0:0:0:
461,323,160202,1,8,0:0:0:0:
461,323,160271,1,8,0:0:0:0:
461,323,160341,1,8,0:0:0:0:
461,323,160411,1,8,0:0:0:0:
461,305,160481,1,0,0:0:0:0:
490,325,160551,1,8,0:0:0:0:
490,325,160620,1,0,0:0:0:0:
490,325,160690,1,0,0:0:0:0:
461,305,160760,1,8,0:0:0:0:
490,325,160830,1,0,0:0:0:0:
491,304,160899,1,0,0:0:0:0:
491,304,160969,1,0,0:0:0:0:
481,291,161039,1,8,0:0:0:0:
481,291,161109,1,8,0:0:0:0:
481,293,161178,1,8,0:0:0:0:
481,291,161248,1,8,0:0:0:0:
477,318,161318,1,0,0:0:0:0:
477,318,161388,1,0,0:0:0:0:
477,318,161458,1,8,0:0:0:0:
477,318,161527,1,0,0:0:0:0:
476,307,161597,1,8,0:0:0:0:
476,307,161667,1,8,0:0:0:0:
476,307,161737,1,0,0:0:0:0:
476,307,161806,1,0,0:0:0:0:
476,307,161876,1,8,0:0:0:0:
487,359,161946,1,0,0:0:0:0:
487,359,162016,1,0,0:0:0:0:
487,359,162085,1,0,0:0:0:0:
453,318,162155,1,8,0:0:0:0:
453,318,162225,1,8,0:0:0:0:
453,318,162295,1,0,0:0:0:0:
453,318,162364,1,0,0:0:0:0:
475,356,162434,1,8,0:0:0:0:
475,356,162504,1,8,0:0:0:0:
475,356,162574,1,8,0:0:0:0:
475,356,162644,1,8,0:0:0:0:
467,366,162713,1,0,0:0:0:0:
467,366,162783,1,8,0:0:0:0:
467,367,162853,1,0,0:0:0:0:
467,366,162923,1,0,0:0:0:0:
467,366,162992,1,8,0:0:0:0:
430,352,163062,1,0,0:0:0:0:
430,352,163132,1,0,0:0:0:0:
430,352,163202,1,0,0:0:0:0:
430,352,163271,1,8,0:0:0:0:
441,321,163341,1,8,0:0:0:0:
421,340,163411,1,0,0:0:0:0:
421,340,163481,1,0,0:0:0:0:
431,302,163551,1,8,0:0:0:0:
432,293,163620,1,8,0:0:0:0:
432,294,163690,1,8,0:0:0:0:
419,293,163760,1,8,0:0:0:0:
419,293,163830,1,0,0:0:0:0:
419,293,163899,1,0,0:0:0:0:
419,293,163969,1,0,0:0:0:0:
419,293,164039,1,0,0:0:0:0:
419,293,164109,1,8,0:0:0:0:
419,293,164178,1,8,0:0:0:0:
419,293,164248,1,8,0:0:0:0:
419,293,164318,1,8,0:0:0:0:
394,250,164388,1,0,0:0:0:0:
420,287,164458,1,0,0:0:0:0:
420,287,164527,1,0,0:0:0:0:
420,287,164597,1,0,0:0:0:0:
470,309,164667,1,12,0:0:0:0:
453,338,164946,1,0,0:0:0:0:
453,338,165016,1,8,0:0:0:0:
453,338,165085,1,0,0:0:0:0:
453,338,165155,1,0,0:0:0:0:
453,338,165225,1,8,0:0:0:0:
488,326,165295,1,0,0:0:0:0:
488,326,165364,1,8,0:0:0:0:
485,333,165434,1,8,0:0:0:0:
485,333,165504,1,0,0:0:0:0:
488,366,165574,1,0,0:0:0:0:
468,355,165644,1,8,0:0:0:0:
468,355,165713,1,8,0:0:0:0:
468,355,165783,1,0,0:0:0:0:
451,333,165853,1,0,0:0:0:0:
451,333,165923,1,0,0:0:0:0:
451,333,165992,1,0,0:0:0:0:
463,302,166062,1,8,0:0:0:0:
448,374,166132,1,8,0:0:0:0:
448,374,166202,1,0,0:0:0:0:
463,302,166271,1,0,0:0:0:0:
463,302,166341,1,8,0:0:0:0:
402,314,166411,1,0,0:0:0:0:
402,314,166481,1,8,0:0:0:0:
408,249,166551,1,8,0:0:0:0:
408,249,166620,1,0,0:0:0:0:
408,249,166690,1,0,0:0:0:0:
407,253,166760,1,8,0:0:0:0:
425,375,166830,1,0,0:0:0:0:
470,309,166899,1,8,0:0:0:0:
475,317,166969,1,8,0:0:0:0:
475,317,167039,1,8,0:0:0:0:
475,317,167109,1,0,0:0:0:0:
475,317,167178,1,8,0:0:0:0:
475,317,167248,1,8,0:0:0:0:
470,313,167318,1,0,0:0:0:0:
470,314,167388,1,0,0:0:0:0:
470,315,167458,1,8,0:0:0:0:
485,362,167527,1,0,0:0:0:0:
485,362,167597,1,8,0:0:0:0:
485,362,167667,1,8,0:0:0:0:
485,362,167737,1,0,0:0:0:0:
485,362,167806,1,0,0:0:0:0:
421,320,167876,1,8,0:0:0:0:
421,320,167946,1,8,0:0:0:0:
421,320,168016,1,0,0:0:0:0:
416,333,168085,1,8,0:0:0:0:
416,333,168155,1,0,0:0:0:0:
416,333,168225,1,0,0:0:0:0:
504,332,168295,1,8,0:0:0:0:
504,332,168364,1,8,0:0:0:0:
504,332,168434,1,0,0:0:0:0:
504,332,168504,1,0,0:0:0:0:
373,278,168574,1,8,0:0:0:0:
373,278,168644,1,0,0:0:0:0:
373,278,168713,1,8,0:0:0:0:
373,278,168783,1,8,0:0:0:0:
373,278,168853,1,0,0:0:0:0:
373,278,168923,1,0,0:0:0:0:
373,278,168992,1,8,0:0:0:0:
373,278,169062,1,0,0:0:0:0:
470,309,169132,1,8,0:0:0:0:
470,309,169202,1,8,0:0:0:0:
470,309,169271,1,8,0:0:0:0:
470,309,169341,1,8,0:0:0:0:
453,338,169411,1,0,0:0:0:0:
453,338,169481,1,8,0:0:0:0:
453,338,169551,1,0,0:0:0:0:
453,338,169620,1,0,0:0:0:0:
453,338,169690,1,8,0:0:0:0:
488,326,169760,1,0,0:0:0:0:
488,326,169830,1,8,0:0:0:0:
485,333,169899,1,8,0:0:0:0:
485,333,169969,1,0,0:0:0:0:
488,366,170039,1,0,0:0:0:0:
468,355,170109,1,8,0:0:0:0:
468,355,170178,1,8,0:0:0:0:
468,355,170248,1,0,0:0:0:0:
451,333,170318,1,0,0:0:0:0:
451,333,170388,1,0,0:0:0:0:
451,333,170458,1,0,0:0:0:0:
463,302,170527,1,8,0:0:0:0:
448,374,170597,1,8,0:0:0:0:
448,374,170667,1,0,0:0:0:0:
463,302,170737,1,0,0:0:0:0:
463,302,170806,1,8,0:0:0:0:
402,314,170876,1,0,0:0:0:0:
402,314,170946,1,8,0:0:0:0:
408,249,171016,1,8,0:0:0:0:
408,249,171085,1,0,0:0:0:0:
408,249,171155,1,0,0:0:0:0:
407,253,171225,1,8,0:0:0:0:
425,375,171295,1,0,0:0:0:0:
479,368,171364,1,8,0:0:0:0:
479,368,171434,1,8,0:0:0:0:
479,368,171504,1,0,0:0:0:0:
479,368,171574,1,0,0:0:0:0:
479,368,171644,1,8,0:0:0:0:
479,368,171713,1,0,0:0:0:0:
479,368,171783,1,0,0:0:0:0:
479,368,171853,1,0,0:0:0:0:
453,326,171923,1,8,0:0:0:0:
453,326,171992,1,8,0:0:0:0:
453,326,172062,1,8,0:0:0:0:
453,326,172132,1,0,0:0:0:0:
459,330,172202,1,8,0:0:0:0:
423,331,172271,1,8,0:0:0:0:
423,331,172341,1,0,0:0:0:0:
423,331,172411,1,0,0:0:0:0:
439,317,172481,1,8,0:0:0:0:
495,359,172551,1,0,0:0:0:0:
495,359,172620,1,8,0:0:0:0:
495,359,172690,1,8,0:0:0:0:
415,339,172760,1,0,0:0:0:0:
415,339,172830,1,0,0:0:0:0:
415,339,172899,1,0,0:0:0:0:
415,346,172969,1,0,0:0:0:0:
423,303,173039,1,8,0:0:0:0:
475,359,173109,1,8,0:0:0:0:
475,359,173178,1,8,0:0:0:0:
475,359,173248,1,0,0:0:0:0:
489,352,173318,1,8,0:0:0:0:
489,352,173388,1,8,0:0:0:0:
499,353,173458,1,0,0:0:0:0:
499,354,173527,1,0,0:0:0:0:
499,354,173597,1,12,0:0:0:0:
450,340,173876,1,12,0:0:0:0:
449,344,174155,1,8,0:0:0:0:
449,344,174225,1,0,0:0:0:0:
449,344,174295,1,0,0:0:0:0:
449,344,174364,1,0,0:0:0:0:
449,344,174434,1,8,0:0:0:0:
449,344,174504,1,8,0:0:0:0:
449,344,174574,1,0,0:0:0:0:
449,344,174644,1,0,0:0:0:0:
449,344,174713,1,8,0:0:0:0:
451,349,174783,1,0,0:0:0:0:
451,349,174853,1,8,0:0:0:0:
451,349,174923,1,8,0:0:0:0:
451,349,174992,1,0,0:0:0:0:
451,349,175062,1,0,0:0:0:0:
451,349,175132,1,0,0:0:0:0:
451,349,175202,1,0,0:0:0:0:
451,349,175271,1,8,0:0:0:0:
452,333,175341,1,0,0:0:0:0:
452,333,175411,1,0,0:0:0:0:
452,333,175481,1,0,0:0:0:0:
461,343,175551,1,8,0:0:0:0:
461,343,175620,1,8,0:0:0:0:
461,343,175690,1,8,0:0:0:0:
461,343,175760,1,0,0:0:0:0:
461,343,175830,1,8,0:0:0:0:
438,346,175899,1,8,0:0:0:0:
438,346,175969,1,0,0:0:0:0:
438,346,176039,1,0,0:0:0:0:
438,346,176109,1,8,0:0:0:0:
423,367,176178,1,8,0:0:0:0:
423,367,176248,1,0,0:0:0:0:
423,367,176318,1,0,0:0:0:0:
423,367,176388,1,8,0:0:0:0:
413,343,176458,1,0,0:0:0:0:
413,343,176527,1,0,0:0:0:0:
413,343,176597,1,0,0:0:0:0:
428,341,176667,1,8,0:0:0:0:
427,338,176737,1,8,0:0:0:0:
427,338,176806,1,0,0:0:0:0:
428,341,176876,1,0,0:0:0:0:
427,338,176946,1,8,0:0:0:0:
427,338,177016,1,8,0:0:0:0:
461,343,177085,1,8,0:0:0:0:
461,343,177155,1,0,0:0:0:0:
461,343,177225,1,8,0:0:0:0:
461,343,177295,1,8,0:0:0:0:
434,326,177364,1,0,0:0:0:0:
434,326,177434,1,0,0:0:0:0:
434,326,177504,1,8,0:0:0:0:
429,304,177574,1,0,0:0:0:0:
429,304,177644,1,0,0:0:0:0:
429,304,177713,1,0,0:0:0:0:
418,285,177783,1,8,0:0:0:0:
418,285,177853,1,8,0:0:0:0:
418,285,177923,1,0,0:0:0:0:
418,285,177992,1,0,0:0:0:0:
450,335,178062,1,8,0:0:0:0:
450,335,178132,1,8,0:0:0:0:
450,335,178202,1,8,0:0:0:0:
450,335,178271,1,8,0:0:0:0:
448,303,178341,1,0,0:0:0:0:
448,303,178411,1,8,0:0:0:0:
448,303,178481,1,0,0:0:0:0:
448,303,178551,1,0,0:0:0:0:
448,303,178620,1,8,0:0:0:0:
444,320,178690,1,8,0:0:0:0:
444,320,178760,1,0,0:0:0:0:
444,320,178830,1,0,0:0:0:0:
444,320,178899,1,8,0:0:0:0:
444,320,178969,1,0,0:0:0:0:
444,320,179039,1,0,0:0:0:0:
444,320,179109,1,0,0:0:0:0:
458,352,179178,1,8,0:0:0:0:
471,336,179248,1,8,0:0:0:0:
458,352,179318,1,0,0:0:0:0:
458,352,179388,1,8,0:0:0:0:
458,352,179458,1,0,0:0:0:0:
458,352,179527,1,0,0:0:0:0:
471,336,179597,1,0,0:0:0:0:
471,336,179667,1,0,0:0:0:0:
471,336,179737,1,8,0:0:0:0:
471,336,179806,1,8,0:0:0:0:
471,336,179876,1,0,0:0:0:0:
471,336,179946,1,0,0:0:0:0:
471,336,180016,1,8,0:0:0:0:
471,336,180085,1,0,0:0:0:0:
471,336,180155,1,0,0:0:0:0:
471,336,180225,1,0,0:0:0:0:
471,336,180295,1,8,0:0:0:0:
471,336,180364,1,8,0:0:0:0:
436,345,180434,1,0,0:0:0:0:
436,345,180504,1,0,0:0:0:0:
430,339,180574,1,8,0:0:0:0:
430,339,180644,1,0,0:0:0:0:
430,339,180713,1,0,0:0:0:0:
430,339,180783,1,0,0:0:0:0:
430,339,180853,1,8,0:0:0:0:
491,363,180923,1,8,0:0:0:0:
491,363,180992,1,0,0:0:0:0:
491,363,181062,1,0,0:0:0:0:
491,363,181132,1,8,0:0:0:0:
491,363,181202,1,0,0:0:0:0:
491,363,181271,1,8,0:0:0:0:
491,363,181341,1,0,0:0:0:0:
491,363,181411,1,12,0:0:0:0:
472,343,181690,1,8,0:0:0:0:
472,343,181760,1,8,0:0:0:0:
472,343,181830,1,0,0:0:0:0:
472,343,181899,1,0,0:0:0:0:
472,343,181969,1,8,0:0:0:0:
478,334,182039,1,0,0:0:0:0:
478,334,182109,1,0,0:0:0:0:
478,334,182178,1,0,0:0:0:0:
478,334,182248,1,8,0:0:0:0:
478,334,182318,1,0,0:0:0:0:
478,334,182388,1,0,0:0:0:0:
478,334,182458,1,0,0:0:0:0:
478,334,182527,1,12,0:0:0:0:
412,313,182945,1,8,0:0:0:0:
412,313,183015,1,8,0:0:0:0:
412,313,183085,1,0,0:0:0:0:
412,313,183154,1,0,0:0:0:0:
412,313,183224,1,0,0:0:0:0:
412,313,183294,1,0,0:0:0:0:
412,313,183364,1,12,0:0:0:0:
461,328,183782,1,8,0:0:0:0:
461,328,183922,1,0,0:0:0:0:
461,328,184061,1,0,0:0:0:0:
461,328,184201,1,12,0:0:0:0:
461,328,184620,1,8,0:0:0:0:
461,328,184689,1,8,0:0:0:0:
461,328,184759,1,0,0:0:0:0:
461,328,184829,1,0,0:0:0:0:
461,328,184899,1,0,0:0:0:0:
461,328,184968,1,0,0:0:0:0:
461,328,185038,1,8,0:0:0:0:
461,328,185108,1,0,0:0:0:0:
461,328,185178,1,0,0:0:0:0:
461,328,185247,1,0,0:0:0:0:
430,323,185317,1,0,0:0:0:0:
430,323,185387,1,0,0:0:0:0:
404,312,185457,1,8,0:0:0:0:
404,312,185596,1,0,0:0:0:0:
404,312,185736,1,0,0:0:0:0:
404,312,185875,1,12,0:0:0:0:
468,368,186294,1,8,0:0:0:0:
468,368,186364,1,0,0:0:0:0:
468,368,186433,1,8,0:0:0:0:
447,353,186503,1,8,0:0:0:0:
447,353,186573,1,0,0:0:0:0:
447,353,186643,1,0,0:0:0:0:
364,309,186713,1,8,0:0:0:0:
404,334,186782,1,8,0:0:0:0:
447,353,186852,1,0,0:0:0:0:
447,353,186922,1,8,0:0:0:0:
447,353,186992,1,0,0:0:0:0:
447,353,187061,1,0,0:0:0:0:
447,353,187131,1,8,0:0:0:0:
452,343,187201,1,8,0:0:0:0:
447,353,187271,1,0,0:0:0:0:
447,353,187340,1,8,0:0:0:0:
457,371,187410,1,8,0:0:0:0:
457,371,187480,1,0,0:0:0:0:
503,354,187550,1,8,0:0:0:0:
503,354,187620,1,8,0:0:0:0:
495,361,187689,1,0,0:0:0:0:
495,361,187759,1,0,0:0:0:0:
495,361,187829,1,8,0:0:0:0:
488,350,187899,1,0,0:0:0:0:
488,350,187968,1,8,0:0:0:0:
488,350,188038,1,8,0:0:0:0:
488,350,188108,1,0,0:0:0:0:
488,350,188178,1,8,0:0:0:0:
488,350,188247,1,0,0:0:0:0:
468,356,188317,1,0,0:0:0:0:
456,333,188387,1,8,0:0:0:0:
456,337,188457,1,8,0:0:0:0:
456,337,188527,1,0,0:0:0:0:
474,276,188596,1,0,0:0:0:0:
474,276,188666,1,8,0:0:0:0:
474,276,188736,1,0,0:0:0:0:
474,276,188806,1,8,0:0:0:0:
474,276,188875,1,8,0:0:0:0:
474,276,188945,1,0,0:0:0:0:
474,276,189015,1,0,0:0:0:0:
487,304,189085,1,8,0:0:0:0:
487,304,189154,1,0,0:0:0:0:
510,312,189224,1,8,0:0:0:0:
510,312,189294,1,8,0:0:0:0:
510,312,189364,1,8,0:0:0:0:
510,312,189433,1,8,0:0:0:0:
432,334,189503,1,0,0:0:0:0:
432,334,189573,1,0,0:0:0:0:
448,343,189643,1,8,0:0:0:0:
448,343,189713,1,0,0:0:0:0:
448,343,189782,1,8,0:0:0:0:
448,343,189852,1,8,0:0:0:0:
456,341,189922,1,0,0:0:0:0:
456,341,189992,1,0,0:0:0:0:
458,331,190061,1,8,0:0:0:0:
457,332,190131,1,8,0:0:0:0:
457,332,190201,1,0,0:0:0:0:
458,331,190271,1,8,0:0:0:0:
457,332,190340,1,0,0:0:0:0:
457,332,190410,1,0,0:0:0:0:
458,331,190480,1,8,0:0:0:0:
445,323,190550,1,8,0:0:0:0:
446,323,190620,1,0,0:0:0:0:
450,325,190689,1,0,0:0:0:0:
449,325,190759,1,8,0:0:0:0:
437,346,190899,1,12,0:0:0:0:
459,318,191038,1,0,0:0:0:0:
459,318,191108,1,0,0:0:0:0:
459,318,191178,1,0,0:0:0:0:
468,253,191247,1,0,0:0:0:0:
468,253,191317,1,8,0:0:0:0:
453,303,191387,1,0,0:0:0:0:
453,303,191457,1,8,0:0:0:0:
453,303,191527,1,8,0:0:0:0:
453,303,191596,1,0,0:0:0:0:
453,303,191736,1,12,0:0:0:0:
420,337,191875,1,0,0:0:0:0:
420,337,191945,1,0,0:0:0:0:
420,337,192015,1,0,0:0:0:0:
436,305,192085,1,0,0:0:0:0:
436,305,192154,1,8,0:0:0:0:
436,305,192224,1,8,0:0:0:0:
436,305,192294,1,0,0:0:0:0:
436,305,192364,1,8,0:0:0:0:
436,305,192433,1,0,0:0:0:0:
427,321,192503,1,0,0:0:0:0:
436,305,192573,1,12,0:0:0:0:
477,362,192992,1,8,0:0:0:0:
477,362,193061,1,8,0:0:0:0:
477,362,193131,1,0,0:0:0:0:
477,362,193201,1,0,0:0:0:0:
477,362,193271,1,0,0:0:0:0:
477,362,193340,1,0,0:0:0:0:
477,362,193410,1,12,0:0:0:0:
494,347,193829,1,8,0:0:0:0:
494,347,193968,1,0,0:0:0:0:
494,347,194108,1,0,0:0:0:0:
494,347,194247,1,12,0:0:0:0:
466,350,194666,1,8,0:0:0:0:
466,350,194736,1,8,0:0:0:0:
466,350,194806,1,0,0:0:0:0:
466,350,194875,1,0,0:0:0:0:
466,350,194945,1,0,0:0:0:0:
466,350,195015,1,0,0:0:0:0:
466,350,195085,1,8,0:0:0:0:
466,350,195154,1,8,0:0:0:0:
466,350,195224,1,0,0:0:0:0:
466,350,195294,1,0,0:0:0:0:
466,350,195364,1,0,0:0:0:0:
466,350,195433,1,0,0:0:0:0:
466,350,195503,1,8,0:0:0:0:
466,350,195643,1,0,0:0:0:0:
466,350,195782,1,0,0:0:0:0:
466,350,195922,1,12,0:0:0:0:
468,368,196340,1,8,0:0:0:0:
468,368,196410,1,0,0:0:0:0:
468,368,196480,1,8,0:0:0:0:
447,353,196550,1,8,0:0:0:0:
447,353,196620,1,0,0:0:0:0:
447,353,196689,1,0,0:0:0:0:
364,309,196759,1,8,0:0:0:0:
404,334,196829,1,8,0:0:0:0:
447,353,196899,1,0,0:0:0:0:
447,353,196968,1,8,0:0:0:0:
447,353,197038,1,0,0:0:0:0:
447,353,197108,1,0,0:0:0:0:
447,353,197178,1,8,0:0:0:0:
452,343,197247,1,8,0:0:0:0:
447,353,197317,1,0,0:0:0:0:
447,353,197387,1,8,0:0:0:0:
457,371,197457,1,8,0:0:0:0:
457,371,197526,1,0,0:0:0:0:
503,354,197596,1,8,0:0:0:0:
503,354,197666,1,8,0:0:0:0:
495,361,197736,1,0,0:0:0:0:
495,361,197806,1,0,0:0:0:0:
495,361,197875,1,8,0:0:0:0:
488,350,197945,1,0,0:0:0:0:
488,350,198015,1,8,0:0:0:0:
488,350,198085,1,8,0:0:0:0:
488,350,198154,1,0,0:0:0:0:
488,350,198224,1,8,0:0:0:0:
488,350,198294,1,0,0:0:0:0:
488,350,198433,1,12,0:0:0:0:
471,344,198573,1,0,0:0:0:0:
471,344,198643,1,0,0:0:0:0:
471,344,198713,1,0,0:0:0:0:
453,352,198852,1,12,0:0:0:0:
421,349,198992,1,0,0:0:0:0:
421,349,199061,1,0,0:0:0:0:
421,349,199131,1,8,0:0:0:0:
467,333,199271,1,8,0:0:0:0:
427,307,199340,1,8,0:0:0:0:
427,307,199410,1,8,0:0:0:0:
427,307,199480,1,8,0:0:0:0:
432,334,199550,1,0,0:0:0:0:
432,334,199620,1,0,0:0:0:0:
448,343,199689,1,8,0:0:0:0:
448,343,199759,1,0,0:0:0:0:
448,343,199829,1,8,0:0:0:0:
448,343,199899,1,8,0:0:0:0:
456,341,199968,1,0,0:0:0:0:
456,341,200038,1,0,0:0:0:0:
458,331,200108,1,8,0:0:0:0:
457,332,200178,1,8,0:0:0:0:
457,332,200247,1,0,0:0:0:0:
458,331,200317,1,8,0:0:0:0:
457,332,200387,1,0,0:0:0:0:
457,332,200457,1,0,0:0:0:0:
458,331,200526,1,8,0:0:0:0:
445,323,200596,1,8,0:0:0:0:
446,323,200666,1,0,0:0:0:0:
450,325,200736,1,0,0:0:0:0:
449,325,200806,1,8,0:0:0:0:
437,346,200945,1,12,0:0:0:0:
459,318,201085,1,0,0:0:0:0:
459,318,201154,1,0,0:0:0:0:
459,318,201224,1,0,0:0:0:0:
468,253,201294,1,0,0:0:0:0:
468,253,201364,1,8,0:0:0:0:
453,303,201433,1,0,0:0:0:0:
453,303,201503,1,8,0:0:0:0:
453,303,201573,1,8,0:0:0:0:
453,303,201643,1,0,0:0:0:0:
453,303,201782,1,12,0:0:0:0:
420,337,201922,1,0,0:0:0:0:
420,337,201992,1,0,0:0:0:0:
420,337,202061,1,0,0:0:0:0:
436,305,202131,1,0,0:0:0:0:
436,305,202201,1,8,0:0:0:0:
436,305,202271,1,8,0:0:0:0:
436,305,202340,1,0,0:0:0:0:
436,305,202410,1,8,0:0:0:0:
436,305,202480,1,0,0:0:0:0:
436,305,202550,1,0,0:0:0:0:
457,296,202620,1,12,0:0:0:0:
412,313,203038,1,8,0:0:0:0:
412,313,203108,1,8,0:0:0:0:
412,313,203178,1,0,0:0:0:0:
412,313,203247,1,0,0:0:0:0:
412,313,203317,1,0,0:0:0:0:
412,313,203387,1,0,0:0:0:0:
412,313,203457,1,12,0:0:0:0:
461,328,203875,1,8,0:0:0:0:
461,328,204015,1,0,0:0:0:0:
461,328,204154,1,0,0:0:0:0:
461,328,204294,1,12,0:0:0:0:
461,328,204713,1,8,0:0:0:0:
461,328,204782,1,8,0:0:0:0:
461,328,204852,1,0,0:0:0:0:
461,328,204922,1,0,0:0:0:0:
461,328,204992,1,0,0:0:0:0:
461,328,205061,1,0,0:0:0:0:
461,328,205131,1,8,0:0:0:0:
461,328,205201,1,0,0:0:0:0:
461,328,205271,1,0,0:0:0:0:
461,328,205340,1,0,0:0:0:0:
430,323,205410,1,0,0:0:0:0:
430,323,205480,1,0,0:0:0:0:
404,312,205550,1,8,0:0:0:0:
404,312,205689,1,0,0:0:0:0:
404,312,205829,1,0,0:0:0:0:
404,312,205968,1,12,0:0:0:0:
468,368,206387,1,8,0:0:0:0:
468,368,206457,1,0,0:0:0:0:
468,368,206526,1,8,0:0:0:0:
447,353,206596,1,8,0:0:0:0:
447,353,206666,1,0,0:0:0:0:
447,353,206736,1,0,0:0:0:0:
364,309,206806,1,8,0:0:0:0:
404,334,206875,1,8,0:0:0:0:
447,353,206945,1,0,0:0:0:0:
447,353,207015,1,8,0:0:0:0:
447,353,207085,1,0,0:0:0:0:
447,353,207154,1,0,0:0:0:0:
447,353,207224,1,8,0:0:0:0:
452,343,207294,1,8,0:0:0:0:
447,353,207364,1,0,0:0:0:0:
447,353,207433,1,8,0:0:0:0:
457,371,207503,1,8,0:0:0:0:
457,371,207573,1,0,0:0:0:0:
503,354,207643,1,8,0:0:0:0:
503,354,207713,1,8,0:0:0:0:
495,361,207782,1,0,0:0:0:0:
495,361,207852,1,0,0:0:0:0:
495,361,207922,1,8,0:0:0:0:
488,350,207992,1,0,0:0:0:0:
488,350,208061,1,8,0:0:0:0:
488,350,208131,1,8,0:0:0:0:
488,350,208201,1,0,0:0:0:0:
488,350,208271,1,8,0:0:0:0:
488,350,208340,1,0,0:0:0:0:
468,356,208410,1,0,0:0:0:0:
456,333,208480,1,8,0:0:0:0:
456,337,208550,1,8,0:0:0:0:
456,337,208620,1,0,0:0:0:0:
474,276,208689,1,0,0:0:0:0:
474,276,208759,1,8,0:0:0:0:
474,276,208829,1,0,0:0:0:0:
474,276,208899,1,8,0:0:0:0:
474,276,208968,1,8,0:0:0:0:
474,276,209038,1,0,0:0:0:0:
474,276,209108,1,0,0:0:0:0:
487,304,209178,1,8,0:0:0:0:
487,304,209247,1,0,0:0:0:0:
510,312,209317,1,8,0:0:0:0:
510,312,209387,1,8,0:0:0:0:
510,312,209457,1,8,0:0:0:0:
510,312,209526,1,8,0:0:0:0:
432,334,209596,1,0,0:0:0:0:
432,334,209666,1,0,0:0:0:0:
448,343,209736,1,8,0:0:0:0:
448,343,209806,1,0,0:0:0:0:
448,343,209875,1,8,0:0:0:0:
448,343,209945,1,8,0:0:0:0:
456,341,210015,1,0,0:0:0:0:
456,341,210085,1,0,0:0:0:0:
458,331,210154,1,8,0:0:0:0:
457,332,210224,1,8,0:0:0:0:
457,332,210294,1,0,0:0:0:0:
458,331,210364,1,8,0:0:0:0:
457,332,210433,1,0,0:0:0:0:
457,332,210503,1,0,0:0:0:0:
458,331,210573,1,8,0:0:0:0:
445,323,210643,1,8,0:0:0:0:
446,323,210713,1,0,0:0:0:0:
450,325,210782,1,0,0:0:0:0:
449,325,210852,1,8,0:0:0:0:
437,346,210992,1,12,0:0:0:0:
459,318,211131,1,0,0:0:0:0:
459,318,211201,1,0,0:0:0:0:
459,318,211271,1,0,0:0:0:0:
468,253,211340,1,0,0:0:0:0:
468,253,211410,1,8,0:0:0:0:
453,303,211480,1,0,0:0:0:0:
453,303,211550,1,8,0:0:0:0:
453,303,211620,1,8,0:0:0:0:
453,303,211689,1,0,0:0:0:0:
453,303,211829,1,12,0:0:0:0:
420,337,211968,1,0,0:0:0:0:
420,337,212038,1,0,0:0:0:0:
420,337,212108,1,0,0:0:0:0:
436,305,212178,1,0,0:0:0:0:
436,305,212247,1,8,0:0:0:0:
436,305,212317,1,8,0:0:0:0:
436,305,212387,1,0,0:0:0:0:
436,305,212457,1,8,0:0:0:0:
436,305,212526,1,0,0:0:0:0:
427,321,212596,1,0,0:0:0:0:
436,305,212666,1,12,0:0:0:0:
469,329,212806,1,0,0:0:0:0:
435,349,213085,1,0,0:0:0:0:
430,333,213364,1,0,0:0:0:0:
430,333,213503,1,12,0:0:0:0:
443,351,213782,1,0,0:0:0:0:
443,351,213922,1,8,0:0:0:0:
390,334,214061,1,8,0:0:0:0:
390,334,214201,1,8,0:0:0:0:
390,334,214340,1,4,0:0:0:0:
425,320,214620,1,8,0:0:0:0:
425,320,214759,1,0,0:0:0:0:
415,329,215038,1,0,0:0:0:0:
415,329,215178,1,12,0:0:0:0:
440,332,215457,1,8,0:0:0:0:
440,332,215596,1,8,0:0:0:0:
440,332,215666,1,8,0:0:0:0:
451,336,215736,1,0,0:0:0:0:
456,334,215875,1,0,0:0:0:0:
481,342,216015,1,12,0:0:0:0:
429,320,216154,1,0,0:0:0:0:
436,333,216294,1,0,0:0:0:0:
441,326,216364,1,0,0:0:0:0:
436,333,216433,1,8,0:0:0:0:
451,343,216573,1,8,0:0:0:0:
455,344,216713,1,0,0:0:0:0:
471,342,216782,1,0,0:0:0:0:
471,342,216852,1,8,0:0:0:0:
471,342,216922,1,8,0:0:0:0:
471,342,216992,1,0,0:0:0:0:
446,333,217131,1,0,0:0:0:0:
446,333,217271,1,8,0:0:0:0:
403,301,217410,1,8,0:0:0:0:
403,301,217480,1,8,0:0:0:0:
403,301,217550,1,0,0:0:0:0:
403,301,217689,1,0,0:0:0:0:
331,283,217829,1,0,0:0:0:0:
331,283,217899,1,0,0:0:0:0:
331,283,217968,1,8,0:0:0:0:
350,260,218038,1,0,0:0:0:0:
350,260,218108,1,8,0:0:0:0:
361,249,218247,1,8,0:0:0:0:
465,337,218387,1,0,0:0:0:0:
465,337,218526,1,8,0:0:0:0:
465,337,218596,1,0,0:0:0:0:
465,337,218666,1,8,0:0:0:0:
453,332,218806,1,0,0:0:0:0:
453,332,218945,1,8,0:0:0:0:
471,337,219085,1,0,0:0:0:0:
471,337,219224,1,0,0:0:0:0:
471,337,219364,1,12,0:0:0:0:
464,323,219503,1,0,0:0:0:0:
464,323,219782,1,0,0:0:0:0:
464,323,220061,1,0,0:0:0:0:
464,323,220201,1,12,0:0:0:0:
463,323,220480,1,0,0:0:0:0:
463,323,220620,1,8,0:0:0:0:
476,325,220759,1,8,0:0:0:0:
476,325,220899,1,8,0:0:0:0:
476,325,221038,1,4,0:0:0:0:
478,346,221457,1,0,0:0:0:0:
475,341,221736,1,0,0:0:0:0:
475,341,221875,1,12,0:0:0:0:
445,315,222154,1,8,0:0:0:0:
445,315,222294,1,8,0:0:0:0:
445,315,222433,1,0,0:0:0:0:
445,315,222573,1,0,0:0:0:0:
437,355,222713,1,8,0:0:0:0:
437,355,222782,1,8,0:0:0:0:
437,355,222852,1,0,0:0:0:0:
437,355,222922,1,8,0:0:0:0:
422,318,222992,1,0,0:0:0:0:
422,318,223061,1,0,0:0:0:0:
422,318,223131,1,8,0:0:0:0:
422,318,223201,1,0,0:0:0:0:
422,318,223271,1,8,0:0:0:0:
427,283,223340,1,8,0:0:0:0:
427,283,223410,1,0,0:0:0:0:
427,283,223480,1,0,0:0:0:0:
427,283,223550,1,8,0:0:0:0:
458,308,223620,1,8,0:0:0:0:
458,308,223689,1,0,0:0:0:0:
458,308,223759,1,8,0:0:0:0:
458,308,223829,1,0,0:0:0:0:
458,308,223899,1,0,0:0:0:0:
458,308,223968,1,8,0:0:0:0:
458,319,224038,1,0,0:0:0:0:
443,328,224108,1,0,0:0:0:0:
460,324,224178,1,0,0:0:0:0:
460,325,224247,1,8,0:0:0:0:
443,328,224317,1,0,0:0:0:0:
491,337,224387,1,8,0:0:0:0:
491,337,224457,1,8,0:0:0:0:
491,337,224526,1,0,0:0:0:0:
491,337,224596,1,8,0:0:0:0:
491,337,224666,1,0,0:0:0:0:
491,337,224736,1,0,0:0:0:0:
491,337,224806,1,8,0:0:0:0:
481,329,224875,1,0,0:0:0:0:
461,303,224945,1,8,0:0:0:0:
461,303,225015,1,8,0:0:0:0:
484,333,225085,1,0,0:0:0:0:
484,333,225154,1,0,0:0:0:0:
484,333,225224,1,8,0:0:0:0:
508,340,225294,1,8,0:0:0:0:
501,335,225364,1,0,0:0:0:0:
503,337,225433,1,8,0:0:0:0:
503,337,225503,1,0,0:0:0:0:
501,335,225573,1,0,0:0:0:0:
475,371,225643,1,8,0:0:0:0:
492,374,225713,1,8,0:0:0:0:
495,353,225782,1,0,0:0:0:0:
495,353,225852,1,0,0:0:0:0:
485,338,225922,1,8,0:0:0:0:
485,330,226061,1,12,0:0:0:0:
477,328,226201,1,0,0:0:0:0:
485,358,226271,1,0,0:0:0:0:
421,330,226340,1,0,0:0:0:0:
490,342,226480,1,12,0:0:0:0:
480,346,226620,1,0,0:0:0:0:
481,355,226689,1,0,0:0:0:0:
480,346,226759,1,0,0:0:0:0:
471,346,226899,1,8,0:0:0:0:
471,346,226968,1,8,0:0:0:0:
471,346,227038,1,0,0:0:0:0:
471,346,227108,1,0,0:0:0:0:
471,346,227178,1,8,0:0:0:0:
471,346,227247,1,0,0:0:0:0:
471,346,227317,1,8,0:0:0:0:
471,346,227387,1,8,0:0:0:0:
493,338,227457,1,0,0:0:0:0:
493,338,227526,1,0,0:0:0:0:
415,274,227596,1,8,0:0:0:0:
467,302,227736,1,12,0:0:0:0:
436,313,227875,1,0,0:0:0:0:
482,344,227945,1,0,0:0:0:0:
436,313,228015,1,0,0:0:0:0:
490,342,228154,1,12,0:0:0:0:
480,346,228294,1,0,0:0:0:0:
482,344,228364,1,0,0:0:0:0:
480,346,228433,1,0,0:0:0:0:
471,346,228573,1,8,0:0:0:0:
471,346,228643,1,8,0:0:0:0:
471,346,228713,1,0,0:0:0:0:
471,346,228782,1,0,0:0:0:0:
471,346,228852,1,8,0:0:0:0:
471,346,228922,1,0,0:0:0:0:
471,346,228992,1,8,0:0:0:0:
471,346,229061,1,8,0:0:0:0:
493,338,229131,1,0,0:0:0:0:
493,338,229201,1,0,0:0:0:0:
415,274,229271,1,8,0:0:0:0:
467,302,229410,1,12,0:0:0:0:
441,351,229550,1,0,0:0:0:0:
441,351,229620,1,0,0:0:0:0:
441,351,229689,1,0,0:0:0:0:
441,351,229829,1,12,0:0:0:0:
447,345,229968,1,0,0:0:0:0:
447,345,230038,1,0,0:0:0:0:
447,345,230108,1,0,0:0:0:0:
447,345,230247,1,8,0:0:0:0:
447,345,230317,1,8,0:0:0:0:
447,345,230387,1,0,0:0:0:0:
447,345,230457,1,0,0:0:0:0:
447,345,230526,1,8,0:0:0:0:
447,345,230596,1,0,0:0:0:0:
447,345,230666,1,8,0:0:0:0:
447,345,230736,1,8,0:0:0:0:
447,345,230806,1,0,0:0:0:0:
447,345,230875,1,0,0:0:0:0:
447,345,230945,1,8,0:0:0:0:
447,345,231015,1,0,0:0:0:0:
447,345,231085,1,8,0:0:0:0:
447,345,231154,1,8,0:0:0:0:
447,345,231224,1,0,0:0:0:0:
447,345,231294,1,8,0:0:0:0:
447,345,231364,1,0,0:0:0:0:
447,345,231433,1,0,0:0:0:0:
447,345,231503,1,8,0:0:0:0:
447,345,231573,1,8,0:0:0:0:
447,345,231643,1,0,0:0:0:0:
447,345,231713,1,8,0:0:0:0:
447,345,231782,1,0,0:0:0:0:
447,345,231852,1,0,0:0:0:0:
431,325,231922,1,8,0:0:0:0:
431,325,231992,1,0,0:0:0:0:
431,325,232061,1,8,0:0:0:0:
431,325,232131,1,8,0:0:0:0:
431,325,232201,1,0,0:0:0:0:
431,325,232271,1,0,0:0:0:0:
431,325,232340,1,8,0:0:0:0:
431,325,232410,1,0,0:0:0:0:
431,325,232480,1,8,0:0:0:0:
431,325,232550,1,8,0:0:0:0:
435,323,232620,1,0,0:0:0:0:
485,330,232759,1,12,0:0:0:0:
477,328,232899,1,0,0:0:0:0:
485,358,232968,1,0,0:0:0:0:
421,330,233038,1,0,0:0:0:0:
490,342,233178,1,12,0:0:0:0:
480,346,233317,1,0,0:0:0:0:
481,355,233387,1,0,0:0:0:0:
480,346,233457,1,0,0:0:0:0:
471,346,233596,1,8,0:0:0:0:
471,346,233666,1,8,0:0:0:0:
471,346,233736,1,0,0:0:0:0:
471,346,233806,1,0,0:0:0:0:
471,346,233875,1,8,0:0:0:0:
471,346,233945,1,0,0:0:0:0:
471,346,234015,1,8,0:0:0:0:
471,346,234085,1,8,0:0:0:0:
493,338,234154,1,0,0:0:0:0:
493,338,234224,1,0,0:0:0:0:
415,274,234294,1,8,0:0:0:0:
467,302,234433,1,12,0:0:0:0:
436,313,234573,1,0,0:0:0:0:
482,344,234643,1,0,0:0:0:0:
436,313,234713,1,0,0:0:0:0:
490,342,234852,1,12,0:0:0:0:
480,346,234992,1,0,0:0:0:0:
482,344,235061,1,0,0:0:0:0:
480,346,235131,1,0,0:0:0:0:
471,346,235271,1,8,0:0:0:0:
471,346,235340,1,8,0:0:0:0:
471,346,235410,1,0,0:0:0:0:
471,346,235480,1,0,0:0:0:0:
471,346,235550,1,8,0:0:0:0:
471,346,235620,1,0,0:0:0:0:
471,346,235689,1,8,0:0:0:0:
471,346,235759,1,8,0:0:0:0:
493,338,235829,1,0,0:0:0:0:
493,338,235899,1,0,0:0:0:0:
415,274,235968,1,8,0:0:0:0:
467,302,236108,1,12,0:0:0:0:
441,351,236247,1,0,0:0:0:0:
441,351,236317,1,0,0:0:0:0:
441,351,236387,1,0,0:0:0:0:
441,351,236526,1,12,0:0:0:0:
447,345,236666,1,0,0:0:0:0:
447,345,236736,1,0,0:0:0:0:
447,345,236806,1,0,0:0:0:0:
447,345,236945,1,8,0:0:0:0:
447,345,237015,1,8,0:0:0:0:
447,345,237085,1,0,0:0:0:0:
447,345,237154,1,0,0:0:0:0:
447,345,237224,1,8,0:0:0:0:
447,345,237294,1,0,0:0:0:0:
447,345,237364,1,8,0:0:0:0:
447,345,237433,1,8,0:0:0:0:
447,345,237503,1,0,0:0:0:0:
447,345,237573,1,0,0:0:0:0:
447,345,237643,1,8,0:0:0:0:
447,345,237713,1,0,0:0:0:0:
447,345,237782,1,8,0:0:0:0:
447,345,237852,1,8,0:0:0:0:
447,345,237922,1,0,0:0:0:0:
447,345,237992,1,8,0:0:0:0:
447,345,238061,1,0,0:0:0:0:
447,345,238131,1,0,0:0:0:0:
447,345,238201,1,8,0:0:0:0:
447,345,238271,1,8,0:0:0:0:
447,345,238340,1,0,0:0:0:0:
447,345,238410,1,8,0:0:0:0:
447,345,238480,1,0,0:0:0:0:
447,345,238550,1,0,0:0:0:0:
431,325,238620,1,8,0:0:0:0:
431,325,238689,1,0,0:0:0:0:
431,325,238759,1,8,0:0:0:0:
431,325,238829,1,8,0:0:0:0:
431,325,238899,1,0,0:0:0:0:
431,325,238968,1,0,0:0:0:0:
431,325,239038,1,8,0:0:0:0:
431,325,239108,1,0,0:0:0:0:
431,325,239178,1,8,0:0:0:0:
431,325,239247,1,8,0:0:0:0:
435,323,239317,1,0,0:0:0:0:
419,335,239457,1,12,0:0:0:0:
452,331,240294,1,8,0:0:0:0:
452,331,240364,1,0,0:0:0:0:
452,331,240433,1,0,0:0:0:0:
455,341,240503,1,0,0:0:0:0:
455,341,240573,1,8,0:0:0:0:
455,341,240643,1,0,0:0:0:0:
459,355,240713,1,8,0:0:0:0:
459,355,240782,1,8,0:0:0:0:
459,355,240852,1,0,0:0:0:0:
459,355,240922,1,8,0:0:0:0:
459,355,240992,1,0,0:0:0:0:
459,355,241061,1,0,0:0:0:0:
459,355,241131,1,12,0:0:0:0:
463,363,241968,1,8,0:0:0:0:
463,363,242038,1,8,0:0:0:0:
463,363,242108,1,0,0:0:0:0:
386,356,242178,1,0,0:0:0:0:
386,356,242247,1,8,0:0:0:0:
386,356,242317,1,8,0:0:0:0:
463,363,242387,1,0,0:0:0:0:
463,363,242457,1,0,0:0:0:0:
345,376,242526,1,0,0:0:0:0:
463,363,242596,1,0,0:0:0:0:
371,337,242666,1,8,0:0:0:0:
467,302,242806,1,12,0:0:0:0:
441,351,242945,1,0,0:0:0:0:
441,351,243015,1,0,0:0:0:0:
441,351,243085,1,0,0:0:0:0:
441,351,243224,1,12,0:0:0:0:
447,345,243364,1,0,0:0:0:0:
447,345,243433,1,0,0:0:0:0:
447,345,243503,1,0,0:0:0:0:
447,345,243643,1,8,0:0:0:0:
447,345,243713,1,8,0:0:0:0:
447,345,243782,1,0,0:0:0:0:
447,345,243852,1,0,0:0:0:0:
447,345,243922,1,8,0:0:0:0:
447,345,243992,1,0,0:0:0:0:
447,345,244061,1,8,0:0:0:0:
447,345,244131,1,8,0:0:0:0:
447,345,244201,1,0,0:0:0:0:
447,345,244271,1,0,0:0:0:0:
447,345,244340,1,8,0:0:0:0:
447,345,244410,1,0,0:0:0:0:
447,345,244480,1,8,0:0:0:0:
447,345,244550,1,8,0:0:0:0:
447,345,244620,1,0,0:0:0:0:
447,345,244689,1,8,0:0:0:0:
447,345,244759,1,0,0:0:0:0:
447,345,244829,1,0,0:0:0:0:
447,345,244899,1,8,0:0:0:0:
447,345,244968,1,8,0:0:0:0:
447,345,245038,1,0,0:0:0:0:
447,345,245108,1,8,0:0:0:0:
447,345,245178,1,0,0:0:0:0:
447,345,245247,1,0,0:0:0:0:
431,325,245317,1,8,0:0:0:0:
431,325,245387,1,0,0:0:0:0:
431,325,245457,1,8,0:0:0:0:
431,325,245526,1,8,0:0:0:0:
431,325,245596,1,0,0:0:0:0:
431,325,245666,1,0,0:0:0:0:
431,325,245736,1,8,0:0:0:0:
431,325,245806,1,0,0:0:0:0:
431,325,245875,1,8,0:0:0:0:
431,325,245945,1,8,0:0:0:0:
435,323,246015,1,0,0:0:0:0:
485,330,246154,1,12,0:0:0:0:
477,328,246294,1,0,0:0:0:0:
485,358,246364,1,0,0:0:0:0:
421,330,246433,1,0,0:0:0:0:
490,342,246573,1,12,0:0:0:0:
480,346,246713,1,0,0:0:0:0:
481,355,246782,1,0,0:0:0:0:
480,346,246852,1,0,0:0:0:0:
471,346,246992,1,8,0:0:0:0:
471,346,247061,1,8,0:0:0:0:
471,346,247131,1,0,0:0:0:0:
471,346,247201,1,0,0:0:0:0:
471,346,247271,1,8,0:0:0:0:
471,346,247340,1,0,0:0:0:0:
471,346,247410,1,8,0:0:0:0:
471,346,247480,1,8,0:0:0:0:
493,338,247550,1,0,0:0:0:0:
493,338,247620,1,0,0:0:0:0:
415,274,247689,1,8,0:0:0:0:
467,302,247829,1,12,0:0:0:0:
436,313,247968,1,0,0:0:0:0:
482,344,248038,1,0,0:0:0:0:
436,313,248108,1,0,0:0:0:0:
490,342,248247,1,12,0:0:0:0:
480,346,248387,1,0,0:0:0:0:
482,344,248457,1,0,0:0:0:0:
480,346,248526,1,0,0:0:0:0:
471,346,248666,1,8,0:0:0:0:
471,346,248736,1,8,0:0:0:0:
471,346,248806,1,0,0:0:0:0:
471,346,248875,1,0,0:0:0:0:
471,346,248945,1,8,0:0:0:0:
471,346,249015,1,0,0:0:0:0:
471,346,249085,1,8,0:0:0:0:
471,346,249154,1,8,0:0:0:0:
493,338,249224,1,0,0:0:0:0:
493,338,249294,1,0,0:0:0:0:
415,274,249364,1,8,0:0:0:0:
467,302,249503,1,12,0:0:0:0:
441,351,249643,1,0,0:0:0:0:
441,351,249713,1,0,0:0:0:0:
441,351,249782,1,0,0:0:0:0:
441,351,249922,1,12,0:0:0:0:
447,345,250061,1,0,0:0:0:0:
447,345,250131,1,0,0:0:0:0:
447,345,250201,1,0,0:0:0:0:
447,345,250340,1,8,0:0:0:0:
447,345,250410,1,8,0:0:0:0:
447,345,250480,1,0,0:0:0:0:
447,345,250550,1,0,0:0:0:0:
447,345,250620,1,8,0:0:0:0:
447,345,250689,1,0,0:0:0:0:
447,345,250759,1,8,0:0:0:0:
447,345,250829,1,8,0:0:0:0:
447,345,250899,1,0,0:0:0:0:
447,345,250968,1,0,0:0:0:0:
447,345,251038,1,8,0:0:0:0:
447,345,251108,1,0,0:0:0:0:
447,345,251178,1,8,0:0:0:0:
447,345,251247,1,8,0:0:0:0:
447,345,251317,1,0,0:0:0:0:
447,345,251387,1,8,0:0:0:0:
447,345,251457,1,0,0:0:0:0:
447,345,251526,1,0,0:0:0:0:
447,345,251596,1,8,0:0:0:0:
447,345,251666,1,8,0:0:0:0:
447,345,251736,1,0,0:0:0:0:
447,345,251806,1,8,0:0:0:0:
447,345,251875,1,0,0:0:0:0:
447,345,251945,1,0,0:0:0:0:
431,325,252015,1,8,0:0:0:0:
431,325,252085,1,0,0:0:0:0:
431,325,252154,1,8,0:0:0:0:
431,325,252224,1,8,0:0:0:0:
431,325,252294,1,0,0:0:0:0:
431,325,252364,1,0,0:0:0:0:
431,325,252433,1,8,0:0:0:0:
431,325,252503,1,0,0:0:0:0:
431,325,252573,1,8,0:0:0:0:
431,325,252643,1,8,0:0:0:0:
435,323,252713,1,0,0:0:0:0:
405,343,252782,1,0,0:0:0:0:
405,343,252852,1,12,0:0:0:0:
455,327,254185,1,8,0:0:0:0:
445,342,254518,1,8,0:0:0:0:
445,342,254852,1,8,0:0:0:0:
445,342,255018,1,0,0:0:0:0:
445,342,255102,1,0,0:0:0:0:
412,313,255185,1,8,0:0:0:0:
412,313,255268,1,8,0:0:0:0:
412,313,255352,1,0,0:0:0:0:
412,313,255435,1,8,0:0:0:0:
412,313,255518,1,0,0:0:0:0:
397,350,262185,5,0,0:0:0:0:
417,357,262435,5,0,0:0:0:0:
417,357,262685,1,0,0:0:0:0:
417,357,262852,1,8,0:0:0:0:
404,323,263518,1,0,0:0:0:0:
381,345,263685,1,8,0:0:0:0:
406,327,263852,1,0,0:0:0:0:
406,327,264018,1,0,0:0:0:0:
406,327,264185,1,8,0:0:0:0:
406,327,264352,1,8,0:0:0:0:
406,327,264518,1,0,0:0:0:0:
408,324,264852,1,8,0:0:0:0:
378,306,267185,1,8,0:0:0:0:
378,306,267352,1,8,0:0:0:0:
378,306,267518,1,0,0:0:0:0:
415,288,268852,1,8,0:0:0:0:
384,269,270352,1,0,0:0:0:0:
384,269,270518,1,8,0:0:0:0:
384,269,270685,1,0,0:0:0:0:
384,269,270852,1,0,0:0:0:0:
384,269,271018,1,8,0:0:0:0:
394,333,271185,1,8,0:0:0:0:
394,333,271352,1,0,0:0:0:0:
380,269,271852,1,8,0:0:0:0:
393,300,272352,1,0,0:0:0:0:
397,310,272852,1,0,0:0:0:0:
395,288,273518,1,8,0:0:0:0:
433,348,274185,5,8,0:0:0:0:
406,345,274518,1,0,0:0:0:0:
426,342,274852,1,8,0:0:0:0:
426,342,275018,1,8,0:0:0:0:
421,332,275352,1,0,0:0:0:0:
421,332,275518,1,8,0:0:0:0:
400,325,275852,1,0,0:0:0:0:
464,350,276018,1,0,0:0:0:0:
402,350,276185,1,8,0:0:0:0:
403,298,276518,1,0,0:0:0:0:
387,332,276685,1,8,0:0:0:0:
438,328,276852,1,0,0:0:0:0:
464,341,277018,1,0,0:0:0:0:
422,352,277185,1,0,0:0:0:0:
422,352,277268,1,0,0:0:0:0:
422,352,277352,1,0,0:0:0:0:
422,352,277435,1,0,0:0:0:0:
422,352,277518,1,8,0:0:0:0:
377,314,277685,1,8,0:0:0:0:
400,317,278018,1,0,0:0:0:0:
400,317,278185,1,8,0:0:0:0:
422,304,278352,1,0,0:0:0:0:
370,315,278685,1,0,0:0:0:0:
370,315,278852,1,8,0:0:0:0:
418,361,279518,1,0,0:0:0:0:
415,307,279852,1,8,0:0:0:0:
415,307,280018,1,0,0:0:0:0:
415,307,280185,1,8,0:0:0:0:
415,307,280352,1,8,0:0:0:0:
420,324,280685,1,0,0:0:0:0:
420,324,280852,1,8,0:0:0:0:
368,338,281185,1,0,0:0:0:0:
368,338,281351,1,0,0:0:0:0:
368,338,281518,1,8,0:0:0:0:
455,326,281851,1,0,0:0:0:0:
425,362,282185,1,0,0:0:0:0:
466,341,282351,1,0,0:0:0:0:
469,333,282518,1,0,0:0:0:0:
469,333,282601,1,0,0:0:0:0:
469,333,282685,1,0,0:0:0:0:
469,333,282768,1,0,0:0:0:0:
469,333,282851,1,8,0:0:0:0:
469,333,283018,1,8,0:0:0:0:
436,310,283351,1,0,0:0:0:0:
436,310,283518,1,8,0:0:0:0:
424,298,283685,1,0,0:0:0:0:
451,358,283851,1,0,0:0:0:0:
424,298,284185,1,8,0:0:0:0:
470,343,284851,1,12,0:0:0:0:
475,346,285185,1,0,0:0:0:0:
475,346,285351,1,0,0:0:0:0:
475,346,285518,1,8,0:0:0:0:
478,328,285851,1,0,0:0:0:0:
478,328,285935,1,0,0:0:0:0:
478,328,286018,1,0,0:0:0:0:
478,328,286101,1,0,0:0:0:0:
478,328,286185,1,8,0:0:0:0:
468,328,286351,1,8,0:0:0:0:
423,323,286685,1,0,0:0:0:0:
423,323,286851,1,8,0:0:0:0:
436,324,287185,1,8,0:0:0:0:
436,324,287351,1,8,0:0:0:0:
436,324,287518,1,0,0:0:0:0:
422,298,287685,1,0,0:0:0:0:
422,298,288018,1,0,0:0:0:0:
422,298,288185,1,8,0:0:0:0:
376,305,288518,1,0,0:0:0:0:
376,305,288685,1,8,0:0:0:0:
372,324,288851,1,0,0:0:0:0:
453,286,289018,1,0,0:0:0:0:
423,333,289185,1,8,0:0:0:0:
417,314,289351,1,0,0:0:0:0:
405,331,289518,1,8,0:0:0:0:
402,325,289851,1,0,0:0:0:0:
402,325,290018,1,12,0:0:0:0:
402,325,290351,1,0,0:0:0:0:
402,325,290518,1,12,0:0:0:0:
413,345,290851,1,8,0:0:0:0:
428,317,291185,1,0,0:0:0:0:
428,317,291351,1,8,0:0:0:0:
442,303,291518,1,0,0:0:0:0:
396,313,291685,1,0,0:0:0:0:
479,330,292018,1,0,0:0:0:0:
479,330,292185,1,8,0:0:0:0:
448,294,292351,1,8,0:0:0:0:
448,294,292518,1,0,0:0:0:0:
448,294,292685,1,8,0:0:0:0:
457,333,292851,1,0,0:0:0:0:
404,335,293018,1,0,0:0:0:0:
442,312,293185,1,8,0:0:0:0:
442,312,293518,1,8,0:0:0:0:
384,328,293851,1,0,0:0:0:0:
411,347,294018,1,0,0:0:0:0:
429,310,294185,1,8,0:0:0:0:
256,192,294351,12,0,296851,0:0:0:0:
417,345,297472,5,4,0:0:0:0:
470,309,297752,1,8,0:0:0:0:
470,309,297821,1,8,0:0:0:0:
470,309,297891,1,8,0:0:0:0:
470,309,297961,1,8,0:0:0:0:
453,338,298031,1,0,0:0:0:0:
453,338,298100,1,8,0:0:0:0:
453,338,298170,1,0,0:0:0:0:
453,338,298240,1,0,0:0:0:0:
453,338,298310,1,8,0:0:0:0:
488,326,298379,1,0,0:0:0:0:
488,326,298449,1,8,0:0:0:0:
485,333,298519,1,8,0:0:0:0:
485,333,298589,1,0,0:0:0:0:
488,366,298658,1,0,0:0:0:0:
468,355,298728,1,8,0:0:0:0:
468,355,298798,1,8,0:0:0:0:
468,355,298868,1,0,0:0:0:0:
451,333,298938,1,0,0:0:0:0:
451,333,299007,1,0,0:0:0:0:
451,333,299077,1,0,0:0:0:0:
463,302,299147,1,8,0:0:0:0:
448,374,299217,1,8,0:0:0:0:
448,374,299286,1,0,0:0:0:0:
463,302,299356,1,0,0:0:0:0:
463,302,299426,1,8,0:0:0:0:
402,314,299496,1,0,0:0:0:0:
402,314,299565,1,8,0:0:0:0:
408,249,299635,1,8,0:0:0:0:
408,249,299705,1,0,0:0:0:0:
408,249,299775,1,0,0:0:0:0:
407,253,299845,1,8,0:0:0:0:
425,375,299914,1,0,0:0:0:0:
470,309,299984,1,8,0:0:0:0:
475,317,300054,1,8,0:0:0:0:
475,317,300124,1,8,0:0:0:0:
475,317,300193,1,8,0:0:0:0:
475,317,300263,1,0,0:0:0:0:
475,317,300333,1,8,0:0:0:0:
470,313,300403,1,0,0:0:0:0:
470,314,300472,1,0,0:0:0:0:
470,315,300542,1,8,0:0:0:0:
485,362,300612,1,0,0:0:0:0:
485,362,300682,1,8,0:0:0:0:
485,362,300752,1,8,0:0:0:0:
485,362,300821,1,0,0:0:0:0:
485,362,300891,1,0,0:0:0:0:
421,320,300961,1,8,0:0:0:0:
421,320,301031,1,8,0:0:0:0:
421,320,301100,1,0,0:0:0:0:
416,333,301170,1,8,0:0:0:0:
416,333,301240,1,0,0:0:0:0:
416,333,301310,1,0,0:0:0:0:
504,332,301379,1,8,0:0:0:0:
504,332,301449,1,8,0:0:0:0:
504,332,301519,1,0,0:0:0:0:
504,332,301589,1,0,0:0:0:0:
373,278,301658,1,8,0:0:0:0:
373,278,301728,1,0,0:0:0:0:
373,278,301798,1,8,0:0:0:0:
373,278,301868,1,8,0:0:0:0:
373,278,301938,1,0,0:0:0:0:
373,278,302007,1,0,0:0:0:0:
373,278,302077,1,8,0:0:0:0:
373,278,302147,1,0,0:0:0:0:
470,309,302217,1,8,0:0:0:0:
470,309,302286,1,8,0:0:0:0:
470,309,302356,1,8,0:0:0:0:
470,309,302426,1,8,0:0:0:0:
453,338,302496,1,0,0:0:0:0:
453,338,302565,1,8,0:0:0:0:
453,338,302635,1,0,0:0:0:0:
453,338,302705,1,0,0:0:0:0:
453,338,302775,1,8,0:0:0:0:
488,326,302845,1,0,0:0:0:0:
488,326,302914,1,8,0:0:0:0:
485,333,302984,1,8,0:0:0:0:
485,333,303054,1,0,0:0:0:0:
488,366,303124,1,0,0:0:0:0:
468,355,303193,1,8,0:0:0:0:
468,355,303263,1,8,0:0:0:0:
468,355,303333,1,0,0:0:0:0:
451,333,303403,1,0,0:0:0:0:
451,333,303472,1,0,0:0:0:0:
451,333,303542,1,0,0:0:0:0:
463,302,303612,1,8,0:0:0:0:
448,374,303682,1,8,0:0:0:0:
448,374,303752,1,0,0:0:0:0:
463,302,303821,1,0,0:0:0:0:
463,302,303891,1,8,0:0:0:0:
402,314,303961,1,0,0:0:0:0:
402,314,304031,1,8,0:0:0:0:
408,249,304100,1,8,0:0:0:0:
408,249,304170,1,0,0:0:0:0:
408,249,304240,1,0,0:0:0:0:
407,253,304310,1,8,0:0:0:0:
425,375,304379,1,0,0:0:0:0:
479,368,304449,1,8,0:0:0:0:
479,368,304519,1,8,0:0:0:0:
479,368,304589,1,0,0:0:0:0:
479,368,304658,1,0,0:0:0:0:
479,368,304728,1,8,0:0:0:0:
479,368,304798,1,0,0:0:0:0:
479,368,304868,1,0,0:0:0:0:
479,368,304938,1,0,0:0:0:0:
453,326,305007,1,8,0:0:0:0:
453,326,305077,1,8,0:0:0:0:
453,326,305147,1,8,0:0:0:0:
453,326,305217,1,0,0:0:0:0:
459,330,305286,1,8,0:0:0:0:
423,331,305356,1,8,0:0:0:0:
423,331,305426,1,0,0:0:0:0:
423,331,305496,1,0,0:0:0:0:
439,317,305565,1,8,0:0:0:0:
495,359,305635,1,0,0:0:0:0:
495,359,305705,1,8,0:0:0:0:
495,359,305775,1,8,0:0:0:0:
415,339,305845,1,0,0:0:0:0:
415,339,305914,1,0,0:0:0:0:
415,339,305984,1,0,0:0:0:0:
415,346,306054,1,0,0:0:0:0:
423,303,306124,1,8,0:0:0:0:
475,359,306193,1,8,0:0:0:0:
475,359,306263,1,8,0:0:0:0:
475,359,306333,1,0,0:0:0:0:
489,352,306403,1,8,0:0:0:0:
489,352,306472,1,8,0:0:0:0:
499,353,306542,1,0,0:0:0:0:
499,354,306612,1,0,0:0:0:0:
499,354,306682,1,12,0:0:0:0:
450,340,306961,1,12,0:0:0:0:
442,345,307240,1,8,0:0:0:0:
442,345,307310,1,0,0:0:0:0:
442,345,307379,1,0,0:0:0:0:
442,345,307449,1,0,0:0:0:0:
441,360,307519,1,8,0:0:0:0:
441,360,307589,1,8,0:0:0:0:
441,360,307658,1,8,0:0:0:0:
441,360,307728,1,8,0:0:0:0:
396,307,307798,1,0,0:0:0:0:
396,307,307868,1,0,0:0:0:0:
396,307,307938,1,8,0:0:0:0:
396,307,308007,1,0,0:0:0:0:
396,307,308077,1,8,0:0:0:0:
396,307,308147,1,8,0:0:0:0:
433,340,308217,1,0,0:0:0:0:
433,340,308286,1,0,0:0:0:0:
433,340,308356,1,8,0:0:0:0:
460,345,308426,1,0,0:0:0:0:
460,345,308496,1,0,0:0:0:0:
460,345,308565,1,0,0:0:0:0:
440,311,308635,1,8,0:0:0:0:
440,311,308705,1,8,0:0:0:0:
440,311,308775,1,0,0:0:0:0:
440,311,308845,1,0,0:0:0:0:
500,310,308914,1,8,0:0:0:0:
500,310,308984,1,8,0:0:0:0:
500,310,309054,1,8,0:0:0:0:
499,315,309124,1,8,0:0:0:0:
448,346,309193,1,0,0:0:0:0:
448,346,309263,1,8,0:0:0:0:
448,346,309333,1,0,0:0:0:0:
448,346,309403,1,0,0:0:0:0:
448,336,309472,1,8,0:0:0:0:
448,346,309542,1,0,0:0:0:0:
448,346,309612,1,0,0:0:0:0:
446,342,309682,1,0,0:0:0:0:
448,346,309752,1,8,0:0:0:0:
448,346,309821,1,8,0:0:0:0:
446,342,309891,1,8,0:0:0:0:
448,346,309961,1,8,0:0:0:0:
443,328,310031,1,0,0:0:0:0:
443,328,310100,1,0,0:0:0:0:
443,328,310170,1,8,0:0:0:0:
443,328,310240,1,0,0:0:0:0:
435,309,310310,1,8,0:0:0:0:
435,310,310379,1,8,0:0:0:0:
435,312,310449,1,0,0:0:0:0:
435,313,310519,1,0,0:0:0:0:
415,335,310589,1,8,0:0:0:0:
467,350,310658,1,0,0:0:0:0:
467,350,310728,1,0,0:0:0:0:
467,350,310798,1,0,0:0:0:0:
470,367,310868,1,8,0:0:0:0:
470,367,310938,1,8,0:0:0:0:
470,367,311007,1,0,0:0:0:0:
470,367,311077,1,0,0:0:0:0:
461,323,311147,1,8,0:0:0:0:
461,323,311217,1,8,0:0:0:0:
461,323,311286,1,8,0:0:0:0:
461,323,311356,1,8,0:0:0:0:
461,305,311426,1,0,0:0:0:0:
490,325,311496,1,8,0:0:0:0:
490,325,311565,1,0,0:0:0:0:
490,325,311635,1,0,0:0:0:0:
461,305,311705,1,8,0:0:0:0:
490,325,311775,1,0,0:0:0:0:
491,304,311845,1,0,0:0:0:0:
491,304,311914,1,0,0:0:0:0:
481,291,311984,1,8,0:0:0:0:
481,291,312054,1,8,0:0:0:0:
481,293,312124,1,8,0:0:0:0:
481,291,312193,1,8,0:0:0:0:
477,318,312263,1,0,0:0:0:0:
477,318,312333,1,0,0:0:0:0:
477,318,312403,1,8,0:0:0:0:
477,318,312472,1,0,0:0:0:0:
476,307,312542,1,8,0:0:0:0:
476,307,312612,1,8,0:0:0:0:
476,307,312682,1,0,0:0:0:0:
476,307,312752,1,0,0:0:0:0:
476,307,312821,1,8,0:0:0:0:
487,359,312891,1,0,0:0:0:0:
487,359,312961,1,0,0:0:0:0:
487,359,313031,1,0,0:0:0:0:
453,318,313100,1,8,0:0:0:0:
453,318,313170,1,8,0:0:0:0:
453,318,313240,1,0,0:0:0:0:
453,318,313310,1,0,0:0:0:0:
475,356,313379,1,8,0:0:0:0:
475,356,313449,1,8,0:0:0:0:
475,356,313519,1,8,0:0:0:0:
475,356,313589,1,8,0:0:0:0:
467,366,313658,1,0,0:0:0:0:
467,366,313728,1,8,0:0:0:0:
467,367,313798,1,0,0:0:0:0:
467,366,313868,1,0,0:0:0:0:
467,366,313938,1,8,0:0:0:0:
430,352,314007,1,0,0:0:0:0:
430,352,314077,1,0,0:0:0:0:
430,352,314147,1,0,0:0:0:0:
430,352,314217,1,8,0:0:0:0:
441,321,314286,1,8,0:0:0:0:
421,340,314356,1,0,0:0:0:0:
421,340,314426,1,0,0:0:0:0:
431,302,314496,1,8,0:0:0:0:
432,293,314565,1,8,0:0:0:0:
432,294,314635,1,8,0:0:0:0:
419,293,314705,1,8,0:0:0:0:
419,293,314775,1,0,0:0:0:0:
419,293,314845,1,0,0:0:0:0:
419,293,314914,1,0,0:0:0:0:
419,293,314984,1,0,0:0:0:0:
419,293,315054,1,8,0:0:0:0:
419,293,315124,1,8,0:0:0:0:
419,293,315193,1,8,0:0:0:0:
419,293,315263,1,8,0:0:0:0:
394,250,315333,1,0,0:0:0:0:
420,287,315403,1,0,0:0:0:0:
420,287,315472,1,0,0:0:0:0:
420,287,315542,1,0,0:0:0:0:
470,309,315612,1,12,0:0:0:0:
453,338,315891,1,0,0:0:0:0:
453,338,315961,1,8,0:0:0:0:
453,338,316031,1,0,0:0:0:0:
453,338,316100,1,0,0:0:0:0:
453,338,316170,1,8,0:0:0:0:
488,326,316240,1,0,0:0:0:0:
488,326,316310,1,8,0:0:0:0:
485,333,316379,1,8,0:0:0:0:
485,333,316449,1,0,0:0:0:0:
488,366,316519,1,0,0:0:0:0:
468,355,316589,1,8,0:0:0:0:
468,355,316658,1,8,0:0:0:0:
468,355,316728,1,0,0:0:0:0:
451,333,316798,1,0,0:0:0:0:
451,333,316868,1,0,0:0:0:0:
451,333,316938,1,0,0:0:0:0:
463,302,317007,1,8,0:0:0:0:
448,374,317077,1,8,0:0:0:0:
448,374,317147,1,0,0:0:0:0:
463,302,317217,1,0,0:0:0:0:
463,302,317286,1,8,0:0:0:0:
402,314,317356,1,0,0:0:0:0:
402,314,317426,1,8,0:0:0:0:
408,249,317496,1,8,0:0:0:0:
408,249,317565,1,0,0:0:0:0:
408,249,317635,1,0,0:0:0:0:
407,253,317705,1,8,0:0:0:0:
425,375,317775,1,0,0:0:0:0:
470,309,317845,1,8,0:0:0:0:
475,317,317914,1,8,0:0:0:0:
475,317,317984,1,8,0:0:0:0:
475,317,318054,1,0,0:0:0:0:
475,317,318124,1,8,0:0:0:0:
475,317,318193,1,8,0:0:0:0:
470,313,318263,1,0,0:0:0:0:
470,314,318333,1,0,0:0:0:0:
470,315,318403,1,8,0:0:0:0:
485,362,318472,1,0,0:0:0:0:
485,362,318542,1,8,0:0:0:0:
485,362,318612,1,8,0:0:0:0:
485,362,318682,1,0,0:0:0:0:
485,362,318751,1,0,0:0:0:0:
421,320,318821,1,8,0:0:0:0:
421,320,318891,1,8,0:0:0:0:
421,320,318961,1,0,0:0:0:0:
416,333,319031,1,8,0:0:0:0:
416,333,319100,1,0,0:0:0:0:
416,333,319170,1,0,0:0:0:0:
504,332,319240,1,8,0:0:0:0:
504,332,319310,1,8,0:0:0:0:
504,332,319379,1,0,0:0:0:0:
504,332,319449,1,0,0:0:0:0:
373,278,319519,1,8,0:0:0:0:
373,278,319589,1,0,0:0:0:0:
373,278,319658,1,8,0:0:0:0:
373,278,319728,1,8,0:0:0:0:
373,278,319798,1,0,0:0:0:0:
373,278,319868,1,0,0:0:0:0:
373,278,319938,1,8,0:0:0:0:
373,278,320007,1,0,0:0:0:0:
470,309,320077,1,8,0:0:0:0:
470,309,320147,1,8,0:0:0:0:
470,309,320217,1,8,0:0:0:0:
470,309,320286,1,8,0:0:0:0:
453,338,320356,1,0,0:0:0:0:
453,338,320426,1,8,0:0:0:0:
453,338,320496,1,0,0:0:0:0:
453,338,320565,1,0,0:0:0:0:
453,338,320635,1,8,0:0:0:0:
488,326,320705,1,0,0:0:0:0:
488,326,320775,1,8,0:0:0:0:
485,333,320845,1,8,0:0:0:0:
485,333,320914,1,0,0:0:0:0:
488,366,320984,1,0,0:0:0:0:
468,355,321054,1,8,0:0:0:0:
468,355,321124,1,8,0:0:0:0:
468,355,321193,1,0,0:0:0:0:
451,333,321263,1,0,0:0:0:0:
451,333,321333,1,0,0:0:0:0:
451,333,321403,1,0,0:0:0:0:
463,302,321472,1,8,0:0:0:0:
448,374,321542,1,8,0:0:0:0:
448,374,321612,1,0,0:0:0:0:
463,302,321682,1,0,0:0:0:0:
463,302,321751,1,8,0:0:0:0:
402,314,321821,1,0,0:0:0:0:
402,314,321891,1,8,0:0:0:0:
408,249,321961,1,8,0:0:0:0:
408,249,322031,1,0,0:0:0:0:
408,249,322100,1,0,0:0:0:0:
407,253,322170,1,8,0:0:0:0:
425,375,322240,1,0,0:0:0:0:
479,368,322310,1,8,0:0:0:0:
479,368,322379,1,8,0:0:0:0:
479,368,322449,1,0,0:0:0:0:
479,368,322519,1,0,0:0:0:0:
479,368,322589,1,8,0:0:0:0:
479,368,322658,1,0,0:0:0:0:
479,368,322728,1,0,0:0:0:0:
479,368,322798,1,0,0:0:0:0:
453,326,322868,1,8,0:0:0:0:
453,326,322938,1,8,0:0:0:0:
453,326,323007,1,8,0:0:0:0:
453,326,323077,1,0,0:0:0:0:
459,330,323147,1,8,0:0:0:0:
423,331,323217,1,8,0:0:0:0:
423,331,323286,1,0,0:0:0:0:
423,331,323356,1,0,0:0:0:0:
439,317,323426,1,8,0:0:0:0:
495,359,323496,1,0,0:0:0:0:
495,359,323565,1,8,0:0:0:0:
495,359,323635,1,8,0:0:0:0:
415,339,323705,1,0,0:0:0:0:
415,339,323775,1,0,0:0:0:0:
415,339,323845,1,0,0:0:0:0:
415,346,323914,1,0,0:0:0:0:
423,303,323984,1,8,0:0:0:0:
475,359,324054,1,8,0:0:0:0:
475,359,324124,1,8,0:0:0:0:
475,359,324193,1,0,0:0:0:0:
489,352,324263,1,8,0:0:0:0:
489,352,324333,1,8,0:0:0:0:
499,353,324403,1,0,0:0:0:0:
499,354,324472,1,0,0:0:0:0:
499,354,324542,1,12,0:0:0:0:
450,340,324821,1,12,0:0:0:0:
449,344,325100,1,8,0:0:0:0:
449,344,325170,1,0,0:0:0:0:
449,344,325240,1,0,0:0:0:0:
449,344,325310,1,0,0:0:0:0:
449,344,325379,1,8,0:0:0:0:
449,344,325449,1,8,0:0:0:0:
449,344,325519,1,0,0:0:0:0:
449,344,325589,1,0,0:0:0:0:
449,344,325658,1,8,0:0:0:0:
451,349,325728,1,0,0:0:0:0:
451,349,325798,1,8,0:0:0:0:
451,349,325868,1,8,0:0:0:0:
451,349,325938,1,0,0:0:0:0:
451,349,326007,1,0,0:0:0:0:
451,349,326077,1,0,0:0:0:0:
451,349,326147,1,0,0:0:0:0:
451,349,326217,1,8,0:0:0:0:
452,333,326286,1,0,0:0:0:0:
452,333,326356,1,0,0:0:0:0:
452,333,326426,1,0,0:0:0:0:
461,343,326496,1,8,0:0:0:0:
461,343,326565,1,8,0:0:0:0:
461,343,326635,1,8,0:0:0:0:
461,343,326705,1,0,0:0:0:0:
461,343,326775,1,8,0:0:0:0:
438,346,326845,1,8,0:0:0:0:
438,346,326914,1,0,0:0:0:0:
438,346,326984,1,0,0:0:0:0:
438,346,327054,1,8,0:0:0:0:
423,367,327124,1,8,0:0:0:0:
423,367,327193,1,0,0:0:0:0:
423,367,327263,1,0,0:0:0:0:
423,367,327333,1,8,0:0:0:0:
413,343,327403,1,0,0:0:0:0:
413,343,327472,1,0,0:0:0:0:
413,343,327542,1,0,0:0:0:0:
428,341,327612,1,8,0:0:0:0:
427,338,327682,1,8,0:0:0:0:
427,338,327751,1,0,0:0:0:0:
428,341,327821,1,0,0:0:0:0:
427,338,327891,1,8,0:0:0:0:
427,338,327961,1,8,0:0:0:0:
461,343,328031,1,8,0:0:0:0:
461,343,328100,1,0,0:0:0:0:
461,343,328170,1,8,0:0:0:0:
461,343,328240,1,8,0:0:0:0:
434,326,328310,1,0,0:0:0:0:
434,326,328379,1,0,0:0:0:0:
434,326,328449,1,8,0:0:0:0:
429,304,328519,1,0,0:0:0:0:
429,304,328589,1,0,0:0:0:0:
429,304,328658,1,0,0:0:0:0:
418,285,328728,1,8,0:0:0:0:
418,285,328798,1,8,0:0:0:0:
418,285,328868,1,0,0:0:0:0:
418,285,328938,1,0,0:0:0:0:
450,335,329007,1,8,0:0:0:0:
450,335,329077,1,8,0:0:0:0:
450,335,329147,1,8,0:0:0:0:
450,335,329217,1,8,0:0:0:0:
448,303,329286,1,0,0:0:0:0:
448,303,329356,1,8,0:0:0:0:
448,303,329426,1,0,0:0:0:0:
448,303,329496,1,0,0:0:0:0:
448,303,329565,1,8,0:0:0:0:
444,320,329635,1,8,0:0:0:0:
444,320,329705,1,0,0:0:0:0:
444,320,329775,1,0,0:0:0:0:
444,320,329845,1,8,0:0:0:0:
444,320,329914,1,0,0:0:0:0:
444,320,329984,1,0,0:0:0:0:
444,320,330054,1,0,0:0:0:0:
458,352,330124,1,8,0:0:0:0:
471,336,330193,1,8,0:0:0:0:
458,352,330263,1,0,0:0:0:0:
458,352,330333,1,8,0:0:0:0:
458,352,330403,1,0,0:0:0:0:
458,352,330472,1,0,0:0:0:0:
471,336,330542,1,0,0:0:0:0:
471,336,330612,1,0,0:0:0:0:
471,336,330682,1,8,0:0:0:0:
471,336,330751,1,8,0:0:0:0:
471,336,330821,1,0,0:0:0:0:
471,336,330891,1,0,0:0:0:0:
471,336,330961,1,8,0:0:0:0:
471,336,331031,1,0,0:0:0:0:
471,336,331100,1,0,0:0:0:0:
471,336,331170,1,0,0:0:0:0:
471,336,331240,1,8,0:0:0:0:
471,336,331310,1,8,0:0:0:0:
436,345,331379,1,0,0:0:0:0:
436,345,331449,1,0,0:0:0:0:
430,339,331519,1,8,0:0:0:0:
430,339,331589,1,0,0:0:0:0:
430,339,331658,1,0,0:0:0:0:
430,339,331728,1,0,0:0:0:0:
430,339,331798,1,8,0:0:0:0:
491,363,331868,1,8,0:0:0:0:
491,363,331938,1,0,0:0:0:0:
491,363,332007,1,0,0:0:0:0:
491,363,332077,1,8,0:0:0:0:
491,363,332147,1,0,0:0:0:0:
491,363,332217,1,8,0:0:0:0:
491,363,332286,1,0,0:0:0:0:
491,363,332356,1,12,0:0:0:0:
472,343,332635,1,8,0:0:0:0:
472,343,332705,1,8,0:0:0:0:
472,343,332775,1,0,0:0:0:0:
472,343,332845,1,0,0:0:0:0:
472,343,332914,1,8,0:0:0:0:
478,334,332984,1,0,0:0:0:0:
478,334,333054,1,0,0:0:0:0:
478,334,333124,1,0,0:0:0:0:
478,334,333193,1,8,0:0:0:0:
478,334,333263,1,0,0:0:0:0:
478,334,333333,1,0,0:0:0:0:
478,334,333403,1,0,0:0:0:0:
478,334,333472,1,12,0:0:0:0:
465,337,333751,1,8,0:0:0:0:
465,337,333821,1,0,0:0:0:0:
465,337,333891,1,8,0:0:0:0:
465,337,333961,1,0,0:0:0:0:
465,337,334031,1,8,0:0:0:0:
465,347,334100,1,8,0:0:0:0:
472,345,334170,1,0,0:0:0:0:
472,345,334240,1,8,0:0:0:0:
472,345,334310,1,0,0:0:0:0:
472,345,334379,1,0,0:0:0:0:
472,345,334449,1,8,0:0:0:0:
472,345,334519,1,0,0:0:0:0:
472,345,334589,1,8,0:0:0:0:
307,300,334658,1,8,0:0:0:0:
307,300,334728,1,0,0:0:0:0:
307,300,334798,1,8,0:0:0:0:
307,300,334868,1,0,0:0:0:0:
307,300,334938,1,0,0:0:0:0:
307,300,335007,1,8,0:0:0:0:
307,300,335077,1,0,0:0:0:0:
307,300,335147,1,8,0:0:0:0:
307,300,335217,1,8,0:0:0:0:
370,308,335286,1,0,0:0:0:0:
370,308,335356,1,8,0:0:0:0:
370,308,335426,1,0,0:0:0:0:
369,313,335496,1,0,0:0:0:0:
370,308,335565,1,8,0:0:0:0:
370,308,335635,1,0,0:0:0:0:
369,313,335705,1,8,0:0:0:0:
378,308,335775,1,8,0:0:0:0:
378,308,335845,1,0,0:0:0:0:
377,307,335914,1,8,0:0:0:0:
378,308,335984,1,0,0:0:0:0:
378,308,336054,1,0,0:0:0:0:
375,284,336124,1,8,0:0:0:0:
376,285,336193,1,0,0:0:0:0:
376,285,336263,1,8,0:0:0:0:
378,288,336333,1,8,0:0:0:0:
376,285,336403,1,0,0:0:0:0:
376,285,336472,1,8,0:0:0:0:
378,288,336542,1,0,0:0:0:0:
376,285,336612,1,0,0:0:0:0:
376,285,336682,1,8,0:0:0:0:
378,288,336751,1,0,0:0:0:0:
376,285,336821,1,8,0:0:0:0:
376,285,336891,1,8,0:0:0:0:
378,288,336961,1,0,0:0:0:0:
376,292,337031,1,0,0:0:0:0:
374,291,337100,1,12,0:0:0:0:
388,316,337379,1,12,0:0:0:0:
388,316,337519,1,0,0:0:0:0:
388,316,337658,1,12,0:0:0:0:
388,316,337798,1,0,0:0:0:0:
388,316,337938,1,12,0:0:0:0:
391,263,338217,1,8,0:0:0:0:
391,263,338286,1,8,0:0:0:0:
414,290,338356,1,0,0:0:0:0:
414,290,338426,1,0,0:0:0:0:
414,290,338496,1,8,0:0:0:0:
414,290,338565,1,0,0:0:0:0:
414,290,338635,1,8,0:0:0:0:
414,290,338705,1,8,0:0:0:0:
420,294,338775,1,0,0:0:0:0:
433,277,338845,1,8,0:0:0:0:
432,279,338914,1,0,0:0:0:0:
431,280,338984,1,0,0:0:0:0:
433,277,339054,1,8,0:0:0:0:
413,231,339124,1,0,0:0:0:0:
413,231,339193,1,8,0:0:0:0:
413,231,339263,1,8,0:0:0:0:
413,231,339333,1,0,0:0:0:0:
413,231,339403,1,8,0:0:0:0:
403,230,339472,1,0,0:0:0:0:
403,230,339542,1,0,0:0:0:0:
390,327,339612,1,8,0:0:0:0:
390,327,339682,1,0,0:0:0:0:
390,327,339751,1,8,0:0:0:0:
390,327,339821,1,8,0:0:0:0:
390,327,339891,1,0,0:0:0:0:
390,327,339961,1,8,0:0:0:0:
390,327,340031,1,0,0:0:0:0:
390,327,340100,1,0,0:0:0:0:
391,313,340170,1,8,0:0:0:0:
391,313,340240,1,0,0:0:0:0:
391,313,340310,1,8,0:0:0:0:
391,313,340379,1,8,0:0:0:0:
391,313,340449,1,0,0:0:0:0:
391,313,340519,1,8,0:0:0:0:
391,313,340589,1,0,0:0:0:0:
391,313,340658,1,0,0:0:0:0:
417,371,340728,1,8,0:0:0:0:
417,371,340798,1,0,0:0:0:0:
417,371,340868,1,8,0:0:0:0:
417,371,340938,1,8,0:0:0:0:
417,371,341007,1,0,0:0:0:0:
413,376,341077,1,8,0:0:0:0:
412,376,341147,1,0,0:0:0:0:
411,379,341217,1,0,0:0:0:0:
414,334,341286,1,8,0:0:0:0:
414,334,341356,1,8,0:0:0:0:
414,334,341426,1,0,0:0:0:0:
414,334,341496,1,0,0:0:0:0:
395,310,341565,1,12,0:0:0:0:
405,344,341845,1,12,0:0:0:0:
408,347,342124,1,12,0:0:0:0:
408,347,342263,1,0,0:0:0:0:
395,347,342403,1,8,0:0:0:0:
388,314,342472,1,8,0:0:0:0:
396,353,342542,1,0,0:0:0:0:
396,355,342612,1,0,0:0:0:0:
395,355,342682,1,8,0:0:0:0:
396,353,342751,1,8,0:0:0:0:
364,311,342821,1,8,0:0:0:0:
358,313,342891,1,0,0:0:0:0:
358,313,342961,1,8,0:0:0:0:
449,339,343031,1,0,0:0:0:0:
449,339,343100,1,0,0:0:0:0:
449,339,343170,1,0,0:0:0:0:
447,344,343240,1,8,0:0:0:0:
447,344,343310,1,8,0:0:0:0:
446,344,343379,1,0,0:0:0:0:
447,344,343449,1,0,0:0:0:0:
447,344,343519,1,8,0:0:0:0:
446,344,343589,1,0,0:0:0:0:
447,344,343658,1,0,0:0:0:0:
447,344,343728,1,0,0:0:0:0:
446,344,343798,1,8,0:0:0:0:
447,344,343868,1,8,0:0:0:0:
447,344,343938,1,0,0:0:0:0:
446,344,344007,1,8,0:0:0:0:
447,344,344077,1,0,0:0:0:0:
447,344,344147,1,0,0:0:0:0:
363,318,344217,1,8,0:0:0:0:
363,318,344286,1,0,0:0:0:0:
363,318,344356,1,8,0:0:0:0:
363,318,344426,1,8,0:0:0:0:
363,318,344496,1,0,0:0:0:0:
363,318,344565,1,0,0:0:0:0:
368,318,344635,1,8,0:0:0:0:
368,317,344705,1,8,0:0:0:0:
387,325,344775,1,0,0:0:0:0:
387,325,344845,1,0,0:0:0:0:
387,325,344914,1,8,0:0:0:0:
387,325,344984,1,8,0:0:0:0:
387,325,345054,1,8,0:0:0:0:
387,325,345124,1,0,0:0:0:0:
387,325,345193,1,8,0:0:0:0:
392,305,345263,1,0,0:0:0:0:
392,308,345333,1,0,0:0:0:0:
393,312,345403,1,0,0:0:0:0:
393,312,345472,1,8,0:0:0:0:
393,317,345542,1,8,0:0:0:0:
393,318,345612,1,0,0:0:0:0:
386,310,345682,1,0,0:0:0:0:
393,317,345751,1,8,0:0:0:0:
364,314,345821,1,0,0:0:0:0:
363,316,345891,1,0,0:0:0:0:
364,314,345961,1,0,0:0:0:0:
364,314,346031,1,8,0:0:0:0:
363,316,346100,1,8,0:0:0:0:
426,361,346170,1,0,0:0:0:0:
426,361,346240,1,8,0:0:0:0:
426,361,346310,1,0,0:0:0:0:
417,362,346379,1,0,0:0:0:0:
417,362,346449,1,8,0:0:0:0:
417,362,346519,1,0,0:0:0:0:
417,362,346589,1,8,0:0:0:0:
403,321,346658,1,8,0:0:0:0:
403,321,346728,1,0,0:0:0:0:
403,321,346798,1,0,0:0:0:0:
417,289,346868,1,8,0:0:0:0:
417,289,346938,1,8,0:0:0:0:
417,289,347007,1,8,0:0:0:0:
417,289,347077,1,0,0:0:0:0:
417,289,347147,1,8,0:0:0:0:
399,313,347217,1,0,0:0:0:0:
399,313,347286,1,0,0:0:0:0:
399,313,347356,1,0,0:0:0:0:
399,313,347426,1,8,0:0:0:0:
399,313,347496,1,8,0:0:0:0:
399,313,347565,1,0,0:0:0:0:
399,313,347635,1,0,0:0:0:0:
396,317,347705,1,8,0:0:0:0:
393,321,347775,1,0,0:0:0:0:
393,321,347845,1,0,0:0:0:0:
392,321,347914,1,0,0:0:0:0:
398,312,347984,1,8,0:0:0:0:
398,312,348054,1,8,0:0:0:0:
398,312,348124,1,0,0:0:0:0:
398,312,348193,1,0,0:0:0:0:
397,323,348263,1,8,0:0:0:0:
441,330,348333,1,0,0:0:0:0:
441,330,348403,1,8,0:0:0:0:
441,330,348472,1,0,0:0:0:0:
436,332,348542,1,8,0:0:0:0:
436,332,348612,1,8,0:0:0:0:
436,332,348682,1,0,0:0:0:0:
436,332,348751,1,0,0:0:0:0:
321,321,348821,1,8,0:0:0:0:
321,321,348891,1,0,0:0:0:0:
321,321,348961,1,0,0:0:0:0:
321,321,349031,1,0,0:0:0:0:
321,321,349100,1,8,0:0:0:0:
412,327,349170,1,8,0:0:0:0:
412,327,349240,1,0,0:0:0:0:
412,327,349310,1,0,0:0:0:0:
412,327,349379,1,8,0:0:0:0:
412,327,349449,1,0,0:0:0:0:
412,327,349519,1,0,0:0:0:0:
412,327,349589,1,0,0:0:0:0:
412,327,349658,1,8,0:0:0:0:
412,327,349728,1,8,0:0:0:0:
386,340,349798,1,0,0:0:0:0:
386,340,349868,1,0,0:0:0:0:
386,340,349938,1,8,0:0:0:0:
386,340,350007,1,0,0:0:0:0:
386,340,350077,1,0,0:0:0:0:
388,347,350147,1,0,0:0:0:0:
414,311,350217,1,8,0:0:0:0:
358,338,350286,1,8,0:0:0:0:
399,352,350356,1,0,0:0:0:0:
398,352,350426,1,0,0:0:0:0:
351,305,350496,1,8,0:0:0:0:
358,338,350565,1,8,0:0:0:0:
351,305,350635,1,0,0:0:0:0:
350,311,350705,1,0,0:0:0:0:
351,305,350775,1,8,0:0:0:0:
358,338,350845,1,8,0:0:0:0:
345,307,350914,1,0,0:0:0:0:
338,303,350984,1,0,0:0:0:0:
338,301,351054,1,8,0:0:0:0:
379,330,351333,1,0,0:0:0:0:
379,330,351402,1,0,0:0:0:0:
379,330,351472,1,0,0:0:0:0:
379,330,351612,1,8,0:0:0:0:
379,330,351681,1,0,0:0:0:0:
379,330,351751,1,0,0:0:0:0:
379,330,351891,1,8,0:0:0:0:
379,330,352030,1,0,0:0:0:0:
379,330,352170,1,12,0:0:0:0:
459,330,353007,1,0,0:0:0:0:
459,330,353077,1,0,0:0:0:0:
459,330,353146,1,0,0:0:0:0:
459,330,353286,1,8,0:0:0:0:
459,330,353356,1,0,0:0:0:0:
459,330,353426,1,0,0:0:0:0:
459,330,353565,1,8,0:0:0:0:
459,330,353705,1,0,0:0:0:0:
459,330,353844,1,12,0:0:0:0:
459,330,353984,1,0,0:0:0:0:
459,330,354123,1,12,0:0:0:0:
459,330,354263,1,0,0:0:0:0:
459,330,354402,1,12,0:0:0:0:
427,313,354681,1,0,0:0:0:0:
427,313,354751,1,0,0:0:0:0:
427,313,354821,1,0,0:0:0:0:
427,313,354960,1,8,0:0:0:0:
427,313,355100,1,8,0:0:0:0:
427,313,355170,1,8,0:0:0:0:
427,313,355239,1,0,0:0:0:0:
410,320,355379,1,0,0:0:0:0:
410,320,355519,1,12,0:0:0:0:
444,315,356356,1,8,0:0:0:0:
358,301,356426,1,0,0:0:0:0:
444,315,356495,1,0,0:0:0:0:
444,315,356565,1,0,0:0:0:0:
444,315,356635,1,8,0:0:0:0:
438,317,356705,1,0,0:0:0:0:
438,317,356774,1,0,0:0:0:0:
438,317,356844,1,0,0:0:0:0:
438,317,356914,1,8,0:0:0:0:
438,317,356984,1,0,0:0:0:0:
438,317,357053,1,0,0:0:0:0:
438,317,357123,1,0,0:0:0:0:
438,317,357193,1,12,0:0:0:0:
467,333,357333,1,0,0:0:0:0:
467,333,357472,1,0,0:0:0:0:
467,333,357612,1,12,0:0:0:0:
460,342,357751,1,0,0:0:0:0:
460,342,357891,1,0,0:0:0:0:
431,331,358030,1,8,0:0:0:0:
431,331,358100,1,8,0:0:0:0:
431,331,358170,1,0,0:0:0:0:
431,331,358309,1,8,0:0:0:0:
431,331,358379,1,0,0:0:0:0:
431,331,358449,1,0,0:0:0:0:
458,343,358588,1,8,0:0:0:0:
458,343,358728,1,0,0:0:0:0:
458,343,358867,1,12,0:0:0:0:
365,338,359705,1,0,0:0:0:0:
365,338,359774,1,0,0:0:0:0:
365,338,359844,1,0,0:0:0:0:
449,350,359984,1,8,0:0:0:0:
440,316,360053,1,0,0:0:0:0:
440,316,360123,1,0,0:0:0:0:
440,316,360263,1,8,0:0:0:0:
440,316,360402,1,0,0:0:0:0:
430,333,360542,1,12,0:0:0:0:
430,333,360681,1,0,0:0:0:0:
430,333,360821,1,12,0:0:0:0:
430,333,360960,1,0,0:0:0:0:
430,333,361100,1,12,0:0:0:0:
437,369,361379,1,0,0:0:0:0:
437,369,361449,1,0,0:0:0:0:
437,369,361519,1,0,0:0:0:0:
437,369,361658,1,8,0:0:0:0:
468,332,361798,1,0,0:0:0:0:
468,332,361867,1,0,0:0:0:0:
468,332,361937,1,8,0:0:0:0:
468,332,362077,1,0,0:0:0:0:
468,332,362216,1,12,0:0:0:0:
396,352,363053,1,8,0:0:0:0:
396,352,363123,1,0,0:0:0:0:
396,352,363193,1,0,0:0:0:0:
388,349,363263,1,0,0:0:0:0:
388,349,363333,1,8,0:0:0:0:
388,349,363402,1,0,0:0:0:0:
388,349,363472,1,0,0:0:0:0:
388,349,363542,1,0,0:0:0:0:
388,349,363612,1,8,0:0:0:0:
388,349,363681,1,0,0:0:0:0:
388,349,363751,1,0,0:0:0:0:
388,349,363821,1,0,0:0:0:0:
366,328,363891,1,12,0:0:0:0:
366,328,364030,1,0,0:0:0:0:
366,328,364170,1,0,0:0:0:0:
366,328,364309,1,12,0:0:0:0:
366,328,364449,1,0,0:0:0:0:
366,328,364588,1,0,0:0:0:0:
351,320,364728,1,8,0:0:0:0:
351,320,364798,1,8,0:0:0:0:
351,320,364867,1,0,0:0:0:0:
351,320,364937,1,0,0:0:0:0:
351,320,365007,1,8,0:0:0:0:
351,320,365077,1,0,0:0:0:0:
351,320,365146,1,0,0:0:0:0:
351,320,365216,1,0,0:0:0:0:
351,320,365286,1,8,0:0:0:0:
351,320,365356,1,0,0:0:0:0:
351,320,365426,1,0,0:0:0:0:
351,320,365495,1,0,0:0:0:0:
351,320,365565,1,8,0:0:0:0:
398,325,365844,1,8,0:0:0:0:
398,325,366123,1,8,0:0:0:0:
353,309,366402,1,0,0:0:0:0:
353,309,366472,1,0,0:0:0:0:
353,309,366542,1,8,0:0:0:0:
353,309,366612,1,8,0:0:0:0:
353,309,366681,1,0,0:0:0:0:
353,309,366751,1,8,0:0:0:0:
353,309,366821,1,0,0:0:0:0:
353,309,366891,1,0,0:0:0:0:
353,309,366960,1,8,0:0:0:0:
353,309,367030,1,0,0:0:0:0:
353,309,367100,1,0,0:0:0:0:
353,309,367170,1,0,0:0:0:0:
338,333,367239,1,8,0:0:0:0:
336,338,367379,1,0,0:0:0:0:
336,338,367519,1,8,0:0:0:0:
336,338,367658,1,0,0:0:0:0:
336,338,367798,1,8,0:0:0:0:
381,341,368077,1,0,0:0:0:0:
381,341,368146,1,0,0:0:0:0:
381,341,368216,1,8,0:0:0:0:
381,341,368286,1,0,0:0:0:0:
378,336,368356,1,8,0:0:0:0:
378,336,368426,1,8,0:0:0:0:
378,336,368495,1,0,0:0:0:0:
378,336,368565,1,0,0:0:0:0:
369,320,368635,1,8,0:0:0:0:
369,320,368705,1,0,0:0:0:0:
369,320,368774,1,0,0:0:0:0:
369,320,368844,1,0,0:0:0:0:
372,315,368914,1,8,0:0:0:0:
374,316,369193,1,8,0:0:0:0:
374,316,369472,1,8,0:0:0:0:
488,348,369751,1,8,0:0:0:0:
488,348,369821,1,8,0:0:0:0:
488,348,369891,1,0,0:0:0:0:
488,348,369960,1,0,0:0:0:0:
488,348,370030,1,8,0:0:0:0:
488,348,370100,1,0,0:0:0:0:
488,348,370170,1,8,0:0:0:0:
488,348,370239,1,8,0:0:0:0:
488,348,370309,1,0,0:0:0:0:
475,355,370379,1,8,0:0:0:0:
488,348,370449,1,0,0:0:0:0:
488,348,370519,1,0,0:0:0:0:
474,346,370588,1,12,0:0:0:0:
474,346,370728,1,0,0:0:0:0:
482,341,370867,1,0,0:0:0:0:
475,352,371007,1,12,0:0:0:0:
475,352,371146,1,0,0:0:0:0:
475,352,371286,1,0,0:0:0:0:
351,320,371426,1,8,0:0:0:0:
351,320,371495,1,8,0:0:0:0:
351,320,371565,1,0,0:0:0:0:
351,320,371635,1,0,0:0:0:0:
351,320,371705,1,8,0:0:0:0:
351,320,371774,1,0,0:0:0:0:
351,320,371844,1,0,0:0:0:0:
351,320,371914,1,0,0:0:0:0:
351,320,371984,1,8,0:0:0:0:
351,320,372053,1,0,0:0:0:0:
351,320,372123,1,0,0:0:0:0:
351,320,372193,1,0,0:0:0:0:
351,320,372263,1,8,0:0:0:0:
398,325,372542,1,8,0:0:0:0:
398,325,372821,1,8,0:0:0:0:
353,309,373100,1,0,0:0:0:0:
353,309,373170,1,0,0:0:0:0:
353,309,373239,1,8,0:0:0:0:
353,309,373309,1,8,0:0:0:0:
353,309,373379,1,0,0:0:0:0:
353,309,373449,1,8,0:0:0:0:
353,309,373519,1,0,0:0:0:0:
353,309,373588,1,0,0:0:0:0:
353,309,373658,1,8,0:0:0:0:
353,309,373728,1,0,0:0:0:0:
353,309,373798,1,0,0:0:0:0:
353,309,373867,1,0,0:0:0:0:
338,333,373937,1,8,0:0:0:0:
336,338,374077,1,0,0:0:0:0:
336,338,374216,1,8,0:0:0:0:
336,338,374356,1,0,0:0:0:0:
336,338,374495,1,8,0:0:0:0:
381,341,374774,1,0,0:0:0:0:
381,341,374844,1,0,0:0:0:0:
381,341,374914,1,8,0:0:0:0:
381,341,374984,1,0,0:0:0:0:
378,336,375053,1,8,0:0:0:0:
378,336,375123,1,8,0:0:0:0:
378,336,375193,1,0,0:0:0:0:
368,284,375263,1,8,0:0:0:0:
368,284,375332,1,0,0:0:0:0:
369,320,375402,1,0,0:0:0:0:
368,284,375472,1,8,0:0:0:0:
369,320,375542,1,0,0:0:0:0:
372,315,375612,1,8,0:0:0:0:
374,316,375891,1,8,0:0:0:0:
374,316,376170,1,8,0:0:0:0:
488,348,376449,1,8,0:0:0:0:
488,348,376519,1,8,0:0:0:0:
379,293,376588,1,8,0:0:0:0:
379,293,376658,1,8,0:0:0:0:
379,293,376728,1,0,0:0:0:0:
488,348,376798,1,0,0:0:0:0:
379,293,376867,1,0,0:0:0:0:
379,293,376937,1,0,0:0:0:0:
329,226,377007,1,8,0:0:0:0:
475,355,377077,1,8,0:0:0:0:
488,348,377146,1,0,0:0:0:0:
488,348,377216,1,0,0:0:0:0:
474,346,377286,1,12,0:0:0:0:
474,346,377426,1,0,0:0:0:0:
482,341,377565,1,0,0:0:0:0:
475,352,377705,1,12,0:0:0:0:
475,352,377844,1,0,0:0:0:0:
475,352,377984,1,0,0:0:0:0:
470,327,378123,1,8,0:0:0:0:
402,289,378193,1,8,0:0:0:0:
402,289,378263,1,0,0:0:0:0:
402,289,378332,1,0,0:0:0:0:
402,289,378402,1,8,0:0:0:0:
402,289,378472,1,0,0:0:0:0:
402,289,378542,1,8,0:0:0:0:
402,289,378612,1,8,0:0:0:0:
402,289,378681,1,0,0:0:0:0:
402,289,378751,1,8,0:0:0:0:
402,289,378821,1,0,0:0:0:0:
402,289,378891,1,0,0:0:0:0:
402,289,378960,1,8,0:0:0:0:
462,299,379030,1,0,0:0:0:0:
462,299,379100,1,0,0:0:0:0:
462,299,379170,1,0,0:0:0:0:
459,319,379239,1,8,0:0:0:0:
459,319,379309,1,0,0:0:0:0:
459,319,379379,1,8,0:0:0:0:
459,319,379449,1,8,0:0:0:0:
419,307,379519,1,0,0:0:0:0:
419,307,379588,1,8,0:0:0:0:
419,307,379658,1,0,0:0:0:0:
419,307,379728,1,0,0:0:0:0:
419,307,379798,1,8,0:0:0:0:
419,307,379867,1,0,0:0:0:0:
419,307,379937,1,0,0:0:0:0:
419,307,380007,1,0,0:0:0:0:
406,256,380077,1,8,0:0:0:0:
406,256,380146,1,0,0:0:0:0:
406,256,380216,1,8,0:0:0:0:
406,256,380286,1,8,0:0:0:0:
406,256,380356,1,0,0:0:0:0:
406,256,380426,1,8,0:0:0:0:
406,256,380495,1,0,0:0:0:0:
406,256,380565,1,0,0:0:0:0:
456,315,380635,1,8,0:0:0:0:
456,315,380705,1,0,0:0:0:0:
456,315,380774,1,0,0:0:0:0:
456,315,380844,1,0,0:0:0:0:
475,327,380914,1,8,0:0:0:0:
474,327,380984,1,0,0:0:0:0:
474,327,381053,1,8,0:0:0:0:
475,327,381123,1,8,0:0:0:0:
474,327,381193,1,0,0:0:0:0:
474,327,381263,1,0,0:0:0:0:
475,327,381332,1,8,0:0:0:0:
474,327,381402,1,0,0:0:0:0:
365,268,381472,1,12,0:0:0:0:
360,325,381751,1,0,0:0:0:0:
360,325,381821,1,0,0:0:0:0:
360,325,381891,1,8,0:0:0:0:
360,325,381960,1,0,0:0:0:0:
360,325,382030,1,8,0:0:0:0:
360,325,382100,1,8,0:0:0:0:
360,325,382170,1,0,0:0:0:0:
360,325,382239,1,0,0:0:0:0:
360,325,382309,1,8,0:0:0:0:
339,291,382379,1,0,0:0:0:0:
339,291,382449,1,0,0:0:0:0:
339,291,382519,1,0,0:0:0:0:
367,313,382588,1,8,0:0:0:0:
367,313,382658,1,0,0:0:0:0:
367,313,382728,1,8,0:0:0:0:
367,313,382798,1,8,0:0:0:0:
367,313,382867,1,0,0:0:0:0:
367,313,382937,1,8,0:0:0:0:
367,313,383007,1,0,0:0:0:0:
367,313,383077,1,0,0:0:0:0:
390,329,383146,1,8,0:0:0:0:
410,303,383216,1,0,0:0:0:0:
410,303,383286,1,8,0:0:0:0:
410,303,383356,1,8,0:0:0:0:
410,303,383426,1,0,0:0:0:0:
410,303,383495,1,0,0:0:0:0:
410,303,383565,1,8,0:0:0:0:
449,327,383635,1,0,0:0:0:0:
449,327,383705,1,0,0:0:0:0:
449,327,383774,1,0,0:0:0:0:
449,327,383844,1,8,0:0:0:0:
449,327,383914,1,0,0:0:0:0:
369,310,383984,1,12,0:0:0:0:
428,314,384123,1,0,0:0:0:0:
428,314,384263,1,0,0:0:0:0:
428,314,384402,1,12,0:0:0:0:
495,310,384542,1,0,0:0:0:0:
495,310,384681,1,0,0:0:0:0:
470,327,384821,1,8,0:0:0:0:
402,289,384891,1,8,0:0:0:0:
402,289,384960,1,0,0:0:0:0:
402,289,385030,1,0,0:0:0:0:
402,289,385100,1,8,0:0:0:0:
402,289,385170,1,0,0:0:0:0:
402,289,385239,1,8,0:0:0:0:
402,289,385309,1,8,0:0:0:0:
402,289,385379,1,0,0:0:0:0:
402,289,385449,1,8,0:0:0:0:
402,289,385519,1,0,0:0:0:0:
402,289,385588,1,0,0:0:0:0:
402,289,385658,1,8,0:0:0:0:
462,299,385728,1,0,0:0:0:0:
462,299,385798,1,0,0:0:0:0:
462,299,385867,1,0,0:0:0:0:
459,319,385937,1,8,0:0:0:0:
459,319,386007,1,0,0:0:0:0:
459,319,386077,1,8,0:0:0:0:
459,319,386146,1,8,0:0:0:0:
419,307,386216,1,0,0:0:0:0:
419,307,386286,1,8,0:0:0:0:
419,307,386356,1,0,0:0:0:0:
419,307,386426,1,0,0:0:0:0:
419,307,386495,1,8,0:0:0:0:
419,307,386565,1,0,0:0:0:0:
419,307,386635,1,0,0:0:0:0:
419,307,386705,1,0,0:0:0:0:
406,256,386774,1,8,0:0:0:0:
406,256,386844,1,0,0:0:0:0:
406,256,386914,1,8,0:0:0:0:
406,256,386984,1,8,0:0:0:0:
406,256,387053,1,0,0:0:0:0:
406,256,387123,1,8,0:0:0:0:
406,256,387193,1,0,0:0:0:0:
406,256,387263,1,0,0:0:0:0:
456,315,387332,1,8,0:0:0:0:
456,315,387402,1,0,0:0:0:0:
456,315,387472,1,0,0:0:0:0:
456,315,387542,1,0,0:0:0:0:
475,327,387612,1,8,0:0:0:0:
474,327,387681,1,0,0:0:0:0:
474,327,387751,1,8,0:0:0:0:
475,327,387821,1,8,0:0:0:0:
474,327,387891,1,0,0:0:0:0:
474,327,387960,1,0,0:0:0:0:
475,327,388030,1,8,0:0:0:0:
474,327,388100,1,0,0:0:0:0:
365,268,388170,1,12,0:0:0:0:
360,325,388449,1,0,0:0:0:0:
360,325,388519,1,0,0:0:0:0:
360,325,388588,1,8,0:0:0:0:
360,325,388658,1,0,0:0:0:0:
360,325,388728,1,8,0:0:0:0:
360,325,388798,1,8,0:0:0:0:
360,325,388867,1,0,0:0:0:0:
360,325,388937,1,0,0:0:0:0:
360,325,389007,1,8,0:0:0:0:
339,291,389077,1,0,0:0:0:0:
339,291,389146,1,0,0:0:0:0:
339,291,389216,1,0,0:0:0:0:
367,313,389286,1,8,0:0:0:0:
367,313,389356,1,0,0:0:0:0:
367,313,389426,1,8,0:0:0:0:
367,313,389495,1,8,0:0:0:0:
367,313,389565,1,0,0:0:0:0:
367,313,389635,1,8,0:0:0:0:
367,313,389705,1,0,0:0:0:0:
367,313,389774,1,0,0:0:0:0:
339,285,389844,1,8,0:0:0:0:
339,285,389914,1,8,0:0:0:0:
339,285,389984,1,8,0:0:0:0:
339,285,390053,1,8,0:0:0:0:
426,336,390123,1,8,0:0:0:0:
400,290,390193,1,8,0:0:0:0:
400,290,390263,1,0,0:0:0:0:
426,336,390332,1,0,0:0:0:0:
426,336,390402,1,0,0:0:0:0:
426,336,390472,1,0,0:0:0:0:
416,335,390542,1,0,0:0:0:0:
416,335,390612,1,0,0:0:0:0:
416,335,390681,1,8,0:0:0:0:
416,335,390751,1,0,0:0:0:0:
416,335,390821,1,0,0:0:0:0:
416,335,390891,1,0,0:0:0:0:
416,335,390960,1,0,0:0:0:0:
391,339,391030,1,0,0:0:0:0:
391,338,391100,1,12,0:0:0:0:
397,351,391519,1,0,0:0:0:0:
397,346,391658,1,0,0:0:0:0:
397,346,391798,1,0,0:0:0:0:
397,346,391937,1,8,0:0:0:0:
371,313,392216,1,8,0:0:0:0:
371,313,392356,1,0,0:0:0:0:
371,313,392495,1,0,0:0:0:0:
371,313,392635,1,0,0:0:0:0:
371,313,392774,1,8,0:0:0:0:
384,349,393053,1,8,0:0:0:0:
384,349,393193,1,0,0:0:0:0:
384,349,393332,1,0,0:0:0:0:
384,349,393472,1,8,0:0:0:0:
384,349,393612,1,0,0:0:0:0:
385,342,393891,1,0,0:0:0:0:
376,259,394030,1,8,0:0:0:0:
289,325,394065,1,8,0:0:0:0:
385,301,394170,1,0,0:0:0:0:
386,293,394309,1,0,0:0:0:0:
386,293,394449,1,8,0:0:0:0:
291,327,394484,1,8,0:0:0:0:
386,293,394588,1,0,0:0:0:0:
376,258,394728,1,0,0:0:0:0:
376,315,394867,1,8,0:0:0:0:
376,315,394937,1,0,0:0:0:0:
376,315,395007,1,0,0:0:0:0:
376,315,395077,1,0,0:0:0:0:
390,305,395146,1,8,0:0:0:0:
390,305,395216,1,8,0:0:0:0:
390,305,395286,1,0,0:0:0:0:
390,305,395356,1,0,0:0:0:0:
371,282,395426,1,8,0:0:0:0:
371,282,395495,1,0,0:0:0:0:
371,282,395565,1,8,0:0:0:0:
371,282,395635,1,0,0:0:0:0:
371,282,395705,1,8,0:0:0:0:
371,282,395774,1,8,0:0:0:0:
371,282,395844,1,0,0:0:0:0:
375,299,395914,1,0,0:0:0:0:
375,299,395984,1,8,0:0:0:0:
374,300,396053,1,0,0:0:0:0:
375,299,396123,1,0,0:0:0:0:
375,299,396193,1,0,0:0:0:0:
361,286,396263,1,8,0:0:0:0:
361,286,396332,1,8,0:0:0:0:
361,286,396402,1,0,0:0:0:0:
361,286,396472,1,0,0:0:0:0:
361,286,396542,1,8,0:0:0:0:
361,286,396612,1,8,0:0:0:0:
361,286,396681,1,8,0:0:0:0:
361,286,396751,1,0,0:0:0:0:
361,286,396821,1,8,0:0:0:0:
371,271,396891,1,8,0:0:0:0:
371,271,396960,1,0,0:0:0:0:
371,271,397030,1,0,0:0:0:0:
388,261,397100,1,8,0:0:0:0:
387,261,397170,1,0,0:0:0:0:
386,261,397239,1,8,0:0:0:0:
388,261,397309,1,0,0:0:0:0:
387,261,397379,1,8,0:0:0:0:
386,261,397449,1,8,0:0:0:0:
388,261,397519,1,0,0:0:0:0:
399,296,397588,1,0,0:0:0:0:
399,296,397658,1,8,0:0:0:0:
370,272,397728,1,0,0:0:0:0:
370,272,397798,1,0,0:0:0:0:
370,272,397867,1,0,0:0:0:0:
370,272,397937,1,8,0:0:0:0:
370,272,398007,1,8,0:0:0:0:
370,272,398077,1,0,0:0:0:0:
370,272,398146,1,0,0:0:0:0:
370,272,398216,1,8,0:0:0:0:
408,323,398356,1,0,0:0:0:0:
408,323,398426,1,0,0:0:0:0:
408,323,398495,1,0,0:0:0:0:
408,323,398635,1,8,0:0:0:0:
370,269,398774,1,0,0:0:0:0:
372,264,398914,1,0,0:0:0:0:
382,278,399053,1,8,0:0:0:0:
384,278,399123,1,8,0:0:0:0:
382,278,399193,1,0,0:0:0:0:
385,274,399263,1,0,0:0:0:0:
384,278,399332,1,8,0:0:0:0:
378,263,399472,1,8,0:0:0:0:
437,335,399612,1,0,0:0:0:0:
437,335,399751,1,0,0:0:0:0:
435,329,399891,1,12,0:0:0:0:
435,329,400030,1,0,0:0:0:0:
435,329,400100,1,0,0:0:0:0:
435,329,400170,1,0,0:0:0:0:
435,329,400309,1,8,0:0:0:0:
453,353,400449,1,0,0:0:0:0:
453,353,400588,1,0,0:0:0:0:
451,345,400728,1,8,0:0:0:0:
451,345,400798,1,8,0:0:0:0:
451,345,400867,1,0,0:0:0:0:
451,345,400937,1,0,0:0:0:0:
451,345,401007,1,8,0:0:0:0:
436,339,401146,1,8,0:0:0:0:
436,339,401286,1,0,0:0:0:0:
436,339,401426,1,0,0:0:0:0:
398,303,401565,1,8,0:0:0:0:
398,303,401635,1,8,0:0:0:0:
398,303,401705,1,0,0:0:0:0:
398,303,401774,1,0,0:0:0:0:
398,303,401844,1,8,0:0:0:0:
398,303,401914,1,0,0:0:0:0:
398,303,401984,1,0,0:0:0:0:
398,303,402053,1,0,0:0:0:0:
398,303,402123,1,8,0:0:0:0:
398,303,402193,1,0,0:0:0:0:
398,303,402263,1,8,0:0:0:0:
398,303,402332,1,0,0:0:0:0:
398,303,402402,1,8,0:0:0:0:
392,303,402472,1,8,0:0:0:0:
392,303,402542,1,0,0:0:0:0:
392,303,402612,1,0,0:0:0:0:
417,325,402681,1,8,0:0:0:0:
417,325,402751,1,0,0:0:0:0:
417,325,402821,1,0,0:0:0:0:
417,325,402891,1,0,0:0:0:0:
417,325,402960,1,8,0:0:0:0:
414,320,403030,1,8,0:0:0:0:
414,320,403100,1,0,0:0:0:0:
414,320,403170,1,0,0:0:0:0:
282,302,403239,1,8,0:0:0:0:
282,302,403309,1,8,0:0:0:0:
282,302,403379,1,8,0:0:0:0:
282,302,403449,1,8,0:0:0:0:
282,302,403519,1,0,0:0:0:0:
282,302,403588,1,0,0:0:0:0:
282,302,403658,1,0,0:0:0:0:
282,302,403728,1,0,0:0:0:0:
346,268,403798,1,12,0:0:0:0:
369,268,404077,1,12,0:0:0:0:
369,268,404356,1,4,0:0:0:0:
369,268,404635,1,12,0:0:0:0:
424,317,404914,1,0,0:0:0:0:
424,317,405053,1,0,0:0:0:0:
424,317,405193,1,0,0:0:0:0:
424,317,405332,1,8,0:0:0:0:
438,326,405612,1,8,0:0:0:0:
438,326,405751,1,0,0:0:0:0:
438,326,405891,1,0,0:0:0:0:
438,326,406030,1,0,0:0:0:0:
438,326,406170,1,8,0:0:0:0:
432,334,406449,1,8,0:0:0:0:
432,334,406588,1,0,0:0:0:0:
432,334,406728,1,0,0:0:0:0:
432,334,406867,1,8,0:0:0:0:
432,334,407007,1,0,0:0:0:0:
434,330,407286,1,0,0:0:0:0:
434,330,407426,1,8,0:0:0:0:
461,277,407460,1,8,0:0:0:0:
434,330,407565,1,0,0:0:0:0:
434,330,407705,1,0,0:0:0:0:
434,330,407844,1,8,0:0:0:0:
420,350,407879,1,8,0:0:0:0:
386,280,407984,1,0,0:0:0:0:
447,316,408123,1,8,0:0:0:0:
390,292,408263,1,0,0:0:0:0:
390,292,408402,1,0,0:0:0:0:
390,292,408542,1,0,0:0:0:0:
390,292,408681,1,8,0:0:0:0:
394,273,408960,1,8,0:0:0:0:
394,273,409100,1,0,0:0:0:0:
393,268,409239,1,0,0:0:0:0:
393,268,409379,1,0,0:0:0:0:
393,268,409519,1,8,0:0:0:0:
396,251,409798,1,8,0:0:0:0:
396,251,409937,1,0,0:0:0:0:
396,251,410077,1,0,0:0:0:0:
388,265,410216,1,8,0:0:0:0:
388,265,410356,1,0,0:0:0:0:
403,275,410635,1,0,0:0:0:0:
403,275,410774,1,8,0:0:0:0:
447,293,410809,1,8,0:0:0:0:
403,275,410914,1,0,0:0:0:0:
403,275,411053,1,0,0:0:0:0:
403,275,411193,1,8,0:0:0:0:
447,295,411228,1,8,0:0:0:0:
385,276,411332,1,0,0:0:0:0:
459,333,411472,1,8,0:0:0:0:
390,303,411612,1,0,0:0:0:0:
395,303,411751,1,0,0:0:0:0:
395,303,411891,1,0,0:0:0:0:
395,303,412030,1,8,0:0:0:0:
467,309,412309,1,8,0:0:0:0:
467,309,412449,1,0,0:0:0:0:
467,309,412588,1,0,0:0:0:0:
467,309,412728,1,0,0:0:0:0:
467,309,412867,1,8,0:0:0:0:
425,290,413146,1,8,0:0:0:0:
425,290,413286,1,0,0:0:0:0:
425,290,413426,1,0,0:0:0:0:
425,290,413565,1,8,0:0:0:0:
425,290,413705,1,0,0:0:0:0:
415,273,413984,1,0,0:0:0:0:
415,284,414123,1,8,0:0:0:0:
418,288,414158,1,8,0:0:0:0:
405,315,414263,1,0,0:0:0:0:
405,315,414402,1,0,0:0:0:0:
405,315,414542,1,8,0:0:0:0:
421,297,414577,1,8,0:0:0:0:
452,328,414681,1,0,0:0:0:0:
456,333,414821,1,8,0:0:0:0:
463,328,414960,1,0,0:0:0:0:
463,328,415100,1,0,0:0:0:0:
463,328,415239,1,0,0:0:0:0:
463,328,415379,1,8,0:0:0:0:
427,324,415658,1,8,0:0:0:0:
427,324,415798,1,0,0:0:0:0:
427,324,415937,1,0,0:0:0:0:
427,324,416077,1,0,0:0:0:0:
427,324,416216,1,8,0:0:0:0:
406,280,416495,1,8,0:0:0:0:
406,280,416635,1,0,0:0:0:0:
406,280,416774,1,0,0:0:0:0:
406,280,416914,1,8,0:0:0:0:
406,280,417053,1,0,0:0:0:0:
395,288,417332,1,8,0:0:0:0:
395,288,417472,1,0,0:0:0:0:
395,288,417612,1,0,0:0:0:0:
401,298,417751,1,0,0:0:0:0:
401,298,417891,1,8,0:0:0:0:
256,192,418030,12,0,424170,0:0:0:0:
412,332,444080,5,12,0:0:0:0:
381,308,444455,5,8,0:0:0:0:
380,317,444642,1,0,0:0:0:0:
380,317,444830,1,8,0:0:0:0:
341,301,445017,1,8,0:0:0:0:
380,317,445205,1,0,0:0:0:0:
359,315,445580,1,0,0:0:0:0:
359,315,445767,1,8,0:0:0:0:
382,290,446142,1,0,0:0:0:0:
382,290,446330,1,8,0:0:0:0:
382,290,446517,1,8,0:0:0:0:
391,300,446705,1,0,0:0:0:0:
405,267,446892,1,8,0:0:0:0:
405,267,446986,1,8,0:0:0:0:
405,267,447080,1,0,0:0:0:0:
327,297,447267,1,8,0:0:0:0:
327,297,447455,1,0,0:0:0:0:
327,297,447642,1,0,0:0:0:0:
351,313,447830,1,8,0:0:0:0:
385,310,448017,1,8,0:0:0:0:
385,310,448205,1,0,0:0:0:0:
359,267,448580,1,0,0:0:0:0:
355,292,448767,1,8,0:0:0:0:
367,280,448955,1,0,0:0:0:0:
367,280,449142,1,0,0:0:0:0:
367,280,449330,1,8,0:0:0:0:
325,297,449705,1,8,0:0:0:0:
325,297,449892,1,8,0:0:0:0:
325,297,450080,1,0,0:0:0:0:
376,303,450455,1,0,0:0:0:0:
376,303,450830,1,8,0:0:0:0:
376,303,451017,1,8,0:0:0:0:
376,303,451205,1,0,0:0:0:0:
382,314,451392,1,8,0:0:0:0:
382,314,451486,1,8,0:0:0:0:
382,314,451580,1,0,0:0:0:0:
396,325,451767,1,8,0:0:0:0:
396,325,451955,1,0,0:0:0:0:
369,334,452142,1,0,0:0:0:0:
369,334,452330,1,8,0:0:0:0:
391,326,452705,1,8,0:0:0:0:
391,326,452892,1,8,0:0:0:0:
391,326,453080,1,0,0:0:0:0:
393,309,453267,1,8,0:0:0:0:
393,309,453455,1,0,0:0:0:0:
393,309,453642,1,0,0:0:0:0:
393,309,453830,1,8,0:0:0:0:
374,327,454017,1,8,0:0:0:0:
374,327,454205,1,0,0:0:0:0:
359,316,454580,1,0,0:0:0:0:
380,330,454767,1,8,0:0:0:0:
380,330,454955,1,0,0:0:0:0:
394,320,455142,1,0,0:0:0:0:
468,336,455330,1,8,0:0:0:0:
444,251,455376,1,8,0:0:0:0:
390,336,455611,1,8,0:0:0:0:
390,336,455892,1,8,0:0:0:0:
380,330,456080,1,4,0:0:0:0:
381,322,456455,1,8,0:0:0:0:
380,335,456830,1,8,0:0:0:0:
379,259,457017,1,8,0:0:0:0:
379,259,457111,1,8,0:0:0:0:
379,259,457205,1,0,0:0:0:0:
400,319,457392,1,8,0:0:0:0:
354,293,457580,1,0,0:0:0:0:
354,293,457767,1,0,0:0:0:0:
354,293,457955,1,8,0:0:0:0:
338,308,458142,1,0,0:0:0:0:
393,310,458330,1,8,0:0:0:0:
375,323,458517,1,0,0:0:0:0:
375,323,458611,1,0,0:0:0:0:
375,323,458705,1,8,0:0:0:0:
398,293,458892,1,8,0:0:0:0:
398,293,459080,1,0,0:0:0:0:
378,268,459267,1,8,0:0:0:0:
401,329,459642,1,0,0:0:0:0:
401,329,459830,1,8,0:0:0:0:
372,305,460017,1,8,0:0:0:0:
372,305,460205,1,0,0:0:0:0:
359,308,460392,1,8,0:0:0:0:
382,298,460486,1,8,0:0:0:0:
382,298,460580,1,0,0:0:0:0:
396,303,460767,1,8,0:0:0:0:
372,319,460955,1,0,0:0:0:0:
372,319,461142,1,0,0:0:0:0:
372,319,461330,1,8,0:0:0:0:
411,293,461705,1,0,0:0:0:0:
411,293,461892,1,8,0:0:0:0:
311,268,462080,1,0,0:0:0:0:
369,296,462455,1,0,0:0:0:0:
424,342,462830,1,8,0:0:0:0:
392,326,463017,1,8,0:0:0:0:
392,326,463205,1,0,0:0:0:0:
392,326,463392,1,8,0:0:0:0:
392,326,463486,1,8,0:0:0:0:
392,326,463580,1,0,0:0:0:0:
403,356,463767,1,8,0:0:0:0:
393,326,463955,1,0,0:0:0:0:
363,314,464142,1,0,0:0:0:0:
363,314,464330,1,8,0:0:0:0:
366,335,464705,1,8,0:0:0:0:
366,335,464892,1,8,0:0:0:0:
366,335,465080,1,0,0:0:0:0:
392,329,465267,1,8,0:0:0:0:
360,349,465455,1,0,0:0:0:0:
360,349,465642,1,0,0:0:0:0:
360,349,465830,1,8,0:0:0:0:
343,348,466205,1,8,0:0:0:0:
343,348,466392,1,8,0:0:0:0:
343,348,466580,1,0,0:0:0:0:
326,331,466767,1,8,0:0:0:0:
337,344,467142,1,0,0:0:0:0:
337,344,467330,1,8,0:0:0:0:
347,326,467517,1,8,0:0:0:0:
347,326,467705,1,0,0:0:0:0:
347,326,468080,1,12,0:0:0:0:
431,353,468443,1,8,0:0:0:0:
431,353,468807,1,0,0:0:0:0:
431,353,469170,1,8,0:0:0:0:
455,365,469352,1,8,0:0:0:0:
455,365,469534,1,0,0:0:0:0:
361,334,469898,1,8,0:0:0:0:
361,334,470261,1,8,0:0:0:0:
361,334,470443,1,0,0:0:0:0:
398,301,470625,1,8,0:0:0:0:
398,299,470989,1,0,0:0:0:0:
376,312,471352,1,8,0:0:0:0:
415,322,471716,1,8,0:0:0:0:
415,322,471898,1,0,0:0:0:0:
415,322,472080,1,8,0:0:0:0:
415,322,472261,1,8,0:0:0:0:
415,322,472443,1,0,0:0:0:0:
415,322,472807,1,0,0:0:0:0:
407,313,472989,1,8,0:0:0:0:
407,313,473170,1,0,0:0:0:0:
416,298,473352,1,8,0:0:0:0:
416,298,473534,1,0,0:0:0:0:
403,270,473716,1,8,0:0:0:0:
403,270,473898,1,0,0:0:0:0:
409,328,474261,1,8,0:0:0:0:
446,342,474625,1,8,0:0:0:0:
446,342,474807,1,0,0:0:0:0:
446,342,474989,1,8,0:0:0:0:
446,342,475170,1,8,0:0:0:0:
446,342,475352,1,0,0:0:0:0:
427,284,475716,1,8,0:0:0:0:
426,284,476080,1,0,0:0:0:0:
426,284,476261,1,8,0:0:0:0:
426,284,476443,1,0,0:0:0:0:
419,272,476625,1,8,0:0:0:0:
424,289,476807,1,0,0:0:0:0:
404,318,477170,1,8,0:0:0:0:
411,325,477534,1,8,0:0:0:0:
411,325,477716,1,0,0:0:0:0:
411,325,477898,1,8,0:0:0:0:
411,325,478080,1,0,0:0:0:0:
411,325,478261,1,8,0:0:0:0:
422,347,478625,1,0,0:0:0:0:
422,347,478807,1,8,0:0:0:0:
422,347,478989,1,0,0:0:0:0:
422,347,479170,1,8,0:0:0:0:
422,347,479352,1,0,0:0:0:0:
422,347,479534,1,8,0:0:0:0:
417,349,479716,1,0,0:0:0:0:
443,368,480080,1,8,0:0:0:0:
425,358,480443,1,8,0:0:0:0:
425,358,480625,1,0,0:0:0:0:
425,358,480807,1,8,0:0:0:0:
425,358,480989,1,8,0:0:0:0:
425,358,481170,1,0,0:0:0:0:
369,349,481534,1,8,0:0:0:0:
385,349,481898,1,8,0:0:0:0:
385,349,482080,1,8,0:0:0:0:
385,349,482261,1,0,0:0:0:0:
385,349,482443,1,8,0:0:0:0:
385,349,482625,1,0,0:0:0:0:
386,347,482989,1,8,0:0:0:0:
386,347,483352,1,8,0:0:0:0:
386,347,483534,1,0,0:0:0:0:
386,347,483716,1,8,0:0:0:0:
386,347,483898,1,8,0:0:0:0:
386,347,484080,1,0,0:0:0:0:
386,347,484443,1,0,0:0:0:0:
386,347,484625,1,8,0:0:0:0:
386,347,484807,1,0,0:0:0:0:
386,347,484989,1,8,0:0:0:0:
386,347,485170,1,0,0:0:0:0:
386,347,485352,1,8,0:0:0:0:
386,347,485534,1,0,0:0:0:0:
386,347,485898,1,8,0:0:0:0:
351,337,486261,1,8,0:0:0:0:
351,337,486443,1,0,0:0:0:0:
346,334,486625,1,8,0:0:0:0:
356,313,486807,1,0,0:0:0:0:
356,313,486989,1,8,0:0:0:0:
350,329,487352,1,8,0:0:0:0:
359,298,487716,1,8,0:0:0:0:
359,298,487898,1,0,0:0:0:0:
359,298,488080,1,8,0:0:0:0:
359,298,488261,1,8,0:0:0:0:
359,298,488443,1,0,0:0:0:0:
358,322,488807,1,8,0:0:0:0:
358,322,489170,1,0,0:0:0:0:
358,322,489352,1,0,0:0:0:0:
358,322,489534,1,8,0:0:0:0:
358,322,489716,1,0,0:0:0:0:
358,322,489898,1,8,0:0:0:0:
388,332,490261,1,8,0:0:0:0:
393,322,490443,1,0,0:0:0:0:
393,322,490625,1,8,0:0:0:0:
386,314,490807,1,8,0:0:0:0:
386,314,490989,1,0,0:0:0:0:
386,314,491170,1,0,0:0:0:0:
386,314,491352,1,12,0:0:0:0:
383,319,491716,1,0,0:0:0:0:
369,293,492080,1,8,0:0:0:0:
366,263,492261,1,0,0:0:0:0:
366,263,492352,1,0,0:0:0:0:
366,263,492443,1,8,0:0:0:0:
366,263,492625,1,8,0:0:0:0:
414,299,492807,1,0,0:0:0:0:
419,278,492989,1,0,0:0:0:0:
440,298,493170,1,8,0:0:0:0:
440,298,493352,1,0,0:0:0:0:
440,298,493534,1,8,0:0:0:0:
446,288,493898,1,8,0:0:0:0:
446,288,494080,1,8,0:0:0:0:
436,284,494261,1,0,0:0:0:0:
425,289,494443,1,8,0:0:0:0:
430,306,494625,1,0,0:0:0:0:
430,306,494807,1,0,0:0:0:0:
430,306,494989,1,8,0:0:0:0:
430,306,495170,1,0,0:0:0:0:
439,302,495352,1,8,0:0:0:0:
439,302,495534,1,8,0:0:0:0:
439,302,495625,1,8,0:0:0:0:
439,302,495716,1,0,0:0:0:0:
458,320,495898,1,8,0:0:0:0:
458,320,496080,1,0,0:0:0:0:
450,308,496261,1,0,0:0:0:0:
450,308,496443,1,8,0:0:0:0:
450,308,496807,1,0,0:0:0:0:
450,308,496989,1,8,0:0:0:0:
450,308,497170,1,0,0:0:0:0:
446,270,497352,1,0,0:0:0:0:
446,270,497534,1,8,0:0:0:0:
448,262,497898,1,8,0:0:0:0:
451,307,498080,1,0,0:0:0:0:
451,307,498261,1,8,0:0:0:0:
434,306,498443,1,8,0:0:0:0:
434,306,498625,1,0,0:0:0:0:
447,303,498807,1,8,0:0:0:0:
447,303,498989,1,0,0:0:0:0:
494,345,499170,1,0,0:0:0:0:
494,345,499352,1,8,0:0:0:0:
431,316,499534,1,0,0:0:0:0:
431,316,499716,1,8,0:0:0:0:
431,316,499898,1,8,0:0:0:0:
431,316,499989,1,8,0:0:0:0:
431,316,500080,1,0,0:0:0:0:
452,328,500261,1,8,0:0:0:0:
452,328,500443,1,0,0:0:0:0:
452,328,500625,1,0,0:0:0:0:
452,328,500807,1,8,0:0:0:0:
424,313,500989,1,8,0:0:0:0:
424,313,501170,1,0,0:0:0:0:
382,308,501534,1,0,0:0:0:0:
364,268,501716,1,8,0:0:0:0:
353,256,501898,1,0,0:0:0:0:
353,256,502080,1,0,0:0:0:0:
353,256,502261,1,8,0:0:0:0:
370,251,502443,1,0,0:0:0:0:
370,251,502625,1,8,0:0:0:0:
390,306,502989,1,0,0:0:0:0:
373,264,503170,1,0,0:0:0:0:
373,264,503352,1,12,0:0:0:0:
386,277,503716,1,0,0:0:0:0:
386,277,503898,1,12,0:0:0:0:
378,262,504261,1,12,0:0:0:0:
387,288,504625,1,0,0:0:0:0:
387,288,504807,1,12,0:0:0:0:
404,291,505170,1,8,0:0:0:0:
410,315,505352,1,0,0:0:0:0:
410,315,505534,1,8,0:0:0:0:
388,262,505716,1,8,0:0:0:0:
388,262,505898,1,0,0:0:0:0:
388,262,506080,1,8,0:0:0:0:
386,293,506443,1,0,0:0:0:0:
386,293,506625,1,8,0:0:0:0:
380,312,506989,1,8,0:0:0:0:
455,328,507352,1,0,0:0:0:0:
387,246,507534,1,8,0:0:0:0:
417,321,507716,1,0,0:0:0:0:
417,321,507898,1,0,0:0:0:0:
417,321,508080,1,8,0:0:0:0:
427,323,508443,1,0,0:0:0:0:
427,323,508534,1,0,0:0:0:0:
427,323,508625,1,8,0:0:0:0:
446,302,508807,1,0,0:0:0:0:
441,313,508989,1,8,0:0:0:0:
446,302,509170,1,0,0:0:0:0:
441,313,509352,1,0,0:0:0:0:
441,313,509534,1,8,0:0:0:0:
435,303,509716,1,0,0:0:0:0:
435,303,509898,1,8,0:0:0:0:
426,320,510080,1,8,0:0:0:0:
426,320,510170,1,8,0:0:0:0:
426,320,510261,1,0,0:0:0:0:
459,325,510443,1,8,0:0:0:0:
462,299,510625,1,0,0:0:0:0:
456,320,510807,1,0,0:0:0:0:
456,320,510989,1,8,0:0:0:0:
396,329,511352,1,8,0:0:0:0:
396,329,511534,1,8,0:0:0:0:
396,329,511716,1,0,0:0:0:0:
435,343,511898,1,8,0:0:0:0:
437,348,512261,1,0,0:0:0:0:
437,348,512443,1,8,0:0:0:0:
441,332,512807,1,8,0:0:0:0:
477,365,512989,1,8,0:0:0:0:
477,365,513170,1,0,0:0:0:0:
441,337,513352,1,8,0:0:0:0:
441,337,513534,1,0,0:0:0:0:
441,337,513716,1,0,0:0:0:0:
441,337,513898,1,8,0:0:0:0:
415,288,514080,1,0,0:0:0:0:
415,288,514261,1,8,0:0:0:0:
414,289,514625,1,4,0:0:0:0:
326,331,514989,1,8,0:0:0:0:
326,331,515352,1,0,0:0:0:0:
442,355,515534,1,0,0:0:0:0:
442,355,515716,1,8,0:0:0:0:
442,355,515898,1,8,0:0:0:0:
442,355,516080,1,0,0:0:0:0:
420,331,516443,1,8,0:0:0:0:
423,323,516807,1,0,0:0:0:0:
423,323,516989,1,8,0:0:0:0:
437,361,517170,1,0,0:0:0:0:
437,361,517352,1,0,0:0:0:0:
437,361,517534,1,8,0:0:0:0:
418,331,517898,1,8,0:0:0:0:
468,344,518261,1,0,0:0:0:0:
437,368,518443,1,0,0:0:0:0:
427,361,518625,1,8,0:0:0:0:
427,361,518807,1,8,0:0:0:0:
427,361,518989,1,0,0:0:0:0:
454,358,519352,1,0,0:0:0:0:
454,358,519534,1,8,0:0:0:0:
454,343,519716,1,0,0:0:0:0:
454,343,519898,1,8,0:0:0:0:
454,343,520080,1,0,0:0:0:0:
454,343,520261,1,8,0:0:0:0:
454,343,520443,1,0,0:0:0:0:
471,354,520807,1,8,0:0:0:0:
403,335,521170,1,8,0:0:0:0:
403,335,521352,1,0,0:0:0:0:
405,339,521534,1,8,0:0:0:0:
405,339,521716,1,8,0:0:0:0:
405,339,521898,1,0,0:0:0:0:
413,324,522261,1,8,0:0:0:0:
436,314,522625,1,8,0:0:0:0:
436,314,522807,1,0,0:0:0:0:
436,314,522989,1,8,0:0:0:0:
436,314,523170,1,0,0:0:0:0:
436,314,523352,1,8,0:0:0:0:
432,322,523716,1,8,0:0:0:0:
452,331,523898,1,8,0:0:0:0:
452,331,524080,1,0,0:0:0:0:
450,292,524443,1,4,0:0:0:0:
450,292,526261,1,12,0:0:0:0:
421,337,528080,1,8,0:0:0:0:
421,337,528170,1,0,0:0:0:0:
421,337,528261,1,0,0:0:0:0:
421,337,528352,1,0,0:0:0:0:
421,337,528443,1,8,0:0:0:0:
421,337,528534,1,0,0:0:0:0:
421,337,528625,1,0,0:0:0:0:
421,337,528716,1,0,0:0:0:0:
421,337,528807,1,8,0:0:0:0:
421,337,528898,1,8,0:0:0:0:
421,337,528989,1,8,0:0:0:0:
421,337,529080,1,8,0:0:0:0:
421,337,529170,1,0,0:0:0:0:
430,297,530625,1,8,0:0:0:0:
434,300,530867,1,8,0:0:0:0:
349,271,531110,1,0,0:0:0:0:
364,295,531352,1,8,0:0:0:0:
341,266,531595,1,8,0:0:0:0:
341,266,531837,1,8,0:0:0:0:
341,266,532080,1,0,0:0:0:0:
416,287,533898,1,8,0:0:0:0:
416,287,533989,1,0,0:0:0:0:
416,287,534080,1,0,0:0:0:0:
416,287,534170,1,0,0:0:0:0:
416,287,534261,1,8,0:0:0:0:
416,287,534352,1,0,0:0:0:0:
416,287,534443,1,0,0:0:0:0:
416,287,534534,1,0,0:0:0:0:
416,287,534625,1,8,0:0:0:0:
416,287,534716,1,8,0:0:0:0:
416,287,534807,1,8,0:0:0:0:
416,287,534898,1,8,0:0:0:0:
416,287,534989,1,0,0:0:0:0:
422,305,536989,1,0,0:0:0:0:
422,305,537170,1,12,0:0:0:0:
411,282,537898,1,4,0:0:0:0:
439,333,540080,1,0,0:0:0:0:
439,333,540170,1,0,0:0:0:0:
439,333,540261,1,8,0:0:0:0:
439,333,540352,1,0,0:0:0:0:
439,333,540443,1,8,0:0:0:0:
439,333,540534,1,8,0:0:0:0:
439,333,540625,1,8,0:0:0:0:
439,333,540716,1,8,0:0:0:0:
439,333,540807,1,0,0:0:0:0:
441,330,542261,1,8,0:0:0:0:
413,276,542504,1,8,0:0:0:0:
413,276,542746,1,0,0:0:0:0:
413,276,542989,1,8,0:0:0:0:
413,276,543231,1,8,0:0:0:0:
413,276,543473,1,8,0:0:0:0:
413,276,543716,1,0,0:0:0:0:
412,258,545534,1,8,0:0:0:0:
412,258,545625,1,0,0:0:0:0:
412,258,545716,1,0,0:0:0:0:
412,258,545807,1,0,0:0:0:0:
412,258,545898,1,8,0:0:0:0:
412,258,545989,1,0,0:0:0:0:
412,258,546080,1,0,0:0:0:0:
412,258,546170,1,0,0:0:0:0:
418,255,546261,1,8,0:0:0:0:
418,255,546352,1,8,0:0:0:0:
418,255,546443,1,8,0:0:0:0:
418,255,546534,1,8,0:0:0:0:
418,255,546625,1,0,0:0:0:0:
332,293,549534,1,12,0:0:0:0:
338,295,549898,1,8,0:0:0:0:
338,295,550080,1,0,0:0:0:0:
338,295,550261,1,8,0:0:0:0:
338,295,550443,1,8,0:0:0:0:
338,295,550625,1,0,0:0:0:0:
301,255,550989,1,0,0:0:0:0:
301,255,551170,1,8,0:0:0:0:
301,255,551352,1,0,0:0:0:0:
301,255,551534,1,0,0:0:0:0:
301,255,551716,1,8,0:0:0:0:
301,255,551898,1,8,0:0:0:0:
301,255,552080,1,0,0:0:0:0:
298,311,552261,1,8,0:0:0:0:
298,311,552352,1,8,0:0:0:0:
298,311,552443,1,0,0:0:0:0:
346,296,552625,1,8,0:0:0:0:
346,296,552807,1,0,0:0:0:0:
346,296,552989,1,0,0:0:0:0:
346,296,553170,1,8,0:0:0:0:
239,288,553352,1,8,0:0:0:0:
259,290,553534,1,0,0:0:0:0:
307,288,553898,1,0,0:0:0:0:
307,288,554080,1,8,0:0:0:0:
307,288,554261,1,0,0:0:0:0:
307,288,554443,1,0,0:0:0:0:
307,288,554625,1,8,0:0:0:0:
363,331,554989,1,0,0:0:0:0:
363,331,555170,1,8,0:0:0:0:
363,331,555352,1,0,0:0:0:0:
357,248,555716,1,0,0:0:0:0:
375,313,556080,1,8,0:0:0:0:
350,309,556261,1,8,0:0:0:0:
350,309,556443,1,0,0:0:0:0:
390,344,556807,1,0,0:0:0:0:
390,344,556989,1,8,0:0:0:0:
390,344,557170,1,0,0:0:0:0:
390,344,557352,1,0,0:0:0:0:
390,344,557534,1,8,0:0:0:0:
296,326,557898,1,0,0:0:0:0:
330,355,558080,1,8,0:0:0:0:
358,325,558261,1,0,0:0:0:0:
365,324,558443,1,0,0:0:0:0:
365,324,558807,1,0,0:0:0:0:
365,324,558989,1,8,0:0:0:0:
346,338,559352,1,0,0:0:0:0:
417,351,559534,1,8,0:0:0:0:
417,351,559716,1,0,0:0:0:0:
417,351,559898,1,0,0:0:0:0:
386,329,560261,1,0,0:0:0:0:
386,329,560443,1,8,0:0:0:0:
367,329,560625,1,0,0:0:0:0:
322,302,560807,1,0,0:0:0:0:
322,302,560898,1,0,0:0:0:0:
322,302,560989,1,8,0:0:0:0:
322,302,561080,1,0,0:0:0:0:
322,302,561170,1,8,0:0:0:0:
385,277,561352,1,8,0:0:0:0:
385,277,561534,1,0,0:0:0:0:
385,277,561716,1,0,0:0:0:0:
385,277,561898,1,8,0:0:0:0:
338,292,562080,1,8,0:0:0:0:
338,292,562261,1,0,0:0:0:0:
338,218,562625,1,0,0:0:0:0:
338,218,562807,1,8,0:0:0:0:
341,212,562989,1,0,0:0:0:0:
341,212,563170,1,0,0:0:0:0:
341,212,563352,1,8,0:0:0:0:
310,252,563716,1,0,0:0:0:0:
334,276,564080,1,0,0:0:0:0:
334,276,564261,1,8,0:0:0:0:
334,276,564443,1,8,0:0:0:0:
334,276,564625,1,0,0:0:0:0:
334,276,564807,1,8,0:0:0:0:
398,276,564989,1,8,0:0:0:0:
374,255,565170,1,0,0:0:0:0:
370,286,565534,1,0,0:0:0:0:
378,285,565716,1,8,0:0:0:0:
378,285,565898,1,0,0:0:0:0:
378,285,566080,1,0,0:0:0:0:
378,285,566261,1,8,0:0:0:0:
390,263,566625,1,0,0:0:0:0:
390,263,566807,1,8,0:0:0:0:
390,263,566989,1,0,0:0:0:0:
390,263,567352,1,0,0:0:0:0:
363,308,567716,1,8,0:0:0:0:
371,308,567898,1,0,0:0:0:0:
371,308,568080,1,8,0:0:0:0:
375,351,568261,1,8,0:0:0:0:
375,351,568352,1,8,0:0:0:0:
375,351,568443,1,0,0:0:0:0:
375,351,568625,1,8,0:0:0:0:
375,351,568807,1,0,0:0:0:0:
375,351,568989,1,0,0:0:0:0:
375,351,569170,1,8,0:0:0:0:
376,342,569534,1,8,0:0:0:0:
376,342,569716,1,8,0:0:0:0:
376,342,569898,1,0,0:0:0:0:
383,296,570080,1,0,0:0:0:0:
362,294,570443,1,0,0:0:0:0:
362,294,570625,1,8,0:0:0:0:
404,308,570807,1,8,0:0:0:0:
372,334,570989,1,0,0:0:0:0:
372,334,571170,1,8,0:0:0:0:
372,334,571534,1,0,0:0:0:0:
391,268,571898,1,0,0:0:0:0:
391,268,572080,1,8,0:0:0:0:
340,327,572443,1,0,0:0:0:0:
357,302,572625,1,8,0:0:0:0:
357,302,572807,1,0,0:0:0:0:
357,302,572989,1,8,0:0:0:0:
382,328,573352,1,0,0:0:0:0:
382,328,573534,1,8,0:0:0:0:
436,339,573716,1,8,0:0:0:0:
401,316,573898,1,0,0:0:0:0:
401,316,574080,1,8,0:0:0:0:
463,312,574170,1,8,0:0:0:0:
332,323,574261,1,0,0:0:0:0:
321,281,574443,1,8,0:0:0:0:
333,291,574625,1,0,0:0:0:0:
333,291,574807,1,0,0:0:0:0:
333,291,574989,1,8,0:0:0:0:
426,335,575352,1,8,0:0:0:0:
455,327,575716,1,0,0:0:0:0:
439,312,575898,1,8,0:0:0:0:
439,312,576080,1,0,0:0:0:0:
439,312,576261,1,0,0:0:0:0:
439,312,576352,1,0,0:0:0:0:
439,312,576443,1,8,0:0:0:0:
503,298,576625,1,8,0:0:0:0:
503,298,576807,1,0,0:0:0:0:
386,340,577170,1,0,0:0:0:0:
386,340,577352,1,8,0:0:0:0:
386,340,577534,1,0,0:0:0:0:
386,340,577716,1,0,0:0:0:0:
376,295,577807,1,0,0:0:0:0:
386,340,577898,1,8,0:0:0:0:
376,295,577989,1,8,0:0:0:0:
354,318,578080,1,0,0:0:0:0:
354,318,578261,1,8,0:0:0:0:
462,340,578625,1,0,0:0:0:0:
426,348,578807,1,8,0:0:0:0:
426,348,578989,1,0,0:0:0:0:
426,348,579170,1,0,0:0:0:0:
365,272,579261,1,0,0:0:0:0:
426,348,579352,1,8,0:0:0:0:
364,272,579534,1,8,0:0:0:0:
364,272,579716,1,0,0:0:0:0:
374,324,579898,1,8,0:0:0:0:
374,324,579989,1,8,0:0:0:0:
374,324,580080,1,0,0:0:0:0:
417,335,580170,1,0,0:0:0:0:
353,293,580261,1,8,0:0:0:0:
436,323,580443,1,0,0:0:0:0:
436,323,580625,1,0,0:0:0:0:
415,321,580716,1,0,0:0:0:0:
436,323,580807,1,8,0:0:0:0:
369,275,580989,1,0,0:0:0:0:
369,275,581170,1,8,0:0:0:0:
346,250,581261,1,0,0:0:0:0:
349,263,581352,1,8,0:0:0:0:
346,250,581443,1,8,0:0:0:0:
349,263,581534,1,0,0:0:0:0:
349,263,581716,1,0,0:0:0:0:
403,310,582080,1,0,0:0:0:0:
403,310,582261,1,8,0:0:0:0:
384,298,582443,1,8,0:0:0:0:
384,298,582625,1,0,0:0:0:0:
384,298,582807,1,8,0:0:0:0:
403,333,582898,1,8,0:0:0:0:
384,298,582989,1,0,0:0:0:0:
384,298,583170,1,0,0:0:0:0:
378,268,583261,1,0,0:0:0:0:
369,295,583352,1,8,0:0:0:0:
411,288,583534,1,0,0:0:0:0:
411,288,583716,1,8,0:0:0:0:
345,332,583898,1,8,0:0:0:0:
345,332,584080,1,0,0:0:0:0:
387,321,584443,1,0,0:0:0:0:
387,321,584625,1,8,0:0:0:0:
387,321,584807,1,8,0:0:0:0:
405,352,584989,1,0,0:0:0:0:
405,352,585170,1,8,0:0:0:0:
331,292,585534,1,0,0:0:0:0:
367,281,585716,1,8,0:0:0:0:
377,286,585898,1,0,0:0:0:0:
377,286,586080,1,0,0:0:0:0:
402,336,586443,1,0,0:0:0:0:
402,336,586625,1,8,0:0:0:0:
358,306,586989,1,8,0:0:0:0:
358,306,587170,1,8,0:0:0:0:
358,306,587352,1,0,0:0:0:0:
406,311,587534,1,0,0:0:0:0:
406,311,587716,1,12,0:0:0:0:
410,309,588080,1,0,0:0:0:0:
410,309,588261,1,12,0:0:0:0:
322,289,588625,1,12,0:0:0:0:
404,301,588989,1,8,0:0:0:0:
404,301,589170,1,0,0:0:0:0:
404,301,589352,1,0,0:0:0:0:
404,301,589534,1,8,0:0:0:0:
341,292,589898,1,0,0:0:0:0:
341,292,590080,1,8,0:0:0:0:
341,292,590261,1,0,0:0:0:0:
364,261,590625,1,0,0:0:0:0:
429,338,590989,1,8,0:0:0:0:
498,345,591170,1,0,0:0:0:0:
498,345,591352,1,8,0:0:0:0:
510,344,591534,1,8,0:0:0:0:
510,344,591625,1,8,0:0:0:0:
510,344,591716,1,0,0:0:0:0:
510,344,591898,1,8,0:0:0:0:
510,344,592080,1,0,0:0:0:0:
510,344,592261,1,0,0:0:0:0:
510,344,592443,1,8,0:0:0:0:
470,350,592625,1,8,0:0:0:0:
470,350,592807,1,0,0:0:0:0:
395,373,592989,1,0,0:0:0:0:
398,308,593170,1,12,0:0:0:0:
304,286,594443,1,8,0:0:0:0:
304,286,594534,1,8,0:0:0:0:
304,286,594625,1,0,0:0:0:0:
313,281,594807,1,8,0:0:0:0:
345,293,594989,1,0,0:0:0:0:
345,293,595170,1,0,0:0:0:0:
307,309,595352,1,8,0:0:0:0:
307,309,595534,1,0,0:0:0:0:
307,309,595716,1,0,0:0:0:0:
307,309,595898,1,8,0:0:0:0:
307,309,596080,1,4,0:0:0:0:
416,277,596256,1,8,0:0:0:0:
416,277,596432,1,0,0:0:0:0:
416,277,596609,1,0,0:0:0:0:
433,268,596785,1,12,0:0:0:0:
430,273,596962,1,8,0:0:0:0:
430,273,597050,1,8,0:0:0:0:
430,273,597138,1,0,0:0:0:0:
366,304,597315,1,0,0:0:0:0:
366,304,597491,1,8,0:0:0:0:
418,320,597668,1,0,0:0:0:0:
418,320,597844,1,8,0:0:0:0:
418,320,597932,1,8,0:0:0:0:
418,320,598021,1,0,0:0:0:0:
418,320,598109,1,0,0:0:0:0:
418,320,598197,1,12,0:0:0:0:
410,324,598374,1,0,0:0:0:0:
410,324,598550,1,0,0:0:0:0:
410,324,598727,1,0,0:0:0:0:
448,312,598903,1,8,0:0:0:0:
448,312,598991,1,0,0:0:0:0:
448,312,599080,1,0,0:0:0:0:
395,323,599168,1,0,0:0:0:0:
395,323,599256,1,8,0:0:0:0:
451,335,599432,1,0,0:0:0:0:
452,319,599609,1,12,0:0:0:0:
425,312,599785,1,0,0:0:0:0:
425,312,599962,1,0,0:0:0:0:
425,312,600138,1,0,0:0:0:0:
403,269,600315,1,8,0:0:0:0:
397,277,600403,1,8,0:0:0:0:
396,276,600491,1,0,0:0:0:0:
397,277,600580,1,0,0:0:0:0:
396,276,600668,1,8,0:0:0:0:
395,294,600844,1,0,0:0:0:0:
395,294,601021,1,12,0:0:0:0:
450,357,601197,1,0,0:0:0:0:
396,355,601374,1,12,0:0:0:0:
396,355,601550,1,0,0:0:0:0:
386,313,601727,1,8,0:0:0:0:
440,338,601815,1,8,0:0:0:0:
440,338,601903,1,0,0:0:0:0:
440,338,601991,1,0,0:0:0:0:
440,338,602080,1,8,0:0:0:0:
440,338,602168,1,0,0:0:0:0:
440,338,602256,1,8,0:0:0:0:
349,327,602344,1,0,0:0:0:0:
349,327,602432,1,8,0:0:0:0:
349,327,602521,1,8,0:0:0:0:
367,278,602609,1,0,0:0:0:0:
362,305,602697,1,8,0:0:0:0:
362,305,602785,1,0,0:0:0:0:
454,354,602874,1,0,0:0:0:0:
454,354,602962,1,8,0:0:0:0:
454,354,603050,1,0,0:0:0:0:
454,354,603138,1,8,0:0:0:0:
454,354,603227,1,8,0:0:0:0:
394,254,603315,1,0,0:0:0:0:
394,254,603403,1,0,0:0:0:0:
394,254,603491,1,8,0:0:0:0:
394,254,603580,1,0,0:0:0:0:
394,254,603668,1,8,0:0:0:0:
394,254,603756,1,0,0:0:0:0:
394,254,603844,1,8,0:0:0:0:
394,254,603932,1,8,0:0:0:0:
442,347,604021,1,0,0:0:0:0:
442,347,604109,1,8,0:0:0:0:
442,347,604197,1,0,0:0:0:0:
442,347,604285,1,0,0:0:0:0:
465,362,604374,1,8,0:0:0:0:
459,333,604550,1,12,0:0:0:0:
449,337,604727,1,0,0:0:0:0:
449,337,604815,1,0,0:0:0:0:
427,340,604903,1,8,0:0:0:0:
427,340,604991,1,8,0:0:0:0:
427,340,605080,1,0,0:0:0:0:
427,340,605168,1,0,0:0:0:0:
427,340,605256,1,8,0:0:0:0:
453,307,605344,1,8,0:0:0:0:
453,307,605432,1,0,0:0:0:0:
453,307,605609,1,12,0:0:0:0:
434,345,605785,1,8,0:0:0:0:
434,345,605874,1,8,0:0:0:0:
434,345,605962,1,0,0:0:0:0:
451,349,606050,1,0,0:0:0:0:
451,349,606138,1,8,0:0:0:0:
451,349,606227,1,8,0:0:0:0:
408,338,606315,1,0,0:0:0:0:
408,338,606403,1,0,0:0:0:0:
485,353,606491,1,8,0:0:0:0:
413,314,606668,1,12,0:0:0:0:
421,317,606844,1,0,0:0:0:0:
421,317,607021,1,12,0:0:0:0:
488,335,607197,1,0,0:0:0:0:
454,348,607374,1,8,0:0:0:0:
454,348,607462,1,0,0:0:0:0:
454,348,607550,1,0,0:0:0:0:
454,348,607638,1,0,0:0:0:0:
454,348,607727,1,8,0:0:0:0:
454,348,607815,1,8,0:0:0:0:
454,348,607903,1,0,0:0:0:0:
454,348,607991,1,8,0:0:0:0:
440,325,608080,1,0,0:0:0:0:
440,325,608168,1,0,0:0:0:0:
440,306,608256,1,8,0:0:0:0:
473,316,608344,1,0,0:0:0:0:
473,316,608432,1,8,0:0:0:0:
473,316,608521,1,8,0:0:0:0:
430,296,608609,1,0,0:0:0:0:
405,267,608697,1,0,0:0:0:0:
405,267,608785,1,8,0:0:0:0:
430,298,608874,1,8,0:0:0:0:
430,298,608962,1,0,0:0:0:0:
430,298,609050,1,0,0:0:0:0:
430,298,609138,1,8,0:0:0:0:
430,298,609227,1,8,0:0:0:0:
419,315,609315,1,0,0:0:0:0:
416,313,609403,1,8,0:0:0:0:
416,310,609491,1,0,0:0:0:0:
416,313,609580,1,0,0:0:0:0:
401,222,609668,1,8,0:0:0:0:
401,222,609756,1,0,0:0:0:0:
401,222,609844,1,8,0:0:0:0:
397,253,609932,1,8,0:0:0:0:
397,253,610021,1,0,0:0:0:0:
397,253,610109,1,0,0:0:0:0:
397,253,610197,1,8,0:0:0:0:
490,265,610285,1,8,0:0:0:0:
490,265,610374,1,8,0:0:0:0:
430,262,610462,1,0,0:0:0:0:
434,258,610550,1,8,0:0:0:0:
434,258,610638,1,8,0:0:0:0:
434,258,610727,1,0,0:0:0:0:
455,243,610815,1,8,0:0:0:0:
455,243,610903,1,0,0:0:0:0:
455,243,610991,1,0,0:0:0:0:
455,243,611080,1,8,0:0:0:0:
438,271,611168,1,0,0:0:0:0:
457,344,611256,1,8,0:0:0:0:
436,299,611432,1,0,0:0:0:0:
412,285,611609,1,8,0:0:0:0:
412,285,611697,1,8,0:0:0:0:
412,285,611785,1,0,0:0:0:0:
412,285,611874,1,0,0:0:0:0:
412,285,611962,1,8,0:0:0:0:
467,262,612138,1,0,0:0:0:0:
449,353,612315,1,8,0:0:0:0:
449,353,612491,1,0,0:0:0:0:
407,308,612580,1,0,0:0:0:0:
449,353,612668,1,8,0:0:0:0:
441,337,612844,1,0,0:0:0:0:
426,343,613021,1,8,0:0:0:0:
426,343,613109,1,0,0:0:0:0:
426,343,613197,1,0,0:0:0:0:
426,343,613285,1,0,0:0:0:0:
426,343,613374,1,8,0:0:0:0:
426,343,613462,1,0,0:0:0:0:
426,343,613550,1,0,0:0:0:0:
426,343,613638,1,0,0:0:0:0:
426,343,613727,1,12,0:0:0:0:
432,338,614080,1,8,0:0:0:0:
432,338,614256,1,0,0:0:0:0:
431,343,614432,1,8,0:0:0:0:
431,343,614609,1,8,0:0:0:0:
391,381,614785,1,0,0:0:0:0:
391,381,614962,1,0,0:0:0:0:
391,381,615138,1,8,0:0:0:0:
401,289,615315,1,0,0:0:0:0:
401,289,615491,1,8,0:0:0:0:
401,289,615668,1,0,0:0:0:0:
418,291,615844,1,8,0:0:0:0:
418,291,615932,1,0,0:0:0:0:
418,291,616021,1,0,0:0:0:0:
418,291,616109,1,0,0:0:0:0:
418,291,616197,1,8,0:0:0:0:
418,291,616285,1,0,0:0:0:0:
418,291,616374,1,0,0:0:0:0:
418,291,616462,1,0,0:0:0:0:
416,296,616550,1,12,0:0:0:0:
476,352,616903,1,8,0:0:0:0:
476,352,617080,1,0,0:0:0:0:
476,352,617256,1,8,0:0:0:0:
476,352,617432,1,8,0:0:0:0:
407,308,617609,1,0,0:0:0:0:
407,313,617785,1,0,0:0:0:0:
407,313,617962,1,8,0:0:0:0:
403,307,618138,1,0,0:0:0:0:
405,320,618315,1,8,0:0:0:0:
443,345,618491,1,0,0:0:0:0:
440,356,618668,1,8,0:0:0:0:
440,356,618756,1,0,0:0:0:0:
422,360,618844,1,0,0:0:0:0:
422,360,618932,1,0,0:0:0:0:
422,360,619021,1,8,0:0:0:0:
422,360,619109,1,0,0:0:0:0:
422,360,619197,1,0,0:0:0:0:
417,366,619285,1,0,0:0:0:0:
417,366,619374,1,8,0:0:0:0:
431,321,619550,1,8,0:0:0:0:
429,301,619727,1,0,0:0:0:0:
429,301,619903,1,8,0:0:0:0:
401,312,620080,1,8,0:0:0:0:
401,312,620168,1,8,0:0:0:0:
401,312,620256,1,8,0:0:0:0:
401,312,620344,1,8,0:0:0:0:
401,312,620432,1,0,0:0:0:0:
426,336,620609,1,0,0:0:0:0:
426,336,620785,1,8,0:0:0:0:
481,351,620962,1,0,0:0:0:0:
481,351,621138,1,0,0:0:0:0:
430,302,621315,1,8,0:0:0:0:
387,360,621491,1,8,0:0:0:0:
387,360,621580,1,0,0:0:0:0:
387,360,621668,1,0,0:0:0:0:
387,360,621756,1,0,0:0:0:0:
387,360,621844,1,8,0:0:0:0:
387,360,621932,1,0,0:0:0:0:
386,349,622021,1,0,0:0:0:0:
387,360,622109,1,0,0:0:0:0:
386,349,622197,1,8,0:0:0:0:
431,321,622374,1,8,0:0:0:0:
429,301,622550,1,0,0:0:0:0:
429,301,622727,1,8,0:0:0:0:
401,312,622903,1,8,0:0:0:0:
401,312,622991,1,8,0:0:0:0:
401,312,623080,1,8,0:0:0:0:
401,312,623168,1,8,0:0:0:0:
401,312,623256,1,0,0:0:0:0:
426,336,623432,1,0,0:0:0:0:
426,336,623609,1,8,0:0:0:0:
481,351,623785,1,0,0:0:0:0:
481,351,623962,1,0,0:0:0:0:
430,302,624138,1,8,0:0:0:0:
420,303,624315,1,8,0:0:0:0:
420,303,624403,1,0,0:0:0:0:
420,303,624491,1,0,0:0:0:0:
420,303,624580,1,0,0:0:0:0:
420,303,624668,1,8,0:0:0:0:
420,303,624756,1,0,0:0:0:0:
420,303,624844,1,0,0:0:0:0:
420,303,624932,1,0,0:0:0:0:
420,303,625021,1,12,0:0:0:0:
384,339,625374,1,8,0:0:0:0:
384,339,625550,1,0,0:0:0:0:
384,339,625727,1,8,0:0:0:0:
384,339,625903,1,8,0:0:0:0:
384,339,626080,1,0,0:0:0:0:
384,339,626256,1,0,0:0:0:0:
384,339,626432,1,8,0:0:0:0:
384,339,626609,1,0,0:0:0:0:
384,339,626785,1,8,0:0:0:0:
386,327,626962,1,0,0:0:0:0:
386,327,627138,1,8,0:0:0:0:
386,327,627227,1,0,0:0:0:0:
386,327,627315,1,0,0:0:0:0:
386,327,627403,1,0,0:0:0:0:
386,327,627491,1,8,0:0:0:0:
386,327,627580,1,0,0:0:0:0:
386,327,627668,1,0,0:0:0:0:
386,327,627756,1,0,0:0:0:0:
386,327,627844,1,12,0:0:0:0:
397,290,628197,1,8,0:0:0:0:
397,290,628374,1,0,0:0:0:0:
397,290,628550,1,8,0:0:0:0:
397,290,628727,1,8,0:0:0:0:
397,290,628903,1,0,0:0:0:0:
397,290,629080,1,0,0:0:0:0:
428,255,629256,1,8,0:0:0:0:
428,255,629432,1,0,0:0:0:0:
428,255,629609,1,8,0:0:0:0:
428,255,629785,1,0,0:0:0:0:
452,326,629962,1,8,0:0:0:0:
452,326,630050,1,0,0:0:0:0:
452,326,630138,1,8,0:0:0:0:
452,326,630227,1,8,0:0:0:0:
452,326,630315,1,0,0:0:0:0:
452,326,630403,1,8,0:0:0:0:
452,326,630491,1,0,0:0:0:0:
449,330,630580,1,0,0:0:0:0:
469,343,630668,1,8,0:0:0:0:
469,343,630756,1,0,0:0:0:0:
469,343,630844,1,0,0:0:0:0:
469,343,630932,1,0,0:0:0:0:
341,309,631021,1,8,0:0:0:0:
341,309,631109,1,0,0:0:0:0:
341,309,631197,1,8,0:0:0:0:
363,273,631285,1,0,0:0:0:0:
363,273,631374,1,8,0:0:0:0:
356,186,631462,1,8,0:0:0:0:
356,186,631550,1,0,0:0:0:0:
356,186,631638,1,0,0:0:0:0:
431,295,631727,1,8,0:0:0:0:
431,295,631815,1,0,0:0:0:0:
431,295,631903,1,0,0:0:0:0:
431,295,631991,1,0,0:0:0:0:
353,241,632080,1,8,0:0:0:0:
353,241,632168,1,0,0:0:0:0:
353,241,632256,1,0,0:0:0:0:
401,253,632344,1,8,0:0:0:0:
401,253,632432,1,8,0:0:0:0:
425,243,632521,1,0,0:0:0:0:
453,295,632785,1,8,0:0:0:0:
453,295,632874,1,8,0:0:0:0:
453,295,632962,1,0,0:0:0:0:
453,295,633050,1,8,0:0:0:0:
453,295,633138,1,0,0:0:0:0:
480,269,633227,1,0,0:0:0:0:
428,327,633315,1,8,0:0:0:0:
429,319,633403,1,8,0:0:0:0:
428,327,633491,1,0,0:0:0:0:
439,317,633580,1,0,0:0:0:0:
439,317,633668,1,8,0:0:0:0:
439,317,633756,1,0,0:0:0:0:
439,317,633844,1,8,0:0:0:0:
439,317,633932,1,8,0:0:0:0:
451,313,634021,1,0,0:0:0:0:
451,313,634109,1,8,0:0:0:0:
451,313,634197,1,8,0:0:0:0:
446,294,634285,1,0,0:0:0:0:
446,294,634374,1,8,0:0:0:0:
468,303,634462,1,8,0:0:0:0:
468,303,634550,1,0,0:0:0:0:
468,303,634638,1,0,0:0:0:0:
442,291,634727,1,8,0:0:0:0:
442,291,634903,1,8,0:0:0:0:
465,315,634991,1,8,0:0:0:0:
465,315,635080,1,0,0:0:0:0:
371,293,635168,1,8,0:0:0:0:
435,314,635256,1,8,0:0:0:0:
435,314,635344,1,0,0:0:0:0:
334,305,635609,1,8,0:0:0:0:
334,305,635697,1,0,0:0:0:0:
334,305,635785,1,0,0:0:0:0:
334,305,635962,1,8,0:0:0:0:
334,305,636050,1,0,0:0:0:0:
334,305,636138,1,0,0:0:0:0:
371,271,636315,1,12,0:0:0:0:
470,337,636668,1,8,0:0:0:0:
470,337,636844,1,0,0:0:0:0:
370,328,637021,1,0,0:0:0:0:
362,293,637197,1,8,0:0:0:0:
422,306,637374,1,0,0:0:0:0:
422,306,637462,1,0,0:0:0:0:
422,306,637550,1,0,0:0:0:0:
422,306,637727,1,12,0:0:0:0:
384,281,638080,1,0,0:0:0:0:
452,326,638256,1,8,0:0:0:0:
480,341,638432,1,8,0:0:0:0:
480,341,638521,1,0,0:0:0:0:
480,341,638609,1,0,0:0:0:0:
480,341,638785,1,8,0:0:0:0:
480,341,638874,1,0,0:0:0:0:
480,341,638962,1,0,0:0:0:0:
480,341,639138,1,12,0:0:0:0:
329,341,639491,1,8,0:0:0:0:
329,341,639668,1,0,0:0:0:0:
457,348,639844,1,8,0:0:0:0:
384,274,640021,1,0,0:0:0:0:
450,328,640197,1,8,0:0:0:0:
450,328,640374,1,8,0:0:0:0:
413,308,640550,1,0,0:0:0:0:
413,308,640727,1,0,0:0:0:0:
413,308,640903,1,8,0:0:0:0:
410,333,641080,1,8,0:0:0:0:
410,333,641256,1,8,0:0:0:0:
410,333,641344,1,0,0:0:0:0:
410,333,641432,1,0,0:0:0:0:
369,307,641609,1,8,0:0:0:0:
369,307,641697,1,0,0:0:0:0:
369,307,641785,1,0,0:0:0:0:
369,307,641962,1,12,0:0:0:0:
385,341,642315,1,8,0:0:0:0:
385,341,642491,1,0,0:0:0:0:
438,339,642844,1,8,0:0:0:0:
438,339,643021,1,0,0:0:0:0:
362,252,643197,1,0,0:0:0:0:
362,252,643374,1,12,0:0:0:0:
358,295,643727,1,8,0:0:0:0:
358,295,643903,1,0,0:0:0:0:
358,295,644080,1,8,0:0:0:0:
358,295,644168,1,0,0:0:0:0:
358,295,644256,1,0,0:0:0:0:
389,306,644432,1,8,0:0:0:0:
389,306,644521,1,0,0:0:0:0:
389,306,644609,1,0,0:0:0:0:
389,306,644785,1,12,0:0:0:0:
434,283,645138,1,8,0:0:0:0:
434,283,645315,1,0,0:0:0:0:
435,301,645668,1,8,0:0:0:0:
395,324,645844,1,0,0:0:0:0:
395,324,646021,1,0,0:0:0:0:
395,324,646197,1,12,0:0:0:0:
473,342,646550,1,8,0:0:0:0:
473,342,646727,1,0,0:0:0:0:
370,311,646903,1,8,0:0:0:0:
370,311,646991,1,8,0:0:0:0:
473,342,647080,1,0,0:0:0:0:
451,317,647256,1,8,0:0:0:0:
451,317,647344,1,0,0:0:0:0:
451,317,647432,1,0,0:0:0:0:
377,346,647609,1,12,0:0:0:0:
427,311,647962,1,8,0:0:0:0:
427,311,648138,1,0,0:0:0:0:
465,281,648315,1,8,0:0:0:0:
465,281,648491,1,8,0:0:0:0:
443,282,648668,1,0,0:0:0:0:
443,282,648844,1,0,0:0:0:0:
443,282,649021,1,12,0:0:0:0:
338,297,649374,1,8,0:0:0:0:
338,297,649550,1,0,0:0:0:0:
395,303,649727,1,8,0:0:0:0:
395,303,649844,1,8,0:0:0:0:
417,308,649962,1,0,0:0:0:0:
360,318,650080,1,8,0:0:0:0:
360,318,650197,1,0,0:0:0:0:
360,318,650315,1,0,0:0:0:0:
443,305,650432,1,8,0:0:0:0:
461,322,650550,1,0,0:0:0:0:
461,322,650668,1,0,0:0:0:0:
461,322,650785,1,8,0:0:0:0:
461,322,650903,1,0,0:0:0:0:
461,322,651021,1,8,0:0:0:0:
426,314,651138,1,0,0:0:0:0:
426,314,651256,1,0,0:0:0:0:
434,297,651374,1,8,0:0:0:0:
434,297,651491,1,0,0:0:0:0:
456,274,651609,1,0,0:0:0:0:
444,299,651727,1,0,0:0:0:0:
444,299,651844,1,8,0:0:0:0:
448,295,651962,1,8,0:0:0:0:
448,296,652080,1,8,0:0:0:0:
439,304,652197,1,0,0:0:0:0:
439,304,652374,1,0,0:0:0:0:
401,324,652550,1,8,0:0:0:0:
401,324,652638,1,8,0:0:0:0:
401,324,652727,1,0,0:0:0:0:
401,324,652903,1,8,0:0:0:0:
401,324,652991,1,0,0:0:0:0:
401,324,653080,1,0,0:0:0:0:
344,182,653256,1,12,0:0:0:0:
387,276,653609,1,8,0:0:0:0:
387,276,653785,1,0,0:0:0:0:
414,316,653962,1,8,0:0:0:0:
414,316,654138,1,8,0:0:0:0:
416,306,654315,1,0,0:0:0:0:
416,306,654491,1,0,0:0:0:0:
347,325,654668,1,12,0:0:0:0:
371,310,655021,1,8,0:0:0:0:
338,277,655197,1,8,0:0:0:0:
338,277,655374,1,4,0:0:0:0:
338,277,655550,1,4,0:0:0:0:
263,291,655903,1,4,0:0:0:0:
263,291,656080,1,12,0:0:0:0:
256,192,656168,12,0,660050,0:0:0:0:
405,309,665252,5,8,0:0:0:0:
404,308,665652,5,0,0:0:0:0:
404,308,666052,1,8,0:0:0:0:
404,308,666318,1,0,0:0:0:0:
344,301,667385,5,8,0:0:0:0:
367,302,667652,1,8,0:0:0:0:
367,302,667785,1,8,0:0:0:0:
370,297,668052,1,8,0:0:0:0:
370,297,668185,1,8,0:0:0:0:
380,308,668452,1,8,0:0:0:0:
380,308,668718,1,8,0:0:0:0:
380,308,668985,1,8,0:0:0:0:
380,308,669118,1,8,0:0:0:0:
380,308,669252,1,8,0:0:0:0:
398,331,669518,1,0,0:0:0:0:
342,318,669918,1,8,0:0:0:0:
342,318,670318,1,8,0:0:0:0:
342,318,670585,1,0,0:0:0:0:
437,345,670852,1,0,0:0:0:0:
437,345,670918,1,0,0:0:0:0:
437,345,670985,1,0,0:0:0:0:
437,345,671052,1,0,0:0:0:0:
437,345,671118,1,8,0:0:0:0:
369,279,672452,1,0,0:0:0:0:
369,279,672518,1,0,0:0:0:0:
369,279,672585,1,0,0:0:0:0:
369,279,672652,1,0,0:0:0:0:
369,279,672718,1,8,0:0:0:0:
432,271,672985,1,8,0:0:0:0:
432,271,673052,1,0,0:0:0:0:
432,271,673118,1,0,0:0:0:0:
432,271,673185,1,0,0:0:0:0:
432,271,673252,1,8,0:0:0:0:
430,282,673785,1,8,0:0:0:0:
493,327,674052,1,8,0:0:0:0:
493,327,674185,1,8,0:0:0:0:
493,327,674452,1,8,0:0:0:0:
493,327,674585,1,8,0:0:0:0:
489,339,674852,1,8,0:0:0:0:
489,339,675118,1,8,0:0:0:0:
393,317,675385,1,8,0:0:0:0:
393,317,675518,1,8,0:0:0:0:
393,317,675652,1,8,0:0:0:0:
400,332,675918,1,8,0:0:0:0:
403,330,676185,1,8,0:0:0:0:
403,330,676318,1,8,0:0:0:0:
403,321,676585,1,8,0:0:0:0:
403,321,676718,1,8,0:0:0:0:
403,321,676985,1,8,0:0:0:0:
403,321,677252,1,8,0:0:0:0:
403,321,677518,1,8,0:0:0:0:
403,321,677652,1,8,0:0:0:0:
403,321,677785,1,8,0:0:0:0:
403,321,678052,1,0,0:0:0:0:
306,280,678452,1,8,0:0:0:0:
306,280,678852,1,8,0:0:0:0:
306,280,679118,1,0,0:0:0:0:
432,326,679385,1,0,0:0:0:0:
432,326,679452,1,0,0:0:0:0:
432,326,679518,1,0,0:0:0:0:
432,326,679585,1,0,0:0:0:0:
432,326,679652,1,8,0:0:0:0:
432,326,680985,1,0,0:0:0:0:
432,326,681052,1,0,0:0:0:0:
432,326,681118,1,0,0:0:0:0:
432,326,681185,1,0,0:0:0:0:
432,326,681252,1,8,0:0:0:0:
453,323,681452,1,0,0:0:0:0:
453,323,681652,1,0,0:0:0:0:
412,279,681874,1,8,0:0:0:0:
387,344,682318,1,8,0:0:0:0:
387,344,682718,1,0,0:0:0:0:
387,344,683118,1,8,0:0:0:0:
387,344,683385,1,0,0:0:0:0:
400,313,686585,1,0,0:0:0:0:
400,313,686985,1,8,0:0:0:0:
400,313,687385,1,8,0:0:0:0:
400,313,687652,1,0,0:0:0:0:
478,322,690852,1,8,0:0:0:0:
478,322,691252,1,0,0:0:0:0:
478,322,691652,1,8,0:0:0:0:
478,322,691918,1,0,0:0:0:0:
381,330,695118,1,0,0:0:0:0:
382,329,695518,1,8,0:0:0:0:
382,329,695918,1,8,0:0:0:0:
382,329,696185,1,0,0:0:0:0:
385,327,699385,1,8,0:0:0:0:
385,327,699785,1,0,0:0:0:0:
385,327,700185,1,8,0:0:0:0:
385,327,700452,1,0,0:0:0:0:
413,335,701518,1,8,0:0:0:0:
413,335,702318,1,0,0:0:0:0:
413,335,703118,1,0,0:0:0:0:
413,335,703652,1,0,0:0:0:0:
409,301,704052,1,8,0:0:0:0:
409,300,704452,1,8,0:0:0:0:
409,300,704718,1,0,0:0:0:0:
221,220,705785,1,0,0:0:0:0:
427,341,706585,1,8,0:0:0:0:
427,341,707385,1,0,0:0:0:0:
385,327,707918,1,8,0:0:0:0:
385,327,708318,1,0,0:0:0:0:
385,327,708718,1,8,0:0:0:0:
385,327,708985,1,0,0:0:0:0:
413,335,710052,1,8,0:0:0:0:
413,335,710852,1,0,0:0:0:0:
413,335,711652,1,0,0:0:0:0:
413,335,712185,1,0,0:0:0:0:
409,301,712585,1,8,0:0:0:0:
409,300,712985,1,8,0:0:0:0:
409,300,713252,1,0,0:0:0:0:
221,220,714318,1,0,0:0:0:0:
427,341,715118,1,8,0:0:0:0:
427,341,715918,1,0,0:0:0:0:
479,272,716452,1,0,0:0:0:0:
332,290,716585,1,0,0:0:0:0:
332,290,716718,1,8,0:0:0:0:
332,290,716985,1,8,0:0:0:0:
446,358,717252,1,0,0:0:0:0:
446,358,717385,1,0,0:0:0:0:
446,358,717518,1,8,0:0:0:0:
329,333,717652,1,0,0:0:0:0:
329,333,717785,1,0,0:0:0:0:
338,348,718052,1,8,0:0:0:0:
377,303,718318,1,8,0:0:0:0:
377,303,718452,1,8,0:0:0:0:
377,303,718585,1,0,0:0:0:0:
377,303,718718,1,0,0:0:0:0:
377,303,718852,1,8,0:0:0:0:
408,317,719118,1,0,0:0:0:0:
411,309,719385,1,0,0:0:0:0:
411,309,719518,1,0,0:0:0:0:
411,309,719652,1,8,0:0:0:0:
411,309,719785,1,0,0:0:0:0:
411,309,719918,1,8,0:0:0:0:
428,318,720185,1,8,0:0:0:0:
429,311,720452,1,0,0:0:0:0:
429,311,720585,1,8,0:0:0:0:
429,311,720718,1,0,0:0:0:0:
429,311,720852,1,0,0:0:0:0:
429,311,720985,1,8,0:0:0:0:
460,318,721252,1,8,0:0:0:0:
389,318,721518,1,0,0:0:0:0:
389,318,721652,1,0,0:0:0:0:
389,318,721785,1,8,0:0:0:0:
389,318,721918,1,0,0:0:0:0:
389,318,722052,1,0,0:0:0:0:
388,318,722318,1,8,0:0:0:0:
383,318,722585,1,8,0:0:0:0:
383,318,722718,1,8,0:0:0:0:
383,318,722852,1,0,0:0:0:0:
383,318,722985,1,0,0:0:0:0:
383,318,723118,1,8,0:0:0:0:
386,317,723385,1,0,0:0:0:0:
386,317,723652,1,0,0:0:0:0:
386,317,723785,1,8,0:0:0:0:
386,317,723918,1,0,0:0:0:0:
386,317,724052,1,0,0:0:0:0:
386,317,724185,1,8,0:0:0:0:
386,317,724452,1,8,0:0:0:0:
418,286,724585,1,0,0:0:0:0:
408,314,724718,1,8,0:0:0:0:
418,286,724852,1,8,0:0:0:0:
479,272,724985,1,0,0:0:0:0:
332,290,725118,1,0,0:0:0:0:
332,290,725252,1,8,0:0:0:0:
332,290,725518,1,8,0:0:0:0:
446,358,725785,1,0,0:0:0:0:
446,358,725918,1,0,0:0:0:0:
446,358,726052,1,8,0:0:0:0:
329,333,726185,1,0,0:0:0:0:
329,333,726318,1,0,0:0:0:0:
338,348,726585,1,8,0:0:0:0:
377,303,726852,1,8,0:0:0:0:
377,303,726985,1,8,0:0:0:0:
377,303,727118,1,0,0:0:0:0:
377,303,727252,1,0,0:0:0:0:
377,303,727385,1,8,0:0:0:0:
408,317,727652,1,0,0:0:0:0:
411,309,727918,1,0,0:0:0:0:
411,309,728052,1,0,0:0:0:0:
411,309,728185,1,8,0:0:0:0:
411,309,728318,1,0,0:0:0:0:
411,309,728452,1,8,0:0:0:0:
428,318,728718,1,8,0:0:0:0:
429,311,728985,1,0,0:0:0:0:
429,311,729118,1,8,0:0:0:0:
429,311,729252,1,0,0:0:0:0:
429,311,729385,1,0,0:0:0:0:
429,311,729518,1,8,0:0:0:0:
460,318,729785,1,8,0:0:0:0:
389,318,730052,1,0,0:0:0:0:
389,318,730185,1,0,0:0:0:0:
389,318,730318,1,8,0:0:0:0:
389,318,730452,1,0,0:0:0:0:
389,318,730585,1,0,0:0:0:0:
388,318,730852,1,8,0:0:0:0:
383,318,731118,1,8,0:0:0:0:
383,318,731252,1,8,0:0:0:0:
383,318,731385,1,0,0:0:0:0:
383,318,731518,1,0,0:0:0:0:
383,318,731652,1,8,0:0:0:0:
386,317,731918,1,0,0:0:0:0:
386,317,732185,1,0,0:0:0:0:
386,317,732318,1,8,0:0:0:0:
386,317,732452,1,0,0:0:0:0:
386,317,732585,1,0,0:0:0:0:
386,317,732718,1,8,0:0:0:0:
386,317,732985,1,8,0:0:0:0:
418,286,733118,1,0,0:0:0:0:
408,314,733252,1,8,0:0:0:0:
418,286,733385,1,8,0:0:0:0:
479,272,733518,1,4,0:0:0:0:
332,290,733785,1,8,0:0:0:0:
332,290,734052,1,8,0:0:0:0:
446,358,734318,1,0,0:0:0:0:
446,358,734452,1,0,0:0:0:0:
446,358,734585,1,8,0:0:0:0:
329,333,734718,1,0,0:0:0:0:
329,333,734852,1,0,0:0:0:0:
338,348,735118,1,8,0:0:0:0:
377,303,735385,1,8,0:0:0:0:
377,303,735518,1,8,0:0:0:0:
377,303,735652,1,0,0:0:0:0:
377,303,735785,1,0,0:0:0:0:
377,303,735918,1,8,0:0:0:0:
408,317,736185,1,0,0:0:0:0:
411,309,736452,1,0,0:0:0:0:
411,309,736585,1,0,0:0:0:0:
411,309,736718,1,8,0:0:0:0:
411,309,736852,1,0,0:0:0:0:
411,309,736985,1,8,0:0:0:0:
428,318,737252,1,8,0:0:0:0:
429,311,737518,1,0,0:0:0:0:
429,311,737652,1,8,0:0:0:0:
429,311,737785,1,4,0:0:0:0:
429,311,738052,1,8,0:0:0:0:
460,318,738318,1,8,0:0:0:0:
389,318,738585,1,0,0:0:0:0:
389,318,738718,1,0,0:0:0:0:
389,318,738852,1,8,0:0:0:0:
389,318,738985,1,0,0:0:0:0:
389,318,739118,1,0,0:0:0:0:
388,318,739385,1,8,0:0:0:0:
383,318,739652,1,8,0:0:0:0:
383,318,739785,1,8,0:0:0:0:
383,318,739918,1,0,0:0:0:0:
383,318,740052,1,0,0:0:0:0:
383,318,740185,1,8,0:0:0:0:
386,317,740452,1,0,0:0:0:0:
386,317,740718,1,0,0:0:0:0:
386,317,740852,1,8,0:0:0:0:
386,317,740985,1,0,0:0:0:0:
386,317,741118,1,0,0:0:0:0:
386,317,741252,1,8,0:0:0:0:
386,317,741518,1,8,0:0:0:0:
418,286,741652,1,0,0:0:0:0:
408,314,741785,1,8,0:0:0:0:
418,286,741918,1,8,0:0:0:0:
479,272,742052,1,4,0:0:0:0:
332,290,742318,1,8,0:0:0:0:
332,290,742585,1,8,0:0:0:0:
446,358,742852,1,0,0:0:0:0:
446,358,742985,1,0,0:0:0:0:
446,358,743118,1,8,0:0:0:0:
329,333,743252,1,0,0:0:0:0:
329,333,743385,1,0,0:0:0:0:
338,348,743652,1,8,0:0:0:0:
377,303,743918,1,8,0:0:0:0:
377,303,744052,1,8,0:0:0:0:
377,303,744185,1,0,0:0:0:0:
377,303,744318,1,0,0:0:0:0:
377,303,744452,1,8,0:0:0:0:
408,317,744718,1,0,0:0:0:0:
411,309,744985,1,0,0:0:0:0:
411,309,745118,1,0,0:0:0:0:
411,309,745252,1,8,0:0:0:0:
411,309,745385,1,0,0:0:0:0:
411,309,745518,1,8,0:0:0:0:
428,318,745785,1,8,0:0:0:0:
429,311,746052,1,0,0:0:0:0:
429,311,746185,1,8,0:0:0:0:
429,311,746318,1,4,0:0:0:0:
429,311,746585,1,8,0:0:0:0:
460,318,746852,1,8,0:0:0:0:
389,318,747118,1,0,0:0:0:0:
389,318,747252,1,0,0:0:0:0:
389,318,747385,1,8,0:0:0:0:
389,318,747518,1,0,0:0:0:0:
389,318,747652,1,0,0:0:0:0:
388,318,747918,1,8,0:0:0:0:
383,318,748185,1,8,0:0:0:0:
383,318,748318,1,8,0:0:0:0:
383,318,748452,1,0,0:0:0:0:
383,318,748585,1,0,0:0:0:0:
383,318,748718,1,8,0:0:0:0:
386,317,748985,1,0,0:0:0:0:
386,317,749252,1,0,0:0:0:0:
386,317,749385,1,8,0:0:0:0:
386,317,749518,1,0,0:0:0:0:
386,317,749652,1,0,0:0:0:0:
386,317,749785,1,8,0:0:0:0:
386,317,750052,1,0,0:0:0:0:
332,357,750584,1,8,0:0:0:0:
431,328,750650,1,8,0:0:0:0:
431,328,750717,1,0,0:0:0:0:
431,328,750784,1,0,0:0:0:0:
439,339,750850,1,8,0:0:0:0:
439,339,750917,1,0,0:0:0:0:
439,339,750984,1,8,0:0:0:0:
439,339,751050,1,8,0:0:0:0:
401,334,751117,1,0,0:0:0:0:
401,334,751184,1,8,0:0:0:0:
401,339,751250,1,0,0:0:0:0:
401,339,751317,1,0,0:0:0:0:
401,340,751384,1,8,0:0:0:0:
401,339,751450,1,0,0:0:0:0:
401,339,751517,1,8,0:0:0:0:
401,340,751584,1,8,0:0:0:0:
428,334,751650,1,0,0:0:0:0:
438,310,751717,1,8,0:0:0:0:
438,310,751784,1,0,0:0:0:0:
438,310,751850,1,0,0:0:0:0:
438,310,751917,1,8,0:0:0:0:
438,310,751984,1,0,0:0:0:0:
438,310,752050,1,8,0:0:0:0:
438,310,752117,1,8,0:0:0:0:
438,310,752184,1,0,0:0:0:0:
438,310,752250,1,8,0:0:0:0:
438,310,752317,1,0,0:0:0:0:
438,310,752384,1,0,0:0:0:0:
438,310,752450,1,8,0:0:0:0:
438,310,752517,1,0,0:0:0:0:
438,310,752584,1,8,0:0:0:0:
438,310,752650,1,8,0:0:0:0:
413,354,752717,1,0,0:0:0:0:
413,354,752784,1,8,0:0:0:0:
413,354,752850,1,0,0:0:0:0:
405,354,752917,1,0,0:0:0:0:
404,352,752984,1,8,0:0:0:0:
404,352,753050,1,0,0:0:0:0:
405,354,753117,1,8,0:0:0:0:
404,352,753184,1,8,0:0:0:0:
404,352,753250,1,0,0:0:0:0:
400,351,753317,1,8,0:0:0:0:
404,352,753384,1,0,0:0:0:0:
404,352,753450,1,0,0:0:0:0:
461,289,753517,1,8,0:0:0:0:
452,325,753584,1,0,0:0:0:0:
452,325,753650,1,8,0:0:0:0:
382,338,753717,1,0,0:0:0:0:
382,338,753784,1,8,0:0:0:0:
382,338,753850,1,8,0:0:0:0:
368,316,753917,1,0,0:0:0:0:
368,316,753984,1,0,0:0:0:0:
356,350,754050,1,8,0:0:0:0:
382,338,754117,1,0,0:0:0:0:
356,350,754184,1,8,0:0:0:0:
356,350,754250,1,8,0:0:0:0:
368,316,754317,1,0,0:0:0:0:
368,316,754384,1,0,0:0:0:0:
410,285,754450,1,8,0:0:0:0:
410,285,754517,1,0,0:0:0:0:
410,285,754584,1,8,0:0:0:0:
410,285,754650,1,8,0:0:0:0:
410,285,754717,1,0,0:0:0:0:
369,314,754784,1,0,0:0:0:0:
369,314,754850,1,8,0:0:0:0:
386,328,754917,1,0,0:0:0:0:
386,328,754984,1,0,0:0:0:0:
386,329,755050,1,0,0:0:0:0:
397,323,755117,1,8,0:0:0:0:
398,317,755184,1,0,0:0:0:0:
398,317,755250,1,8,0:0:0:0:
398,317,755317,1,8,0:0:0:0:
398,317,755384,1,0,0:0:0:0:
398,317,755450,1,8,0:0:0:0:
398,317,755517,1,0,0:0:0:0:
398,317,755584,1,0,0:0:0:0:
411,345,755650,1,8,0:0:0:0:
411,345,755717,1,0,0:0:0:0:
411,345,755784,1,8,0:0:0:0:
411,345,755850,1,8,0:0:0:0:
415,341,755917,1,0,0:0:0:0:
416,341,755984,1,8,0:0:0:0:
422,338,756050,1,0,0:0:0:0:
422,338,756117,1,0,0:0:0:0:
424,337,756184,1,8,0:0:0:0:
422,338,756250,1,0,0:0:0:0:
426,333,756317,1,8,0:0:0:0:
424,337,756384,1,8,0:0:0:0:
386,317,756450,1,0,0:0:0:0:
386,317,756517,1,8,0:0:0:0:
386,317,756584,1,0,0:0:0:0:
386,317,756650,1,0,0:0:0:0:
386,317,756717,1,8,0:0:0:0:
386,317,756784,1,0,0:0:0:0:
386,317,756850,1,8,0:0:0:0:
386,317,756917,1,8,0:0:0:0:
392,283,756984,1,0,0:0:0:0:
392,283,757050,1,0,0:0:0:0:
392,283,757117,1,0,0:0:0:0:
392,283,757184,1,0,0:0:0:0:
441,273,757250,1,8,0:0:0:0:
451,345,757317,1,0,0:0:0:0:
451,345,757384,1,8,0:0:0:0:
441,273,757450,1,8,0:0:0:0:
411,288,757517,1,0,0:0:0:0:
411,288,757584,1,0,0:0:0:0:
411,288,757650,1,0,0:0:0:0:
411,288,757717,1,0,0:0:0:0:
411,288,757784,1,8,0:0:0:0:
411,288,757850,1,0,0:0:0:0:
411,288,757917,1,8,0:0:0:0:
411,288,757984,1,8,0:0:0:0:
349,306,758050,1,0,0:0:0:0:
349,306,758117,1,0,0:0:0:0:
349,306,758184,1,8,0:0:0:0:
411,313,758250,1,8,0:0:0:0:
411,313,758317,1,0,0:0:0:0:
433,292,758384,1,0,0:0:0:0:
429,300,758450,1,8,0:0:0:0:
429,300,758517,1,8,0:0:0:0:
442,298,758584,1,0,0:0:0:0:
442,298,758650,1,8,0:0:0:0:
442,298,758717,1,0,0:0:0:0:
442,298,758784,1,8,0:0:0:0:
442,298,758850,1,0,0:0:0:0:
442,298,758917,1,8,0:0:0:0:
442,298,758984,1,0,0:0:0:0:
452,342,759050,1,0,0:0:0:0:
332,357,759117,1,8,0:0:0:0:
431,328,759184,1,8,0:0:0:0:
431,328,759250,1,8,0:0:0:0:
431,328,759317,1,0,0:0:0:0:
439,339,759384,1,8,0:0:0:0:
439,339,759450,1,0,0:0:0:0:
439,339,759517,1,8,0:0:0:0:
439,339,759584,1,8,0:0:0:0:
401,334,759650,1,0,0:0:0:0:
401,334,759717,1,8,0:0:0:0:
401,339,759784,1,0,0:0:0:0:
401,339,759850,1,0,0:0:0:0:
401,340,759917,1,8,0:0:0:0:
401,339,759984,1,0,0:0:0:0:
401,339,760050,1,8,0:0:0:0:
401,340,760117,1,8,0:0:0:0:
428,334,760184,1,0,0:0:0:0:
438,310,760250,1,8,0:0:0:0:
438,310,760317,1,0,0:0:0:0:
438,310,760384,1,0,0:0:0:0:
438,310,760450,1,8,0:0:0:0:
438,310,760517,1,0,0:0:0:0:
438,310,760584,1,8,0:0:0:0:
438,310,760650,1,8,0:0:0:0:
438,310,760717,1,0,0:0:0:0:
438,310,760784,1,8,0:0:0:0:
438,310,760850,1,0,0:0:0:0:
438,310,760917,1,0,0:0:0:0:
438,310,760984,1,8,0:0:0:0:
438,310,761050,1,0,0:0:0:0:
438,310,761117,1,8,0:0:0:0:
438,310,761184,1,8,0:0:0:0:
413,354,761250,1,0,0:0:0:0:
413,354,761317,1,8,0:0:0:0:
413,354,761384,1,0,0:0:0:0:
405,354,761450,1,0,0:0:0:0:
404,352,761517,1,8,0:0:0:0:
404,352,761584,1,0,0:0:0:0:
405,354,761650,1,8,0:0:0:0:
404,352,761717,1,8,0:0:0:0:
404,352,761784,1,0,0:0:0:0:
400,351,761850,1,8,0:0:0:0:
404,352,761917,1,0,0:0:0:0:
404,352,761984,1,0,0:0:0:0:
461,289,762050,1,8,0:0:0:0:
452,325,762117,1,0,0:0:0:0:
452,325,762184,1,8,0:0:0:0:
382,338,762250,1,0,0:0:0:0:
382,338,762317,1,8,0:0:0:0:
382,338,762384,1,8,0:0:0:0:
368,316,762450,1,0,0:0:0:0:
368,316,762517,1,0,0:0:0:0:
356,350,762584,1,8,0:0:0:0:
382,338,762650,1,0,0:0:0:0:
356,350,762717,1,8,0:0:0:0:
356,350,762784,1,8,0:0:0:0:
368,316,762850,1,0,0:0:0:0:
368,316,762917,1,0,0:0:0:0:
410,285,762984,1,8,0:0:0:0:
410,285,763050,1,0,0:0:0:0:
410,285,763117,1,8,0:0:0:0:
410,285,763184,1,8,0:0:0:0:
410,285,763250,1,0,0:0:0:0:
369,314,763317,1,0,0:0:0:0:
369,314,763384,1,8,0:0:0:0:
386,328,763450,1,0,0:0:0:0:
386,328,763517,1,0,0:0:0:0:
386,329,763584,1,0,0:0:0:0:
397,323,763650,1,8,0:0:0:0:
398,317,763717,1,0,0:0:0:0:
398,317,763784,1,8,0:0:0:0:
398,317,763850,1,8,0:0:0:0:
398,317,763917,1,0,0:0:0:0:
398,317,763984,1,8,0:0:0:0:
398,317,764050,1,0,0:0:0:0:
398,317,764117,1,0,0:0:0:0:
411,345,764184,1,8,0:0:0:0:
411,345,764250,1,0,0:0:0:0:
411,345,764317,1,8,0:0:0:0:
411,345,764384,1,8,0:0:0:0:
415,341,764450,1,0,0:0:0:0:
416,341,764517,1,8,0:0:0:0:
422,338,764584,1,0,0:0:0:0:
422,338,764650,1,0,0:0:0:0:
424,337,764717,1,8,0:0:0:0:
422,338,764784,1,0,0:0:0:0:
426,333,764850,1,8,0:0:0:0:
424,337,764917,1,8,0:0:0:0:
386,317,764984,1,0,0:0:0:0:
386,317,765050,1,8,0:0:0:0:
386,317,765117,1,0,0:0:0:0:
386,317,765184,1,0,0:0:0:0:
386,317,765250,1,8,0:0:0:0:
386,317,765317,1,0,0:0:0:0:
386,317,765384,1,8,0:0:0:0:
386,317,765450,1,8,0:0:0:0:
444,326,765517,1,4,0:0:0:0:
465,331,765784,1,12,0:0:0:0:
465,331,766050,1,12,0:0:0:0:
440,331,766317,1,4,0:0:0:0:
411,284,766584,1,0,0:0:0:0:
328,267,766650,1,0,0:0:0:0:
411,284,766717,1,0,0:0:0:0:
328,267,766784,1,0,0:0:0:0:
411,284,766850,1,12,0:0:0:0:
430,291,767117,1,12,0:0:0:0:
432,293,767384,1,4,0:0:0:0:
410,295,767650,1,8,0:0:0:0:
410,295,767717,1,8,0:0:0:0:
410,295,767784,1,8,0:0:0:0:
410,295,767850,1,8,0:0:0:0:
410,295,767917,1,0,0:0:0:0:
410,295,767984,1,0,0:0:0:0:
410,295,768050,1,0,0:0:0:0:
410,295,768117,1,0,0:0:0:0:
410,295,768184,1,8,0:0:0:0:
410,295,768250,1,8,0:0:0:0:
410,295,768317,1,0,0:0:0:0:
410,295,768384,1,0,0:0:0:0:
453,351,768450,1,8,0:0:0:0:
476,314,768517,1,0,0:0:0:0:
478,331,768584,1,8,0:0:0:0:
478,331,768650,1,0,0:0:0:0:
478,331,768717,1,8,0:0:0:0:
478,331,768784,1,8,0:0:0:0:
406,265,768850,1,0,0:0:0:0:
406,265,768917,1,0,0:0:0:0:
406,265,768984,1,8,0:0:0:0:
406,265,769050,1,0,0:0:0:0:
406,265,769117,1,0,0:0:0:0:
406,265,769184,1,0,0:0:0:0:
415,261,769250,1,8,0:0:0:0:
415,261,769317,1,8,0:0:0:0:
356,317,769384,1,0,0:0:0:0:
356,317,769450,1,0,0:0:0:0:
356,317,769517,1,8,0:0:0:0:
382,313,769584,1,8,0:0:0:0:
382,313,769650,1,8,0:0:0:0:
382,313,769717,1,8,0:0:0:0:
382,313,769784,1,0,0:0:0:0:
382,313,769850,1,0,0:0:0:0:
382,313,769917,1,0,0:0:0:0:
382,313,769984,1,0,0:0:0:0:
430,351,770050,1,8,0:0:0:0:
430,351,770117,1,0,0:0:0:0:
430,351,770184,1,0,0:0:0:0:
430,351,770250,1,0,0:0:0:0:
430,351,770317,1,8,0:0:0:0:
430,351,770384,1,8,0:0:0:0:
430,351,770450,1,0,0:0:0:0:
430,351,770517,1,0,0:0:0:0:
444,356,770584,1,8,0:0:0:0:
444,356,770650,1,0,0:0:0:0:
444,356,770717,1,8,0:0:0:0:
444,356,770784,1,0,0:0:0:0:
444,356,770850,1,8,0:0:0:0:
444,356,770917,1,8,0:0:0:0:
335,284,770984,1,0,0:0:0:0:
335,284,771050,1,0,0:0:0:0:
335,284,771117,1,8,0:0:0:0:
335,284,771184,1,0,0:0:0:0:
335,284,771250,1,0,0:0:0:0:
335,284,771317,1,0,0:0:0:0:
335,284,771384,1,8,0:0:0:0:
335,284,771450,1,8,0:0:0:0:
335,284,771517,1,0,0:0:0:0:
335,284,771584,1,0,0:0:0:0:
335,284,771650,1,8,0:0:0:0:
344,283,771717,1,0,0:0:0:0:
344,283,771784,1,0,0:0:0:0:
344,283,771850,1,0,0:0:0:0:
327,265,771917,1,8,0:0:0:0:
327,265,771984,1,8,0:0:0:0:
327,265,772050,1,8,0:0:0:0:
301,273,772117,1,8,0:0:0:0:
303,271,772184,1,0,0:0:0:0:
303,271,772250,1,0,0:0:0:0:
301,273,772317,1,0,0:0:0:0:
303,271,772384,1,0,0:0:0:0:
378,293,772450,1,8,0:0:0:0:
378,293,772517,1,8,0:0:0:0:
378,293,772584,1,0,0:0:0:0:
378,293,772650,1,0,0:0:0:0:
392,297,772717,1,8,0:0:0:0:
392,297,772784,1,0,0:0:0:0:
392,297,772850,1,8,0:0:0:0:
392,297,772917,1,0,0:0:0:0:
392,297,772984,1,8,0:0:0:0:
392,297,773050,1,8,0:0:0:0:
388,340,773117,1,0,0:0:0:0:
388,340,773184,1,0,0:0:0:0:
388,340,773250,1,8,0:0:0:0:
388,340,773317,1,0,0:0:0:0:
388,340,773384,1,0,0:0:0:0:
388,340,773450,1,0,0:0:0:0:
393,334,773517,1,8,0:0:0:0:
393,334,773584,1,8,0:0:0:0:
441,337,773650,1,0,0:0:0:0:
441,337,773717,1,0,0:0:0:0:
441,337,773784,1,8,0:0:0:0:
392,336,773850,1,8,0:0:0:0:
392,336,773917,1,8,0:0:0:0:
392,336,773984,1,8,0:0:0:0:
392,336,774050,1,4,0:0:0:0:
377,300,774317,1,12,0:0:0:0:
366,328,774584,1,8,0:0:0:0:
366,328,774650,1,8,0:0:0:0:
366,328,774717,1,8,0:0:0:0:
366,328,774784,1,8,0:0:0:0:
366,328,774850,1,0,0:0:0:0:
306,308,774917,1,0,0:0:0:0:
306,308,774984,1,0,0:0:0:0:
367,313,775050,1,0,0:0:0:0:
295,283,775117,1,12,0:0:0:0:
295,285,775384,1,4,0:0:0:0:
437,325,775650,1,8,0:0:0:0:
437,325,775717,1,8,0:0:0:0:
436,314,775784,1,0,0:0:0:0:
436,316,775850,1,0,0:0:0:0:
436,311,775917,1,8,0:0:0:0:
436,308,775984,1,0,0:0:0:0:
436,311,776050,1,0,0:0:0:0:
436,311,776117,1,0,0:0:0:0:
450,335,776184,1,8,0:0:0:0:
450,335,776250,1,8,0:0:0:0:
450,335,776317,1,8,0:0:0:0:
450,335,776384,1,8,0:0:0:0:
450,335,776450,1,0,0:0:0:0:
450,335,776517,1,0,0:0:0:0:
450,335,776584,1,0,0:0:0:0:
450,335,776650,1,0,0:0:0:0:
437,310,776717,1,8,0:0:0:0:
437,310,776784,1,8,0:0:0:0:
437,310,776850,1,0,0:0:0:0:
437,310,776917,1,0,0:0:0:0:
437,310,776984,1,8,0:0:0:0:
437,310,777050,1,0,0:0:0:0:
437,310,777117,1,8,0:0:0:0:
437,310,777184,1,0,0:0:0:0:
437,310,777250,1,8,0:0:0:0:
437,310,777317,1,8,0:0:0:0:
437,310,777384,1,0,0:0:0:0:
437,310,777450,1,0,0:0:0:0:
437,310,777517,1,8,0:0:0:0:
437,310,777584,1,0,0:0:0:0:
437,310,777650,1,0,0:0:0:0:
437,310,777717,1,0,0:0:0:0:
437,310,777784,1,8,0:0:0:0:
437,310,777850,1,8,0:0:0:0:
432,359,777917,1,8,0:0:0:0:
432,359,777984,1,8,0:0:0:0:
432,359,778050,1,0,0:0:0:0:
432,359,778117,1,0,0:0:0:0:
432,359,778184,1,0,0:0:0:0:
432,359,778250,1,0,0:0:0:0:
482,351,778317,1,8,0:0:0:0:
482,351,778384,1,8,0:0:0:0:
482,351,778450,1,0,0:0:0:0:
482,351,778517,1,0,0:0:0:0:
482,351,778584,1,8,0:0:0:0:
482,351,778650,1,0,0:0:0:0:
482,351,778717,1,0,0:0:0:0:
482,351,778784,1,0,0:0:0:0:
458,355,778850,1,8,0:0:0:0:
458,355,778917,1,8,0:0:0:0:
458,355,778984,1,0,0:0:0:0:
458,355,779050,1,0,0:0:0:0:
458,355,779117,1,8,0:0:0:0:
458,355,779184,1,0,0:0:0:0:
458,355,779250,1,8,0:0:0:0:
458,355,779317,1,0,0:0:0:0:
458,355,779384,1,8,0:0:0:0:
458,355,779450,1,8,0:0:0:0:
370,238,779517,1,0,0:0:0:0:
371,243,779584,1,0,0:0:0:0:
372,243,779650,1,8,0:0:0:0:
388,265,779717,1,0,0:0:0:0:
388,265,779784,1,0,0:0:0:0:
388,265,779850,1,0,0:0:0:0:
388,265,779917,1,8,0:0:0:0:
388,265,779984,1,8,0:0:0:0:
388,265,780050,1,0,0:0:0:0:
388,265,780117,1,0,0:0:0:0:
407,319,780184,1,8,0:0:0:0:
407,319,780250,1,0,0:0:0:0:
407,319,780317,1,0,0:0:0:0:
407,319,780384,1,0,0:0:0:0:
424,298,780450,1,8,0:0:0:0:
424,298,780517,1,8,0:0:0:0:
424,298,780584,1,8,0:0:0:0:
424,298,780650,1,8,0:0:0:0:
424,298,780717,1,0,0:0:0:0:
424,298,780784,1,0,0:0:0:0:
424,298,780850,1,0,0:0:0:0:
424,298,780917,1,0,0:0:0:0:
407,321,780984,1,8,0:0:0:0:
407,321,781050,1,8,0:0:0:0:
407,321,781117,1,0,0:0:0:0:
407,321,781184,1,0,0:0:0:0:
381,320,781250,1,8,0:0:0:0:
381,320,781317,1,0,0:0:0:0:
381,320,781384,1,8,0:0:0:0:
381,320,781450,1,0,0:0:0:0:
381,320,781517,1,8,0:0:0:0:
381,320,781584,1,8,0:0:0:0:
428,333,781650,1,0,0:0:0:0:
428,333,781717,1,0,0:0:0:0:
438,350,781784,1,8,0:0:0:0:
438,350,781850,1,0,0:0:0:0:
438,350,781917,1,0,0:0:0:0:
438,350,781984,1,0,0:0:0:0:
455,353,782050,1,8,0:0:0:0:
455,354,782117,1,8,0:0:0:0:
455,354,782184,1,0,0:0:0:0:
455,353,782250,1,0,0:0:0:0:
465,342,782317,1,8,0:0:0:0:
465,342,782384,1,0,0:0:0:0:
465,342,782450,1,0,0:0:0:0:
465,342,782517,1,0,0:0:0:0:
465,342,782584,1,12,0:0:0:0:
375,366,782850,1,4,0:0:0:0:
392,309,783117,1,8,0:0:0:0:
392,309,783184,1,8,0:0:0:0:
392,309,783250,1,0,0:0:0:0:
392,309,783317,1,0,0:0:0:0:
392,309,783384,1,8,0:0:0:0:
392,309,783450,1,8,0:0:0:0:
392,309,783517,1,8,0:0:0:0:
392,309,783584,1,8,0:0:0:0:
392,309,783650,1,0,0:0:0:0:
422,328,783784,1,0,0:0:0:0:
441,375,783917,1,12,0:0:0:0:
455,351,784184,1,0,0:0:0:0:
401,287,784450,1,12,0:0:0:0:
392,329,784717,1,8,0:0:0:0:
392,329,784784,1,8,0:0:0:0:
392,329,784850,1,8,0:0:0:0:
392,329,784917,1,8,0:0:0:0:
392,329,784984,1,0,0:0:0:0:
392,329,785050,1,0,0:0:0:0:
392,329,785117,1,0,0:0:0:0:
392,329,785184,1,0,0:0:0:0:
392,329,785250,1,8,0:0:0:0:
392,329,785317,1,0,0:0:0:0:
392,329,785384,1,0,0:0:0:0:
392,329,785450,1,0,0:0:0:0:
392,329,785517,1,0,0:0:0:0:
392,329,785584,1,0,0:0:0:0:
392,329,785650,1,0,0:0:0:0:
397,324,785717,1,0,0:0:0:0:
467,356,785784,1,8,0:0:0:0:
308,284,785850,1,0,0:0:0:0:
478,293,785917,1,0,0:0:0:0:
470,293,785984,1,0,0:0:0:0:
470,293,786050,1,8,0:0:0:0:
470,293,786117,1,8,0:0:0:0:
445,329,786184,1,0,0:0:0:0:
368,207,786250,1,0,0:0:0:0:
368,207,786317,1,0,0:0:0:0:
368,207,786384,1,0,0:0:0:0:
368,207,786450,1,8,0:0:0:0:
368,207,786517,1,8,0:0:0:0:
445,329,786584,1,0,0:0:0:0:
421,337,786650,1,0,0:0:0:0:
421,337,786717,1,0,0:0:0:0:
421,337,786784,1,0,0:0:0:0:
392,329,786850,1,8,0:0:0:0:
392,329,786917,1,8,0:0:0:0:
392,329,786984,1,8,0:0:0:0:
392,329,787050,1,8,0:0:0:0:
392,329,787117,1,0,0:0:0:0:
392,329,787184,1,0,0:0:0:0:
392,329,787250,1,0,0:0:0:0:
392,329,787317,1,0,0:0:0:0:
392,329,787384,1,8,0:0:0:0:
392,329,787450,1,0,0:0:0:0:
392,329,787517,1,0,0:0:0:0:
392,329,787584,1,0,0:0:0:0:
392,329,787650,1,0,0:0:0:0:
392,329,787717,1,0,0:0:0:0:
392,329,787784,1,0,0:0:0:0:
397,324,787850,1,0,0:0:0:0:
467,356,787917,1,8,0:0:0:0:
308,284,787984,1,0,0:0:0:0:
478,293,788050,1,0,0:0:0:0:
470,293,788117,1,0,0:0:0:0:
470,293,788184,1,8,0:0:0:0:
470,293,788250,1,8,0:0:0:0:
445,329,788317,1,0,0:0:0:0:
368,207,788384,1,0,0:0:0:0:
368,207,788450,1,0,0:0:0:0:
368,207,788517,1,0,0:0:0:0:
368,207,788584,1,8,0:0:0:0:
368,207,788650,1,8,0:0:0:0:
445,329,788717,1,0,0:0:0:0:
421,337,788784,1,0,0:0:0:0:
421,337,788850,1,0,0:0:0:0:
421,337,788917,1,0,0:0:0:0:
392,329,788984,1,8,0:0:0:0:
392,329,789050,1,8,0:0:0:0:
392,329,789117,1,8,0:0:0:0:
392,329,789184,1,8,0:0:0:0:
392,329,789250,1,0,0:0:0:0:
392,329,789317,1,0,0:0:0:0:
392,329,789384,1,0,0:0:0:0:
392,329,789450,1,0,0:0:0:0:
392,329,789517,1,8,0:0:0:0:
392,329,789584,1,0,0:0:0:0:
392,329,789650,1,0,0:0:0:0:
392,329,789717,1,0,0:0:0:0:
392,329,789784,1,0,0:0:0:0:
392,329,789850,1,0,0:0:0:0:
392,329,789917,1,0,0:0:0:0:
397,324,789984,1,0,0:0:0:0:
467,356,790050,1,8,0:0:0:0:
308,284,790117,1,0,0:0:0:0:
478,293,790184,1,0,0:0:0:0:
470,293,790250,1,0,0:0:0:0:
470,293,790317,1,8,0:0:0:0:
470,293,790384,1,8,0:0:0:0:
445,329,790450,1,0,0:0:0:0:
368,207,790517,1,0,0:0:0:0:
368,207,790584,1,0,0:0:0:0:
368,207,790650,1,0,0:0:0:0:
368,207,790717,1,8,0:0:0:0:
368,207,790784,1,8,0:0:0:0:
445,329,790850,1,0,0:0:0:0:
421,337,790917,1,0,0:0:0:0:
421,337,790984,1,0,0:0:0:0:
421,337,791050,1,0,0:0:0:0:
347,291,791117,1,12,0:0:0:0:
351,289,791384,1,0,0:0:0:0:
351,289,791650,1,12,0:0:0:0:
351,289,791917,1,0,0:0:0:0:
472,339,792050,1,0,0:0:0:0:
351,289,792184,1,12,0:0:0:0:
351,289,792450,1,0,0:0:0:0:
351,289,792717,1,12,0:0:0:0:
372,278,792984,1,0,0:0:0:0:
350,305,793117,1,0,0:0:0:0:
387,362,793250,1,8,0:0:0:0:
387,362,793317,1,8,0:0:0:0:
387,362,793384,1,8,0:0:0:0:
387,362,793450,1,8,0:0:0:0:
387,362,793517,1,8,0:0:0:0:
387,362,793584,1,8,0:0:0:0:
387,362,793650,1,8,0:0:0:0:
387,362,793717,1,8,0:0:0:0:
387,362,793784,1,0,0:0:0:0:
387,362,793850,1,0,0:0:0:0:
387,362,793917,1,0,0:0:0:0:
387,362,793984,1,0,0:0:0:0:
387,362,794050,1,8,0:0:0:0:
387,362,794117,1,8,0:0:0:0:
387,362,794184,1,0,0:0:0:0:
387,362,794250,1,0,0:0:0:0:
371,354,794317,1,8,0:0:0:0:
371,354,794384,1,0,0:0:0:0:
371,354,794450,1,0,0:0:0:0:
371,354,794517,1,0,0:0:0:0:
371,354,794584,1,8,0:0:0:0:
371,354,794650,1,8,0:0:0:0:
371,354,794717,1,0,0:0:0:0:
371,354,794784,1,0,0:0:0:0:
371,354,794850,1,0,0:0:0:0:
371,354,794917,1,0,0:0:0:0:
371,354,794984,1,8,0:0:0:0:
371,354,795050,1,8,0:0:0:0:
371,354,795117,1,0,0:0:0:0:
371,354,795184,1,0,0:0:0:0:
371,354,795250,1,0,0:0:0:0:
371,354,795317,1,0,0:0:0:0:
371,309,795384,1,8,0:0:0:0:
371,309,795450,1,8,0:0:0:0:
371,309,795517,1,8,0:0:0:0:
371,309,795584,1,8,0:0:0:0:
371,309,795650,1,8,0:0:0:0:
371,309,795717,1,8,0:0:0:0:
371,309,795784,1,8,0:0:0:0:
371,309,795850,1,8,0:0:0:0:
371,309,795917,1,8,0:0:0:0:
371,309,795984,1,8,0:0:0:0:
405,323,796050,1,8,0:0:0:0:
405,323,796117,1,8,0:0:0:0:
405,323,796184,1,0,0:0:0:0:
405,323,796250,1,0,0:0:0:0:
405,323,796317,1,0,0:0:0:0:
405,323,796384,1,0,0:0:0:0:
405,323,796450,1,8,0:0:0:0:
405,323,796517,1,0,0:0:0:0:
405,323,796584,1,0,0:0:0:0:
405,323,796650,1,0,0:0:0:0:
405,323,796717,1,8,0:0:0:0:
405,323,796784,1,8,0:0:0:0:
405,323,796850,1,0,0:0:0:0:
405,323,796917,1,0,0:0:0:0:
405,323,796984,1,0,0:0:0:0:
405,323,797050,1,0,0:0:0:0:
405,323,797117,1,8,0:0:0:0:
405,323,797184,1,8,0:0:0:0:
405,323,797250,1,0,0:0:0:0:
405,323,797317,1,0,0:0:0:0:
405,323,797384,1,0,0:0:0:0:
405,323,797450,1,0,0:0:0:0:
238,254,797517,1,8,0:0:0:0:
238,254,797584,1,8,0:0:0:0:
328,323,797650,1,8,0:0:0:0:
328,323,797717,1,8,0:0:0:0:
328,323,797784,1,0,0:0:0:0:
328,323,797850,1,0,0:0:0:0:
328,323,797917,1,0,0:0:0:0:
328,323,797984,1,0,0:0:0:0:
442,353,798050,1,0,0:0:0:0:
442,353,798117,1,0,0:0:0:0:
442,353,798184,1,0,0:0:0:0:
442,353,798250,1,0,0:0:0:0:
423,336,798317,1,8,0:0:0:0:
423,336,798384,1,8,0:0:0:0:
423,336,798450,1,0,0:0:0:0:
423,336,798517,1,0,0:0:0:0:
423,336,798584,1,8,0:0:0:0:
418,331,798650,1,0,0:0:0:0:
418,331,798717,1,0,0:0:0:0:
418,331,798784,1,0,0:0:0:0:
418,331,798850,1,8,0:0:0:0:
418,331,798917,1,8,0:0:0:0:
418,331,798984,1,0,0:0:0:0:
418,331,799050,1,0,0:0:0:0:
418,331,799117,1,0,0:0:0:0:
418,331,799184,1,0,0:0:0:0:
418,331,799250,1,8,0:0:0:0:
418,331,799317,1,8,0:0:0:0:
418,326,799384,1,0,0:0:0:0:
418,331,799450,1,0,0:0:0:0:
418,331,799517,1,0,0:0:0:0:
418,326,799584,1,0,0:0:0:0:
314,308,799650,1,8,0:0:0:0:
314,308,799717,1,8,0:0:0:0:
314,308,799784,1,8,0:0:0:0:
464,302,799850,1,8,0:0:0:0:
321,314,799917,1,0,0:0:0:0:
379,265,800050,1,0,0:0:0:0:
360,266,800184,1,8,0:0:0:0:
360,266,800250,1,8,0:0:0:0:
360,266,800317,1,8,0:0:0:0:
360,266,800384,1,8,0:0:0:0:
360,266,800450,1,0,0:0:0:0:
356,262,800517,1,0,0:0:0:0:
355,262,800584,1,0,0:0:0:0:
355,262,800650,1,0,0:0:0:0:
356,262,800717,1,12,0:0:0:0:
365,273,800984,1,12,0:0:0:0:
365,273,801250,1,12,0:0:0:0:
364,273,801517,1,12,0:0:0:0:
284,359,801784,1,4,0:0:0:0:
407,305,802050,1,0,0:0:0:0:
407,305,802184,1,0,0:0:0:0:
411,291,802317,1,8,0:0:0:0:
443,297,802450,1,0,0:0:0:0:
443,297,802584,1,0,0:0:0:0:
443,297,802717,1,0,0:0:0:0:
442,302,802850,1,8,0:0:0:0:
442,302,802984,1,8,0:0:0:0:
280,225,803117,1,0,0:0:0:0:
280,225,803250,1,0,0:0:0:0:
280,225,803384,1,8,0:0:0:0:
286,214,803517,1,0,0:0:0:0:
286,214,803650,1,0,0:0:0:0:
286,214,803784,1,0,0:0:0:0:
286,214,803917,1,8,0:0:0:0:
286,214,804050,1,0,0:0:0:0:
281,218,804184,1,0,0:0:0:0:
281,218,804317,1,0,0:0:0:0:
281,218,804450,1,8,0:0:0:0:
281,218,804584,1,0,0:0:0:0:
281,218,804717,1,8,0:0:0:0:
281,218,804850,1,0,0:0:0:0:
281,218,804984,1,8,0:0:0:0:
281,218,805117,1,8,0:0:0:0:
281,218,805250,1,0,0:0:0:0:
281,218,805384,1,0,0:0:0:0:
318,223,805517,1,8,0:0:0:0:
318,223,805650,1,0,0:0:0:0:
318,223,805784,1,0,0:0:0:0:
318,223,805917,1,0,0:0:0:0:
440,311,806050,1,8,0:0:0:0:
440,311,806139,1,0,0:0:0:0:
440,311,806228,1,0,0:0:0:0:
440,311,806317,1,0,0:0:0:0:
390,300,806406,1,0,0:0:0:0:
390,300,806495,1,0,0:0:0:0:
390,300,806584,1,8,0:0:0:0:
390,300,806672,1,0,0:0:0:0:
390,300,806761,1,0,0:0:0:0:
390,300,806850,1,0,0:0:0:0:
390,300,806939,1,0,0:0:0:0:
390,300,807028,1,0,0:0:0:0:
428,309,807117,1,8,0:0:0:0:
428,309,807206,1,8,0:0:0:0:
428,309,807295,1,0,0:0:0:0:
428,309,807384,1,0,0:0:0:0:
374,264,807472,1,0,0:0:0:0:
374,264,807561,1,0,0:0:0:0:
374,264,807650,1,8,0:0:0:0:
391,259,807739,1,0,0:0:0:0:
390,258,807828,1,0,0:0:0:0:
391,259,807917,1,0,0:0:0:0:
390,258,808006,1,0,0:0:0:0:
391,259,808095,1,0,0:0:0:0:
390,258,808184,1,8,0:0:0:0:
400,246,808272,1,0,0:0:0:0:
400,246,808361,1,0,0:0:0:0:
400,246,808450,1,0,0:0:0:0:
400,246,808539,1,0,0:0:0:0:
400,246,808628,1,0,0:0:0:0:
400,246,808717,1,8,0:0:0:0:
400,246,808806,1,0,0:0:0:0:
400,246,808895,1,0,0:0:0:0:
400,246,808984,1,8,0:0:0:0:
400,246,809072,1,0,0:0:0:0:
400,246,809161,1,0,0:0:0:0:
414,252,809250,1,8,0:0:0:0:
414,252,809339,1,8,0:0:0:0:
414,252,809428,1,0,0:0:0:0:
414,252,809517,1,0,0:0:0:0:
414,252,809606,1,0,0:0:0:0:
414,252,809695,1,0,0:0:0:0:
414,252,809784,1,8,0:0:0:0:
414,252,809872,1,0,0:0:0:0:
414,252,809961,1,0,0:0:0:0:
414,252,810050,1,0,0:0:0:0:
414,252,810139,1,0,0:0:0:0:
414,252,810228,1,0,0:0:0:0:
414,252,810317,1,8,0:0:0:0:
343,261,810450,1,0,0:0:0:0:
343,261,810584,1,0,0:0:0:0:
343,261,810717,1,0,0:0:0:0:
343,261,810850,1,8,0:0:0:0:
343,261,810984,1,0,0:0:0:0:
343,261,811117,1,0,0:0:0:0:
343,261,811250,1,0,0:0:0:0:
343,261,811384,1,8,0:0:0:0:
343,261,811517,1,8,0:0:0:0:
358,253,811650,1,0,0:0:0:0:
358,253,811784,1,0,0:0:0:0:
358,253,811917,1,8,0:0:0:0:
359,308,812050,1,0,0:0:0:0:
359,308,812184,1,0,0:0:0:0:
359,308,812317,1,0,0:0:0:0:
378,316,812450,1,8,0:0:0:0:
378,316,812584,1,0,0:0:0:0:
378,316,812717,1,0,0:0:0:0:
378,316,812850,1,0,0:0:0:0:
378,316,812984,1,8,0:0:0:0:
378,316,813117,1,0,0:0:0:0:
378,316,813250,1,8,0:0:0:0:
378,316,813384,1,0,0:0:0:0:
378,316,813517,1,8,0:0:0:0:
378,316,813650,1,8,0:0:0:0:
378,316,813784,1,0,0:0:0:0:
378,316,813917,1,0,0:0:0:0:
384,299,814050,1,8,0:0:0:0:
384,299,814184,1,0,0:0:0:0:
384,299,814317,1,0,0:0:0:0:
384,299,814450,1,0,0:0:0:0:
368,295,814584,1,8,0:0:0:0:
368,295,814672,1,0,0:0:0:0:
368,295,814761,1,0,0:0:0:0:
368,295,814850,1,0,0:0:0:0:
368,295,814939,1,0,0:0:0:0:
368,295,815028,1,0,0:0:0:0:
368,295,815117,1,8,0:0:0:0:
368,295,815206,1,0,0:0:0:0:
368,295,815295,1,0,0:0:0:0:
368,295,815384,1,0,0:0:0:0:
368,295,815472,1,0,0:0:0:0:
368,295,815561,1,0,0:0:0:0:
368,295,815650,1,8,0:0:0:0:
368,295,815739,1,8,0:0:0:0:
368,295,815828,1,0,0:0:0:0:
368,295,815917,1,0,0:0:0:0:
368,295,816006,1,0,0:0:0:0:
368,295,816095,1,0,0:0:0:0:
368,295,816184,1,8,0:0:0:0:
388,293,816272,1,0,0:0:0:0:
388,293,816361,1,0,0:0:0:0:
388,293,816450,1,0,0:0:0:0:
388,293,816539,1,0,0:0:0:0:
388,293,816628,1,0,0:0:0:0:
388,293,816717,1,8,0:0:0:0:
388,293,816806,1,0,0:0:0:0:
388,293,816895,1,0,0:0:0:0:
388,293,816984,1,0,0:0:0:0:
388,293,817072,1,0,0:0:0:0:
388,293,817161,1,0,0:0:0:0:
351,260,817250,1,8,0:0:0:0:
351,260,817339,1,0,0:0:0:0:
351,260,817428,1,0,0:0:0:0:
351,260,817517,1,8,0:0:0:0:
351,260,817606,1,0,0:0:0:0:
351,260,817695,1,0,0:0:0:0:
351,260,817784,1,8,0:0:0:0:
351,260,817872,1,8,0:0:0:0:
376,212,817961,1,0,0:0:0:0:
376,212,818050,1,0,0:0:0:0:
376,212,818139,1,0,0:0:0:0:
376,212,818228,1,0,0:0:0:0:
376,212,818317,1,8,0:0:0:0:
376,212,818406,1,0,0:0:0:0:
376,212,818495,1,0,0:0:0:0:
376,212,818584,1,0,0:0:0:0:
376,212,818672,1,0,0:0:0:0:
376,212,818761,1,0,0:0:0:0:
427,299,818850,1,8,0:0:0:0:
315,303,818984,1,0,0:0:0:0:
315,303,819117,1,0,0:0:0:0:
315,303,819250,1,8,0:0:0:0:
315,303,819517,1,0,0:0:0:0:
313,308,819650,1,8,0:0:0:0:
454,324,819917,1,12,0:0:0:0:
341,292,820184,1,0,0:0:0:0:
444,314,820317,1,0,0:0:0:0:
444,314,820450,1,8,0:0:0:0:
444,314,820717,1,0,0:0:0:0:
444,314,820984,1,8,0:0:0:0:
391,307,821117,1,8,0:0:0:0:
391,307,821250,1,0,0:0:0:0:
391,307,821384,1,8,0:0:0:0:
320,302,821517,1,0,0:0:0:0:
388,281,821784,1,4,0:0:0:0:
388,281,822050,1,4,0:0:0:0:
384,212,822317,1,0,0:0:0:0:
384,212,822450,1,8,0:0:0:0:
374,308,822584,1,0,0:0:0:0:
397,258,822850,1,4,0:0:0:0:
374,316,823117,1,0,0:0:0:0:
372,275,823250,1,0,0:0:0:0:
372,275,823517,1,0,0:0:0:0:
374,316,823784,1,0,0:0:0:0:
362,269,824050,1,0,0:0:0:0:
396,292,824184,1,12,0:0:0:0:
397,293,824450,1,0,0:0:0:0:
397,293,824717,1,12,0:0:0:0:
375,342,824984,1,8,0:0:0:0:
375,342,825117,1,8,0:0:0:0:
375,342,825250,1,0,0:0:0:0:
372,275,825384,1,0,0:0:0:0:
375,342,825650,1,0,0:0:0:0:
375,342,825917,1,8,0:0:0:0:
375,342,826050,1,0,0:0:0:0:
340,289,826184,1,0,0:0:0:0:
372,317,826317,1,12,0:0:0:0:
371,324,826584,1,0,0:0:0:0:
371,324,826850,1,12,0:0:0:0:
406,261,827117,1,8,0:0:0:0:
406,261,827250,1,8,0:0:0:0:
406,261,827384,1,0,0:0:0:0:
431,240,827650,1,8,0:0:0:0:
428,246,827784,1,0,0:0:0:0:
428,246,828050,1,8,0:0:0:0:
428,246,828184,1,0,0:0:0:0:
443,254,828450,1,12,0:0:0:0:
363,278,828717,1,0,0:0:0:0:
363,278,828850,1,0,0:0:0:0:
363,278,828984,1,8,0:0:0:0:
363,278,829250,1,0,0:0:0:0:
363,278,829517,1,8,0:0:0:0:
331,324,829650,1,0,0:0:0:0:
349,315,829784,1,0,0:0:0:0:
349,315,829917,1,8,0:0:0:0:
339,307,830050,1,0,0:0:0:0:
355,280,830317,1,4,0:0:0:0:
355,279,830584,1,4,0:0:0:0:
355,279,830850,1,0,0:0:0:0:
355,279,830984,1,8,0:0:0:0:
355,279,831117,1,0,0:0:0:0:
396,292,831384,1,4,0:0:0:0:
372,275,831650,1,0,0:0:0:0:
372,275,831784,1,0,0:0:0:0:
372,275,832050,1,0,0:0:0:0:
372,275,832317,1,0,0:0:0:0:
372,275,832584,1,0,0:0:0:0:
372,275,832717,1,12,0:0:0:0:
345,316,832984,1,0,0:0:0:0:
345,316,833250,1,12,0:0:0:0:
367,303,833517,1,8,0:0:0:0:
367,303,833650,1,8,0:0:0:0:
367,303,833784,1,0,0:0:0:0:
367,303,833917,1,0,0:0:0:0:
369,323,834184,1,0,0:0:0:0:
369,324,834450,1,8,0:0:0:0:
369,324,834584,1,0,0:0:0:0:
369,324,834717,1,0,0:0:0:0:
413,286,834850,1,8,0:0:0:0:
407,326,834984,1,8,0:0:0:0:
407,326,835117,1,0,0:0:0:0:
402,324,835384,1,8,0:0:0:0:
431,318,835517,1,0,0:0:0:0:
431,318,835650,1,8,0:0:0:0:
431,318,835784,1,8,0:0:0:0:
365,283,835917,1,0,0:0:0:0:
365,283,836050,1,0,0:0:0:0:
435,300,836184,1,8,0:0:0:0:
435,300,836317,1,0,0:0:0:0:
426,295,836584,1,8,0:0:0:0:
426,295,836717,1,0,0:0:0:0:
413,281,836984,1,4,0:0:0:0:
419,275,837250,1,0,0:0:0:0:
419,277,837517,1,12,0:0:0:0:
391,299,837784,1,8,0:0:0:0:
391,299,837917,1,8,0:0:0:0:
391,299,838050,1,0,0:0:0:0:
391,299,838184,1,0,0:0:0:0:
391,299,838317,1,8,0:0:0:0:
391,299,838450,1,0,0:0:0:0:
401,299,838717,1,8,0:0:0:0:
401,299,838850,1,0,0:0:0:0:
415,313,838984,1,0,0:0:0:0:
401,299,839117,1,8,0:0:0:0:
341,225,839384,1,8,0:0:0:0:
341,225,839650,1,0,0:0:0:0:
341,225,839784,1,0,0:0:0:0:
341,225,839917,1,8,0:0:0:0:
369,207,840050,1,8,0:0:0:0:
364,227,840184,1,0,0:0:0:0:
364,227,840317,1,0,0:0:0:0:
364,227,840450,1,8,0:0:0:0:
364,227,840584,1,0,0:0:0:0:
346,264,840850,1,0,0:0:0:0:
346,263,841117,1,8,0:0:0:0:
346,263,841250,1,4,0:0:0:0:
346,263,841517,1,0,0:0:0:0:
372,281,841784,1,12,0:0:0:0:
337,257,842050,1,8,0:0:0:0:
337,257,842184,1,8,0:0:0:0:
337,257,842317,1,0,0:0:0:0:
421,336,842450,1,0,0:0:0:0:
421,336,842584,1,0,0:0:0:0:
421,336,842717,1,8,0:0:0:0:
451,341,842984,1,0,0:0:0:0:
326,310,843117,1,0,0:0:0:0:
326,310,843250,1,0,0:0:0:0:
311,294,843384,1,8,0:0:0:0:
303,301,843650,1,8,0:0:0:0:
387,255,843917,1,0,0:0:0:0:
387,255,844050,1,0,0:0:0:0:
387,255,844184,1,8,0:0:0:0:
387,255,844317,1,8,0:0:0:0:
365,283,844450,1,0,0:0:0:0:
365,283,844584,1,0,0:0:0:0:
435,300,844717,1,8,0:0:0:0:
435,300,844850,1,0,0:0:0:0:
426,295,845117,1,8,0:0:0:0:
426,295,845250,1,0,0:0:0:0:
413,281,845517,1,4,0:0:0:0:
419,275,845784,1,0,0:0:0:0:
419,277,846050,1,12,0:0:0:0:
391,299,846317,1,8,0:0:0:0:
391,299,846450,1,8,0:0:0:0:
391,299,846584,1,0,0:0:0:0:
391,299,846717,1,0,0:0:0:0:
391,299,846850,1,8,0:0:0:0:
391,299,846984,1,0,0:0:0:0:
401,299,847250,1,8,0:0:0:0:
401,299,847384,1,0,0:0:0:0:
415,313,847517,1,0,0:0:0:0:
401,299,847650,1,8,0:0:0:0:
341,225,847917,1,8,0:0:0:0:
341,225,848184,1,0,0:0:0:0:
341,225,848317,1,0,0:0:0:0:
341,225,848450,1,8,0:0:0:0:
369,207,848584,1,8,0:0:0:0:
364,227,848717,1,0,0:0:0:0:
364,227,848850,1,0,0:0:0:0:
364,227,848984,1,8,0:0:0:0:
364,227,849117,1,0,0:0:0:0:
346,264,849384,1,0,0:0:0:0:
346,263,849650,1,8,0:0:0:0:
346,263,849784,1,4,0:0:0:0:
346,263,850050,1,0,0:0:0:0:
372,281,850317,1,12,0:0:0:0:
337,257,850584,1,8,0:0:0:0:
337,257,850717,1,8,0:0:0:0:
337,257,850850,1,0,0:0:0:0:
421,336,850984,1,0,0:0:0:0:
421,336,851117,1,0,0:0:0:0:
421,336,851250,1,8,0:0:0:0:
451,341,851517,1,0,0:0:0:0:
326,310,851650,1,0,0:0:0:0:
326,310,851784,1,0,0:0:0:0:
311,294,851917,1,8,0:0:0:0:
303,301,852184,1,8,0:0:0:0:
387,255,852450,1,0,0:0:0:0:
387,255,852584,1,0,0:0:0:0:
387,255,852717,1,8,0:0:0:0:
387,255,852850,1,8,0:0:0:0:
311,314,852984,1,4,0:0:0:0:
486,364,853250,1,0,0:0:0:0:
486,364,853384,1,0,0:0:0:0:
486,364,853517,1,8,0:0:0:0:
496,346,853784,1,0,0:0:0:0:
456,316,854050,1,8,0:0:0:0:
349,323,854184,1,0,0:0:0:0:
349,323,854317,1,0,0:0:0:0:
349,323,854450,1,0,0:0:0:0:
349,323,854584,1,8,0:0:0:0:
388,333,854850,1,0,0:0:0:0:
360,310,855117,1,8,0:0:0:0:
359,313,855384,1,8,0:0:0:0:
359,313,855517,1,8,0:0:0:0:
359,313,855650,1,0,0:0:0:0:
382,309,855784,1,8,0:0:0:0:
382,309,855917,1,0,0:0:0:0:
382,309,856050,1,0,0:0:0:0:
382,309,856184,1,8,0:0:0:0:
341,273,856450,1,0,0:0:0:0:
341,273,856584,1,0,0:0:0:0:
341,273,856717,1,8,0:0:0:0:
341,273,856984,1,0,0:0:0:0:
353,268,857250,1,0,0:0:0:0:
353,268,857384,1,0,0:0:0:0:
353,268,857517,1,8,0:0:0:0:
353,268,857650,1,8,0:0:0:0:
353,268,857784,1,0,0:0:0:0:
369,311,858050,1,0,0:0:0:0:
408,318,858317,1,8,0:0:0:0:
369,310,858584,1,8,0:0:0:0:
364,275,858717,1,0,0:0:0:0:
364,275,858850,1,8,0:0:0:0:
369,270,858984,1,8,0:0:0:0:
369,270,859117,1,0,0:0:0:0:
400,306,859384,1,0,0:0:0:0:
388,299,859650,1,8,0:0:0:0:
388,299,859784,1,8,0:0:0:0:
388,299,859917,1,0,0:0:0:0:
408,296,860184,1,8,0:0:0:0:
410,320,860450,1,8,0:0:0:0:
410,320,860584,1,0,0:0:0:0:
410,320,860717,1,8,0:0:0:0:
410,320,860850,1,8,0:0:0:0:
410,320,860984,1,0,0:0:0:0:
410,320,861117,1,8,0:0:0:0:
410,320,861250,1,8,0:0:0:0:
410,320,861384,1,8,0:0:0:0:
410,320,861517,1,4,0:0:0:0:
486,364,861784,1,0,0:0:0:0:
486,364,861917,1,0,0:0:0:0:
486,364,862050,1,8,0:0:0:0:
496,346,862317,1,0,0:0:0:0:
456,316,862584,1,12,0:0:0:0:
349,323,862850,1,0,0:0:0:0:
349,323,862984,1,0,0:0:0:0:
349,323,863117,1,8,0:0:0:0:
388,333,863384,1,0,0:0:0:0:
360,310,863650,1,8,0:0:0:0:
359,313,863917,1,8,0:0:0:0:
359,313,864050,1,8,0:0:0:0:
359,313,864184,1,0,0:0:0:0:
382,309,864317,1,8,0:0:0:0:
382,309,864450,1,0,0:0:0:0:
382,309,864584,1,0,0:0:0:0:
382,309,864717,1,12,0:0:0:0:
341,273,864984,1,0,0:0:0:0:
341,273,865117,1,0,0:0:0:0:
341,273,865250,1,8,0:0:0:0:
341,273,865517,1,0,0:0:0:0:
353,268,865784,1,0,0:0:0:0:
353,268,865917,1,0,0:0:0:0:
353,268,866050,1,8,0:0:0:0:
353,268,866184,1,8,0:0:0:0:
353,268,866317,1,0,0:0:0:0:
369,311,866584,1,0,0:0:0:0:
408,318,866850,1,12,0:0:0:0:
427,302,867117,1,0,0:0:0:0:
427,301,867383,1,12,0:0:0:0:
386,329,867658,1,8,0:0:0:0:
386,329,867795,1,0,0:0:0:0:
386,329,867933,1,8,0:0:0:0:
386,329,868072,1,8,0:0:0:0:
386,329,868212,1,0,0:0:0:0:
383,335,868351,1,0,0:0:0:0:
377,282,868633,1,8,0:0:0:0:
413,334,868776,1,0,0:0:0:0:
354,335,869062,1,8,0:0:0:0:
348,322,869204,1,8,0:0:0:0:
348,322,869347,1,0,0:0:0:0:
348,322,869490,1,8,0:0:0:0:
382,254,869633,1,0,0:0:0:0:
418,247,869779,1,8,0:0:0:0:
418,247,869925,1,0,0:0:0:0:
507,327,870218,1,8,0:0:0:0:
507,327,870293,1,8,0:0:0:0:
507,327,870368,1,0,0:0:0:0:
311,292,870518,1,8,0:0:0:0:
311,292,870593,1,0,0:0:0:0:
311,292,870668,1,0,0:0:0:0:
421,282,870818,1,0,0:0:0:0:
421,282,870968,1,0,0:0:0:0:
421,282,871118,1,12,0:0:0:0:
422,300,871268,1,0,0:0:0:0:
422,282,871418,1,12,0:0:0:0:
422,300,871568,1,0,0:0:0:0:
422,282,871718,1,12,0:0:0:0:
370,290,872018,1,0,0:0:0:0:
370,290,872093,1,0,0:0:0:0:
370,290,872168,1,0,0:0:0:0:
370,290,872318,1,8,0:0:0:0:
370,290,872393,1,0,0:0:0:0:
370,290,872468,1,0,0:0:0:0:
370,290,872618,1,0,0:0:0:0:
370,290,872768,1,0,0:0:0:0:
370,290,872918,1,12,0:0:0:0:
465,296,873068,1,0,0:0:0:0:
370,290,873218,1,12,0:0:0:0:
465,296,873368,1,0,0:0:0:0:
370,290,873518,1,12,0:0:0:0:
445,366,873818,1,0,0:0:0:0:
445,366,873893,1,0,0:0:0:0:
445,366,873968,1,0,0:0:0:0:
445,366,874118,1,0,0:0:0:0:
445,366,874193,1,0,0:0:0:0:
445,366,874268,1,0,0:0:0:0:
468,372,874418,1,0,0:0:0:0:
468,372,874568,1,0,0:0:0:0:
468,372,874718,1,12,0:0:0:0:
468,372,874868,1,0,0:0:0:0:
468,372,875018,1,12,0:0:0:0:
468,372,875168,1,0,0:0:0:0:
468,372,875318,1,12,0:0:0:0:
336,337,875618,1,8,0:0:0:0:
336,337,875693,1,8,0:0:0:0:
336,337,875768,1,0,0:0:0:0:
336,337,875918,1,8,0:0:0:0:
336,337,875993,1,8,0:0:0:0:
336,337,876068,1,0,0:0:0:0:
336,337,876218,1,0,0:0:0:0:
336,337,876368,1,0,0:0:0:0:
336,337,876518,1,12,0:0:0:0:
336,337,876668,1,0,0:0:0:0:
336,337,876818,1,12,0:0:0:0:
336,337,876968,1,0,0:0:0:0:
336,337,877118,1,12,0:0:0:0:
507,327,877418,1,8,0:0:0:0:
507,327,877493,1,8,0:0:0:0:
507,327,877568,1,0,0:0:0:0:
311,292,877718,1,8,0:0:0:0:
311,292,877793,1,0,0:0:0:0:
311,292,877868,1,0,0:0:0:0:
421,282,878018,1,0,0:0:0:0:
421,282,878168,1,0,0:0:0:0:
421,282,878318,1,12,0:0:0:0:
422,300,878468,1,0,0:0:0:0:
422,282,878618,1,12,0:0:0:0:
422,300,878768,1,0,0:0:0:0:
422,282,878918,1,12,0:0:0:0:
370,290,879218,1,0,0:0:0:0:
370,290,879293,1,0,0:0:0:0:
370,290,879368,1,0,0:0:0:0:
370,290,879518,1,8,0:0:0:0:
370,290,879593,1,0,0:0:0:0:
370,290,879668,1,0,0:0:0:0:
370,290,879818,1,0,0:0:0:0:
370,290,879968,1,0,0:0:0:0:
370,290,880118,1,12,0:0:0:0:
465,296,880268,1,0,0:0:0:0:
370,290,880418,1,12,0:0:0:0:
465,296,880568,1,0,0:0:0:0:
370,290,880718,1,12,0:0:0:0:
445,366,881018,1,0,0:0:0:0:
445,366,881093,1,0,0:0:0:0:
445,366,881168,1,0,0:0:0:0:
445,366,881318,1,0,0:0:0:0:
445,366,881393,1,0,0:0:0:0:
445,366,881468,1,0,0:0:0:0:
468,372,881618,1,0,0:0:0:0:
468,372,881768,1,0,0:0:0:0:
468,372,881918,1,12,0:0:0:0:
468,372,882068,1,0,0:0:0:0:
468,372,882218,1,12,0:0:0:0:
468,372,882368,1,0,0:0:0:0:
468,372,882518,1,12,0:0:0:0:
336,337,882818,1,8,0:0:0:0:
336,337,882893,1,8,0:0:0:0:
336,337,882968,1,0,0:0:0:0:
336,337,883118,1,8,0:0:0:0:
336,337,883193,1,8,0:0:0:0:
336,337,883268,1,0,0:0:0:0:
336,337,883418,1,0,0:0:0:0:
336,337,883568,1,0,0:0:0:0:
336,337,883718,1,12,0:0:0:0:
336,337,883868,1,0,0:0:0:0:
336,337,884018,1,12,0:0:0:0:
336,337,884168,1,0,0:0:0:0:
336,337,884318,1,12,0:0:0:0:
388,313,884618,1,8,0:0:0:0:
388,313,884693,1,8,0:0:0:0:
388,313,884768,1,0,0:0:0:0:
388,313,884843,1,0,0:0:0:0:
388,313,884918,1,8,0:0:0:0:
388,313,884993,1,0,0:0:0:0:
388,313,885068,1,0,0:0:0:0:
388,313,885143,1,0,0:0:0:0:
392,317,885218,1,8,0:0:0:0:
392,317,885293,1,0,0:0:0:0:
392,317,885368,1,8,0:0:0:0:
392,317,885443,1,0,0:0:0:0:
392,317,885518,1,8,0:0:0:0:
392,317,885593,1,8,0:0:0:0:
427,305,885668,1,0,0:0:0:0:
392,317,885743,1,0,0:0:0:0:
392,317,885818,1,8,0:0:0:0:
392,317,885893,1,8,0:0:0:0:
427,305,885968,1,0,0:0:0:0:
392,317,886043,1,0,0:0:0:0:
392,317,886118,1,8,0:0:0:0:
392,317,886193,1,8,0:0:0:0:
392,317,886268,1,8,0:0:0:0:
401,258,886343,1,8,0:0:0:0:
401,258,886418,1,0,0:0:0:0:
401,258,886493,1,0,0:0:0:0:
401,258,886568,1,0,0:0:0:0:
401,258,886643,1,0,0:0:0:0:
381,309,886718,1,8,0:0:0:0:
381,309,886793,1,0,0:0:0:0:
381,309,886868,1,0,0:0:0:0:
381,309,886943,1,0,0:0:0:0:
381,309,887018,1,8,0:0:0:0:
381,309,887093,1,0,0:0:0:0:
381,309,887168,1,8,0:0:0:0:
381,309,887243,1,0,0:0:0:0:
339,261,887318,1,8,0:0:0:0:
339,261,887393,1,8,0:0:0:0:
339,261,887468,1,0,0:0:0:0:
339,261,887543,1,0,0:0:0:0:
339,261,887618,1,8,0:0:0:0:
339,261,887693,1,8,0:0:0:0:
339,261,887768,1,0,0:0:0:0:
339,261,887843,1,0,0:0:0:0:
339,261,887918,1,8,0:0:0:0:
339,261,887993,1,8,0:0:0:0:
339,261,888068,1,8,0:0:0:0:
339,261,888143,1,8,0:0:0:0:
339,261,888218,1,0,0:0:0:0:
339,261,888293,1,0,0:0:0:0:
339,261,888368,1,0,0:0:0:0:
339,261,888443,1,0,0:0:0:0:
374,316,888518,1,8,0:0:0:0:
374,316,888593,1,0,0:0:0:0:
374,316,888668,1,0,0:0:0:0:
374,316,888743,1,0,0:0:0:0:
374,316,888818,1,8,0:0:0:0:
374,316,888893,1,0,0:0:0:0:
374,316,888968,1,8,0:0:0:0:
374,316,889043,1,0,0:0:0:0:
374,316,889118,1,8,0:0:0:0:
374,316,889193,1,8,0:0:0:0:
374,316,889268,1,0,0:0:0:0:
374,316,889343,1,0,0:0:0:0:
374,316,889418,1,8,0:0:0:0:
374,316,889493,1,8,0:0:0:0:
374,316,889568,1,0,0:0:0:0:
374,316,889643,1,0,0:0:0:0:
374,316,889718,1,8,0:0:0:0:
374,316,889793,1,8,0:0:0:0:
374,316,889868,1,8,0:0:0:0:
406,318,889943,1,8,0:0:0:0:
406,318,890018,1,0,0:0:0:0:
406,318,890093,1,0,0:0:0:0:
406,318,890168,1,0,0:0:0:0:
406,318,890243,1,0,0:0:0:0:
406,318,890318,1,8,0:0:0:0:
406,318,890393,1,0,0:0:0:0:
406,318,890468,1,0,0:0:0:0:
406,318,890543,1,0,0:0:0:0:
406,318,890618,1,8,0:0:0:0:
423,317,890693,1,0,0:0:0:0:
423,317,890768,1,8,0:0:0:0:
423,318,890843,1,0,0:0:0:0:
423,317,890918,1,8,0:0:0:0:
423,317,890993,1,8,0:0:0:0:
423,318,891068,1,0,0:0:0:0:
423,317,891143,1,0,0:0:0:0:
423,317,891218,1,8,0:0:0:0:
423,318,891293,1,8,0:0:0:0:
423,317,891368,1,0,0:0:0:0:
423,317,891443,1,0,0:0:0:0:
423,318,891518,1,8,0:0:0:0:
423,317,891593,1,8,0:0:0:0:
423,317,891668,1,8,0:0:0:0:
369,275,891743,1,8,0:0:0:0:
374,276,891818,1,0,0:0:0:0:
374,276,891893,1,0,0:0:0:0:
374,275,891968,1,0,0:0:0:0:
374,276,892043,1,0,0:0:0:0:
376,295,892118,1,8,0:0:0:0:
376,295,892193,1,0,0:0:0:0:
376,295,892268,1,0,0:0:0:0:
376,295,892343,1,0,0:0:0:0:
376,295,892418,1,8,0:0:0:0:
376,295,892493,1,0,0:0:0:0:
376,295,892568,1,8,0:0:0:0:
412,321,892718,1,12,0:0:0:0:
380,283,892868,1,0,0:0:0:0:
380,283,892943,1,0,0:0:0:0:
472,327,893018,1,8,0:0:0:0:
472,327,893093,1,8,0:0:0:0:
472,327,893168,1,0,0:0:0:0:
472,327,893243,1,0,0:0:0:0:
472,327,893318,1,8,0:0:0:0:
472,327,893393,1,8,0:0:0:0:
472,327,893468,1,8,0:0:0:0:
472,327,893543,1,8,0:0:0:0:
472,327,893618,1,0,0:0:0:0:
472,327,893693,1,0,0:0:0:0:
472,327,893768,1,0,0:0:0:0:
472,327,893843,1,0,0:0:0:0:
483,324,893918,1,8,0:0:0:0:
483,324,893993,1,0,0:0:0:0:
483,324,894068,1,0,0:0:0:0:
483,324,894143,1,0,0:0:0:0:
483,324,894218,1,8,0:0:0:0:
483,324,894293,1,0,0:0:0:0:
483,324,894368,1,8,0:0:0:0:
483,324,894518,1,12,0:0:0:0:
407,251,894668,1,0,0:0:0:0:
407,251,894743,1,0,0:0:0:0:
407,251,894818,1,8,0:0:0:0:
407,251,894893,1,8,0:0:0:0:
407,251,894968,1,0,0:0:0:0:
407,251,895043,1,0,0:0:0:0:
407,251,895118,1,8,0:0:0:0:
407,251,895193,1,8,0:0:0:0:
407,251,895268,1,8,0:0:0:0:
407,251,895343,1,8,0:0:0:0:
407,251,895418,1,0,0:0:0:0:
407,251,895493,1,0,0:0:0:0:
407,251,895568,1,0,0:0:0:0:
407,251,895643,1,0,0:0:0:0:
414,249,895718,1,8,0:0:0:0:
414,249,895793,1,0,0:0:0:0:
414,249,895868,1,0,0:0:0:0:
414,249,895943,1,0,0:0:0:0:
414,249,896018,1,8,0:0:0:0:
414,249,896093,1,0,0:0:0:0:
414,249,896168,1,8,0:0:0:0:
402,247,896318,1,12,0:0:0:0:
489,333,896468,1,0,0:0:0:0:
489,333,896543,1,0,0:0:0:0:
489,333,896618,1,8,0:0:0:0:
489,333,896693,1,8,0:0:0:0:
489,333,896768,1,0,0:0:0:0:
489,333,896843,1,0,0:0:0:0:
489,333,896918,1,8,0:0:0:0:
489,333,896993,1,8,0:0:0:0:
489,333,897068,1,8,0:0:0:0:
489,333,897143,1,8,0:0:0:0:
429,342,897218,1,0,0:0:0:0:
429,342,897293,1,0,0:0:0:0:
429,342,897368,1,0,0:0:0:0:
429,342,897443,1,0,0:0:0:0:
429,342,897518,1,8,0:0:0:0:
429,342,897593,1,0,0:0:0:0:
429,342,897668,1,0,0:0:0:0:
429,342,897743,1,0,0:0:0:0:
478,354,897818,1,8,0:0:0:0:
508,339,897893,1,8,0:0:0:0:
493,363,897968,1,0,0:0:0:0:
387,377,898043,1,0,0:0:0:0:
461,348,898118,1,8,0:0:0:0:
461,348,898268,1,8,0:0:0:0:
461,348,898418,1,8,0:0:0:0:
461,348,898568,1,8,0:0:0:0:
461,348,898718,1,8,0:0:0:0:
461,348,898868,1,8,0:0:0:0:
507,327,899018,1,8,0:0:0:0:
507,327,899093,1,8,0:0:0:0:
507,327,899168,1,0,0:0:0:0:
311,292,899318,1,8,0:0:0:0:
311,292,899393,1,0,0:0:0:0:
311,292,899468,1,0,0:0:0:0:
421,282,899618,1,0,0:0:0:0:
421,282,899768,1,0,0:0:0:0:
421,282,899918,1,12,0:0:0:0:
422,300,900068,1,0,0:0:0:0:
422,282,900218,1,12,0:0:0:0:
422,300,900368,1,0,0:0:0:0:
422,282,900518,1,12,0:0:0:0:
370,290,900818,1,0,0:0:0:0:
370,290,900893,1,0,0:0:0:0:
370,290,900968,1,0,0:0:0:0:
370,290,901118,1,8,0:0:0:0:
370,290,901193,1,0,0:0:0:0:
370,290,901268,1,0,0:0:0:0:
370,290,901418,1,0,0:0:0:0:
370,290,901568,1,0,0:0:0:0:
370,290,901718,1,12,0:0:0:0:
465,296,901868,1,0,0:0:0:0:
370,290,902018,1,12,0:0:0:0:
465,296,902168,1,0,0:0:0:0:
370,290,902318,1,12,0:0:0:0:
445,366,902618,1,0,0:0:0:0:
445,366,902693,1,0,0:0:0:0:
445,366,902768,1,0,0:0:0:0:
445,366,902918,1,0,0:0:0:0:
445,366,902993,1,0,0:0:0:0:
445,366,903068,1,0,0:0:0:0:
468,372,903218,1,0,0:0:0:0:
468,372,903368,1,0,0:0:0:0:
468,372,903518,1,12,0:0:0:0:
468,372,903668,1,0,0:0:0:0:
468,372,903818,1,12,0:0:0:0:
468,372,903968,1,0,0:0:0:0:
468,372,904118,1,12,0:0:0:0:
336,337,904418,1,8,0:0:0:0:
336,337,904493,1,8,0:0:0:0:
336,337,904568,1,0,0:0:0:0:
336,337,904718,1,8,0:0:0:0:
336,337,904793,1,8,0:0:0:0:
336,337,904868,1,0,0:0:0:0:
336,337,905018,1,0,0:0:0:0:
336,337,905168,1,0,0:0:0:0:
336,337,905318,1,12,0:0:0:0:
336,337,905468,1,0,0:0:0:0:
336,337,905618,1,12,0:0:0:0:
336,337,905768,1,0,0:0:0:0:
336,337,905918,1,12,0:0:0:0:
507,327,906218,1,8,0:0:0:0:
507,327,906293,1,8,0:0:0:0:
507,327,906368,1,0,0:0:0:0:
311,292,906518,1,8,0:0:0:0:
311,292,906593,1,0,0:0:0:0:
311,292,906668,1,0,0:0:0:0:
421,282,906818,1,0,0:0:0:0:
421,282,906968,1,0,0:0:0:0:
421,282,907118,1,12,0:0:0:0:
422,300,907268,1,0,0:0:0:0:
422,282,907418,1,12,0:0:0:0:
422,300,907568,1,0,0:0:0:0:
422,282,907718,1,12,0:0:0:0:
370,290,908018,1,0,0:0:0:0:
370,290,908093,1,0,0:0:0:0:
370,290,908168,1,0,0:0:0:0:
370,290,908318,1,8,0:0:0:0:
370,290,908393,1,0,0:0:0:0:
370,290,908468,1,0,0:0:0:0:
370,290,908618,1,0,0:0:0:0:
370,290,908768,1,0,0:0:0:0:
370,290,908918,1,12,0:0:0:0:
465,296,909068,1,0,0:0:0:0:
370,290,909218,1,12,0:0:0:0:
465,296,909368,1,0,0:0:0:0:
370,290,909518,1,12,0:0:0:0:
445,366,909818,1,0,0:0:0:0:
445,366,909893,1,0,0:0:0:0:
445,366,909968,1,0,0:0:0:0:
445,366,910118,1,0,0:0:0:0:
445,366,910193,1,0,0:0:0:0:
445,366,910268,1,0,0:0:0:0:
468,372,910418,1,0,0:0:0:0:
468,372,910568,1,0,0:0:0:0:
468,372,910718,1,12,0:0:0:0:
468,372,910868,1,0,0:0:0:0:
468,372,911018,1,12,0:0:0:0:
468,372,911168,1,0,0:0:0:0:
468,372,911318,1,12,0:0:0:0:
336,337,911618,1,8,0:0:0:0:
336,337,911693,1,8,0:0:0:0:
336,337,911768,1,0,0:0:0:0:
336,337,911918,1,8,0:0:0:0:
336,337,911993,1,8,0:0:0:0:
336,337,912068,1,0,0:0:0:0:
336,337,912218,1,0,0:0:0:0:
336,337,912368,1,0,0:0:0:0:
336,337,912518,1,12,0:0:0:0:
336,337,912668,1,0,0:0:0:0:
336,337,912818,1,12,0:0:0:0:
336,337,912968,1,0,0:0:0:0:
336,337,913118,1,12,0:0:0:0:
388,313,913418,1,8,0:0:0:0:
388,313,913493,1,8,0:0:0:0:
388,313,913568,1,0,0:0:0:0:
388,313,913643,1,0,0:0:0:0:
388,313,913718,1,8,0:0:0:0:
388,313,913793,1,0,0:0:0:0:
388,313,913868,1,0,0:0:0:0:
388,313,913943,1,0,0:0:0:0:
392,317,914018,1,8,0:0:0:0:
392,317,914093,1,0,0:0:0:0:
392,317,914168,1,8,0:0:0:0:
392,317,914243,1,0,0:0:0:0:
392,317,914318,1,8,0:0:0:0:
392,317,914393,1,8,0:0:0:0:
427,305,914468,1,0,0:0:0:0:
392,317,914543,1,0,0:0:0:0:
392,317,914618,1,8,0:0:0:0:
392,317,914693,1,8,0:0:0:0:
427,305,914768,1,0,0:0:0:0:
392,317,914843,1,0,0:0:0:0:
392,317,914918,1,8,0:0:0:0:
392,317,914993,1,8,0:0:0:0:
392,317,915068,1,8,0:0:0:0:
401,258,915143,1,8,0:0:0:0:
401,258,915218,1,0,0:0:0:0:
401,258,915293,1,0,0:0:0:0:
401,258,915368,1,0,0:0:0:0:
401,258,915443,1,0,0:0:0:0:
381,309,915518,1,8,0:0:0:0:
381,309,915593,1,0,0:0:0:0:
381,309,915668,1,0,0:0:0:0:
381,309,915743,1,0,0:0:0:0:
381,309,915818,1,8,0:0:0:0:
381,309,915893,1,0,0:0:0:0:
381,309,915968,1,8,0:0:0:0:
381,309,916043,1,0,0:0:0:0:
339,261,916118,1,8,0:0:0:0:
339,261,916193,1,8,0:0:0:0:
339,261,916268,1,0,0:0:0:0:
339,261,916343,1,0,0:0:0:0:
339,261,916418,1,8,0:0:0:0:
339,261,916493,1,8,0:0:0:0:
339,261,916568,1,0,0:0:0:0:
339,261,916643,1,0,0:0:0:0:
339,261,916718,1,8,0:0:0:0:
339,261,916793,1,8,0:0:0:0:
339,261,916868,1,8,0:0:0:0:
339,261,916943,1,8,0:0:0:0:
339,261,917018,1,0,0:0:0:0:
339,261,917093,1,0,0:0:0:0:
339,261,917168,1,0,0:0:0:0:
339,261,917243,1,0,0:0:0:0:
374,316,917318,1,8,0:0:0:0:
374,316,917393,1,0,0:0:0:0:
374,316,917468,1,0,0:0:0:0:
374,316,917543,1,0,0:0:0:0:
374,316,917618,1,8,0:0:0:0:
374,316,917693,1,0,0:0:0:0:
374,316,917768,1,8,0:0:0:0:
374,316,917843,1,0,0:0:0:0:
374,316,917918,1,8,0:0:0:0:
374,316,917993,1,8,0:0:0:0:
374,316,918068,1,0,0:0:0:0:
374,316,918143,1,0,0:0:0:0:
374,316,918218,1,8,0:0:0:0:
374,316,918293,1,8,0:0:0:0:
374,316,918368,1,0,0:0:0:0:
374,316,918443,1,0,0:0:0:0:
374,316,918518,1,8,0:0:0:0:
374,316,918593,1,8,0:0:0:0:
374,316,918668,1,8,0:0:0:0:
406,318,918743,1,8,0:0:0:0:
406,318,918818,1,0,0:0:0:0:
406,318,918893,1,0,0:0:0:0:
406,318,918968,1,0,0:0:0:0:
406,318,919043,1,0,0:0:0:0:
406,318,919118,1,8,0:0:0:0:
406,318,919193,1,0,0:0:0:0:
406,318,919268,1,0,0:0:0:0:
406,318,919343,1,0,0:0:0:0:
406,318,919418,1,8,0:0:0:0:
423,317,919493,1,0,0:0:0:0:
423,317,919568,1,8,0:0:0:0:
423,318,919643,1,0,0:0:0:0:
423,317,919718,1,8,0:0:0:0:
423,317,919793,1,8,0:0:0:0:
423,318,919868,1,0,0:0:0:0:
423,317,919943,1,0,0:0:0:0:
423,317,920018,1,8,0:0:0:0:
423,318,920093,1,8,0:0:0:0:
423,317,920168,1,0,0:0:0:0:
423,317,920243,1,0,0:0:0:0:
423,318,920318,1,8,0:0:0:0:
423,317,920393,1,8,0:0:0:0:
423,317,920468,1,8,0:0:0:0:
369,275,920543,1,8,0:0:0:0:
374,276,920618,1,0,0:0:0:0:
374,276,920693,1,0,0:0:0:0:
374,275,920768,1,0,0:0:0:0:
374,276,920843,1,0,0:0:0:0:
376,295,920918,1,8,0:0:0:0:
376,295,920993,1,0,0:0:0:0:
376,295,921068,1,0,0:0:0:0:
376,295,921143,1,0,0:0:0:0:
376,295,921218,1,8,0:0:0:0:
376,295,921293,1,0,0:0:0:0:
376,295,921368,1,8,0:0:0:0:
412,321,921518,1,12,0:0:0:0:
380,283,921668,1,0,0:0:0:0:
380,283,921743,1,0,0:0:0:0:
472,327,921818,1,8,0:0:0:0:
472,327,921893,1,8,0:0:0:0:
472,327,921968,1,0,0:0:0:0:
472,327,922043,1,0,0:0:0:0:
472,327,922118,1,8,0:0:0:0:
472,327,922193,1,8,0:0:0:0:
472,327,922268,1,8,0:0:0:0:
472,327,922343,1,8,0:0:0:0:
472,327,922418,1,0,0:0:0:0:
472,327,922493,1,0,0:0:0:0:
472,327,922568,1,0,0:0:0:0:
472,327,922643,1,0,0:0:0:0:
483,324,922718,1,8,0:0:0:0:
483,324,922793,1,0,0:0:0:0:
483,324,922868,1,0,0:0:0:0:
483,324,922943,1,0,0:0:0:0:
483,324,923018,1,8,0:0:0:0:
483,324,923093,1,0,0:0:0:0:
483,324,923168,1,8,0:0:0:0:
483,324,923318,1,12,0:0:0:0:
407,251,923468,1,0,0:0:0:0:
407,251,923543,1,0,0:0:0:0:
407,251,923618,1,8,0:0:0:0:
407,251,923693,1,8,0:0:0:0:
407,251,923768,1,0,0:0:0:0:
407,251,923843,1,0,0:0:0:0:
407,251,923918,1,8,0:0:0:0:
407,251,923993,1,8,0:0:0:0:
407,251,924068,1,8,0:0:0:0:
407,251,924143,1,8,0:0:0:0:
407,251,924218,1,0,0:0:0:0:
407,251,924293,1,0,0:0:0:0:
407,251,924368,1,0,0:0:0:0:
407,251,924443,1,0,0:0:0:0:
414,249,924518,1,8,0:0:0:0:
414,249,924593,1,0,0:0:0:0:
414,249,924668,1,0,0:0:0:0:
414,249,924743,1,0,0:0:0:0:
414,249,924818,1,8,0:0:0:0:
414,249,924893,1,0,0:0:0:0:
414,249,924968,1,8,0:0:0:0:
402,247,925118,1,12,0:0:0:0:
489,333,925268,1,0,0:0:0:0:
489,333,925343,1,0,0:0:0:0:
489,333,925418,1,8,0:0:0:0:
489,333,925493,1,8,0:0:0:0:
489,333,925568,1,0,0:0:0:0:
489,333,925643,1,0,0:0:0:0:
489,333,925718,1,8,0:0:0:0:
489,333,925793,1,8,0:0:0:0:
489,333,925868,1,8,0:0:0:0:
489,333,925943,1,8,0:0:0:0:
303,340,926018,1,0,0:0:0:0:
303,340,926093,1,0,0:0:0:0:
303,340,926168,1,0,0:0:0:0:
303,340,926243,1,0,0:0:0:0:
443,337,926318,1,8,0:0:0:0:
443,337,926393,1,0,0:0:0:0:
443,337,926468,1,8,0:0:0:0:
443,337,926543,1,8,0:0:0:0:
483,353,926618,1,0,0:0:0:0:
483,353,926693,1,0,0:0:0:0:
483,353,926768,1,8,0:0:0:0:
377,300,926918,1,12,0:0:0:0:
435,217,927218,1,12,0:0:0:0:
467,221,927518,1,0,0:0:0:0:
467,221,927593,1,0,0:0:0:0:
467,221,927668,1,0,0:0:0:0:
467,221,927743,1,0,0:0:0:0:
471,319,927818,1,8,0:0:0:0:
471,319,927893,1,8,0:0:0:0:
471,319,927968,1,0,0:0:0:0:
471,319,928043,1,0,0:0:0:0:
471,319,928118,1,8,0:0:0:0:
471,319,928193,1,0,0:0:0:0:
471,319,928268,1,8,0:0:0:0:
471,319,928343,1,8,0:0:0:0:
395,273,928418,1,8,0:0:0:0:
395,273,928493,1,0,0:0:0:0:
395,273,928568,1,8,0:0:0:0:
395,273,928643,1,8,0:0:0:0:
407,270,928718,1,0,0:0:0:0:
407,270,928793,1,0,0:0:0:0:
407,270,928868,1,0,0:0:0:0:
407,270,928943,1,0,0:0:0:0:
454,276,929018,1,8,0:0:0:0:
454,276,929093,1,8,0:0:0:0:
454,276,929168,1,0,0:0:0:0:
454,276,929243,1,0,0:0:0:0:
454,276,929318,1,8,0:0:0:0:
454,276,929393,1,0,0:0:0:0:
435,368,929468,1,0,0:0:0:0:
435,368,929543,1,0,0:0:0:0:
427,333,929618,1,8,0:0:0:0:
436,345,929693,1,8,0:0:0:0:
436,345,929768,1,0,0:0:0:0:
436,345,929843,1,8,0:0:0:0:
398,305,929918,1,0,0:0:0:0:
436,345,929993,1,0,0:0:0:0:
436,345,930068,1,8,0:0:0:0:
398,305,930143,1,8,0:0:0:0:
457,321,930218,1,8,0:0:0:0:
457,321,930293,1,0,0:0:0:0:
457,321,930368,1,8,0:0:0:0:
457,321,930443,1,8,0:0:0:0:
456,310,930518,1,0,0:0:0:0:
403,268,930593,1,0,0:0:0:0:
403,268,930668,1,8,0:0:0:0:
403,268,930743,1,8,0:0:0:0:
398,294,930818,1,0,0:0:0:0:
450,260,930893,1,8,0:0:0:0:
450,288,930968,1,0,0:0:0:0:
450,288,931043,1,8,0:0:0:0:
450,288,931118,1,0,0:0:0:0:
450,288,931193,1,0,0:0:0:0:
484,366,931268,1,0,0:0:0:0:
484,366,931343,1,0,0:0:0:0:
408,283,931418,1,8,0:0:0:0:
408,283,931493,1,8,0:0:0:0:
408,283,931568,1,0,0:0:0:0:
408,283,931643,1,0,0:0:0:0:
453,283,931718,1,8,0:0:0:0:
453,283,931793,1,0,0:0:0:0:
453,283,931868,1,8,0:0:0:0:
453,283,931943,1,8,0:0:0:0:
453,283,932018,1,8,0:0:0:0:
453,283,932093,1,0,0:0:0:0:
474,268,932168,1,8,0:0:0:0:
474,268,932243,1,8,0:0:0:0:
474,268,932318,1,0,0:0:0:0:
448,314,932393,1,0,0:0:0:0:
448,314,932468,1,0,0:0:0:0:
448,314,932543,1,0,0:0:0:0:
448,314,932618,1,8,0:0:0:0:
464,270,932693,1,0,0:0:0:0:
464,270,932768,1,0,0:0:0:0:
464,270,932843,1,0,0:0:0:0:
464,270,932918,1,8,0:0:0:0:
464,270,932993,1,8,0:0:0:0:
464,270,933068,1,0,0:0:0:0:
464,270,933143,1,0,0:0:0:0:
461,302,933218,1,8,0:0:0:0:
461,302,933293,1,0,0:0:0:0:
461,302,933368,1,0,0:0:0:0:
461,302,933443,1,0,0:0:0:0:
461,302,933518,1,8,0:0:0:0:
461,302,933593,1,0,0:0:0:0:
461,302,933668,1,8,0:0:0:0:
461,302,933743,1,8,0:0:0:0:
461,302,933818,1,8,0:0:0:0:
461,302,933893,1,0,0:0:0:0:
461,302,933968,1,8,0:0:0:0:
461,302,934043,1,8,0:0:0:0:
507,333,934118,1,0,0:0:0:0:
507,333,934193,1,0,0:0:0:0:
507,333,934268,1,0,0:0:0:0:
507,333,934343,1,0,0:0:0:0:
485,382,934418,1,8,0:0:0:0:
485,382,934493,1,0,0:0:0:0:
485,382,934568,1,8,0:0:0:0:
485,382,934643,1,0,0:0:0:0:
485,382,934718,1,8,0:0:0:0:
485,382,934793,1,0,0:0:0:0:
485,382,934868,1,8,0:0:0:0:
492,355,934943,1,0,0:0:0:0:
464,333,935018,1,8,0:0:0:0:
464,333,935093,1,8,0:0:0:0:
469,337,935168,1,8,0:0:0:0:
469,337,935243,1,8,0:0:0:0:
464,333,935318,1,0,0:0:0:0:
464,333,935393,1,0,0:0:0:0:
374,261,935468,1,8,0:0:0:0:
374,261,935543,1,8,0:0:0:0:
374,261,935618,1,8,0:0:0:0:
374,261,935693,1,0,0:0:0:0:
374,261,935768,1,8,0:0:0:0:
374,261,935843,1,8,0:0:0:0:
374,261,935918,1,0,0:0:0:0:
374,261,935993,1,0,0:0:0:0:
374,261,936068,1,0,0:0:0:0:
374,261,936143,1,0,0:0:0:0:
399,283,936218,1,8,0:0:0:0:
399,283,936293,1,8,0:0:0:0:
399,283,936368,1,0,0:0:0:0:
399,283,936443,1,0,0:0:0:0:
399,283,936518,1,8,0:0:0:0:
399,283,936593,1,0,0:0:0:0:
399,283,936668,1,0,0:0:0:0:
399,283,936743,1,0,0:0:0:0:
416,280,936818,1,8,0:0:0:0:
415,280,936893,1,8,0:0:0:0:
415,280,936968,1,0,0:0:0:0:
366,298,937043,1,8,0:0:0:0:
427,276,937118,1,0,0:0:0:0:
427,276,937193,1,0,0:0:0:0:
359,293,937268,1,8,0:0:0:0:
359,293,937343,1,8,0:0:0:0:
359,293,937418,1,8,0:0:0:0:
359,293,937493,1,0,0:0:0:0:
359,293,937568,1,8,0:0:0:0:
359,293,937643,1,8,0:0:0:0:
378,298,937718,1,0,0:0:0:0:
377,298,937793,1,0,0:0:0:0:
413,307,937868,1,8,0:0:0:0:
413,307,937943,1,8,0:0:0:0:
413,307,938018,1,0,0:0:0:0:
441,318,938093,1,8,0:0:0:0:
441,318,938168,1,0,0:0:0:0:
441,318,938243,1,8,0:0:0:0:
441,318,938318,1,0,0:0:0:0:
441,318,938393,1,0,0:0:0:0:
441,318,938468,1,0,0:0:0:0:
441,318,938543,1,0,0:0:0:0:
451,341,938618,1,8,0:0:0:0:
451,341,938693,1,8,0:0:0:0:
451,341,938768,1,0,0:0:0:0:
451,341,938843,1,0,0:0:0:0:
451,341,938918,1,8,0:0:0:0:
451,341,938993,1,0,0:0:0:0:
451,341,939068,1,8,0:0:0:0:
451,341,939143,1,8,0:0:0:0:
451,341,939218,1,8,0:0:0:0:
451,341,939293,1,0,0:0:0:0:
451,341,939368,1,8,0:0:0:0:
451,341,939443,1,8,0:0:0:0:
463,292,939518,1,0,0:0:0:0:
463,292,939593,1,0,0:0:0:0:
463,292,939668,1,0,0:0:0:0:
463,292,939743,1,0,0:0:0:0:
463,292,939818,1,8,0:0:0:0:
463,292,939893,1,8,0:0:0:0:
463,292,939968,1,0,0:0:0:0:
463,292,940043,1,0,0:0:0:0:
463,292,940118,1,8,0:0:0:0:
463,292,940193,1,8,0:0:0:0:
371,306,940268,1,8,0:0:0:0:
371,306,940343,1,8,0:0:0:0:
370,281,940418,1,0,0:0:0:0:
369,283,940493,1,0,0:0:0:0:
369,283,940568,1,0,0:0:0:0:
370,281,940643,1,0,0:0:0:0:
416,273,940718,1,8,0:0:0:0:
416,273,940793,1,0,0:0:0:0:
416,273,940868,1,0,0:0:0:0:
416,273,940943,1,0,0:0:0:0:
416,273,941018,1,8,0:0:0:0:
416,273,941093,1,0,0:0:0:0:
416,273,941168,1,8,0:0:0:0:
416,273,941243,1,8,0:0:0:0:
416,273,941318,1,0,0:0:0:0:
416,273,941393,1,0,0:0:0:0:
416,273,941468,1,0,0:0:0:0:
416,273,941543,1,0,0:0:0:0:
410,267,941618,1,8,0:0:0:0:
410,267,941693,1,0,0:0:0:0:
410,267,941768,1,0,0:0:0:0:
410,267,941843,1,0,0:0:0:0:
410,267,941918,1,8,0:0:0:0:
410,267,941993,1,0,0:0:0:0:
410,267,942068,1,8,0:0:0:0:
407,272,942143,1,8,0:0:0:0:
380,251,942218,1,0,0:0:0:0:
394,263,942293,1,0,0:0:0:0:
396,265,942368,1,0,0:0:0:0:
396,265,942443,1,0,0:0:0:0:
459,308,942518,1,8,0:0:0:0:
395,291,942593,1,8,0:0:0:0:
395,291,942668,1,8,0:0:0:0:
411,321,942743,1,0,0:0:0:0:
395,291,942818,1,8,0:0:0:0:
395,291,942893,1,8,0:0:0:0:
411,321,942968,1,0,0:0:0:0:
411,321,943043,1,0,0:0:0:0:
416,266,943118,1,8,0:0:0:0:
416,266,943193,1,8,0:0:0:0:
416,266,943268,1,8,0:0:0:0:
416,266,943343,1,0,0:0:0:0:
416,266,943418,1,8,0:0:0:0:
416,266,943493,1,8,0:0:0:0:
414,258,943568,1,8,0:0:0:0:
414,258,943643,1,8,0:0:0:0:
414,258,943718,1,0,0:0:0:0:
414,258,943793,1,0,0:0:0:0:
400,214,943868,1,8,0:0:0:0:
400,214,943943,1,8,0:0:0:0:
400,214,944018,1,0,0:0:0:0:
370,237,944093,1,0,0:0:0:0:
370,237,944168,1,0,0:0:0:0:
370,237,944243,1,0,0:0:0:0:
364,219,944318,1,8,0:0:0:0:
364,219,944393,1,8,0:0:0:0:
364,219,944468,1,0,0:0:0:0:
364,219,944543,1,0,0:0:0:0:
364,219,944618,1,0,0:0:0:0:
364,219,944693,1,0,0:0:0:0:
350,161,944768,1,8,0:0:0:0:
350,161,944843,1,0,0:0:0:0:
350,161,944918,1,8,0:0:0:0:
490,299,944993,1,8,0:0:0:0:
490,299,945068,1,0,0:0:0:0:
490,299,945143,1,0,0:0:0:0:
490,299,945218,1,8,0:0:0:0:
499,300,945293,1,8,0:0:0:0:
499,300,945368,1,0,0:0:0:0:
499,300,945443,1,0,0:0:0:0:
499,300,945518,1,8,0:0:0:0:
499,300,945593,1,8,0:0:0:0:
499,300,945668,1,8,0:0:0:0:
499,300,945743,1,8,0:0:0:0:
411,339,945818,1,0,0:0:0:0:
411,339,945893,1,0,0:0:0:0:
411,339,945968,1,0,0:0:0:0:
411,339,946043,1,0,0:0:0:0:
411,339,946118,1,8,0:0:0:0:
411,339,946193,1,8,0:0:0:0:
411,339,946268,1,0,0:0:0:0:
411,339,946343,1,8,0:0:0:0:
408,344,946418,1,0,0:0:0:0:
408,344,946493,1,0,0:0:0:0:
407,344,946568,1,8,0:0:0:0:
408,344,946643,1,0,0:0:0:0:
408,344,946718,1,8,0:0:0:0:
351,313,946793,1,8,0:0:0:0:
351,313,946868,1,8,0:0:0:0:
351,313,946943,1,0,0:0:0:0:
447,250,947018,1,8,0:0:0:0:
447,250,947093,1,8,0:0:0:0:
447,250,947168,1,8,0:0:0:0:
447,250,947243,1,8,0:0:0:0:
447,250,947318,1,0,0:0:0:0:
447,250,947393,1,0,0:0:0:0:
376,178,947468,1,8,0:0:0:0:
376,178,947543,1,8,0:0:0:0:
376,178,947618,1,0,0:0:0:0:
376,178,947693,1,0,0:0:0:0:
376,178,947768,1,0,0:0:0:0:
376,178,947843,1,0,0:0:0:0:
364,219,947918,1,8,0:0:0:0:
364,219,947993,1,8,0:0:0:0:
364,219,948068,1,0,0:0:0:0:
364,219,948143,1,0,0:0:0:0:
364,219,948218,1,0,0:0:0:0:
364,219,948293,1,0,0:0:0:0:
350,161,948368,1,8,0:0:0:0:
350,161,948443,1,0,0:0:0:0:
350,161,948518,1,8,0:0:0:0:
490,299,948593,1,8,0:0:0:0:
490,299,948668,1,0,0:0:0:0:
490,299,948743,1,0,0:0:0:0:
490,299,948818,1,8,0:0:0:0:
499,300,948893,1,8,0:0:0:0:
499,300,948968,1,0,0:0:0:0:
499,300,949043,1,0,0:0:0:0:
499,300,949118,1,8,0:0:0:0:
499,300,949193,1,0,0:0:0:0:
499,300,949268,1,8,0:0:0:0:
384,207,949343,1,0,0:0:0:0:
324,249,949418,1,8,0:0:0:0:
324,249,949493,1,8,0:0:0:0:
324,249,949568,1,8,0:0:0:0:
324,249,949643,1,8,0:0:0:0:
352,248,949718,1,0,0:0:0:0:
352,248,949793,1,0,0:0:0:0:
375,291,949868,1,0,0:0:0:0:
375,291,949943,1,0,0:0:0:0:
352,248,950018,1,8,0:0:0:0:
421,280,950093,1,8,0:0:0:0:
468,245,950168,1,0,0:0:0:0:
468,245,950243,1,0,0:0:0:0:
387,202,950318,1,8,0:0:0:0:
387,202,950393,1,8,0:0:0:0:
387,202,950468,1,8,0:0:0:0:
387,202,950543,1,8,0:0:0:0:
387,202,950618,1,0,0:0:0:0:
387,202,950693,1,0,0:0:0:0:
387,202,950768,1,0,0:0:0:0:
387,202,950843,1,0,0:0:0:0:
387,202,950918,1,8,0:0:0:0:
387,202,950993,1,8,0:0:0:0:
387,202,951068,1,8,0:0:0:0:
387,202,951143,1,8,0:0:0:0:
379,321,951218,1,0,0:0:0:0:
379,321,951293,1,0,0:0:0:0:
379,321,951368,1,0,0:0:0:0:
379,321,951443,1,0,0:0:0:0:
355,359,951518,1,8,0:0:0:0:
355,359,951593,1,8,0:0:0:0:
355,359,951668,1,0,0:0:0:0:
355,359,951743,1,0,0:0:0:0:
353,286,951818,1,0,0:0:0:0:
353,286,951893,1,0,0:0:0:0:
353,286,951968,1,8,0:0:0:0:
353,279,952043,1,0,0:0:0:0:
353,279,952118,1,8,0:0:0:0:
353,279,952193,1,8,0:0:0:0:
353,279,952268,1,8,0:0:0:0:
353,279,952343,1,8,0:0:0:0:
353,279,952418,1,0,0:0:0:0:
353,279,952493,1,0,0:0:0:0:
353,279,952568,1,0,0:0:0:0:
353,279,952643,1,0,0:0:0:0:
353,279,952718,1,8,0:0:0:0:
353,279,952793,1,8,0:0:0:0:
353,279,952868,1,8,0:0:0:0:
353,279,952943,1,8,0:0:0:0:
398,330,953018,1,0,0:0:0:0:
398,330,953093,1,0,0:0:0:0:
397,334,953168,1,0,0:0:0:0:
397,334,953243,1,0,0:0:0:0:
398,330,953318,1,8,0:0:0:0:
397,334,953393,1,8,0:0:0:0:
397,334,953468,1,0,0:0:0:0:
398,330,953543,1,0,0:0:0:0:
397,334,953618,1,0,0:0:0:0:
397,334,953693,1,0,0:0:0:0:
394,333,953768,1,8,0:0:0:0:
397,334,953843,1,0,0:0:0:0:
390,331,953918,1,8,0:0:0:0:
394,333,953993,1,8,0:0:0:0:
390,331,954068,1,8,0:0:0:0:
390,331,954143,1,8,0:0:0:0:
382,327,954218,1,0,0:0:0:0:
381,328,954293,1,0,0:0:0:0:
379,330,954368,1,0,0:0:0:0:
382,327,954443,1,0,0:0:0:0:
386,326,954518,1,8,0:0:0:0:
386,326,954593,1,8,0:0:0:0:
382,327,954668,1,8,0:0:0:0:
386,326,954743,1,8,0:0:0:0:
455,354,954818,1,0,0:0:0:0:
455,354,954893,1,8,0:0:0:0:
450,357,954968,1,8,0:0:0:0:
449,358,955043,1,8,0:0:0:0:
446,356,955118,1,0,0:0:0:0:
450,357,955193,1,8,0:0:0:0:
444,354,955268,1,8,0:0:0:0:
446,356,955343,1,8,0:0:0:0:
442,351,955418,1,0,0:0:0:0:
439,352,955493,1,8,0:0:0:0:
438,352,955568,1,0,0:0:0:0:
442,351,955643,1,8,0:0:0:0:
443,341,955718,1,0,0:0:0:0:
442,344,955793,1,0,0:0:0:0:
441,343,955868,1,8,0:0:0:0:
443,341,955943,1,8,0:0:0:0:
442,344,956018,1,0,0:0:0:0:
441,343,956093,1,0,0:0:0:0:
438,344,956168,1,8,0:0:0:0:
442,344,956243,1,8,0:0:0:0:
437,322,956318,1,0,0:0:0:0:
436,322,956393,1,8,0:0:0:0:
434,325,956468,1,0,0:0:0:0:
433,325,956543,1,0,0:0:0:0:
440,329,956618,1,12,0:0:0:0:
