osu file format v14

[General]
AudioFilename: audio.mp3
AudioLeadIn: 0
PreviewTime: 221033
Countdown: 0
SampleSet: Normal
StackLeniency: 0.7
Mode: 1
LetterboxInBreaks: 0
WidescreenStoryboard: 0

[Editor]
Bookmarks: 60289,87080,113871,140661,167452,194243,221033,281312,308103,334894,363360,399080,416941
DistanceSpacing: 0.6
BeatDivisor: 4
GridSize: 32
TimelineZoom: 3.099999

[Metadata]
Title:Of Petrichor Weaves Black Noise
TitleUnicode:Of Petrichor Weaves Black Noise
Artist:Ne Obliviscaris
ArtistUnicode:Ne Obliviscaris
Creator:Crysally
Version:The Beheaded Angels
Source:
Tags:portal of i progressive blackened extreme melodic death black metal symphonic violin english featured artist fa
BeatmapID:3432454
BeatmapSetID:1680152

[Difficulty]
HPDrainRate:4
CircleSize:5
OverallDifficulty:7
ApproachRate:5
SliderMultiplier:1.4
SliderTickRate:1

[Events]
//Background and Video events
0,0,"maxresdefault.jpg",0,40
//Break Periods
//Storyboard Layer 0 (Background)
//Storyboard Layer 1 (Fail)
//Storyboard Layer 2 (Pass)
//Storyboard Layer 3 (Foreground)
//Storyboard Layer 4 (Overlay)
//Storyboard Sound Samples

[TimingPoints]
33499,279.06976744186,6,1,0,90,1,0
58615,-99.601593625498,4,1,0,90,0,0
58685,-99.2063492063492,4,1,0,90,0,0
58754,-98.8142292490119,4,1,0,90,0,0
58824,-98.4251968503937,4,1,0,90,0,0
58894,-98.0392156862745,4,1,0,90,0,0
58964,-97.65625,4,1,0,90,0,0
59033,-97.2762645914397,4,1,0,90,0,0
59103,-96.8992248062015,4,1,0,90,0,0
59173,-96.5250965250965,4,1,0,90,0,0
59243,-96.1538461538461,4,1,0,90,0,0
59312,-95.7854406130268,4,1,0,90,0,0
59382,-95.4198473282443,4,1,0,90,0,0
59452,-95.0570342205323,4,1,0,90,0,0
59522,-94.6969696969697,4,1,0,90,0,0
59592,-94.3396226415094,4,1,0,90,0,0
59661,-93.984962406015,4,1,0,90,0,0
59731,-93.6329588014981,4,1,0,90,0,0
59801,-93.2835820895522,4,1,0,90,0,0
59871,-92.9368029739777,4,1,0,90,0,0
59940,-92.5925925925926,4,1,0,90,0,0
60010,-92.2509225092251,4,1,0,90,0,0
60080,-91.9117647058823,4,1,0,90,0,0
60150,-91.5750915750916,4,1,0,90,0,0
60219,-91.2408759124088,4,1,0,90,0,0
60289,-90.9090909090909,4,1,0,90,0,1
85405,-91.0746812386157,4,1,0,90,0,1
85475,-91.3450559488468,4,1,0,90,0,1
85545,-91.6170407695831,4,1,0,90,0,1
85615,-91.8906501263496,4,1,0,90,0,1
85685,-92.1658986175115,4,1,0,90,0,1
85754,-92.4428010168708,4,1,0,90,0,1
85824,-92.7213722763097,4,1,0,90,0,1
85894,-93.0016275284817,4,1,0,90,0,1
85964,-93.2835820895522,4,1,0,90,0,1
86033,-93.5672514619883,4,1,0,90,0,1
86103,-93.8526513374003,4,1,0,90,0,1
86173,-94.1397975994352,4,1,0,90,0,1
86243,-94.4287063267233,4,1,0,90,0,1
86312,-94.7193937958797,4,1,0,90,0,1
86382,-95.0118764845606,4,1,0,90,0,1
86452,-95.3061710745771,4,1,0,90,0,1
86522,-95.6022944550669,4,1,0,90,0,1
86592,-95.9002637257252,4,1,0,90,0,1
86661,-96.2000962000962,4,1,0,90,0,1
86731,-96.5018094089264,4,1,0,90,0,1
86801,-96.8054211035818,4,1,0,90,0,1
86871,-97.110949259529,4,1,0,90,0,1
86940,-97.4184120798831,4,1,0,90,0,0
87080,-98.0392156862745,4,1,0,90,0,0
112196,-98.0392156862745,4,1,0,90,0,0
112266,-97.7596741344196,4,1,0,90,0,0
112336,-97.4817221770918,4,1,0,90,0,0
112405,-97.2053462940462,4,1,0,90,0,0
112475,-96.9305331179321,4,1,0,90,0,0
112545,-96.6572694321385,4,1,0,90,0,0
112615,-96.3855421686747,4,1,0,90,0,0
112685,-96.1153384060873,4,1,0,90,0,0
112754,-95.8466453674121,4,1,0,90,0,0
112824,-95.5794504181601,4,1,0,90,0,0
112894,-95.3137410643368,4,1,0,90,0,0
112964,-95.049504950495,4,1,0,90,0,0
113033,-94.7867298578199,4,1,0,90,0,0
113103,-94.525403702245,4,1,0,90,0,0
113173,-94.2655145326002,4,1,0,90,0,0
113243,-94.0070505287897,4,1,0,90,0,0
113312,-93.75,4,1,0,90,0,0
113382,-93.4943513829373,4,1,0,90,0,0
113452,-93.2400932400932,4,1,0,90,0,0
113522,-92.9872142580395,4,1,0,90,0,0
113592,-92.7357032457496,4,1,0,90,0,0
113661,-92.485549132948,4,1,0,90,0,0
113731,-92.2367409684858,4,1,0,90,0,0
113801,-91.9892679187428,4,1,0,90,0,0
113871,-91.743119266055,4,1,0,90,0,1
114150,-87.719298245614,4,1,0,90,0,1
140661,-87.719298245614,4,1,0,90,0,0
145754,-111.111111111111,4,1,0,70,0,0
160754,-111.111111111111,6,1,0,70,0,0
161033,-110.584518167457,6,1,0,71,0,0
161173,-110.062893081761,6,1,0,71,0,0
161312,-109.546165884194,6,1,0,72,0,0
161592,-109.034267912773,6,1,0,72,0,0
161731,-108.527131782946,6,1,0,73,0,0
161871,-108.024691358025,6,1,0,73,0,0
162150,-107.52688172043,6,1,0,74,0,0
162289,-107.033639143731,6,1,0,75,0,0
162429,-106.544901065449,6,1,0,75,0,0
162708,-106.060606060606,6,1,0,76,0,0
162847,-105.580693815988,6,1,0,76,0,0
162987,-105.105105105105,6,1,0,77,0,0
163266,-104.633781763827,6,1,0,77,0,0
163405,-104.166666666667,6,1,0,78,0,0
163545,-103.703703703704,6,1,0,79,0,0
163824,-103.244837758112,6,1,0,79,0,0
163964,-102.790014684288,6,1,0,80,0,0
164103,-102.33918128655,6,1,0,80,0,0
164382,-101.892285298399,6,1,0,81,0,0
164522,-101.449275362319,6,1,0,81,0,0
164661,-101.010101010101,6,1,0,82,0,0
164940,-100.574712643678,6,1,0,83,0,0
165080,-100.143061516452,6,1,0,83,0,0
165219,-99.7150997150997,6,1,0,84,0,0
165498,-99.290780141844,6,1,0,84,0,0
165638,-98.8700564971751,6,1,0,85,0,0
165778,-98.4528832630098,6,1,0,85,0,0
166057,-98.0392156862745,6,1,0,86,0,0
166196,-97.629009762901,6,1,0,87,0,0
166336,-97.2222222222222,6,1,0,87,0,0
166615,-96.8188105117566,6,1,0,88,0,0
166754,-96.4187327823691,6,1,0,88,0,0
166894,-96.0219478737997,6,1,0,89,0,0
167173,-95.6284153005464,6,1,0,89,0,0
167452,-95.2380952380952,4,1,0,90,0,1
174150,-95.2380952380952,4,1,0,90,0,0
174568,-108.695652173913,4,1,0,90,0,0
178336,-108.026358431457,6,1,0,90,0,0
178405,-107.304132699444,6,1,0,90,0,0
178475,-106.591499920056,6,1,0,90,0,0
178545,-105.888270226866,6,1,0,90,0,0
178615,-105.194258731123,6,1,0,90,0,0
178685,-104.509285359701,6,1,0,90,0,0
178754,-103.833174699316,6,1,0,90,0,0
178824,-103.165755846776,6,1,0,90,0,0
178894,-102.506862264946,6,1,0,90,0,0
178964,-101.856331644216,6,1,0,90,0,0
179033,-101.214005769198,6,1,0,90,0,0
179103,-100.579730390445,6,1,0,90,0,0
179173,-99.9533551009529,6,1,0,90,0,0
179243,-99.3347332172589,6,1,0,90,0,0
179312,-98.7237216649207,6,1,0,90,0,0
179382,-98.1201808682001,6,1,0,90,0,0
179452,-97.5239746437666,6,1,0,90,0,0
179522,-96.9349700982544,6,1,0,90,0,0
179592,-96.3530375295081,6,1,0,90,0,0
179661,-95.7780503313655,6,1,0,90,0,0
179731,-95.209884901828,6,1,0,90,0,0
179801,-94.648420554482,6,1,0,90,0,0
179871,-94.0935394330342,6,1,0,90,0,0
179940,-93.5451264288369,6,1,0,90,0,0
180010,-93.0030691012803,6,1,0,90,0,0
180080,-92.467257600937,6,1,0,90,0,0
180150,-91.9375845953469,6,1,0,90,0,0
180219,-91.4139451973399,6,1,0,90,0,0
180289,-90.8962368957925,6,1,0,90,0,0
180359,-90.3843594887258,6,1,0,90,0,0
180429,-89.8782150186497,6,1,0,90,0,0
180498,-89.3777077100687,6,1,0,90,0,0
180568,-88.8827439090631,6,1,0,90,0,0
180638,-88.393232024868,6,1,0,90,0,0
180708,-87.9090824733709,6,1,0,90,0,0
180778,-87.4302076224569,6,1,0,90,0,0
180847,-86.9565217391304,6,1,0,90,0,1
194243,-86.9565217391304,6,1,0,90,0,0
194661,-100,4,1,0,80,0,0
208754,-100,6,1,0,100,0,0
208894,-100,6,1,0,100,0,0
209033,-100,6,1,0,100,0,0
209173,-100,6,1,0,100,0,0
209312,-100,6,1,0,80,0,0
210429,-100,6,1,0,100,0,0
210568,-100,6,1,0,100,0,0
210708,-100,6,1,0,100,0,0
210847,-100,6,1,0,80,0,0
212103,-100,6,1,0,100,0,0
212243,-100,6,1,0,100,0,0
212382,-100,6,1,0,100,0,0
212522,-100,6,1,0,80,0,0
213778,-100,6,1,0,100,0,0
213917,-100,6,1,0,100,0,0
214057,-100,6,1,0,100,0,0
214196,-100,6,1,0,100,0,0
214336,-100,6,1,0,90,0,0
214475,-99.7298981923956,6,1,0,90,0,0
214615,-99.4612515540821,6,1,0,90,0,0
214754,-99.1940483570986,6,1,0,90,0,0
214894,-98.9282769991756,6,1,0,90,0,0
215033,-98.6639260020555,6,1,0,90,0,0
215173,-98.4009840098401,6,1,0,100,0,0
215312,-98.1394397873645,6,1,0,90,0,0
215452,-97.8792822185971,6,1,0,90,0,0
215592,-97.6205003050641,6,1,0,90,0,0
215731,-97.3630831643002,6,1,0,90,0,0
215871,-97.1070200283229,6,1,0,90,0,0
216010,-96.8523002421308,6,1,0,90,0,0
216150,-96.5989132622258,6,1,0,90,0,0
216289,-96.3468486551586,6,1,0,90,0,0
216429,-96.0960960960961,6,1,0,90,0,0
216568,-95.8466453674122,6,1,0,90,0,0
216708,-95.5984863572994,6,1,0,90,0,0
216847,-95.3516090584029,6,1,0,100,0,0
216987,-95.1060035664751,6,1,0,90,0,0
217126,-94.8616600790514,6,1,0,90,0,0
217266,-94.6185688941455,6,1,0,90,0,0
217405,-94.3767204089658,6,1,0,90,0,0
217545,-94.1361051186507,6,1,0,90,0,0
217685,-93.8967136150235,6,1,0,90,0,0
217824,-93.6585365853659,6,1,0,90,0,0
217964,-93.4215648112106,6,1,0,90,0,0
218103,-93.185789167152,6,1,0,90,0,0
218243,-92.9512006196747,6,1,0,90,0,0
218382,-92.7177902259996,6,1,0,90,0,0
218522,-92.485549132948,6,1,0,100,0,0
218661,-92.2544685758216,6,1,0,90,0,0
218801,-92.0245398773006,6,1,0,90,0,0
218940,-91.7957544463569,6,1,0,90,0,0
219080,-91.5681037771843,6,1,0,90,0,0
219219,-91.3415794481446,6,1,0,90,0,0
219359,-91.1161731207289,6,1,0,90,0,0
219498,-90.8918765385344,6,1,0,90,0,0
219638,-90.6686815262562,6,1,0,90,0,0
219778,-90.4465799886942,6,1,0,90,0,0
219917,-90.2255639097745,6,1,0,90,0,0
220057,-90.0056253515845,6,1,0,90,0,0
220196,-89.7867564534231,6,1,0,90,0,0
220336,-89.568949430864,6,1,0,90,0,0
220475,-89.3521965748325,6,1,0,90,0,0
220615,-89.1364902506964,6,1,0,90,0,0
220754,-88.9218228973694,6,1,0,90,0,0
220894,-88.7081870264277,6,1,0,90,0,0
221033,-88.495575221239,6,1,0,90,0,0
222708,-105.263157894737,4,1,0,90,0,0
224382,-85.4700854700855,4,1,0,90,0,1
274615,-85.4700854700855,4,1,0,90,0,0
274894,-96.1538461538461,6,1,0,90,0,0
275033,-95.9616153538584,6,1,0,90,0,0
275173,-95.7701516360734,6,1,0,90,0,0
275312,-95.5794504181601,6,1,0,90,0,0
275452,-95.389507154213,6,1,0,90,0,0
275592,-95.2003173343911,6,1,0,90,0,0
275731,-95.0118764845606,6,1,0,90,0,0
275871,-94.8241801659423,6,1,0,90,0,0
276010,-94.6372239747634,6,1,0,90,0,0
276150,-94.4510035419126,6,1,0,90,0,0
276289,-94.2655145326002,6,1,0,90,0,0
276429,-94.0807526460212,6,1,0,90,0,0
276568,-93.8967136150235,6,1,0,90,0,0
276708,-93.713393205779,6,1,0,90,0,0
276847,-93.5307872174591,6,1,0,90,0,0
276987,-93.3488914819137,6,1,0,90,0,0
277126,-93.167701863354,6,1,0,90,0,0
277266,-92.9872142580395,6,1,0,90,0,0
277405,-92.8074245939675,6,1,0,90,0,0
277545,-92.6283288305673,6,1,0,90,0,0
277685,-92.4499229583975,6,1,0,90,0,0
277824,-92.2722029988466,6,1,0,90,0,0
277964,-92.0951650038373,6,1,0,90,0,0
278033,-91.9188050555343,6,1,0,90,0,0
278103,-91.743119266055,6,1,0,90,0,0
278173,-91.5681037771843,6,1,0,90,0,0
278243,-91.3937547600914,6,1,0,90,0,0
278312,-91.2200684150513,6,1,0,90,0,0
278382,-91.0470409711684,6,1,0,90,0,0
278452,-90.8746686861038,6,1,0,90,0,0
278522,-90.702947845805,6,1,0,90,0,0
278592,-90.5318747642399,6,1,0,90,0,0
278661,-90.3614457831325,6,1,0,90,0,0
278731,-90.1916572717024,6,1,0,90,0,0
278801,-90.0225056264066,6,1,0,90,0,0
278871,-89.8539872706852,6,1,0,90,0,0
278940,-89.6860986547085,6,1,0,90,0,0
279010,-89.5188362551287,6,1,0,90,0,0
279080,-89.3521965748325,6,1,0,90,0,0
279150,-89.1861761426979,6,1,0,90,0,0
279219,-89.0207715133531,6,1,0,90,0,0
279289,-88.8559792669382,6,1,0,90,0,0
279359,-88.6917960088692,6,1,0,90,0,0
279429,-88.5282183696053,6,1,0,90,0,0
279498,-88.3652430044183,6,1,0,90,0,0
279568,-88.2028665931643,6,1,0,90,0,0
279638,-88.0410858400587,6,1,0,90,0,0
279708,-87.8798974734529,6,1,0,90,0,0
279778,-87.719298245614,6,1,0,90,0,0
279847,-87.5592849325064,6,1,0,90,0,0
279917,-87.3998543335761,6,1,0,90,0,0
279987,-87.2410032715376,6,1,0,90,0,0
280057,-87.0827285921626,6,1,0,90,0,0
280126,-86.925027164071,6,1,0,90,0,0
280196,-86.767895878525,6,1,0,90,0,0
280266,-86.6113316492241,6,1,0,90,0,0
280336,-86.4553314121037,6,1,0,90,0,0
280405,-86.2998921251348,6,1,0,90,0,0
280475,-86.1450107681263,6,1,0,90,0,0
280545,-85.9906843425296,6,1,0,90,0,0
280615,-85.8369098712446,6,1,0,90,0,0
280685,-85.6836843984291,6,1,0,90,0,0
280754,-85.5310049893086,6,1,0,90,0,0
280824,-85.3788687299893,6,1,0,90,0,0
280894,-85.2272727272727,6,1,0,90,0,0
280964,-85.0762141084722,6,1,0,90,0,0
281033,-84.9256900212314,6,1,0,90,0,0
281103,-84.7756976333451,6,1,0,90,0,0
281173,-84.6262341325811,6,1,0,90,0,0
281243,-84.4772967265048,6,1,0,90,0,0
281312,-84.328882642305,6,1,0,90,0,0
281382,-84.1809891266222,6,1,0,90,0,0
281452,-84.0336134453782,6,1,0,90,0,0
282150,-100,4,1,0,90,0,0
286894,-99.2260369120857,6,1,0,90,0,0
287033,-97.9839796193322,6,1,0,90,0,0
287173,-96.7726326994726,6,1,0,90,0,0
287312,-95.5908710718126,6,1,0,90,0,0
287452,-94.4376239493814,6,1,0,90,0,0
287592,-93.3118716028647,6,1,0,90,0,0
287731,-92.2126423532666,6,1,0,90,0,0
287871,-91.1390097746588,6,1,0,90,0,0
288010,-90.0900900900901,6,1,0,90,0,0
288289,-100,6,1,0,90,0,0
300289,-98.5804416403786,6,1,0,90,0,0
300429,-97.4326496809081,6,1,0,90,0,0
300568,-96.3112780506597,6,1,0,90,0,0
300708,-95.2154248988336,6,1,0,90,0,0
300847,-94.1442289587648,6,1,0,90,0,0
300987,-93.0968672904157,6,1,0,90,0,0
301126,-92.0725531718995,6,1,0,90,0,0
301266,-91.0705341286827,6,1,0,90,0,0
301405,-90.0900900900901,6,1,0,90,0,0
301685,-100,6,1,0,90,0,0
308382,-109.89010989011,6,1,0,90,0,0
308661,-105.633802816901,6,1,0,90,0,0
308801,-101.694915254237,6,1,0,90,0,0
308940,-98.0392156862745,6,1,0,90,0,0
313964,-96.551724137931,6,1,0,90,0,0
314103,-95.1086956521739,6,1,0,90,0,0
314243,-93.7081659973226,6,1,0,90,0,0
314382,-92.3482849604222,6,1,0,90,0,0
314522,-91.0273081924578,6,1,0,90,0,0
314661,-89.7435897435897,6,1,0,90,0,0
314801,-88.4955752212389,6,1,0,90,0,0
315080,-98.0392156862745,6,1,0,90,0,0
327359,-96.551724137931,6,1,0,90,0,0
327498,-95.1086956521739,6,1,0,90,0,0
327638,-93.7081659973226,6,1,0,90,0,0
327778,-92.3482849604222,6,1,0,90,0,0
327917,-91.0273081924578,6,1,0,90,0,0
328057,-89.7435897435897,6,1,0,90,0,0
328196,-88.4955752212389,6,1,0,90,0,0
328475,-98.0392156862745,6,1,0,90,0,0
360010,-98.0392156862745,6,1,0,90,0,0
360150,-97.8698906160046,6,1,0,90,0,0
360289,-97.7011494252874,6,1,0,90,0,0
360429,-97.5329890992542,6,1,0,90,0,0
360568,-97.3654066437572,6,1,0,90,0,0
360708,-97.1983990851915,6,1,0,90,0,0
360847,-97.0319634703196,6,1,0,90,0,0
360987,-96.8660968660969,6,1,0,90,0,0
361126,-96.7007963594994,6,1,0,90,0,0
361266,-96.5360590573538,6,1,0,90,0,0
361405,-96.3718820861678,6,1,0,90,0,0
361545,-96.2082625919638,6,1,0,90,0,0
361685,-96.045197740113,6,1,0,90,0,0
361824,-95.882684715172,6,1,0,90,0,0
361964,-95.7207207207207,6,1,0,90,0,0
362103,-95.5593029792018,6,1,0,90,0,0
362243,-95.3984287317621,6,1,0,90,0,0
362382,-95.2380952380952,6,1,0,90,0,0
362522,-94.8905109489051,6,1,0,90,0,0
362592,-94.5454545454545,6,1,0,90,0,0
362661,-94.2028985507246,6,1,0,90,0,0
362731,-93.8628158844765,6,1,0,90,0,0
362801,-93.5251798561151,6,1,0,90,0,0
362871,-93.1899641577061,6,1,0,90,0,0
362940,-92.8571428571428,6,1,0,90,0,0
363010,-92.5266903914591,6,1,0,90,0,0
363080,-92.1985815602837,6,1,0,90,0,0
363150,-91.8727915194346,6,1,0,90,0,0
363219,-91.5492957746479,6,1,0,90,0,0
363289,-91.2280701754386,6,1,0,90,0,0
363360,279.06976744186,4,1,0,90,1,8
363360,-90.9090909090909,4,1,0,90,0,1
363639,-88.4955752212389,4,1,0,90,0,1
398243,-88.495575221239,6,1,0,90,0,1
398313,-89.086859688196,6,1,0,90,0,1
398383,-89.6860986547085,6,1,0,90,0,1
398453,-90.293453724605,6,1,0,90,0,1
398522,-90.9090909090909,6,1,0,90,0,1
398592,-91.533180778032,6,1,0,90,0,1
398662,-92.1658986175115,6,1,0,90,0,1
398732,-92.8074245939675,6,1,0,90,0,1
398801,-93.4579439252336,6,1,0,90,0,1
398871,-94.1176470588235,6,1,0,90,0,1
398941,-94.7867298578199,6,1,0,90,0,1
399011,-95.4653937947494,6,1,0,90,0,1
399080,-96.1538461538461,6,1,0,90,0,0
399359,-101.010101010101,6,1,0,90,0,0
399639,-83.3333333333333,6,1,0,90,0,0
399708,-83.5073068893528,6,1,0,90,0,0
399778,-83.6820083682008,6,1,0,90,0,0
399848,-83.8574423480084,6,1,0,90,0,0
399918,-84.0336134453782,6,1,0,90,0,0
399987,-84.2105263157895,6,1,0,90,0,0
400057,-84.3881856540084,6,1,0,90,0,0
400127,-84.5665961945032,6,1,0,90,0,0
400197,-84.7457627118644,6,1,0,90,0,0
400266,-84.9256900212314,6,1,0,90,0,0
400336,-85.1063829787234,6,1,0,90,0,0
400406,-85.2878464818763,6,1,0,90,0,0
400476,-85.4700854700855,6,1,0,90,0,0
400546,-85.6531049250535,6,1,0,90,0,0
400615,-85.8369098712446,6,1,0,90,0,0
400685,-86.0215053763441,6,1,0,90,0,0
400755,-86.2068965517241,6,1,0,90,0,0
400825,-86.3930885529158,6,1,0,90,0,0
400894,-86.5800865800866,6,1,0,90,0,0
400964,-86.7678958785249,6,1,0,90,0,0
401034,-86.9565217391304,6,1,0,90,0,0
401104,-87.1459694989107,6,1,0,90,0,0
401173,-87.3362445414847,6,1,0,90,0,0
401243,-87.527352297593,6,1,0,90,0,0
401313,-87.719298245614,6,1,0,90,0,0
401383,-87.9120879120879,6,1,0,90,0,0
401453,-88.1057268722467,6,1,0,90,0,0
401522,-88.3002207505519,6,1,0,90,0,0
401592,-88.495575221239,6,1,0,90,0,0
401662,-88.6917960088692,6,1,0,90,0,0
401732,-88.8888888888889,6,1,0,90,0,0
401801,-89.086859688196,6,1,0,90,0,0
401871,-89.2857142857143,6,1,0,90,0,0
401941,-89.4854586129754,6,1,0,90,0,0
402011,-89.6860986547085,6,1,0,90,0,0
402080,-89.8876404494382,6,1,0,90,0,0
402150,-90.0900900900901,6,1,0,90,0,0
402220,-90.293453724605,6,1,0,90,0,0
402290,-90.4977375565611,6,1,0,90,0,0
402359,-90.702947845805,6,1,0,90,0,0
402429,-90.9090909090909,6,1,0,90,0,0
402499,-91.1161731207289,6,1,0,90,0,0
402569,-91.324200913242,6,1,0,90,0,0
402639,-91.533180778032,6,1,0,90,0,0
402708,-91.743119266055,6,1,0,90,0,0
402778,-91.9540229885057,6,1,0,90,0,0
402848,-92.1658986175115,6,1,0,90,0,0
402918,-92.378752886836,6,1,0,90,0,0
402987,-92.5925925925926,6,1,0,90,0,0
403057,-92.8074245939675,6,1,0,90,0,0
403127,-93.0232558139535,6,1,0,90,0,0
403197,-93.2400932400932,6,1,0,90,0,0
403266,-93.4579439252336,6,1,0,90,0,0
403336,-93.6768149882904,6,1,0,90,0,0
403406,-93.8967136150235,6,1,0,90,0,0
403476,-94.1176470588235,6,1,0,90,0,0
403546,-94.3396226415094,6,1,0,90,0,0
415964,-93.870271285084,6,1,0,90,0,0
416034,-93.4024511471823,6,1,0,90,0,0
416104,-92.9392708250352,6,1,0,90,0,0
416173,-92.4806616330764,6,1,0,90,0,0
416243,-92.0265562347992,6,1,0,90,0,0
416313,-91.5768886097974,6,1,0,90,0,0
416383,-91.1315940217674,6,1,0,90,0,0
416453,-90.6906089874394,6,1,0,90,0,0
416522,-90.253871246406,6,1,0,90,0,0
416592,-89.8213197318192,6,1,0,90,0,0
416662,-89.3928945419253,6,1,0,90,0,0
416732,-88.9685369124105,6,1,0,90,0,0
416801,-88.5481891895311,6,1,0,90,0,0
416871,-88.1317948040012,6,1,0,90,0,0
416941,-87.719298245614,6,1,0,90,0,0
417220,-96.1538461538461,6,1,0,90,0,0
417499,-85.4700854700855,6,1,0,90,0,1
452662,500,4,1,0,90,1,0
452662,-47.8468899521531,4,1,0,90,0,0

[HitObjects]
256,192,33499,5,12,0:0:0:0:
256,192,33638,1,8,0:0:0:0:
256,192,33778,1,0,0:0:0:0:
256,192,33847,1,0,0:0:0:0:
256,192,33917,1,8,0:0:0:0:
256,192,34057,1,0,0:0:0:0:
256,192,34196,1,0,0:0:0:0:
256,192,34336,1,8,0:0:0:0:
256,192,34405,1,0,0:0:0:0:
256,192,34475,1,8,0:0:0:0:
256,192,34545,1,8,0:0:0:0:
256,192,34615,1,0,0:0:0:0:
256,192,34685,1,0,0:0:0:0:
256,192,34754,1,8,0:0:0:0:
256,192,34894,1,0,0:0:0:0:
256,192,35033,1,0,0:0:0:0:
256,192,35173,1,8,0:0:0:0:
256,192,35243,1,8,0:0:0:0:
256,192,35312,1,8,0:0:0:0:
256,192,35452,1,0,0:0:0:0:
256,192,35592,1,0,0:0:0:0:
256,192,35731,1,8,0:0:0:0:
256,192,35801,1,8,0:0:0:0:
256,192,35871,1,0,0:0:0:0:
256,192,35940,1,0,0:0:0:0:
256,192,36010,1,8,0:0:0:0:
256,192,36150,1,8,0:0:0:0:
256,192,36289,1,0,0:0:0:0:
256,192,36429,1,0,0:0:0:0:
256,192,36568,1,8,0:0:0:0:
256,192,36638,1,0,0:0:0:0:
256,192,36708,1,0,0:0:0:0:
256,192,36778,1,0,0:0:0:0:
256,192,36847,1,8,0:0:0:0:
256,192,36987,1,8,0:0:0:0:
256,192,37126,1,0,0:0:0:0:
256,192,37196,1,0,0:0:0:0:
256,192,37266,1,8,0:0:0:0:
256,192,37405,1,0,0:0:0:0:
256,192,37545,1,0,0:0:0:0:
256,192,37685,1,8,0:0:0:0:
256,192,37754,1,8,0:0:0:0:
256,192,37824,1,8,0:0:0:0:
256,192,37894,1,8,0:0:0:0:
256,192,37964,1,0,0:0:0:0:
256,192,38033,1,0,0:0:0:0:
256,192,38103,1,8,0:0:0:0:
256,192,38243,1,0,0:0:0:0:
256,192,38382,1,0,0:0:0:0:
256,192,38522,1,8,0:0:0:0:
256,192,38592,1,0,0:0:0:0:
256,192,38661,1,8,0:0:0:0:
256,192,38801,1,0,0:0:0:0:
256,192,38940,1,0,0:0:0:0:
256,192,39080,1,0,0:0:0:0:
256,192,39150,1,0,0:0:0:0:
256,192,39219,1,0,0:0:0:0:
256,192,39289,1,0,0:0:0:0:
256,192,39359,1,8,0:0:0:0:
256,192,39498,1,8,0:0:0:0:
256,192,39638,1,0,0:0:0:0:
256,192,39778,1,0,0:0:0:0:
256,192,39917,1,8,0:0:0:0:
256,192,40057,1,0,0:0:0:0:
256,192,40196,1,8,0:0:0:0:
256,192,40336,1,8,0:0:0:0:
256,192,40475,1,0,0:0:0:0:
256,192,40545,1,0,0:0:0:0:
256,192,40615,1,8,0:0:0:0:
256,192,40754,1,0,0:0:0:0:
256,192,40894,1,0,0:0:0:0:
256,192,41033,1,8,0:0:0:0:
256,192,41173,1,8,0:0:0:0:
256,192,41312,1,0,0:0:0:0:
256,192,41382,1,0,0:0:0:0:
256,192,41452,1,8,0:0:0:0:
256,192,41592,1,0,0:0:0:0:
256,192,41731,1,0,0:0:0:0:
256,192,41871,1,8,0:0:0:0:
256,192,42010,1,0,0:0:0:0:
256,192,42150,1,8,0:0:0:0:
256,192,42219,1,0,0:0:0:0:
256,192,42289,1,8,0:0:0:0:
256,192,42429,1,0,0:0:0:0:
256,192,42568,1,0,0:0:0:0:
256,192,42708,1,8,0:0:0:0:
256,192,42847,1,0,0:0:0:0:
256,192,42987,1,8,0:0:0:0:
256,192,43057,1,0,0:0:0:0:
256,192,43126,1,8,0:0:0:0:
256,192,43266,1,0,0:0:0:0:
256,192,43405,1,0,0:0:0:0:
256,192,43545,1,8,0:0:0:0:
256,192,43685,1,8,0:0:0:0:
256,192,43824,1,0,0:0:0:0:
256,192,43894,1,0,0:0:0:0:
256,192,43964,1,8,0:0:0:0:
256,192,44103,1,0,0:0:0:0:
256,192,44243,1,0,0:0:0:0:
256,192,44382,1,8,0:0:0:0:
256,192,44522,1,8,0:0:0:0:
256,192,44661,1,0,0:0:0:0:
256,192,44731,1,0,0:0:0:0:
256,192,44801,1,8,0:0:0:0:
256,192,44940,1,0,0:0:0:0:
256,192,45080,1,0,0:0:0:0:
256,192,45219,1,8,0:0:0:0:
256,192,45359,1,0,0:0:0:0:
256,192,45498,1,8,0:0:0:0:
256,192,45568,1,8,0:0:0:0:
256,192,45638,1,8,0:0:0:0:
256,192,45708,1,0,0:0:0:0:
256,192,45778,1,8,0:0:0:0:
256,192,45917,1,8,0:0:0:0:
256,192,46057,1,0,0:0:0:0:
256,192,46150,1,8,0:0:0:0:
256,192,46243,1,8,0:0:0:0:
256,192,46336,1,0,0:0:0:0:
256,192,46475,1,8,0:0:0:0:
256,192,46615,1,0,0:0:0:0:
256,192,46754,1,0,0:0:0:0:
256,192,46894,1,12,0:0:0:0:
256,192,47033,1,8,0:0:0:0:
256,192,47173,1,0,0:0:0:0:
256,192,47243,1,0,0:0:0:0:
256,192,47312,1,8,0:0:0:0:
256,192,47452,1,0,0:0:0:0:
256,192,47592,1,0,0:0:0:0:
256,192,47731,1,8,0:0:0:0:
256,192,47801,1,8,0:0:0:0:
256,192,47871,1,8,0:0:0:0:
256,192,47940,1,8,0:0:0:0:
256,192,48010,1,0,0:0:0:0:
256,192,48080,1,0,0:0:0:0:
256,192,48150,1,8,0:0:0:0:
256,192,48289,1,0,0:0:0:0:
256,192,48429,1,0,0:0:0:0:
256,192,48568,1,8,0:0:0:0:
256,192,48638,1,8,0:0:0:0:
256,192,48708,1,0,0:0:0:0:
256,192,48847,1,0,0:0:0:0:
256,192,48987,1,0,0:0:0:0:
256,192,49126,1,8,0:0:0:0:
256,192,49196,1,0,0:0:0:0:
256,192,49266,1,0,0:0:0:0:
256,192,49336,1,0,0:0:0:0:
256,192,49405,1,8,0:0:0:0:
256,192,49545,1,8,0:0:0:0:
256,192,49685,1,0,0:0:0:0:
256,192,49824,1,0,0:0:0:0:
256,192,49964,1,8,0:0:0:0:
256,192,50033,1,8,0:0:0:0:
256,192,50103,1,0,0:0:0:0:
256,192,50173,1,0,0:0:0:0:
256,192,50243,1,8,0:0:0:0:
256,192,50382,1,0,0:0:0:0:
256,192,50522,1,8,0:0:0:0:
256,192,50592,1,0,0:0:0:0:
256,192,50661,1,8,0:0:0:0:
256,192,50801,1,0,0:0:0:0:
256,192,50940,1,0,0:0:0:0:
256,192,51080,1,8,0:0:0:0:
256,192,51150,1,0,0:0:0:0:
256,192,51219,1,8,0:0:0:0:
256,192,51289,1,8,0:0:0:0:
256,192,51359,1,0,0:0:0:0:
256,192,51429,1,0,0:0:0:0:
256,192,51498,1,8,0:0:0:0:
256,192,51638,1,0,0:0:0:0:
256,192,51778,1,0,0:0:0:0:
256,192,51917,1,8,0:0:0:0:
256,192,51987,1,8,0:0:0:0:
256,192,52057,1,8,0:0:0:0:
256,192,52196,1,0,0:0:0:0:
256,192,52336,1,0,0:0:0:0:
256,192,52475,1,8,0:0:0:0:
256,192,52545,1,0,0:0:0:0:
256,192,52615,1,0,0:0:0:0:
256,192,52685,1,0,0:0:0:0:
256,192,52754,1,8,0:0:0:0:
256,192,52894,1,8,0:0:0:0:
256,192,53033,1,0,0:0:0:0:
256,192,53173,1,0,0:0:0:0:
256,192,53312,1,8,0:0:0:0:
256,192,53452,1,0,0:0:0:0:
256,192,53592,1,12,0:0:0:0:
256,192,53731,1,0,0:0:0:0:
256,192,53871,1,8,0:0:0:0:
256,192,53940,1,0,0:0:0:0:
256,192,54010,1,8,0:0:0:0:
256,192,54150,1,0,0:0:0:0:
256,192,54289,1,0,0:0:0:0:
256,192,54429,1,8,0:0:0:0:
256,192,54568,1,8,0:0:0:0:
256,192,54708,1,0,0:0:0:0:
256,192,54778,1,0,0:0:0:0:
256,192,54847,1,8,0:0:0:0:
256,192,54987,1,0,0:0:0:0:
256,192,55126,1,0,0:0:0:0:
256,192,55266,1,8,0:0:0:0:
256,192,55405,1,0,0:0:0:0:
256,192,55545,1,8,0:0:0:0:
256,192,55615,1,0,0:0:0:0:
256,192,55685,1,8,0:0:0:0:
256,192,55824,1,0,0:0:0:0:
256,192,55964,1,0,0:0:0:0:
256,192,56103,1,8,0:0:0:0:
256,192,56243,1,8,0:0:0:0:
256,192,56382,1,0,0:0:0:0:
256,192,56452,1,0,0:0:0:0:
256,192,56522,1,8,0:0:0:0:
256,192,56661,1,0,0:0:0:0:
256,192,56801,1,8,0:0:0:0:
256,192,56940,1,8,0:0:0:0:
256,192,57080,1,0,0:0:0:0:
256,192,57219,1,8,0:0:0:0:
256,192,57289,1,0,0:0:0:0:
256,192,57359,1,8,0:0:0:0:
256,192,57498,1,0,0:0:0:0:
256,192,57638,1,0,0:0:0:0:
256,192,57778,1,8,0:0:0:0:
256,192,57917,1,8,0:0:0:0:
256,192,58057,1,0,0:0:0:0:
256,192,58126,1,0,0:0:0:0:
256,192,58196,1,8,0:0:0:0:
256,192,58336,1,0,0:0:0:0:
256,192,58475,1,0,0:0:0:0:
256,192,58615,1,8,0:0:0:0:
256,192,58685,1,0,0:0:0:0:
256,192,58754,1,8,0:0:0:0:
256,192,58824,1,8,0:0:0:0:
256,192,58894,1,0,0:0:0:0:
256,192,58964,1,0,0:0:0:0:
256,192,59033,1,8,0:0:0:0:
256,192,59103,1,8,0:0:0:0:
256,192,59173,1,0,0:0:0:0:
256,192,59243,1,0,0:0:0:0:
256,192,59312,1,0,0:0:0:0:
256,192,59382,1,0,0:0:0:0:
256,192,59452,1,8,0:0:0:0:
256,192,59522,1,8,0:0:0:0:
256,192,59592,1,0,0:0:0:0:
256,192,59661,1,8,0:0:0:0:
256,192,59731,1,0,0:0:0:0:
256,192,59801,1,0,0:0:0:0:
256,192,59871,1,8,0:0:0:0:
256,192,59940,1,8,0:0:0:0:
256,192,60010,1,0,0:0:0:0:
256,192,60080,1,0,0:0:0:0:
256,192,60150,1,0,0:0:0:0:
256,192,60219,1,0,0:0:0:0:
256,192,60289,1,8,0:0:0:0:
256,192,60359,1,0,0:0:0:0:
256,192,60429,1,0,0:0:0:0:
256,192,60498,1,0,0:0:0:0:
256,192,60568,1,8,0:0:0:0:
256,192,60638,1,0,0:0:0:0:
256,192,60708,1,8,0:0:0:0:
256,192,60778,1,8,0:0:0:0:
256,192,60847,1,0,0:0:0:0:
256,192,60917,1,8,0:0:0:0:
256,192,60987,1,0,0:0:0:0:
256,192,61057,1,0,0:0:0:0:
256,192,61126,1,8,0:0:0:0:
256,192,61196,1,8,0:0:0:0:
256,192,61266,1,0,0:0:0:0:
256,192,61336,1,0,0:0:0:0:
256,192,61405,1,0,0:0:0:0:
256,192,61475,1,0,0:0:0:0:
256,192,61545,1,8,0:0:0:0:
256,192,61615,1,0,0:0:0:0:
256,192,61685,1,0,0:0:0:0:
256,192,61754,1,0,0:0:0:0:
256,192,61824,1,8,0:0:0:0:
256,192,61894,1,0,0:0:0:0:
256,192,61964,1,8,0:0:0:0:
256,192,62033,1,0,0:0:0:0:
256,192,62103,1,0,0:0:0:0:
256,192,62173,1,0,0:0:0:0:
256,192,62243,1,8,0:0:0:0:
256,192,62312,1,0,0:0:0:0:
256,192,62382,1,8,0:0:0:0:
256,192,62452,1,8,0:0:0:0:
256,192,62522,1,0,0:0:0:0:
256,192,62592,1,0,0:0:0:0:
256,192,62661,1,0,0:0:0:0:
256,192,62731,1,0,0:0:0:0:
256,192,62801,1,8,0:0:0:0:
256,192,62871,1,8,0:0:0:0:
256,192,62940,1,0,0:0:0:0:
256,192,63010,1,0,0:0:0:0:
256,192,63080,1,0,0:0:0:0:
256,192,63150,1,0,0:0:0:0:
256,192,63219,1,8,0:0:0:0:
256,192,63289,1,0,0:0:0:0:
256,192,63359,1,0,0:0:0:0:
256,192,63429,1,0,0:0:0:0:
256,192,63498,1,8,0:0:0:0:
256,192,63568,1,0,0:0:0:0:
256,192,63638,1,8,0:0:0:0:
256,192,63708,1,8,0:0:0:0:
256,192,63778,1,0,0:0:0:0:
256,192,63847,1,0,0:0:0:0:
256,192,63917,1,8,0:0:0:0:
256,192,63987,1,0,0:0:0:0:
256,192,64057,1,8,0:0:0:0:
256,192,64126,1,8,0:0:0:0:
256,192,64196,1,0,0:0:0:0:
256,192,64266,1,0,0:0:0:0:
256,192,64336,1,8,0:0:0:0:
256,192,64405,1,0,0:0:0:0:
256,192,64475,1,8,0:0:0:0:
256,192,64545,1,0,0:0:0:0:
256,192,64615,1,0,0:0:0:0:
256,192,64685,1,0,0:0:0:0:
256,192,64754,1,0,0:0:0:0:
256,192,64824,1,0,0:0:0:0:
256,192,64894,1,8,0:0:0:0:
256,192,64964,1,8,0:0:0:0:
256,192,65033,1,0,0:0:0:0:
256,192,65103,1,0,0:0:0:0:
256,192,65173,1,8,0:0:0:0:
256,192,65243,1,0,0:0:0:0:
256,192,65312,1,8,0:0:0:0:
256,192,65382,1,8,0:0:0:0:
256,192,65452,1,0,0:0:0:0:
256,192,65522,1,0,0:0:0:0:
256,192,65592,1,8,0:0:0:0:
256,192,65661,1,0,0:0:0:0:
256,192,65731,1,8,0:0:0:0:
256,192,65801,1,8,0:0:0:0:
256,192,65871,1,0,0:0:0:0:
256,192,65940,1,8,0:0:0:0:
256,192,66010,1,0,0:0:0:0:
256,192,66080,1,0,0:0:0:0:
256,192,66150,1,8,0:0:0:0:
256,192,66219,1,8,0:0:0:0:
256,192,66289,1,0,0:0:0:0:
256,192,66359,1,0,0:0:0:0:
256,192,66429,1,0,0:0:0:0:
256,192,66498,1,0,0:0:0:0:
256,192,66568,1,8,0:0:0:0:
256,192,66638,1,8,0:0:0:0:
256,192,66708,1,8,0:0:0:0:
256,192,66778,1,8,0:0:0:0:
256,192,66847,1,8,0:0:0:0:
256,192,66917,1,8,0:0:0:0:
256,192,66987,1,0,0:0:0:0:
256,192,67057,1,0,0:0:0:0:
256,192,67126,1,0,0:0:0:0:
256,192,67196,1,0,0:0:0:0:
256,192,67266,1,8,0:0:0:0:
256,192,67336,1,0,0:0:0:0:
256,192,67405,1,8,0:0:0:0:
256,192,67475,1,8,0:0:0:0:
256,192,67545,1,0,0:0:0:0:
256,192,67615,1,0,0:0:0:0:
256,192,67685,1,0,0:0:0:0:
256,192,67754,1,0,0:0:0:0:
256,192,67824,1,8,0:0:0:0:
256,192,67894,1,0,0:0:0:0:
256,192,67964,1,0,0:0:0:0:
256,192,68033,1,0,0:0:0:0:
256,192,68103,1,0,0:0:0:0:
256,192,68173,1,0,0:0:0:0:
256,192,68243,1,8,0:0:0:0:
256,192,68312,1,8,0:0:0:0:
256,192,68382,1,0,0:0:0:0:
256,192,68452,1,0,0:0:0:0:
256,192,68522,1,8,0:0:0:0:
256,192,68592,1,0,0:0:0:0:
256,192,68661,1,8,0:0:0:0:
256,192,68731,1,0,0:0:0:0:
256,192,68801,1,0,0:0:0:0:
256,192,68871,1,0,0:0:0:0:
256,192,68940,1,8,0:0:0:0:
256,192,69010,1,0,0:0:0:0:
256,192,69080,1,8,0:0:0:0:
256,192,69150,1,8,0:0:0:0:
256,192,69219,1,0,0:0:0:0:
256,192,69289,1,0,0:0:0:0:
256,192,69359,1,0,0:0:0:0:
256,192,69429,1,0,0:0:0:0:
256,192,69498,1,8,0:0:0:0:
256,192,69568,1,8,0:0:0:0:
256,192,69638,1,0,0:0:0:0:
256,192,69708,1,0,0:0:0:0:
256,192,69778,1,0,0:0:0:0:
256,192,69847,1,0,0:0:0:0:
256,192,69917,1,8,0:0:0:0:
256,192,69987,1,8,0:0:0:0:
256,192,70057,1,0,0:0:0:0:
256,192,70126,1,0,0:0:0:0:
256,192,70196,1,8,0:0:0:0:
256,192,70266,1,0,0:0:0:0:
256,192,70336,1,8,0:0:0:0:
256,192,70405,1,8,0:0:0:0:
256,192,70475,1,0,0:0:0:0:
256,192,70545,1,8,0:0:0:0:
256,192,70615,1,0,0:0:0:0:
256,192,70685,1,0,0:0:0:0:
256,192,70754,1,8,0:0:0:0:
256,192,70824,1,8,0:0:0:0:
256,192,70894,1,0,0:0:0:0:
256,192,70964,1,0,0:0:0:0:
256,192,71033,1,8,0:0:0:0:
256,192,71103,1,0,0:0:0:0:
256,192,71173,1,8,0:0:0:0:
256,192,71243,1,8,0:0:0:0:
256,192,71312,1,0,0:0:0:0:
256,192,71382,1,0,0:0:0:0:
256,192,71452,1,0,0:0:0:0:
256,192,71522,1,0,0:0:0:0:
256,192,71592,1,8,0:0:0:0:
256,192,71661,1,0,0:0:0:0:
256,192,71731,1,0,0:0:0:0:
256,192,71801,1,0,0:0:0:0:
256,192,71871,1,8,0:0:0:0:
256,192,71940,1,0,0:0:0:0:
256,192,72010,1,8,0:0:0:0:
256,192,72080,1,8,0:0:0:0:
256,192,72150,1,0,0:0:0:0:
256,192,72219,1,0,0:0:0:0:
256,192,72289,1,8,0:0:0:0:
256,192,72359,1,0,0:0:0:0:
256,192,72429,1,8,0:0:0:0:
256,192,72498,1,8,0:0:0:0:
256,192,72568,1,0,0:0:0:0:
256,192,72638,1,0,0:0:0:0:
256,192,72708,1,8,0:0:0:0:
256,192,72778,1,0,0:0:0:0:
256,192,72847,1,8,0:0:0:0:
256,192,72917,1,8,0:0:0:0:
256,192,72987,1,0,0:0:0:0:
256,192,73057,1,8,0:0:0:0:
256,192,73126,1,0,0:0:0:0:
256,192,73196,1,0,0:0:0:0:
256,192,73266,1,8,0:0:0:0:
256,192,73336,1,8,0:0:0:0:
256,192,73405,1,8,0:0:0:0:
256,192,73475,1,8,0:0:0:0:
256,192,73545,1,8,0:0:0:0:
256,192,73615,1,8,0:0:0:0:
256,192,73685,1,0,0:0:0:0:
256,192,73754,1,0,0:0:0:0:
256,192,73824,1,0,0:0:0:0:
256,192,73894,1,0,0:0:0:0:
256,192,73964,1,8,0:0:0:0:
256,192,74033,1,0,0:0:0:0:
256,192,74103,1,8,0:0:0:0:
256,192,74173,1,8,0:0:0:0:
256,192,74243,1,0,0:0:0:0:
256,192,74312,1,0,0:0:0:0:
256,192,74382,1,8,0:0:0:0:
256,192,74452,1,0,0:0:0:0:
256,192,74522,1,8,0:0:0:0:
256,192,74592,1,8,0:0:0:0:
256,192,74661,1,0,0:0:0:0:
256,192,74731,1,0,0:0:0:0:
256,192,74801,1,0,0:0:0:0:
256,192,74871,1,0,0:0:0:0:
256,192,74940,1,8,0:0:0:0:
256,192,75010,1,8,0:0:0:0:
256,192,75080,1,0,0:0:0:0:
256,192,75150,1,0,0:0:0:0:
256,192,75219,1,8,0:0:0:0:
256,192,75289,1,0,0:0:0:0:
256,192,75359,1,8,0:0:0:0:
256,192,75429,1,8,0:0:0:0:
256,192,75498,1,0,0:0:0:0:
256,192,75568,1,0,0:0:0:0:
256,192,75638,1,8,0:0:0:0:
256,192,75708,1,0,0:0:0:0:
256,192,75778,1,8,0:0:0:0:
256,192,75847,1,8,0:0:0:0:
256,192,75917,1,0,0:0:0:0:
256,192,75987,1,8,0:0:0:0:
256,192,76057,1,0,0:0:0:0:
256,192,76126,1,0,0:0:0:0:
256,192,76196,1,8,0:0:0:0:
256,192,76266,1,8,0:0:0:0:
256,192,76336,1,0,0:0:0:0:
256,192,76405,1,0,0:0:0:0:
256,192,76475,1,0,0:0:0:0:
256,192,76545,1,0,0:0:0:0:
256,192,76615,1,8,0:0:0:0:
256,192,76685,1,0,0:0:0:0:
256,192,76754,1,0,0:0:0:0:
256,192,76824,1,0,0:0:0:0:
256,192,76894,1,8,0:0:0:0:
256,192,76964,1,0,0:0:0:0:
256,192,77033,1,8,0:0:0:0:
256,192,77103,1,8,0:0:0:0:
256,192,77173,1,0,0:0:0:0:
256,192,77243,1,0,0:0:0:0:
256,192,77312,1,8,0:0:0:0:
256,192,77382,1,0,0:0:0:0:
256,192,77452,1,8,0:0:0:0:
256,192,77522,1,8,0:0:0:0:
256,192,77592,1,0,0:0:0:0:
256,192,77661,1,8,0:0:0:0:
256,192,77731,1,0,0:0:0:0:
256,192,77801,1,0,0:0:0:0:
256,192,77871,1,8,0:0:0:0:
256,192,77940,1,0,0:0:0:0:
256,192,78010,1,0,0:0:0:0:
256,192,78080,1,0,0:0:0:0:
256,192,78150,1,0,0:0:0:0:
256,192,78219,1,0,0:0:0:0:
256,192,78289,1,8,0:0:0:0:
256,192,78359,1,8,0:0:0:0:
256,192,78429,1,0,0:0:0:0:
256,192,78498,1,0,0:0:0:0:
256,192,78568,1,8,0:0:0:0:
256,192,78638,1,0,0:0:0:0:
256,192,78708,1,8,0:0:0:0:
256,192,78778,1,8,0:0:0:0:
256,192,78847,1,8,0:0:0:0:
256,192,78917,1,0,0:0:0:0:
256,192,78987,1,8,0:0:0:0:
256,192,79057,1,8,0:0:0:0:
256,192,79126,1,0,0:0:0:0:
256,192,79196,1,0,0:0:0:0:
256,192,79266,1,8,0:0:0:0:
256,192,79336,1,8,0:0:0:0:
256,192,79405,1,0,0:0:0:0:
256,192,79475,1,0,0:0:0:0:
256,192,79545,1,8,0:0:0:0:
256,192,79615,1,0,0:0:0:0:
256,192,79685,1,0,0:0:0:0:
256,192,79754,1,0,0:0:0:0:
256,192,79824,1,8,0:0:0:0:
256,192,79894,1,8,0:0:0:0:
256,192,79964,1,8,0:0:0:0:
256,192,80033,1,8,0:0:0:0:
256,192,80103,1,0,0:0:0:0:
256,192,80173,1,0,0:0:0:0:
256,192,80243,1,0,0:0:0:0:
256,192,80312,1,0,0:0:0:0:
256,192,80382,1,8,0:0:0:0:
256,192,80452,1,0,0:0:0:0:
256,192,80522,1,0,0:0:0:0:
256,192,80592,1,0,0:0:0:0:
256,192,80661,1,8,0:0:0:0:
256,192,80731,1,8,0:0:0:0:
256,192,80801,1,8,0:0:0:0:
256,192,80871,1,8,0:0:0:0:
256,192,80940,1,0,0:0:0:0:
256,192,81010,1,0,0:0:0:0:
256,192,81080,1,8,0:0:0:0:
256,192,81150,1,0,0:0:0:0:
256,192,81219,1,8,0:0:0:0:
256,192,81289,1,8,0:0:0:0:
256,192,81359,1,0,0:0:0:0:
256,192,81429,1,0,0:0:0:0:
256,192,81498,1,0,0:0:0:0:
256,192,81568,1,0,0:0:0:0:
256,192,81638,1,8,0:0:0:0:
256,192,81708,1,8,0:0:0:0:
256,192,81778,1,0,0:0:0:0:
256,192,81847,1,0,0:0:0:0:
256,192,81917,1,8,0:0:0:0:
256,192,81987,1,0,0:0:0:0:
256,192,82057,1,8,0:0:0:0:
256,192,82126,1,0,0:0:0:0:
256,192,82196,1,0,0:0:0:0:
256,192,82266,1,0,0:0:0:0:
256,192,82336,1,8,0:0:0:0:
256,192,82405,1,8,0:0:0:0:
256,192,82475,1,0,0:0:0:0:
256,192,82545,1,0,0:0:0:0:
256,192,82615,1,8,0:0:0:0:
256,192,82685,1,0,0:0:0:0:
256,192,82754,1,0,0:0:0:0:
256,192,82824,1,0,0:0:0:0:
256,192,82894,1,8,0:0:0:0:
256,192,82964,1,8,0:0:0:0:
256,192,83033,1,0,0:0:0:0:
256,192,83103,1,0,0:0:0:0:
256,192,83173,1,0,0:0:0:0:
256,192,83243,1,0,0:0:0:0:
256,192,83312,1,8,0:0:0:0:
256,192,83382,1,0,0:0:0:0:
256,192,83452,1,8,0:0:0:0:
256,192,83522,1,8,0:0:0:0:
256,192,83592,1,0,0:0:0:0:
256,192,83661,1,0,0:0:0:0:
256,192,83731,1,8,0:0:0:0:
256,192,83801,1,0,0:0:0:0:
256,192,83871,1,0,0:0:0:0:
256,192,83940,1,0,0:0:0:0:
256,192,84010,1,8,0:0:0:0:
256,192,84080,1,8,0:0:0:0:
256,192,84150,1,8,0:0:0:0:
256,192,84219,1,8,0:0:0:0:
256,192,84289,1,0,0:0:0:0:
256,192,84359,1,0,0:0:0:0:
256,192,84429,1,0,0:0:0:0:
256,192,84498,1,0,0:0:0:0:
256,192,84568,1,8,0:0:0:0:
256,192,84638,1,8,0:0:0:0:
256,192,84708,1,0,0:0:0:0:
256,192,84778,1,0,0:0:0:0:
256,192,84847,1,0,0:0:0:0:
256,192,84917,1,0,0:0:0:0:
256,192,84987,1,8,0:0:0:0:
256,192,85057,1,0,0:0:0:0:
256,192,85126,1,0,0:0:0:0:
256,192,85196,1,0,0:0:0:0:
256,192,85266,1,8,0:0:0:0:
256,192,85336,1,0,0:0:0:0:
256,192,85405,1,8,0:0:0:0:
256,192,85475,1,8,0:0:0:0:
256,192,85545,1,0,0:0:0:0:
256,192,85615,1,0,0:0:0:0:
256,192,85685,1,8,0:0:0:0:
256,192,85754,1,0,0:0:0:0:
256,192,85824,1,0,0:0:0:0:
256,192,85894,1,0,0:0:0:0:
256,192,85964,1,8,0:0:0:0:
256,192,86033,1,8,0:0:0:0:
256,192,86103,1,0,0:0:0:0:
256,192,86173,1,0,0:0:0:0:
256,192,86243,1,8,0:0:0:0:
256,192,86312,1,8,0:0:0:0:
256,192,86382,1,0,0:0:0:0:
256,192,86452,1,8,0:0:0:0:
256,192,86522,1,0,0:0:0:0:
256,192,86592,1,0,0:0:0:0:
256,192,86661,1,8,0:0:0:0:
256,192,86731,1,8,0:0:0:0:
256,192,86801,1,8,0:0:0:0:
256,192,86871,1,8,0:0:0:0:
256,192,86940,1,0,0:0:0:0:
256,192,87080,1,8,0:0:0:0:
256,192,87150,1,8,0:0:0:0:
256,192,87219,1,8,0:0:0:0:
256,192,87289,1,8,0:0:0:0:
256,192,87359,1,0,0:0:0:0:
256,192,87429,1,0,0:0:0:0:
256,192,87498,1,8,0:0:0:0:
256,192,87568,1,8,0:0:0:0:
256,192,87638,1,0,0:0:0:0:
256,192,87708,1,0,0:0:0:0:
256,192,87778,1,8,0:0:0:0:
256,192,87847,1,0,0:0:0:0:
256,192,87917,1,8,0:0:0:0:
256,192,87987,1,0,0:0:0:0:
256,192,88057,1,8,0:0:0:0:
256,192,88126,1,8,0:0:0:0:
256,192,88196,1,8,0:0:0:0:
256,192,88266,1,8,0:0:0:0:
256,192,88336,1,0,0:0:0:0:
256,192,88405,1,0,0:0:0:0:
256,192,88475,1,0,0:0:0:0:
256,192,88545,1,0,0:0:0:0:
256,192,88615,1,0,0:0:0:0:
256,192,88685,1,0,0:0:0:0:
256,192,88754,1,8,0:0:0:0:
256,192,88824,1,8,0:0:0:0:
256,192,88894,1,0,0:0:0:0:
256,192,88964,1,0,0:0:0:0:
256,192,89033,1,8,0:0:0:0:
256,192,89103,1,8,0:0:0:0:
256,192,89173,1,8,0:0:0:0:
256,192,89243,1,0,0:0:0:0:
256,192,89312,1,8,0:0:0:0:
256,192,89382,1,8,0:0:0:0:
256,192,89452,1,0,0:0:0:0:
256,192,89522,1,0,0:0:0:0:
256,192,89592,1,8,0:0:0:0:
256,192,89661,1,8,0:0:0:0:
256,192,89731,1,8,0:0:0:0:
256,192,89801,1,8,0:0:0:0:
256,192,89871,1,0,0:0:0:0:
256,192,89940,1,0,0:0:0:0:
256,192,90010,1,0,0:0:0:0:
256,192,90080,1,0,0:0:0:0:
256,192,90150,1,0,0:0:0:0:
256,192,90219,1,0,0:0:0:0:
256,192,90289,1,0,0:0:0:0:
256,192,90359,1,0,0:0:0:0:
256,192,90429,1,8,0:0:0:0:
256,192,90498,1,0,0:0:0:0:
256,192,90568,1,0,0:0:0:0:
256,192,90638,1,0,0:0:0:0:
256,192,90708,1,8,0:0:0:0:
256,192,90778,1,8,0:0:0:0:
256,192,90847,1,8,0:0:0:0:
256,192,90917,1,8,0:0:0:0:
256,192,90987,1,0,0:0:0:0:
256,192,91057,1,0,0:0:0:0:
256,192,91126,1,0,0:0:0:0:
256,192,91196,1,0,0:0:0:0:
256,192,91266,1,8,0:0:0:0:
256,192,91336,1,8,0:0:0:0:
256,192,91405,1,8,0:0:0:0:
256,192,91475,1,8,0:0:0:0:
256,192,91545,1,8,0:0:0:0:
256,192,91615,1,8,0:0:0:0:
256,192,91685,1,0,0:0:0:0:
256,192,91754,1,0,0:0:0:0:
256,192,91824,1,0,0:0:0:0:
256,192,91894,1,0,0:0:0:0:
256,192,91964,1,0,0:0:0:0:
256,192,92033,1,0,0:0:0:0:
256,192,92103,1,8,0:0:0:0:
256,192,92173,1,8,0:0:0:0:
256,192,92243,1,0,0:0:0:0:
256,192,92312,1,0,0:0:0:0:
256,192,92382,1,8,0:0:0:0:
256,192,92452,1,0,0:0:0:0:
256,192,92522,1,8,0:0:0:0:
256,192,92592,1,8,0:0:0:0:
256,192,92661,1,0,0:0:0:0:
256,192,92731,1,0,0:0:0:0:
256,192,92801,1,0,0:0:0:0:
256,192,92871,1,0,0:0:0:0:
256,192,92940,1,8,0:0:0:0:
256,192,93010,1,8,0:0:0:0:
256,192,93080,1,8,0:0:0:0:
256,192,93150,1,8,0:0:0:0:
256,192,93219,1,0,0:0:0:0:
256,192,93289,1,0,0:0:0:0:
256,192,93359,1,8,0:0:0:0:
256,192,93429,1,0,0:0:0:0:
256,192,93498,1,8,0:0:0:0:
256,192,93568,1,8,0:0:0:0:
256,192,93638,1,0,0:0:0:0:
256,192,93708,1,0,0:0:0:0:
256,192,93778,1,8,0:0:0:0:
256,192,93847,1,8,0:0:0:0:
256,192,93917,1,8,0:0:0:0:
256,192,93987,1,8,0:0:0:0:
256,192,94057,1,0,0:0:0:0:
256,192,94126,1,0,0:0:0:0:
256,192,94196,1,8,0:0:0:0:
256,192,94266,1,8,0:0:0:0:
256,192,94336,1,0,0:0:0:0:
256,192,94405,1,0,0:0:0:0:
256,192,94475,1,0,0:0:0:0:
256,192,94545,1,0,0:0:0:0:
256,192,94615,1,8,0:0:0:0:
256,192,94685,1,0,0:0:0:0:
256,192,94754,1,8,0:0:0:0:
256,192,94824,1,8,0:0:0:0:
256,192,94894,1,0,0:0:0:0:
256,192,94964,1,0,0:0:0:0:
256,192,95033,1,8,0:0:0:0:
256,192,95103,1,8,0:0:0:0:
256,192,95173,1,0,0:0:0:0:
256,192,95243,1,0,0:0:0:0:
256,192,95312,1,8,0:0:0:0:
256,192,95382,1,0,0:0:0:0:
256,192,95452,1,8,0:0:0:0:
256,192,95522,1,8,0:0:0:0:
256,192,95592,1,0,0:0:0:0:
256,192,95661,1,0,0:0:0:0:
256,192,95731,1,8,0:0:0:0:
256,192,95801,1,0,0:0:0:0:
256,192,95871,1,0,0:0:0:0:
256,192,95940,1,0,0:0:0:0:
256,192,96010,1,8,0:0:0:0:
256,192,96080,1,0,0:0:0:0:
256,192,96150,1,0,0:0:0:0:
256,192,96219,1,0,0:0:0:0:
256,192,96289,1,8,0:0:0:0:
256,192,96359,1,8,0:0:0:0:
256,192,96429,1,0,0:0:0:0:
256,192,96498,1,0,0:0:0:0:
256,192,96568,1,8,0:0:0:0:
256,192,96638,1,0,0:0:0:0:
256,192,96708,1,8,0:0:0:0:
256,192,96778,1,8,0:0:0:0:
256,192,96847,1,0,0:0:0:0:
256,192,96917,1,0,0:0:0:0:
256,192,96987,1,8,0:0:0:0:
256,192,97057,1,0,0:0:0:0:
256,192,97126,1,8,0:0:0:0:
256,192,97196,1,8,0:0:0:0:
256,192,97266,1,0,0:0:0:0:
256,192,97336,1,0,0:0:0:0:
256,192,97405,1,8,0:0:0:0:
256,192,97475,1,8,0:0:0:0:
256,192,97545,1,8,0:0:0:0:
256,192,97615,1,8,0:0:0:0:
256,192,97685,1,0,0:0:0:0:
256,192,97754,1,0,0:0:0:0:
256,192,97824,1,0,0:0:0:0:
256,192,97894,1,0,0:0:0:0:
256,192,97964,1,8,0:0:0:0:
256,192,98033,1,8,0:0:0:0:
256,192,98103,1,8,0:0:0:0:
256,192,98173,1,8,0:0:0:0:
256,192,98243,1,0,0:0:0:0:
256,192,98312,1,0,0:0:0:0:
256,192,98382,1,0,0:0:0:0:
256,192,98452,1,0,0:0:0:0:
256,192,98522,1,8,0:0:0:0:
256,192,98592,1,8,0:0:0:0:
256,192,98661,1,0,0:0:0:0:
256,192,98731,1,0,0:0:0:0:
256,192,98801,1,8,0:0:0:0:
256,192,98871,1,8,0:0:0:0:
256,192,98940,1,8,0:0:0:0:
256,192,99010,1,8,0:0:0:0:
256,192,99080,1,0,0:0:0:0:
256,192,99150,1,0,0:0:0:0:
256,192,99219,1,0,0:0:0:0:
256,192,99289,1,0,0:0:0:0:
256,192,99359,1,0,0:0:0:0:
256,192,99429,1,0,0:0:0:0:
256,192,99498,1,8,0:0:0:0:
256,192,99568,1,0,0:0:0:0:
256,192,99638,1,8,0:0:0:0:
256,192,99708,1,8,0:0:0:0:
256,192,99778,1,0,0:0:0:0:
256,192,99847,1,0,0:0:0:0:
256,192,99917,1,8,0:0:0:0:
256,192,99987,1,8,0:0:0:0:
256,192,100057,1,8,0:0:0:0:
256,192,100126,1,8,0:0:0:0:
256,192,100196,1,0,0:0:0:0:
256,192,100266,1,0,0:0:0:0:
256,192,100336,1,8,0:0:0:0:
256,192,100405,1,0,0:0:0:0:
256,192,100475,1,8,0:0:0:0:
256,192,100545,1,8,0:0:0:0:
256,192,100615,1,0,0:0:0:0:
256,192,100685,1,0,0:0:0:0:
256,192,100754,1,8,0:0:0:0:
256,192,100824,1,8,0:0:0:0:
256,192,100894,1,8,0:0:0:0:
256,192,100964,1,8,0:0:0:0:
256,192,101033,1,8,0:0:0:0:
256,192,101103,1,8,0:0:0:0:
256,192,101173,1,0,0:0:0:0:
256,192,101243,1,0,0:0:0:0:
256,192,101312,1,8,0:0:0:0:
256,192,101382,1,0,0:0:0:0:
256,192,101452,1,0,0:0:0:0:
256,192,101522,1,0,0:0:0:0:
256,192,101592,1,8,0:0:0:0:
256,192,101661,1,0,0:0:0:0:
256,192,101731,1,8,0:0:0:0:
256,192,101801,1,8,0:0:0:0:
256,192,101871,1,0,0:0:0:0:
256,192,101940,1,0,0:0:0:0:
256,192,102010,1,0,0:0:0:0:
256,192,102080,1,0,0:0:0:0:
256,192,102150,1,8,0:0:0:0:
256,192,102219,1,8,0:0:0:0:
256,192,102289,1,8,0:0:0:0:
256,192,102359,1,8,0:0:0:0:
256,192,102429,1,0,0:0:0:0:
256,192,102498,1,0,0:0:0:0:
256,192,102568,1,8,0:0:0:0:
256,192,102638,1,8,0:0:0:0:
256,192,102708,1,0,0:0:0:0:
256,192,102778,1,0,0:0:0:0:
256,192,102847,1,8,0:0:0:0:
256,192,102917,1,0,0:0:0:0:
256,192,102987,1,8,0:0:0:0:
256,192,103057,1,8,0:0:0:0:
256,192,103126,1,0,0:0:0:0:
256,192,103196,1,0,0:0:0:0:
256,192,103266,1,8,0:0:0:0:
256,192,103336,1,8,0:0:0:0:
256,192,103405,1,8,0:0:0:0:
256,192,103475,1,8,0:0:0:0:
256,192,103545,1,0,0:0:0:0:
256,192,103615,1,0,0:0:0:0:
256,192,103685,1,8,0:0:0:0:
256,192,103754,1,0,0:0:0:0:
256,192,103824,1,8,0:0:0:0:
256,192,103894,1,8,0:0:0:0:
256,192,103964,1,0,0:0:0:0:
256,192,104033,1,0,0:0:0:0:
256,192,104103,1,8,0:0:0:0:
256,192,104173,1,8,0:0:0:0:
256,192,104243,1,8,0:0:0:0:
256,192,104312,1,8,0:0:0:0:
256,192,104382,1,8,0:0:0:0:
256,192,104452,1,8,0:0:0:0:
256,192,104522,1,0,0:0:0:0:
256,192,104592,1,0,0:0:0:0:
256,192,104661,1,8,0:0:0:0:
256,192,104731,1,0,0:0:0:0:
256,192,104801,1,8,0:0:0:0:
256,192,104871,1,8,0:0:0:0:
256,192,104940,1,0,0:0:0:0:
256,192,105010,1,0,0:0:0:0:
256,192,105080,1,8,0:0:0:0:
256,192,105150,1,8,0:0:0:0:
256,192,105219,1,0,0:0:0:0:
256,192,105289,1,0,0:0:0:0:
256,192,105359,1,0,0:0:0:0:
256,192,105429,1,0,0:0:0:0:
256,192,105498,1,8,0:0:0:0:
256,192,105568,1,8,0:0:0:0:
256,192,105638,1,8,0:0:0:0:
256,192,105708,1,8,0:0:0:0:
256,192,105778,1,0,0:0:0:0:
256,192,105847,1,0,0:0:0:0:
256,192,105917,1,8,0:0:0:0:
256,192,105987,1,0,0:0:0:0:
256,192,106057,1,8,0:0:0:0:
256,192,106126,1,8,0:0:0:0:
256,192,106196,1,0,0:0:0:0:
256,192,106266,1,0,0:0:0:0:
256,192,106336,1,8,0:0:0:0:
256,192,106405,1,0,0:0:0:0:
256,192,106475,1,0,0:0:0:0:
256,192,106545,1,0,0:0:0:0:
256,192,106615,1,8,0:0:0:0:
256,192,106685,1,0,0:0:0:0:
256,192,106754,1,0,0:0:0:0:
256,192,106824,1,0,0:0:0:0:
256,192,106894,1,8,0:0:0:0:
256,192,106964,1,8,0:0:0:0:
256,192,107033,1,0,0:0:0:0:
256,192,107103,1,0,0:0:0:0:
256,192,107173,1,8,0:0:0:0:
256,192,107243,1,8,0:0:0:0:
256,192,107312,1,8,0:0:0:0:
256,192,107382,1,8,0:0:0:0:
256,192,107452,1,8,0:0:0:0:
256,192,107522,1,8,0:0:0:0:
256,192,107592,1,8,0:0:0:0:
256,192,107661,1,8,0:0:0:0:
256,192,107731,1,0,0:0:0:0:
256,192,107801,1,0,0:0:0:0:
256,192,107871,1,0,0:0:0:0:
256,192,107940,1,0,0:0:0:0:
256,192,108010,1,8,0:0:0:0:
256,192,108080,1,0,0:0:0:0:
256,192,108150,1,8,0:0:0:0:
256,192,108219,1,8,0:0:0:0:
256,192,108289,1,0,0:0:0:0:
256,192,108359,1,0,0:0:0:0:
256,192,108429,1,8,0:0:0:0:
256,192,108498,1,8,0:0:0:0:
256,192,108568,1,0,0:0:0:0:
256,192,108638,1,0,0:0:0:0:
256,192,108708,1,8,0:0:0:0:
256,192,108778,1,0,0:0:0:0:
256,192,108847,1,8,0:0:0:0:
256,192,108917,1,8,0:0:0:0:
256,192,108987,1,0,0:0:0:0:
256,192,109057,1,8,0:0:0:0:
256,192,109126,1,0,0:0:0:0:
256,192,109196,1,0,0:0:0:0:
256,192,109266,1,8,0:0:0:0:
256,192,109336,1,8,0:0:0:0:
256,192,109405,1,0,0:0:0:0:
256,192,109475,1,0,0:0:0:0:
256,192,109545,1,8,0:0:0:0:
256,192,109615,1,0,0:0:0:0:
256,192,109685,1,8,0:0:0:0:
256,192,109754,1,8,0:0:0:0:
256,192,109824,1,0,0:0:0:0:
256,192,109894,1,0,0:0:0:0:
256,192,109964,1,8,0:0:0:0:
256,192,110033,1,8,0:0:0:0:
256,192,110103,1,8,0:0:0:0:
256,192,110173,1,8,0:0:0:0:
256,192,110243,1,8,0:0:0:0:
256,192,110312,1,8,0:0:0:0:
256,192,110382,1,0,0:0:0:0:
256,192,110452,1,0,0:0:0:0:
256,192,110522,1,8,0:0:0:0:
256,192,110592,1,0,0:0:0:0:
256,192,110661,1,8,0:0:0:0:
256,192,110731,1,8,0:0:0:0:
256,192,110801,1,0,0:0:0:0:
256,192,110871,1,0,0:0:0:0:
256,192,110940,1,8,0:0:0:0:
256,192,111010,1,8,0:0:0:0:
256,192,111080,1,0,0:0:0:0:
256,192,111150,1,0,0:0:0:0:
256,192,111219,1,0,0:0:0:0:
256,192,111289,1,0,0:0:0:0:
256,192,111359,1,8,0:0:0:0:
256,192,111429,1,8,0:0:0:0:
256,192,111498,1,0,0:0:0:0:
256,192,111568,1,0,0:0:0:0:
256,192,111638,1,8,0:0:0:0:
256,192,111708,1,0,0:0:0:0:
256,192,111778,1,8,0:0:0:0:
256,192,111847,1,8,0:0:0:0:
256,192,111917,1,0,0:0:0:0:
256,192,111987,1,0,0:0:0:0:
256,192,112057,1,0,0:0:0:0:
256,192,112126,1,0,0:0:0:0:
256,192,112196,1,8,0:0:0:0:
256,192,112266,1,0,0:0:0:0:
256,192,112336,1,0,0:0:0:0:
256,192,112405,1,0,0:0:0:0:
256,192,112475,1,8,0:0:0:0:
256,192,112545,1,8,0:0:0:0:
256,192,112615,1,8,0:0:0:0:
256,192,112685,1,8,0:0:0:0:
256,192,112754,1,0,0:0:0:0:
256,192,112824,1,0,0:0:0:0:
256,192,112894,1,0,0:0:0:0:
256,192,112964,1,0,0:0:0:0:
256,192,113033,1,8,0:0:0:0:
256,192,113103,1,8,0:0:0:0:
256,192,113173,1,0,0:0:0:0:
256,192,113243,1,0,0:0:0:0:
256,192,113312,1,8,0:0:0:0:
256,192,113382,1,8,0:0:0:0:
256,192,113452,1,8,0:0:0:0:
256,192,113522,1,8,0:0:0:0:
256,192,113592,1,0,0:0:0:0:
256,192,113661,1,0,0:0:0:0:
256,192,113731,1,0,0:0:0:0:
256,192,113801,1,0,0:0:0:0:
256,192,113871,1,12,0:0:0:0:
256,192,114150,1,8,0:0:0:0:
256,192,114219,1,0,0:0:0:0:
256,192,114289,1,8,0:0:0:0:
256,192,114359,1,8,0:0:0:0:
256,192,114429,1,0,0:0:0:0:
256,192,114498,1,0,0:0:0:0:
256,192,114568,1,8,0:0:0:0:
256,192,114638,1,0,0:0:0:0:
256,192,114708,1,8,0:0:0:0:
256,192,114778,1,8,0:0:0:0:
256,192,114847,1,0,0:0:0:0:
256,192,114917,1,8,0:0:0:0:
256,192,114987,1,0,0:0:0:0:
256,192,115057,1,0,0:0:0:0:
256,192,115126,1,8,0:0:0:0:
256,192,115196,1,8,0:0:0:0:
256,192,115266,1,0,0:0:0:0:
256,192,115336,1,0,0:0:0:0:
256,192,115405,1,8,0:0:0:0:
256,192,115475,1,0,0:0:0:0:
256,192,115545,1,8,0:0:0:0:
256,192,115615,1,8,0:0:0:0:
256,192,115685,1,8,0:0:0:0:
256,192,115754,1,8,0:0:0:0:
256,192,115824,1,0,0:0:0:0:
256,192,115894,1,0,0:0:0:0:
256,192,115964,1,8,0:0:0:0:
256,192,116033,1,8,0:0:0:0:
256,192,116103,1,0,0:0:0:0:
256,192,116173,1,0,0:0:0:0:
256,192,116243,1,8,0:0:0:0:
256,192,116312,1,0,0:0:0:0:
256,192,116382,1,8,0:0:0:0:
256,192,116452,1,8,0:0:0:0:
256,192,116522,1,8,0:0:0:0:
256,192,116592,1,8,0:0:0:0:
256,192,116661,1,0,0:0:0:0:
256,192,116731,1,0,0:0:0:0:
256,192,116801,1,8,0:0:0:0:
256,192,116871,1,8,0:0:0:0:
256,192,116940,1,0,0:0:0:0:
256,192,117010,1,8,0:0:0:0:
256,192,117080,1,0,0:0:0:0:
256,192,117150,1,0,0:0:0:0:
256,192,117219,1,8,0:0:0:0:
256,192,117289,1,8,0:0:0:0:
256,192,117359,1,8,0:0:0:0:
256,192,117429,1,8,0:0:0:0:
256,192,117498,1,0,0:0:0:0:
256,192,117568,1,0,0:0:0:0:
256,192,117638,1,8,0:0:0:0:
256,192,117708,1,8,0:0:0:0:
256,192,117778,1,0,0:0:0:0:
256,192,117847,1,0,0:0:0:0:
256,192,117917,1,8,0:0:0:0:
256,192,117987,1,0,0:0:0:0:
256,192,118057,1,8,0:0:0:0:
256,192,118126,1,8,0:0:0:0:
256,192,118196,1,8,0:0:0:0:
256,192,118266,1,8,0:0:0:0:
256,192,118336,1,0,0:0:0:0:
256,192,118405,1,0,0:0:0:0:
256,192,118475,1,8,0:0:0:0:
256,192,118545,1,8,0:0:0:0:
256,192,118615,1,0,0:0:0:0:
256,192,118685,1,0,0:0:0:0:
256,192,118754,1,8,0:0:0:0:
256,192,118824,1,0,0:0:0:0:
256,192,118894,1,8,0:0:0:0:
256,192,118964,1,8,0:0:0:0:
256,192,119033,1,8,0:0:0:0:
256,192,119103,1,8,0:0:0:0:
256,192,119173,1,0,0:0:0:0:
256,192,119243,1,0,0:0:0:0:
256,192,119312,1,8,0:0:0:0:
256,192,119382,1,0,0:0:0:0:
256,192,119452,1,8,0:0:0:0:
256,192,119522,1,8,0:0:0:0:
256,192,119592,1,0,0:0:0:0:
256,192,119661,1,0,0:0:0:0:
256,192,119731,1,8,0:0:0:0:
256,192,119801,1,8,0:0:0:0:
256,192,119871,1,8,0:0:0:0:
256,192,119940,1,8,0:0:0:0:
256,192,120010,1,0,0:0:0:0:
256,192,120080,1,0,0:0:0:0:
256,192,120150,1,8,0:0:0:0:
256,192,120219,1,8,0:0:0:0:
256,192,120289,1,0,0:0:0:0:
256,192,120359,1,8,0:0:0:0:
256,192,120429,1,0,0:0:0:0:
256,192,120498,1,0,0:0:0:0:
256,192,120568,1,8,0:0:0:0:
256,192,120638,1,8,0:0:0:0:
256,192,120708,1,0,0:0:0:0:
256,192,120778,1,0,0:0:0:0:
256,192,120847,1,8,0:0:0:0:
256,192,120917,1,0,0:0:0:0:
256,192,120987,1,8,0:0:0:0:
256,192,121057,1,8,0:0:0:0:
256,192,121126,1,0,0:0:0:0:
256,192,121196,1,0,0:0:0:0:
256,192,121266,1,8,0:0:0:0:
256,192,121336,1,0,0:0:0:0:
256,192,121405,1,8,0:0:0:0:
256,192,121475,1,8,0:0:0:0:
256,192,121545,1,0,0:0:0:0:
256,192,121615,1,8,0:0:0:0:
256,192,121685,1,8,0:0:0:0:
256,192,121754,1,0,0:0:0:0:
256,192,121824,1,8,0:0:0:0:
256,192,121894,1,8,0:0:0:0:
256,192,121964,1,0,0:0:0:0:
256,192,122033,1,0,0:0:0:0:
256,192,122103,1,8,0:0:0:0:
256,192,122173,1,0,0:0:0:0:
256,192,122243,1,8,0:0:0:0:
256,192,122312,1,0,0:0:0:0:
256,192,122382,1,8,0:0:0:0:
256,192,122452,1,8,0:0:0:0:
256,192,122522,1,0,0:0:0:0:
256,192,122592,1,0,0:0:0:0:
256,192,122661,1,8,0:0:0:0:
256,192,122731,1,8,0:0:0:0:
256,192,122801,1,0,0:0:0:0:
256,192,122871,1,0,0:0:0:0:
256,192,122940,1,8,0:0:0:0:
256,192,123010,1,0,0:0:0:0:
256,192,123080,1,8,0:0:0:0:
256,192,123150,1,8,0:0:0:0:
256,192,123219,1,0,0:0:0:0:
256,192,123289,1,0,0:0:0:0:
256,192,123359,1,8,0:0:0:0:
256,192,123429,1,0,0:0:0:0:
256,192,123498,1,8,0:0:0:0:
256,192,123568,1,8,0:0:0:0:
256,192,123638,1,0,0:0:0:0:
256,192,123708,1,0,0:0:0:0:
256,192,123778,1,8,0:0:0:0:
256,192,123847,1,0,0:0:0:0:
256,192,123917,1,8,0:0:0:0:
256,192,123987,1,8,0:0:0:0:
256,192,124057,1,8,0:0:0:0:
256,192,124126,1,8,0:0:0:0:
256,192,124196,1,0,0:0:0:0:
256,192,124266,1,0,0:0:0:0:
256,192,124336,1,8,0:0:0:0:
256,192,124405,1,8,0:0:0:0:
256,192,124475,1,0,0:0:0:0:
256,192,124545,1,0,0:0:0:0:
256,192,124615,1,8,0:0:0:0:
256,192,124685,1,0,0:0:0:0:
256,192,124754,1,8,0:0:0:0:
256,192,124824,1,8,0:0:0:0:
256,192,124894,1,0,0:0:0:0:
256,192,124964,1,8,0:0:0:0:
256,192,125033,1,0,0:0:0:0:
256,192,125103,1,0,0:0:0:0:
256,192,125173,1,8,0:0:0:0:
256,192,125243,1,8,0:0:0:0:
256,192,125312,1,0,0:0:0:0:
256,192,125382,1,0,0:0:0:0:
256,192,125452,1,8,0:0:0:0:
256,192,125522,1,0,0:0:0:0:
256,192,125592,1,8,0:0:0:0:
256,192,125661,1,8,0:0:0:0:
256,192,125731,1,0,0:0:0:0:
256,192,125801,1,8,0:0:0:0:
256,192,125871,1,8,0:0:0:0:
256,192,125940,1,0,0:0:0:0:
256,192,126010,1,8,0:0:0:0:
256,192,126080,1,8,0:0:0:0:
256,192,126150,1,0,0:0:0:0:
256,192,126219,1,0,0:0:0:0:
256,192,126289,1,8,0:0:0:0:
256,192,126359,1,0,0:0:0:0:
256,192,126429,1,8,0:0:0:0:
256,192,126498,1,8,0:0:0:0:
256,192,126568,1,0,0:0:0:0:
256,192,126638,1,8,0:0:0:0:
256,192,126708,1,0,0:0:0:0:
256,192,126778,1,0,0:0:0:0:
256,192,126847,1,0,0:0:0:0:
256,192,126917,1,0,0:0:0:0:
256,192,126987,1,8,0:0:0:0:
256,192,127057,1,0,0:0:0:0:
256,192,127126,1,0,0:0:0:0:
256,192,127196,1,0,0:0:0:0:
256,192,127266,1,8,0:0:0:0:
256,192,127336,1,0,0:0:0:0:
256,192,127405,1,8,0:0:0:0:
256,192,127475,1,8,0:0:0:0:
256,192,127545,1,0,0:0:0:0:
256,192,127615,1,0,0:0:0:0:
256,192,127685,1,8,0:0:0:0:
256,192,127754,1,8,0:0:0:0:
256,192,127824,1,0,0:0:0:0:
256,192,127894,1,0,0:0:0:0:
256,192,127964,1,8,0:0:0:0:
256,192,128033,1,0,0:0:0:0:
256,192,128103,1,8,0:0:0:0:
256,192,128173,1,8,0:0:0:0:
256,192,128243,1,0,0:0:0:0:
256,192,128312,1,8,0:0:0:0:
256,192,128382,1,0,0:0:0:0:
256,192,128452,1,0,0:0:0:0:
256,192,128522,1,8,0:0:0:0:
256,192,128592,1,8,0:0:0:0:
256,192,128661,1,0,0:0:0:0:
256,192,128731,1,0,0:0:0:0:
256,192,128801,1,8,0:0:0:0:
256,192,128871,1,0,0:0:0:0:
256,192,128940,1,8,0:0:0:0:
256,192,129010,1,8,0:0:0:0:
256,192,129080,1,8,0:0:0:0:
256,192,129150,1,8,0:0:0:0:
256,192,129219,1,0,0:0:0:0:
256,192,129289,1,0,0:0:0:0:
256,192,129359,1,8,0:0:0:0:
256,192,129429,1,8,0:0:0:0:
256,192,129498,1,0,0:0:0:0:
256,192,129568,1,0,0:0:0:0:
256,192,129638,1,8,0:0:0:0:
256,192,129708,1,0,0:0:0:0:
256,192,129778,1,8,0:0:0:0:
256,192,129847,1,8,0:0:0:0:
256,192,129917,1,8,0:0:0:0:
256,192,129987,1,8,0:0:0:0:
256,192,130057,1,0,0:0:0:0:
256,192,130126,1,0,0:0:0:0:
256,192,130196,1,8,0:0:0:0:
256,192,130266,1,0,0:0:0:0:
256,192,130336,1,8,0:0:0:0:
256,192,130405,1,8,0:0:0:0:
256,192,130475,1,0,0:0:0:0:
256,192,130545,1,0,0:0:0:0:
256,192,130615,1,8,0:0:0:0:
256,192,130685,1,8,0:0:0:0:
256,192,130754,1,8,0:0:0:0:
256,192,130824,1,8,0:0:0:0:
256,192,130894,1,0,0:0:0:0:
256,192,130964,1,0,0:0:0:0:
256,192,131033,1,8,0:0:0:0:
256,192,131103,1,8,0:0:0:0:
256,192,131173,1,0,0:0:0:0:
256,192,131243,1,8,0:0:0:0:
256,192,131312,1,0,0:0:0:0:
256,192,131382,1,0,0:0:0:0:
256,192,131452,1,8,0:0:0:0:
256,192,131522,1,8,0:0:0:0:
256,192,131592,1,8,0:0:0:0:
256,192,131661,1,8,0:0:0:0:
256,192,131731,1,0,0:0:0:0:
256,192,131801,1,0,0:0:0:0:
256,192,131871,1,8,0:0:0:0:
256,192,131940,1,0,0:0:0:0:
256,192,132010,1,8,0:0:0:0:
256,192,132080,1,8,0:0:0:0:
256,192,132150,1,0,0:0:0:0:
256,192,132219,1,0,0:0:0:0:
256,192,132289,1,8,0:0:0:0:
256,192,132359,1,8,0:0:0:0:
256,192,132429,1,8,0:0:0:0:
256,192,132498,1,8,0:0:0:0:
256,192,132568,1,0,0:0:0:0:
256,192,132638,1,0,0:0:0:0:
256,192,132708,1,8,0:0:0:0:
256,192,132778,1,8,0:0:0:0:
256,192,132847,1,0,0:0:0:0:
256,192,132917,1,0,0:0:0:0:
256,192,132987,1,8,0:0:0:0:
256,192,133057,1,0,0:0:0:0:
256,192,133126,1,8,0:0:0:0:
256,192,133196,1,8,0:0:0:0:
256,192,133266,1,8,0:0:0:0:
256,192,133336,1,8,0:0:0:0:
256,192,133405,1,0,0:0:0:0:
256,192,133475,1,0,0:0:0:0:
256,192,133545,1,8,0:0:0:0:
256,192,133615,1,8,0:0:0:0:
256,192,133685,1,0,0:0:0:0:
256,192,133754,1,0,0:0:0:0:
256,192,133824,1,8,0:0:0:0:
256,192,133894,1,0,0:0:0:0:
256,192,133964,1,8,0:0:0:0:
256,192,134033,1,8,0:0:0:0:
256,192,134103,1,0,0:0:0:0:
256,192,134173,1,0,0:0:0:0:
256,192,134243,1,8,0:0:0:0:
256,192,134312,1,0,0:0:0:0:
256,192,134382,1,8,0:0:0:0:
256,192,134452,1,8,0:0:0:0:
256,192,134522,1,0,0:0:0:0:
256,192,134592,1,0,0:0:0:0:
256,192,134661,1,0,0:0:0:0:
256,192,134731,1,0,0:0:0:0:
256,192,134801,1,8,0:0:0:0:
256,192,134871,1,8,0:0:0:0:
256,192,134940,1,0,0:0:0:0:
256,192,135010,1,8,0:0:0:0:
256,192,135080,1,0,0:0:0:0:
256,192,135150,1,0,0:0:0:0:
256,192,135219,1,8,0:0:0:0:
256,192,135289,1,8,0:0:0:0:
256,192,135359,1,0,0:0:0:0:
256,192,135429,1,0,0:0:0:0:
256,192,135498,1,0,0:0:0:0:
256,192,135568,1,0,0:0:0:0:
256,192,135638,1,8,0:0:0:0:
256,192,135708,1,8,0:0:0:0:
256,192,135778,1,0,0:0:0:0:
256,192,135847,1,8,0:0:0:0:
256,192,135917,1,8,0:0:0:0:
256,192,135987,1,0,0:0:0:0:
256,192,136057,1,8,0:0:0:0:
256,192,136126,1,8,0:0:0:0:
256,192,136196,1,0,0:0:0:0:
256,192,136266,1,0,0:0:0:0:
256,192,136336,1,0,0:0:0:0:
256,192,136405,1,0,0:0:0:0:
256,192,136475,1,8,0:0:0:0:
256,192,136545,1,0,0:0:0:0:
256,192,136615,1,8,0:0:0:0:
256,192,136685,1,8,0:0:0:0:
256,192,136754,1,0,0:0:0:0:
256,192,136824,1,0,0:0:0:0:
256,192,136894,1,8,0:0:0:0:
256,192,136964,1,8,0:0:0:0:
256,192,137033,1,0,0:0:0:0:
256,192,137103,1,0,0:0:0:0:
256,192,137173,1,0,0:0:0:0:
256,192,137243,1,0,0:0:0:0:
256,192,137312,1,8,0:0:0:0:
256,192,137382,1,8,0:0:0:0:
256,192,137452,1,0,0:0:0:0:
256,192,137522,1,0,0:0:0:0:
256,192,137592,1,8,0:0:0:0:
256,192,137661,1,0,0:0:0:0:
256,192,137731,1,8,0:0:0:0:
256,192,137801,1,8,0:0:0:0:
256,192,137871,1,0,0:0:0:0:
256,192,137940,1,0,0:0:0:0:
256,192,138010,1,0,0:0:0:0:
256,192,138080,1,0,0:0:0:0:
256,192,138150,1,8,0:0:0:0:
256,192,138219,1,8,0:0:0:0:
256,192,138289,1,0,0:0:0:0:
256,192,138359,1,8,0:0:0:0:
256,192,138429,1,0,0:0:0:0:
256,192,138498,1,0,0:0:0:0:
256,192,138568,1,8,0:0:0:0:
256,192,138638,1,8,0:0:0:0:
256,192,138708,1,0,0:0:0:0:
256,192,138778,1,0,0:0:0:0:
256,192,138847,1,0,0:0:0:0:
256,192,138917,1,0,0:0:0:0:
256,192,138987,1,8,0:0:0:0:
256,192,139057,1,0,0:0:0:0:
256,192,139126,1,8,0:0:0:0:
256,192,139196,1,8,0:0:0:0:
256,192,139266,1,0,0:0:0:0:
256,192,139336,1,0,0:0:0:0:
256,192,139405,1,8,0:0:0:0:
256,192,139475,1,8,0:0:0:0:
256,192,139545,1,0,0:0:0:0:
256,192,139615,1,0,0:0:0:0:
256,192,139685,1,0,0:0:0:0:
256,192,139754,1,0,0:0:0:0:
256,192,139824,1,8,0:0:0:0:
256,192,139894,1,8,0:0:0:0:
256,192,139964,1,0,0:0:0:0:
256,192,140033,1,8,0:0:0:0:
256,192,140103,1,0,0:0:0:0:
256,192,140173,1,0,0:0:0:0:
256,192,140243,1,0,0:0:0:0:
256,192,140312,1,0,0:0:0:0:
256,192,140382,1,8,0:0:0:0:
256,192,140452,1,0,0:0:0:0:
256,192,140522,1,0,0:0:0:0:
256,192,140592,1,0,0:0:0:0:
256,192,140661,1,12,0:0:0:0:
256,192,140801,8,0,145685,0:0:0:0:
256,192,147359,5,8,0:0:0:0:
256,192,147638,1,8,0:0:0:0:
256,192,147778,1,0,0:0:0:0:
256,192,148057,1,0,0:0:0:0:
256,192,148196,1,8,0:0:0:0:
256,192,148336,1,8,0:0:0:0:
256,192,148475,1,0,0:0:0:0:
256,192,148615,1,0,0:0:0:0:
256,192,148754,1,0,0:0:0:0:
256,192,148894,1,0,0:0:0:0:
256,192,149033,1,8,0:0:0:0:
256,192,150708,1,8,0:0:0:0:
256,192,150987,1,8,0:0:0:0:
256,192,151126,1,0,0:0:0:0:
256,192,151405,1,0,0:0:0:0:
256,192,151545,1,8,0:0:0:0:
256,192,151685,1,0,0:0:0:0:
256,192,151824,1,0,0:0:0:0:
256,192,151964,1,0,0:0:0:0:
256,192,152103,1,8,0:0:0:0:
256,192,152243,1,0,0:0:0:0:
256,192,152382,1,8,0:0:0:0:
256,192,153498,1,8,0:0:0:0:
256,192,154057,1,8,0:0:0:0:
256,192,154336,1,8,0:0:0:0:
256,192,154475,1,0,0:0:0:0:
256,192,154754,1,0,0:0:0:0:
256,192,154894,1,8,0:0:0:0:
256,192,155033,1,0,0:0:0:0:
256,192,155173,1,0,0:0:0:0:
256,192,155312,1,8,0:0:0:0:
256,192,155452,1,0,0:0:0:0:
256,192,155592,1,0,0:0:0:0:
256,192,155731,1,8,0:0:0:0:
256,192,157405,1,8,0:0:0:0:
256,192,157685,1,8,0:0:0:0:
256,192,157824,1,0,0:0:0:0:
256,192,158103,1,0,0:0:0:0:
256,192,158243,1,8,0:0:0:0:
256,192,158382,1,0,0:0:0:0:
256,192,158522,1,0,0:0:0:0:
256,192,158661,1,8,0:0:0:0:
256,192,158801,1,0,0:0:0:0:
256,192,158940,1,0,0:0:0:0:
256,192,159080,1,8,0:0:0:0:
256,192,160754,1,8,0:0:0:0:
256,192,161033,1,8,0:0:0:0:
256,192,161173,1,0,0:0:0:0:
256,192,161312,1,8,0:0:0:0:
256,192,161592,1,8,0:0:0:0:
256,192,161731,1,0,0:0:0:0:
256,192,161871,1,8,0:0:0:0:
256,192,162150,1,0,0:0:0:0:
256,192,162289,1,0,0:0:0:0:
256,192,162429,1,8,0:0:0:0:
256,192,162708,1,0,0:0:0:0:
256,192,162847,1,0,0:0:0:0:
256,192,162987,1,8,0:0:0:0:
256,192,163266,1,0,0:0:0:0:
256,192,163405,1,0,0:0:0:0:
256,192,163545,1,8,0:0:0:0:
256,192,163824,1,8,0:0:0:0:
256,192,163964,1,0,0:0:0:0:
256,192,164103,1,8,0:0:0:0:
256,192,164382,1,8,0:0:0:0:
256,192,164522,1,0,0:0:0:0:
256,192,164661,1,8,0:0:0:0:
256,192,164940,1,0,0:0:0:0:
256,192,165080,1,0,0:0:0:0:
256,192,165219,1,8,0:0:0:0:
256,192,165498,1,0,0:0:0:0:
256,192,165638,1,0,0:0:0:0:
256,192,165778,1,8,0:0:0:0:
256,192,166057,1,8,0:0:0:0:
256,192,166196,1,0,0:0:0:0:
256,192,166336,1,8,0:0:0:0:
256,192,166615,1,8,0:0:0:0:
256,192,166754,1,0,0:0:0:0:
256,192,166894,1,8,0:0:0:0:
256,192,167173,1,8,0:0:0:0:
256,192,167452,1,12,0:0:0:0:
256,192,167731,1,8,0:0:0:0:
256,192,168010,1,0,0:0:0:0:
256,192,168289,1,8,0:0:0:0:
256,192,168568,1,8,0:0:0:0:
256,192,168847,1,0,0:0:0:0:
256,192,169126,1,12,0:0:0:0:
256,192,169405,1,8,0:0:0:0:
256,192,169685,1,0,0:0:0:0:
256,192,169964,1,0,0:0:0:0:
256,192,170243,1,8,0:0:0:0:
256,192,170522,1,0,0:0:0:0:
256,192,170801,1,12,0:0:0:0:
256,192,171080,1,8,0:0:0:0:
256,192,171359,1,0,0:0:0:0:
256,192,171638,1,8,0:0:0:0:
256,192,171917,1,8,0:0:0:0:
256,192,172196,1,0,0:0:0:0:
256,192,172475,1,12,0:0:0:0:
256,192,172754,1,8,0:0:0:0:
256,192,173033,1,0,0:0:0:0:
256,192,173312,1,8,0:0:0:0:
256,192,173592,1,8,0:0:0:0:
256,192,173731,1,0,0:0:0:0:
256,192,173871,1,8,0:0:0:0:
256,192,174010,1,0,0:0:0:0:
256,192,174150,1,12,0:0:0:0:
256,192,174568,1,0,0:0:0:0:
256,192,174847,1,0,0:0:0:0:
256,192,174987,1,8,0:0:0:0:
256,192,175266,1,8,0:0:0:0:
256,192,175545,1,0,0:0:0:0:
256,192,175638,1,8,0:0:0:0:
256,192,175731,1,8,0:0:0:0:
256,192,175824,1,0,0:0:0:0:
256,192,176243,1,0,0:0:0:0:
256,192,176522,1,0,0:0:0:0:
256,192,176661,1,8,0:0:0:0:
256,192,176940,1,8,0:0:0:0:
256,192,177219,1,0,0:0:0:0:
256,192,177498,1,8,0:0:0:0:
256,192,177917,1,0,0:0:0:0:
256,192,178196,1,0,0:0:0:0:
256,192,178336,1,8,0:0:0:0:
256,192,178405,1,0,0:0:0:0:
256,192,178475,1,8,0:0:0:0:
256,192,178545,1,8,0:0:0:0:
256,192,178615,1,0,0:0:0:0:
256,192,178685,1,0,0:0:0:0:
256,192,178754,1,0,0:0:0:0:
256,192,178824,1,0,0:0:0:0:
256,192,178894,1,8,0:0:0:0:
256,192,178964,1,8,0:0:0:0:
256,192,179033,1,8,0:0:0:0:
256,192,179103,1,0,0:0:0:0:
256,192,179173,1,8,0:0:0:0:
256,192,179243,1,8,0:0:0:0:
256,192,179312,1,8,0:0:0:0:
256,192,179382,1,8,0:0:0:0:
256,192,179452,1,0,0:0:0:0:
256,192,179522,1,0,0:0:0:0:
256,192,179592,1,0,0:0:0:0:
256,192,179661,1,0,0:0:0:0:
256,192,179731,1,8,0:0:0:0:
256,192,179801,1,8,0:0:0:0:
256,192,179871,1,8,0:0:0:0:
256,192,179940,1,8,0:0:0:0:
256,192,180010,1,0,0:0:0:0:
256,192,180080,1,0,0:0:0:0:
256,192,180150,1,8,0:0:0:0:
256,192,180219,1,8,0:0:0:0:
256,192,180289,1,0,0:0:0:0:
256,192,180359,1,0,0:0:0:0:
256,192,180429,1,0,0:0:0:0:
256,192,180498,1,0,0:0:0:0:
256,192,180568,1,8,0:0:0:0:
256,192,180638,1,0,0:0:0:0:
256,192,180708,1,0,0:0:0:0:
256,192,180778,1,0,0:0:0:0:
256,192,180847,1,8,0:0:0:0:
256,192,180917,1,8,0:0:0:0:
256,192,180987,1,0,0:0:0:0:
256,192,181057,1,0,0:0:0:0:
256,192,181126,1,8,0:0:0:0:
256,192,181196,1,0,0:0:0:0:
256,192,181266,1,8,0:0:0:0:
256,192,181336,1,8,0:0:0:0:
256,192,181405,1,0,0:0:0:0:
256,192,181475,1,0,0:0:0:0:
256,192,181545,1,0,0:0:0:0:
256,192,181615,1,0,0:0:0:0:
256,192,181685,1,8,0:0:0:0:
256,192,181754,1,8,0:0:0:0:
256,192,181824,1,8,0:0:0:0:
256,192,181894,1,8,0:0:0:0:
256,192,181964,1,0,0:0:0:0:
256,192,182033,1,0,0:0:0:0:
256,192,182103,1,8,0:0:0:0:
256,192,182173,1,8,0:0:0:0:
256,192,182243,1,0,0:0:0:0:
256,192,182312,1,0,0:0:0:0:
256,192,182382,1,0,0:0:0:0:
256,192,182452,1,0,0:0:0:0:
256,192,182522,1,8,0:0:0:0:
256,192,182592,1,8,0:0:0:0:
256,192,182661,1,0,0:0:0:0:
256,192,182731,1,0,0:0:0:0:
256,192,182801,1,8,0:0:0:0:
256,192,182871,1,0,0:0:0:0:
256,192,182940,1,8,0:0:0:0:
256,192,183010,1,8,0:0:0:0:
256,192,183080,1,0,0:0:0:0:
256,192,183150,1,0,0:0:0:0:
256,192,183219,1,0,0:0:0:0:
256,192,183289,1,0,0:0:0:0:
256,192,183359,1,8,0:0:0:0:
256,192,183429,1,0,0:0:0:0:
256,192,183498,1,0,0:0:0:0:
256,192,183568,1,0,0:0:0:0:
256,192,183638,1,8,0:0:0:0:
256,192,183708,1,8,0:0:0:0:
256,192,183778,1,8,0:0:0:0:
256,192,183847,1,8,0:0:0:0:
256,192,183917,1,0,0:0:0:0:
256,192,183987,1,0,0:0:0:0:
256,192,184057,1,0,0:0:0:0:
256,192,184126,1,0,0:0:0:0:
256,192,184196,1,8,0:0:0:0:
256,192,184266,1,8,0:0:0:0:
256,192,184336,1,0,0:0:0:0:
256,192,184405,1,0,0:0:0:0:
256,192,184475,1,8,0:0:0:0:
256,192,184545,1,0,0:0:0:0:
256,192,184615,1,8,0:0:0:0:
256,192,184685,1,8,0:0:0:0:
256,192,184754,1,0,0:0:0:0:
256,192,184824,1,0,0:0:0:0:
256,192,184894,1,0,0:0:0:0:
256,192,184964,1,0,0:0:0:0:
256,192,185033,1,8,0:0:0:0:
256,192,185103,1,8,0:0:0:0:
256,192,185173,1,8,0:0:0:0:
256,192,185243,1,8,0:0:0:0:
256,192,185312,1,0,0:0:0:0:
256,192,185382,1,0,0:0:0:0:
256,192,185452,1,8,0:0:0:0:
256,192,185522,1,8,0:0:0:0:
256,192,185592,1,0,0:0:0:0:
256,192,185661,1,0,0:0:0:0:
256,192,185731,1,0,0:0:0:0:
256,192,185801,1,0,0:0:0:0:
256,192,185871,1,8,0:0:0:0:
256,192,185940,1,0,0:0:0:0:
256,192,186010,1,0,0:0:0:0:
256,192,186080,1,0,0:0:0:0:
256,192,186150,1,8,0:0:0:0:
256,192,186219,1,8,0:0:0:0:
256,192,186289,1,0,0:0:0:0:
256,192,186359,1,8,0:0:0:0:
256,192,186429,1,0,0:0:0:0:
256,192,186498,1,0,0:0:0:0:
256,192,186568,1,0,0:0:0:0:
256,192,186638,1,0,0:0:0:0:
256,192,186708,1,8,0:0:0:0:
256,192,186778,1,0,0:0:0:0:
256,192,186847,1,0,0:0:0:0:
256,192,186917,1,0,0:0:0:0:
256,192,186987,1,8,0:0:0:0:
256,192,187057,1,8,0:0:0:0:
256,192,187126,1,8,0:0:0:0:
256,192,187196,1,8,0:0:0:0:
256,192,187266,1,0,0:0:0:0:
256,192,187336,1,0,0:0:0:0:
256,192,187405,1,0,0:0:0:0:
256,192,187475,1,0,0:0:0:0:
256,192,187545,1,8,0:0:0:0:
256,192,187615,1,8,0:0:0:0:
256,192,187685,1,8,0:0:0:0:
256,192,187754,1,8,0:0:0:0:
256,192,187824,1,8,0:0:0:0:
256,192,187894,1,8,0:0:0:0:
256,192,187964,1,8,0:0:0:0:
256,192,188033,1,8,0:0:0:0:
256,192,188103,1,0,0:0:0:0:
256,192,188173,1,0,0:0:0:0:
256,192,188243,1,0,0:0:0:0:
256,192,188312,1,0,0:0:0:0:
256,192,188382,1,8,0:0:0:0:
256,192,188452,1,8,0:0:0:0:
256,192,188522,1,8,0:0:0:0:
256,192,188592,1,8,0:0:0:0:
256,192,188661,1,0,0:0:0:0:
256,192,188731,1,0,0:0:0:0:
256,192,188801,1,8,0:0:0:0:
256,192,188871,1,8,0:0:0:0:
256,192,188940,1,0,0:0:0:0:
256,192,189010,1,8,0:0:0:0:
256,192,189080,1,0,0:0:0:0:
256,192,189150,1,0,0:0:0:0:
256,192,189219,1,8,0:0:0:0:
256,192,189289,1,8,0:0:0:0:
256,192,189359,1,8,0:0:0:0:
256,192,189429,1,8,0:0:0:0:
256,192,189498,1,8,0:0:0:0:
256,192,189568,1,8,0:0:0:0:
256,192,189638,1,8,0:0:0:0:
256,192,189708,1,8,0:0:0:0:
256,192,189778,1,0,0:0:0:0:
256,192,189847,1,0,0:0:0:0:
256,192,189917,1,0,0:0:0:0:
256,192,189987,1,0,0:0:0:0:
256,192,190057,1,8,0:0:0:0:
256,192,190126,1,8,0:0:0:0:
256,192,190196,1,8,0:0:0:0:
256,192,190266,1,8,0:0:0:0:
256,192,190336,1,0,0:0:0:0:
256,192,190405,1,0,0:0:0:0:
256,192,190475,1,8,0:0:0:0:
256,192,190545,1,8,0:0:0:0:
256,192,190615,1,0,0:0:0:0:
256,192,190685,1,0,0:0:0:0:
256,192,190754,1,0,0:0:0:0:
256,192,190824,1,0,0:0:0:0:
256,192,190894,1,8,0:0:0:0:
256,192,190964,1,8,0:0:0:0:
256,192,191033,1,8,0:0:0:0:
256,192,191103,1,8,0:0:0:0:
256,192,191173,1,8,0:0:0:0:
256,192,191243,1,8,0:0:0:0:
256,192,191312,1,8,0:0:0:0:
256,192,191382,1,8,0:0:0:0:
256,192,191452,1,0,0:0:0:0:
256,192,191522,1,0,0:0:0:0:
256,192,191592,1,0,0:0:0:0:
256,192,191661,1,0,0:0:0:0:
256,192,191731,1,8,0:0:0:0:
256,192,191801,1,8,0:0:0:0:
256,192,191871,1,0,0:0:0:0:
256,192,191940,1,0,0:0:0:0:
256,192,192010,1,8,0:0:0:0:
256,192,192080,1,0,0:0:0:0:
256,192,192150,1,8,0:0:0:0:
256,192,192219,1,8,0:0:0:0:
256,192,192289,1,0,0:0:0:0:
256,192,192359,1,0,0:0:0:0:
256,192,192429,1,0,0:0:0:0:
256,192,192498,1,0,0:0:0:0:
256,192,192568,1,8,0:0:0:0:
256,192,192638,1,8,0:0:0:0:
256,192,192708,1,8,0:0:0:0:
256,192,192778,1,8,0:0:0:0:
256,192,192847,1,8,0:0:0:0:
256,192,192917,1,8,0:0:0:0:
256,192,192987,1,8,0:0:0:0:
256,192,193057,1,8,0:0:0:0:
256,192,193126,1,0,0:0:0:0:
256,192,193196,1,0,0:0:0:0:
256,192,193266,1,0,0:0:0:0:
256,192,193336,1,0,0:0:0:0:
256,192,193405,1,8,0:0:0:0:
256,192,193475,1,0,0:0:0:0:
256,192,193545,1,0,0:0:0:0:
256,192,193615,1,0,0:0:0:0:
256,192,193685,1,8,0:0:0:0:
256,192,193754,1,8,0:0:0:0:
256,192,193824,1,8,0:0:0:0:
256,192,193894,1,8,0:0:0:0:
256,192,193964,1,0,0:0:0:0:
256,192,194033,1,0,0:0:0:0:
256,192,194103,1,0,0:0:0:0:
256,192,194173,1,0,0:0:0:0:
256,192,194243,1,12,0:0:0:0:
256,192,194661,1,0,0:0:0:0:
256,192,194801,1,8,0:0:0:0:
256,192,195080,1,8,0:0:0:0:
256,192,195219,1,0,0:0:0:0:
256,192,195359,1,8,0:0:0:0:
256,192,195498,1,8,0:0:0:0:
256,192,195638,1,0,0:0:0:0:
256,192,195778,1,0,0:0:0:0:
256,192,195917,1,8,0:0:0:0:
256,192,196196,1,8,0:0:0:0:
256,192,196336,1,0,0:0:0:0:
256,192,196615,1,0,0:0:0:0:
256,192,196754,1,8,0:0:0:0:
256,192,197033,1,8,0:0:0:0:
256,192,197173,1,8,0:0:0:0:
256,192,197312,1,0,0:0:0:0:
256,192,197592,1,0,0:0:0:0:
256,192,197871,1,8,0:0:0:0:
256,192,198010,1,0,0:0:0:0:
256,192,198289,1,0,0:0:0:0:
256,192,198429,1,8,0:0:0:0:
256,192,198708,1,8,0:0:0:0:
256,192,198847,1,8,0:0:0:0:
256,192,198987,1,8,0:0:0:0:
256,192,199126,1,0,0:0:0:0:
256,192,199266,1,8,0:0:0:0:
256,192,199545,1,8,0:0:0:0:
256,192,199685,1,0,0:0:0:0:
256,192,199964,1,0,0:0:0:0:
256,192,200103,1,8,0:0:0:0:
256,192,200382,1,8,0:0:0:0:
256,192,200522,1,8,0:0:0:0:
256,192,200661,1,0,0:0:0:0:
256,192,200801,1,8,0:0:0:0:
256,192,200940,1,0,0:0:0:0:
256,192,201080,1,0,0:0:0:0:
256,192,201219,1,8,0:0:0:0:
256,192,201359,1,8,0:0:0:0:
256,192,201498,1,0,0:0:0:0:
256,192,201638,1,0,0:0:0:0:
256,192,201778,1,8,0:0:0:0:
256,192,201917,1,8,0:0:0:0:
256,192,202057,1,0,0:0:0:0:
256,192,202196,1,8,0:0:0:0:
256,192,202336,1,0,0:0:0:0:
256,192,202475,1,0,0:0:0:0:
256,192,202615,1,8,0:0:0:0:
256,192,202754,1,8,0:0:0:0:
256,192,202894,1,0,0:0:0:0:
256,192,203033,1,0,0:0:0:0:
256,192,203173,1,8,0:0:0:0:
256,192,203312,1,0,0:0:0:0:
256,192,203452,1,8,0:0:0:0:
256,192,203592,1,0,0:0:0:0:
256,192,203731,1,8,0:0:0:0:
256,192,203871,1,8,0:0:0:0:
256,192,204010,1,0,0:0:0:0:
256,192,204150,1,0,0:0:0:0:
256,192,204289,1,8,0:0:0:0:
256,192,204429,1,0,0:0:0:0:
256,192,204568,1,8,0:0:0:0:
256,192,204708,1,8,0:0:0:0:
256,192,204847,1,0,0:0:0:0:
256,192,204987,1,0,0:0:0:0:
256,192,205126,1,8,0:0:0:0:
256,192,205266,1,8,0:0:0:0:
256,192,205405,1,0,0:0:0:0:
256,192,205545,1,8,0:0:0:0:
256,192,205685,1,0,0:0:0:0:
256,192,205824,1,0,0:0:0:0:
256,192,205964,1,8,0:0:0:0:
256,192,206243,1,8,0:0:0:0:
256,192,206382,1,8,0:0:0:0:
256,192,206522,1,0,0:0:0:0:
256,192,206661,1,0,0:0:0:0:
256,192,206801,1,8,0:0:0:0:
256,192,206940,1,0,0:0:0:0:
256,192,207080,1,8,0:0:0:0:
256,192,207219,1,8,0:0:0:0:
256,192,207359,1,0,0:0:0:0:
256,192,207498,1,8,0:0:0:0:
256,192,207638,1,0,0:0:0:0:
256,192,207778,1,8,0:0:0:0:
256,192,207917,1,8,0:0:0:0:
256,192,208057,1,0,0:0:0:0:
256,192,208196,1,8,0:0:0:0:
256,192,208336,1,8,0:0:0:0:
256,192,208475,1,0,0:0:0:0:
256,192,208615,1,0,0:0:0:0:
256,192,208754,1,8,0:0:0:0:
256,192,208894,1,8,0:0:0:0:
256,192,209033,1,8,0:0:0:0:
256,192,209173,1,8,0:0:0:0:
256,192,209312,1,0,0:0:0:0:
256,192,209452,1,8,0:0:0:0:
256,192,209592,1,8,0:0:0:0:
256,192,209731,1,0,0:0:0:0:
256,192,209871,1,8,0:0:0:0:
256,192,210010,1,8,0:0:0:0:
256,192,210150,1,0,0:0:0:0:
256,192,210289,1,0,0:0:0:0:
256,192,210429,1,8,0:0:0:0:
256,192,210568,1,8,0:0:0:0:
256,192,210708,1,8,0:0:0:0:
256,192,210847,1,0,0:0:0:0:
256,192,210987,1,0,0:0:0:0:
256,192,211126,1,8,0:0:0:0:
256,192,211266,1,8,0:0:0:0:
256,192,211405,1,0,0:0:0:0:
256,192,211545,1,8,0:0:0:0:
256,192,211685,1,8,0:0:0:0:
256,192,211824,1,0,0:0:0:0:
256,192,211964,1,0,0:0:0:0:
256,192,212103,1,8,0:0:0:0:
256,192,212243,1,8,0:0:0:0:
256,192,212382,1,8,0:0:0:0:
256,192,212522,1,0,0:0:0:0:
256,192,212661,1,0,0:0:0:0:
256,192,212801,1,8,0:0:0:0:
256,192,212940,1,8,0:0:0:0:
256,192,213080,1,0,0:0:0:0:
256,192,213219,1,8,0:0:0:0:
256,192,213359,1,8,0:0:0:0:
256,192,213498,1,0,0:0:0:0:
256,192,213638,1,0,0:0:0:0:
256,192,213778,1,8,0:0:0:0:
256,192,213917,1,8,0:0:0:0:
256,192,214057,1,8,0:0:0:0:
256,192,214196,1,8,0:0:0:0:
256,192,214336,1,0,0:0:0:0:
256,192,214475,1,0,0:0:0:0:
256,192,214615,1,8,0:0:0:0:
256,192,214754,1,8,0:0:0:0:
256,192,214894,1,0,0:0:0:0:
256,192,215033,1,0,0:0:0:0:
256,192,215173,1,8,0:0:0:0:
256,192,215312,1,0,0:0:0:0:
256,192,215452,1,8,0:0:0:0:
256,192,215592,1,8,0:0:0:0:
256,192,215731,1,0,0:0:0:0:
256,192,215871,1,0,0:0:0:0:
256,192,216010,1,8,0:0:0:0:
256,192,216150,1,8,0:0:0:0:
256,192,216289,1,0,0:0:0:0:
256,192,216429,1,8,0:0:0:0:
256,192,216568,1,0,0:0:0:0:
256,192,216708,1,0,0:0:0:0:
256,192,216847,1,8,0:0:0:0:
256,192,216987,1,0,0:0:0:0:
256,192,217126,1,8,0:0:0:0:
256,192,217266,1,8,0:0:0:0:
256,192,217405,1,0,0:0:0:0:
256,192,217545,1,0,0:0:0:0:
256,192,217685,1,8,0:0:0:0:
256,192,217824,1,0,0:0:0:0:
256,192,217964,1,8,0:0:0:0:
256,192,218103,1,8,0:0:0:0:
256,192,218243,1,0,0:0:0:0:
256,192,218382,1,0,0:0:0:0:
256,192,218522,1,8,0:0:0:0:
256,192,218661,1,8,0:0:0:0:
256,192,218801,1,0,0:0:0:0:
256,192,218940,1,8,0:0:0:0:
256,192,219080,1,0,0:0:0:0:
256,192,219219,1,0,0:0:0:0:
256,192,219359,1,8,0:0:0:0:
256,192,219498,1,0,0:0:0:0:
256,192,219638,1,8,0:0:0:0:
256,192,219778,1,8,0:0:0:0:
256,192,219917,1,0,0:0:0:0:
256,192,220057,1,0,0:0:0:0:
256,192,220196,1,8,0:0:0:0:
256,192,220336,1,8,0:0:0:0:
256,192,220475,1,8,0:0:0:0:
256,192,220615,1,8,0:0:0:0:
256,192,220754,1,8,0:0:0:0:
256,192,220894,1,8,0:0:0:0:
256,192,221033,1,12,0:0:0:0:
256,192,223824,1,4,0:0:0:0:
256,192,224103,1,4,0:0:0:0:
256,192,224382,1,8,0:0:0:0:
256,192,224452,1,8,0:0:0:0:
256,192,224522,1,8,0:0:0:0:
256,192,224592,1,8,0:0:0:0:
256,192,224661,1,8,0:0:0:0:
256,192,224731,1,8,0:0:0:0:
256,192,224801,1,8,0:0:0:0:
256,192,224871,1,8,0:0:0:0:
256,192,224940,1,8,0:0:0:0:
256,192,225010,1,8,0:0:0:0:
256,192,225080,1,8,0:0:0:0:
256,192,225150,1,8,0:0:0:0:
256,192,225219,1,8,0:0:0:0:
256,192,225289,1,8,0:0:0:0:
256,192,225359,1,8,0:0:0:0:
256,192,225429,1,8,0:0:0:0:
256,192,225498,1,8,0:0:0:0:
256,192,225568,1,8,0:0:0:0:
256,192,225638,1,8,0:0:0:0:
256,192,225708,1,8,0:0:0:0:
256,192,225778,1,0,0:0:0:0:
256,192,225847,1,0,0:0:0:0:
256,192,225917,1,0,0:0:0:0:
256,192,225987,1,0,0:0:0:0:
256,192,226057,1,8,0:0:0:0:
256,192,226126,1,8,0:0:0:0:
256,192,226196,1,8,0:0:0:0:
256,192,226266,1,8,0:0:0:0:
256,192,226336,1,8,0:0:0:0:
256,192,226405,1,8,0:0:0:0:
256,192,226475,1,8,0:0:0:0:
256,192,226545,1,8,0:0:0:0:
256,192,226615,1,8,0:0:0:0:
256,192,226685,1,8,0:0:0:0:
256,192,226754,1,8,0:0:0:0:
256,192,226824,1,8,0:0:0:0:
256,192,226894,1,8,0:0:0:0:
256,192,226964,1,8,0:0:0:0:
256,192,227033,1,0,0:0:0:0:
256,192,227103,1,0,0:0:0:0:
256,192,227173,1,8,0:0:0:0:
256,192,227243,1,8,0:0:0:0:
256,192,227312,1,0,0:0:0:0:
256,192,227382,1,0,0:0:0:0:
256,192,227452,1,8,0:0:0:0:
256,192,227522,1,8,0:0:0:0:
256,192,227592,1,0,0:0:0:0:
256,192,227661,1,0,0:0:0:0:
256,192,227731,1,8,0:0:0:0:
256,192,227801,1,8,0:0:0:0:
256,192,227871,1,8,0:0:0:0:
256,192,227940,1,8,0:0:0:0:
256,192,228010,1,8,0:0:0:0:
256,192,228080,1,8,0:0:0:0:
256,192,228150,1,0,0:0:0:0:
256,192,228219,1,0,0:0:0:0:
256,192,228289,1,8,0:0:0:0:
256,192,228359,1,0,0:0:0:0:
256,192,228429,1,0,0:0:0:0:
256,192,228498,1,0,0:0:0:0:
256,192,228568,1,8,0:0:0:0:
256,192,228638,1,8,0:0:0:0:
256,192,228708,1,0,0:0:0:0:
256,192,228778,1,8,0:0:0:0:
256,192,228847,1,0,0:0:0:0:
256,192,228917,1,0,0:0:0:0:
256,192,228987,1,8,0:0:0:0:
256,192,229057,1,0,0:0:0:0:
256,192,229126,1,8,0:0:0:0:
256,192,229196,1,8,0:0:0:0:
256,192,229266,1,0,0:0:0:0:
256,192,229336,1,0,0:0:0:0:
256,192,229405,1,8,0:0:0:0:
256,192,229475,1,0,0:0:0:0:
256,192,229545,1,8,0:0:0:0:
256,192,229615,1,8,0:0:0:0:
256,192,229685,1,0,0:0:0:0:
256,192,229754,1,0,0:0:0:0:
256,192,229824,1,8,0:0:0:0:
256,192,229894,1,8,0:0:0:0:
256,192,229964,1,0,0:0:0:0:
256,192,230033,1,0,0:0:0:0:
256,192,230103,1,8,0:0:0:0:
256,192,230173,1,0,0:0:0:0:
256,192,230243,1,8,0:0:0:0:
256,192,230312,1,8,0:0:0:0:
256,192,230382,1,0,0:0:0:0:
256,192,230452,1,0,0:0:0:0:
256,192,230522,1,8,0:0:0:0:
256,192,230592,1,0,0:0:0:0:
256,192,230661,1,8,0:0:0:0:
256,192,230731,1,0,0:0:0:0:
256,192,230801,1,8,0:0:0:0:
256,192,230871,1,8,0:0:0:0:
256,192,230940,1,0,0:0:0:0:
256,192,231010,1,0,0:0:0:0:
256,192,231080,1,8,0:0:0:0:
256,192,231150,1,8,0:0:0:0:
256,192,231219,1,8,0:0:0:0:
256,192,231289,1,8,0:0:0:0:
256,192,231359,1,0,0:0:0:0:
256,192,231429,1,0,0:0:0:0:
256,192,231498,1,8,0:0:0:0:
256,192,231568,1,0,0:0:0:0:
256,192,231638,1,8,0:0:0:0:
256,192,231708,1,8,0:0:0:0:
256,192,231778,1,0,0:0:0:0:
256,192,231847,1,0,0:0:0:0:
256,192,231917,1,8,0:0:0:0:
256,192,231987,1,8,0:0:0:0:
256,192,232057,1,8,0:0:0:0:
256,192,232126,1,8,0:0:0:0:
256,192,232196,1,8,0:0:0:0:
256,192,232266,1,8,0:0:0:0:
256,192,232336,1,8,0:0:0:0:
256,192,232405,1,8,0:0:0:0:
256,192,232475,1,8,0:0:0:0:
256,192,232545,1,8,0:0:0:0:
256,192,232615,1,8,0:0:0:0:
256,192,232685,1,8,0:0:0:0:
256,192,232754,1,0,0:0:0:0:
256,192,232824,1,0,0:0:0:0:
256,192,232894,1,8,0:0:0:0:
256,192,232964,1,8,0:0:0:0:
256,192,233033,1,0,0:0:0:0:
256,192,233103,1,0,0:0:0:0:
256,192,233173,1,8,0:0:0:0:
256,192,233243,1,0,0:0:0:0:
256,192,233312,1,8,0:0:0:0:
256,192,233382,1,8,0:0:0:0:
256,192,233452,1,0,0:0:0:0:
256,192,233522,1,0,0:0:0:0:
256,192,233592,1,8,0:0:0:0:
256,192,233661,1,8,0:0:0:0:
256,192,233731,1,0,0:0:0:0:
256,192,233801,1,8,0:0:0:0:
256,192,233871,1,0,0:0:0:0:
256,192,233940,1,0,0:0:0:0:
256,192,234010,1,8,0:0:0:0:
256,192,234080,1,8,0:0:0:0:
256,192,234150,1,0,0:0:0:0:
256,192,234219,1,0,0:0:0:0:
256,192,234289,1,8,0:0:0:0:
256,192,234359,1,0,0:0:0:0:
256,192,234429,1,8,0:0:0:0:
256,192,234498,1,8,0:0:0:0:
256,192,234568,1,0,0:0:0:0:
256,192,234638,1,0,0:0:0:0:
256,192,234708,1,8,0:0:0:0:
256,192,234778,1,0,0:0:0:0:
256,192,234847,1,0,0:0:0:0:
256,192,234917,1,0,0:0:0:0:
256,192,234987,1,8,0:0:0:0:
256,192,235057,1,0,0:0:0:0:
256,192,235126,1,0,0:0:0:0:
256,192,235196,1,0,0:0:0:0:
256,192,235266,1,8,0:0:0:0:
256,192,235336,1,8,0:0:0:0:
256,192,235405,1,8,0:0:0:0:
256,192,235475,1,8,0:0:0:0:
256,192,235545,1,8,0:0:0:0:
256,192,235615,1,8,0:0:0:0:
256,192,235685,1,8,0:0:0:0:
256,192,235754,1,8,0:0:0:0:
256,192,235824,1,0,0:0:0:0:
256,192,235894,1,0,0:0:0:0:
256,192,235964,1,0,0:0:0:0:
256,192,236033,1,0,0:0:0:0:
256,192,236103,1,8,0:0:0:0:
256,192,236173,1,8,0:0:0:0:
256,192,236243,1,8,0:0:0:0:
256,192,236312,1,8,0:0:0:0:
256,192,236382,1,0,0:0:0:0:
256,192,236452,1,0,0:0:0:0:
256,192,236522,1,8,0:0:0:0:
256,192,236592,1,0,0:0:0:0:
256,192,236661,1,8,0:0:0:0:
256,192,236731,1,8,0:0:0:0:
256,192,236801,1,0,0:0:0:0:
256,192,236871,1,0,0:0:0:0:
256,192,236940,1,8,0:0:0:0:
256,192,237010,1,8,0:0:0:0:
256,192,237080,1,8,0:0:0:0:
256,192,237150,1,8,0:0:0:0:
256,192,237219,1,8,0:0:0:0:
256,192,237289,1,8,0:0:0:0:
256,192,237359,1,8,0:0:0:0:
256,192,237429,1,8,0:0:0:0:
256,192,237498,1,0,0:0:0:0:
256,192,237568,1,0,0:0:0:0:
256,192,237638,1,0,0:0:0:0:
256,192,237708,1,0,0:0:0:0:
256,192,237778,1,8,0:0:0:0:
256,192,237847,1,8,0:0:0:0:
256,192,237917,1,8,0:0:0:0:
256,192,237987,1,8,0:0:0:0:
256,192,238057,1,8,0:0:0:0:
256,192,238126,1,8,0:0:0:0:
256,192,238196,1,0,0:0:0:0:
256,192,238266,1,0,0:0:0:0:
256,192,238336,1,8,0:0:0:0:
256,192,238405,1,8,0:0:0:0:
256,192,238475,1,0,0:0:0:0:
256,192,238545,1,0,0:0:0:0:
256,192,238615,1,8,0:0:0:0:
256,192,238685,1,8,0:0:0:0:
256,192,238754,1,0,0:0:0:0:
256,192,238824,1,0,0:0:0:0:
256,192,238894,1,8,0:0:0:0:
256,192,238964,1,0,0:0:0:0:
256,192,239033,1,8,0:0:0:0:
256,192,239103,1,0,0:0:0:0:
256,192,239173,1,8,0:0:0:0:
256,192,239243,1,8,0:0:0:0:
256,192,239312,1,0,0:0:0:0:
256,192,239382,1,0,0:0:0:0:
256,192,239452,1,8,0:0:0:0:
256,192,239522,1,8,0:0:0:0:
256,192,239592,1,0,0:0:0:0:
256,192,239661,1,8,0:0:0:0:
256,192,239731,1,0,0:0:0:0:
256,192,239801,1,0,0:0:0:0:
256,192,239871,1,8,0:0:0:0:
256,192,239940,1,8,0:0:0:0:
256,192,240010,1,0,0:0:0:0:
256,192,240080,1,0,0:0:0:0:
256,192,240150,1,8,0:0:0:0:
256,192,240219,1,0,0:0:0:0:
256,192,240289,1,8,0:0:0:0:
256,192,240359,1,8,0:0:0:0:
256,192,240429,1,0,0:0:0:0:
256,192,240498,1,8,0:0:0:0:
256,192,240568,1,0,0:0:0:0:
256,192,240638,1,0,0:0:0:0:
256,192,240708,1,8,0:0:0:0:
256,192,240778,1,8,0:0:0:0:
256,192,240847,1,0,0:0:0:0:
256,192,240917,1,0,0:0:0:0:
256,192,240987,1,8,0:0:0:0:
256,192,241057,1,0,0:0:0:0:
256,192,241126,1,8,0:0:0:0:
256,192,241196,1,0,0:0:0:0:
256,192,241266,1,8,0:0:0:0:
256,192,241336,1,8,0:0:0:0:
256,192,241405,1,0,0:0:0:0:
256,192,241475,1,0,0:0:0:0:
256,192,241545,1,8,0:0:0:0:
256,192,241615,1,8,0:0:0:0:
256,192,241685,1,0,0:0:0:0:
256,192,241754,1,0,0:0:0:0:
256,192,241824,1,8,0:0:0:0:
256,192,241894,1,0,0:0:0:0:
256,192,241964,1,8,0:0:0:0:
256,192,242033,1,8,0:0:0:0:
256,192,242103,1,0,0:0:0:0:
256,192,242173,1,8,0:0:0:0:
256,192,242243,1,0,0:0:0:0:
256,192,242312,1,0,0:0:0:0:
256,192,242382,1,8,0:0:0:0:
256,192,242452,1,0,0:0:0:0:
256,192,242522,1,8,0:0:0:0:
256,192,242592,1,8,0:0:0:0:
256,192,242661,1,0,0:0:0:0:
256,192,242731,1,0,0:0:0:0:
256,192,242801,1,8,0:0:0:0:
256,192,242871,1,8,0:0:0:0:
256,192,242940,1,0,0:0:0:0:
256,192,243010,1,0,0:0:0:0:
256,192,243080,1,8,0:0:0:0:
256,192,243150,1,8,0:0:0:0:
256,192,243219,1,0,0:0:0:0:
256,192,243289,1,0,0:0:0:0:
256,192,243359,1,8,0:0:0:0:
256,192,243429,1,0,0:0:0:0:
256,192,243498,1,8,0:0:0:0:
256,192,243568,1,0,0:0:0:0:
256,192,243638,1,8,0:0:0:0:
256,192,243708,1,8,0:0:0:0:
256,192,243778,1,8,0:0:0:0:
256,192,243847,1,8,0:0:0:0:
256,192,243917,1,0,0:0:0:0:
256,192,243987,1,0,0:0:0:0:
256,192,244057,1,8,0:0:0:0:
256,192,244126,1,0,0:0:0:0:
256,192,244196,1,8,0:0:0:0:
256,192,244266,1,8,0:0:0:0:
256,192,244336,1,0,0:0:0:0:
256,192,244405,1,8,0:0:0:0:
256,192,244475,1,0,0:0:0:0:
256,192,244545,1,0,0:0:0:0:
256,192,244615,1,0,0:0:0:0:
256,192,244685,1,0,0:0:0:0:
256,192,244754,1,8,0:0:0:0:
256,192,244824,1,8,0:0:0:0:
256,192,244894,1,8,0:0:0:0:
256,192,244964,1,8,0:0:0:0:
256,192,245033,1,0,0:0:0:0:
256,192,245103,1,0,0:0:0:0:
256,192,245173,1,0,0:0:0:0:
256,192,245243,1,0,0:0:0:0:
256,192,245312,1,8,0:0:0:0:
256,192,245382,1,8,0:0:0:0:
256,192,245452,1,0,0:0:0:0:
256,192,245522,1,0,0:0:0:0:
256,192,245592,1,8,0:0:0:0:
256,192,245661,1,0,0:0:0:0:
256,192,245731,1,8,0:0:0:0:
256,192,245801,1,8,0:0:0:0:
256,192,245871,1,0,0:0:0:0:
256,192,245940,1,0,0:0:0:0:
256,192,246010,1,0,0:0:0:0:
256,192,246080,1,0,0:0:0:0:
256,192,246150,1,8,0:0:0:0:
256,192,246219,1,0,0:0:0:0:
256,192,246289,1,0,0:0:0:0:
256,192,246359,1,0,0:0:0:0:
256,192,246429,1,8,0:0:0:0:
256,192,246498,1,8,0:0:0:0:
256,192,246568,1,8,0:0:0:0:
256,192,246638,1,8,0:0:0:0:
256,192,246708,1,8,0:0:0:0:
256,192,246778,1,8,0:0:0:0:
256,192,246847,1,0,0:0:0:0:
256,192,246917,1,0,0:0:0:0:
256,192,246987,1,8,0:0:0:0:
256,192,247057,1,8,0:0:0:0:
256,192,247126,1,8,0:0:0:0:
256,192,247196,1,8,0:0:0:0:
256,192,247266,1,0,0:0:0:0:
256,192,247336,1,0,0:0:0:0:
256,192,247405,1,0,0:0:0:0:
256,192,247475,1,0,0:0:0:0:
256,192,247545,1,8,0:0:0:0:
256,192,247615,1,8,0:0:0:0:
256,192,247685,1,0,0:0:0:0:
256,192,247754,1,0,0:0:0:0:
256,192,247824,1,8,0:0:0:0:
256,192,247894,1,0,0:0:0:0:
256,192,247964,1,0,0:0:0:0:
256,192,248033,1,0,0:0:0:0:
256,192,248103,1,8,0:0:0:0:
256,192,248173,1,8,0:0:0:0:
256,192,248243,1,0,0:0:0:0:
256,192,248312,1,0,0:0:0:0:
256,192,248382,1,8,0:0:0:0:
256,192,248452,1,8,0:0:0:0:
256,192,248522,1,0,0:0:0:0:
256,192,248592,1,0,0:0:0:0:
256,192,248661,1,8,0:0:0:0:
256,192,248731,1,0,0:0:0:0:
256,192,248801,1,0,0:0:0:0:
256,192,248871,1,0,0:0:0:0:
256,192,248940,1,8,0:0:0:0:
256,192,249010,1,0,0:0:0:0:
256,192,249080,1,0,0:0:0:0:
256,192,249150,1,0,0:0:0:0:
256,192,249219,1,8,0:0:0:0:
256,192,249289,1,8,0:0:0:0:
256,192,249359,1,0,0:0:0:0:
256,192,249429,1,0,0:0:0:0:
256,192,249498,1,8,0:0:0:0:
256,192,249568,1,8,0:0:0:0:
256,192,249638,1,8,0:0:0:0:
256,192,249708,1,8,0:0:0:0:
256,192,249778,1,0,0:0:0:0:
256,192,249847,1,0,0:0:0:0:
256,192,249917,1,0,0:0:0:0:
256,192,249987,1,0,0:0:0:0:
256,192,250057,1,8,0:0:0:0:
256,192,250126,1,8,0:0:0:0:
256,192,250196,1,0,0:0:0:0:
256,192,250266,1,0,0:0:0:0:
256,192,250336,1,8,0:0:0:0:
256,192,250405,1,8,0:0:0:0:
256,192,250475,1,8,0:0:0:0:
256,192,250545,1,8,0:0:0:0:
256,192,250615,1,0,0:0:0:0:
256,192,250685,1,0,0:0:0:0:
256,192,250754,1,0,0:0:0:0:
256,192,250824,1,0,0:0:0:0:
256,192,250894,1,8,0:0:0:0:
256,192,250964,1,0,0:0:0:0:
256,192,251033,1,8,0:0:0:0:
256,192,251103,1,8,0:0:0:0:
256,192,251173,1,0,0:0:0:0:
256,192,251243,1,0,0:0:0:0:
256,192,251312,1,0,0:0:0:0:
256,192,251382,1,0,0:0:0:0:
256,192,251452,1,8,0:0:0:0:
256,192,251522,1,8,0:0:0:0:
256,192,251592,1,8,0:0:0:0:
256,192,251661,1,8,0:0:0:0:
256,192,251731,1,8,0:0:0:0:
256,192,251801,1,8,0:0:0:0:
256,192,251871,1,0,0:0:0:0:
256,192,251940,1,0,0:0:0:0:
256,192,252010,1,8,0:0:0:0:
256,192,252080,1,8,0:0:0:0:
256,192,252150,1,8,0:0:0:0:
256,192,252219,1,8,0:0:0:0:
256,192,252289,1,0,0:0:0:0:
256,192,252359,1,0,0:0:0:0:
256,192,252429,1,8,0:0:0:0:
256,192,252498,1,0,0:0:0:0:
256,192,252568,1,8,0:0:0:0:
256,192,252638,1,8,0:0:0:0:
256,192,252708,1,8,0:0:0:0:
256,192,252778,1,0,0:0:0:0:
256,192,252847,1,8,0:0:0:0:
256,192,252917,1,8,0:0:0:0:
256,192,252987,1,0,0:0:0:0:
256,192,253057,1,0,0:0:0:0:
256,192,253126,1,8,0:0:0:0:
256,192,253196,1,8,0:0:0:0:
256,192,253266,1,8,0:0:0:0:
256,192,253336,1,8,0:0:0:0:
256,192,253405,1,0,0:0:0:0:
256,192,253475,1,0,0:0:0:0:
256,192,253545,1,0,0:0:0:0:
256,192,253615,1,0,0:0:0:0:
256,192,253685,1,8,0:0:0:0:
256,192,253754,1,0,0:0:0:0:
256,192,253824,1,0,0:0:0:0:
256,192,253894,1,0,0:0:0:0:
256,192,253964,1,8,0:0:0:0:
256,192,254033,1,8,0:0:0:0:
256,192,254103,1,8,0:0:0:0:
256,192,254173,1,8,0:0:0:0:
256,192,254243,1,0,0:0:0:0:
256,192,254312,1,0,0:0:0:0:
256,192,254382,1,0,0:0:0:0:
256,192,254452,1,0,0:0:0:0:
256,192,254522,1,8,0:0:0:0:
256,192,254592,1,8,0:0:0:0:
256,192,254661,1,0,0:0:0:0:
256,192,254731,1,0,0:0:0:0:
256,192,254801,1,8,0:0:0:0:
256,192,254871,1,8,0:0:0:0:
256,192,254940,1,8,0:0:0:0:
256,192,255010,1,0,0:0:0:0:
256,192,255080,1,8,0:0:0:0:
256,192,255150,1,8,0:0:0:0:
256,192,255219,1,8,0:0:0:0:
256,192,255289,1,0,0:0:0:0:
256,192,255359,1,8,0:0:0:0:
256,192,255429,1,8,0:0:0:0:
256,192,255498,1,8,0:0:0:0:
256,192,255568,1,8,0:0:0:0:
256,192,255638,1,8,0:0:0:0:
256,192,255708,1,8,0:0:0:0:
256,192,255778,1,0,0:0:0:0:
256,192,255847,1,0,0:0:0:0:
256,192,255917,1,8,0:0:0:0:
256,192,255987,1,8,0:0:0:0:
256,192,256057,1,8,0:0:0:0:
256,192,256126,1,0,0:0:0:0:
256,192,256196,1,8,0:0:0:0:
256,192,256266,1,0,0:0:0:0:
256,192,256336,1,8,0:0:0:0:
256,192,256405,1,8,0:0:0:0:
256,192,256475,1,0,0:0:0:0:
256,192,256545,1,0,0:0:0:0:
256,192,256615,1,8,0:0:0:0:
256,192,256685,1,0,0:0:0:0:
256,192,256754,1,8,0:0:0:0:
256,192,256824,1,8,0:0:0:0:
256,192,256894,1,0,0:0:0:0:
256,192,256964,1,8,0:0:0:0:
256,192,257033,1,8,0:0:0:0:
256,192,257103,1,0,0:0:0:0:
256,192,257173,1,8,0:0:0:0:
256,192,257243,1,0,0:0:0:0:
256,192,257312,1,8,0:0:0:0:
256,192,257382,1,8,0:0:0:0:
256,192,257452,1,0,0:0:0:0:
256,192,257522,1,0,0:0:0:0:
256,192,257592,1,8,0:0:0:0:
256,192,257661,1,8,0:0:0:0:
256,192,257731,1,0,0:0:0:0:
256,192,257801,1,8,0:0:0:0:
256,192,257871,1,0,0:0:0:0:
256,192,257940,1,0,0:0:0:0:
256,192,258010,1,0,0:0:0:0:
256,192,258080,1,0,0:0:0:0:
256,192,258150,1,8,0:0:0:0:
256,192,258219,1,8,0:0:0:0:
256,192,258289,1,8,0:0:0:0:
256,192,258359,1,0,0:0:0:0:
256,192,258429,1,8,0:0:0:0:
256,192,258498,1,8,0:0:0:0:
256,192,258568,1,8,0:0:0:0:
256,192,258638,1,0,0:0:0:0:
256,192,258708,1,8,0:0:0:0:
256,192,258778,1,8,0:0:0:0:
256,192,258847,1,8,0:0:0:0:
256,192,258917,1,8,0:0:0:0:
256,192,258987,1,8,0:0:0:0:
256,192,259057,1,8,0:0:0:0:
256,192,259126,1,0,0:0:0:0:
256,192,259196,1,0,0:0:0:0:
256,192,259266,1,8,0:0:0:0:
256,192,259336,1,8,0:0:0:0:
256,192,259405,1,0,0:0:0:0:
256,192,259475,1,0,0:0:0:0:
256,192,259545,1,8,0:0:0:0:
256,192,259615,1,8,0:0:0:0:
256,192,259685,1,8,0:0:0:0:
256,192,259754,1,8,0:0:0:0:
256,192,259824,1,8,0:0:0:0:
256,192,259894,1,8,0:0:0:0:
256,192,259964,1,0,0:0:0:0:
256,192,260033,1,0,0:0:0:0:
256,192,260103,1,8,0:0:0:0:
256,192,260173,1,8,0:0:0:0:
256,192,260243,1,0,0:0:0:0:
256,192,260312,1,0,0:0:0:0:
256,192,260382,1,8,0:0:0:0:
256,192,260452,1,8,0:0:0:0:
256,192,260522,1,8,0:0:0:0:
256,192,260592,1,8,0:0:0:0:
256,192,260661,1,8,0:0:0:0:
256,192,260731,1,8,0:0:0:0:
256,192,260801,1,0,0:0:0:0:
256,192,260871,1,0,0:0:0:0:
256,192,260940,1,8,0:0:0:0:
256,192,261010,1,8,0:0:0:0:
256,192,261080,1,8,0:0:0:0:
256,192,261150,1,8,0:0:0:0:
256,192,261219,1,0,0:0:0:0:
256,192,261289,1,0,0:0:0:0:
256,192,261359,1,0,0:0:0:0:
256,192,261429,1,0,0:0:0:0:
256,192,261498,1,8,0:0:0:0:
256,192,261568,1,0,0:0:0:0:
256,192,261638,1,8,0:0:0:0:
256,192,261708,1,8,0:0:0:0:
256,192,261778,1,0,0:0:0:0:
256,192,261847,1,0,0:0:0:0:
256,192,261917,1,0,0:0:0:0:
256,192,261987,1,0,0:0:0:0:
256,192,262057,1,8,0:0:0:0:
256,192,262126,1,8,0:0:0:0:
256,192,262196,1,8,0:0:0:0:
256,192,262266,1,8,0:0:0:0:
256,192,262336,1,8,0:0:0:0:
256,192,262405,1,8,0:0:0:0:
256,192,262475,1,0,0:0:0:0:
256,192,262545,1,0,0:0:0:0:
256,192,262615,1,8,0:0:0:0:
256,192,262685,1,8,0:0:0:0:
256,192,262754,1,8,0:0:0:0:
256,192,262824,1,8,0:0:0:0:
256,192,262894,1,0,0:0:0:0:
256,192,262964,1,0,0:0:0:0:
256,192,263033,1,0,0:0:0:0:
256,192,263103,1,0,0:0:0:0:
256,192,263173,1,8,0:0:0:0:
256,192,263243,1,0,0:0:0:0:
256,192,263312,1,0,0:0:0:0:
256,192,263382,1,0,0:0:0:0:
256,192,263452,1,8,0:0:0:0:
256,192,263522,1,8,0:0:0:0:
256,192,263592,1,0,0:0:0:0:
256,192,263661,1,0,0:0:0:0:
256,192,263731,1,8,0:0:0:0:
256,192,263801,1,8,0:0:0:0:
256,192,263871,1,8,0:0:0:0:
256,192,263940,1,8,0:0:0:0:
256,192,264010,1,8,0:0:0:0:
256,192,264080,1,8,0:0:0:0:
256,192,264150,1,0,0:0:0:0:
256,192,264219,1,0,0:0:0:0:
256,192,264289,1,8,0:0:0:0:
256,192,264359,1,8,0:0:0:0:
256,192,264429,1,8,0:0:0:0:
256,192,264498,1,8,0:0:0:0:
256,192,264568,1,0,0:0:0:0:
256,192,264638,1,0,0:0:0:0:
256,192,264708,1,0,0:0:0:0:
256,192,264778,1,0,0:0:0:0:
256,192,264847,1,8,0:0:0:0:
256,192,264917,1,8,0:0:0:0:
256,192,264987,1,8,0:0:0:0:
256,192,265057,1,8,0:0:0:0:
256,192,265126,1,8,0:0:0:0:
256,192,265196,1,8,0:0:0:0:
256,192,265266,1,0,0:0:0:0:
256,192,265336,1,0,0:0:0:0:
256,192,265405,1,8,0:0:0:0:
256,192,265475,1,8,0:0:0:0:
256,192,265545,1,8,0:0:0:0:
256,192,265615,1,8,0:0:0:0:
256,192,265685,1,8,0:0:0:0:
256,192,265754,1,8,0:0:0:0:
256,192,265824,1,0,0:0:0:0:
256,192,265894,1,0,0:0:0:0:
256,192,265964,1,8,0:0:0:0:
256,192,266033,1,8,0:0:0:0:
256,192,266103,1,0,0:0:0:0:
256,192,266173,1,0,0:0:0:0:
256,192,266243,1,8,0:0:0:0:
256,192,266312,1,8,0:0:0:0:
256,192,266382,1,8,0:0:0:0:
256,192,266452,1,8,0:0:0:0:
256,192,266522,1,8,0:0:0:0:
256,192,266592,1,8,0:0:0:0:
256,192,266661,1,0,0:0:0:0:
256,192,266731,1,0,0:0:0:0:
256,192,266801,1,0,0:0:0:0:
256,192,266871,1,0,0:0:0:0:
256,192,266940,1,0,0:0:0:0:
256,192,267010,1,0,0:0:0:0:
256,192,267080,1,8,0:0:0:0:
256,192,267150,1,8,0:0:0:0:
256,192,267219,1,0,0:0:0:0:
256,192,267289,1,0,0:0:0:0:
256,192,267359,1,8,0:0:0:0:
256,192,267429,1,8,0:0:0:0:
256,192,267498,1,8,0:0:0:0:
256,192,267568,1,8,0:0:0:0:
256,192,267638,1,0,0:0:0:0:
256,192,267708,1,0,0:0:0:0:
256,192,267778,1,0,0:0:0:0:
256,192,267847,1,0,0:0:0:0:
256,192,267917,1,8,0:0:0:0:
256,192,267987,1,0,0:0:0:0:
256,192,268057,1,0,0:0:0:0:
256,192,268126,1,0,0:0:0:0:
256,192,268196,1,8,0:0:0:0:
256,192,268266,1,8,0:0:0:0:
256,192,268336,1,8,0:0:0:0:
256,192,268405,1,0,0:0:0:0:
256,192,268475,1,8,0:0:0:0:
256,192,268545,1,8,0:0:0:0:
256,192,268615,1,8,0:0:0:0:
256,192,268685,1,0,0:0:0:0:
256,192,268754,1,8,0:0:0:0:
256,192,268824,1,8,0:0:0:0:
256,192,268894,1,8,0:0:0:0:
256,192,268964,1,8,0:0:0:0:
256,192,269033,1,8,0:0:0:0:
256,192,269103,1,8,0:0:0:0:
256,192,269173,1,0,0:0:0:0:
256,192,269243,1,0,0:0:0:0:
256,192,269312,1,8,0:0:0:0:
256,192,269382,1,8,0:0:0:0:
256,192,269452,1,8,0:0:0:0:
256,192,269522,1,0,0:0:0:0:
256,192,269592,1,8,0:0:0:0:
256,192,269661,1,8,0:0:0:0:
256,192,269731,1,0,0:0:0:0:
256,192,269801,1,0,0:0:0:0:
256,192,269871,1,8,0:0:0:0:
256,192,269940,1,0,0:0:0:0:
256,192,270010,1,8,0:0:0:0:
256,192,270080,1,8,0:0:0:0:
256,192,270150,1,0,0:0:0:0:
256,192,270219,1,8,0:0:0:0:
256,192,270289,1,0,0:0:0:0:
256,192,270359,1,0,0:0:0:0:
256,192,270429,1,8,0:0:0:0:
256,192,270498,1,8,0:0:0:0:
256,192,270568,1,0,0:0:0:0:
256,192,270638,1,0,0:0:0:0:
256,192,270708,1,8,0:0:0:0:
256,192,270778,1,0,0:0:0:0:
256,192,270847,1,8,0:0:0:0:
256,192,270917,1,0,0:0:0:0:
256,192,270987,1,8,0:0:0:0:
256,192,271057,1,8,0:0:0:0:
256,192,271126,1,0,0:0:0:0:
256,192,271196,1,0,0:0:0:0:
256,192,271266,1,8,0:0:0:0:
256,192,271336,1,8,0:0:0:0:
256,192,271405,1,8,0:0:0:0:
256,192,271475,1,8,0:0:0:0:
256,192,271545,1,8,0:0:0:0:
256,192,271615,1,8,0:0:0:0:
256,192,271685,1,0,0:0:0:0:
256,192,271754,1,0,0:0:0:0:
256,192,271824,1,8,0:0:0:0:
256,192,271894,1,8,0:0:0:0:
256,192,271964,1,0,0:0:0:0:
256,192,272033,1,0,0:0:0:0:
256,192,272103,1,8,0:0:0:0:
256,192,272173,1,8,0:0:0:0:
256,192,272243,1,8,0:0:0:0:
256,192,272312,1,8,0:0:0:0:
256,192,272382,1,8,0:0:0:0:
256,192,272452,1,8,0:0:0:0:
256,192,272522,1,8,0:0:0:0:
256,192,272592,1,8,0:0:0:0:
256,192,272661,1,8,0:0:0:0:
256,192,272731,1,8,0:0:0:0:
256,192,272801,1,8,0:0:0:0:
256,192,272871,1,8,0:0:0:0:
256,192,272940,1,0,0:0:0:0:
256,192,273010,1,0,0:0:0:0:
256,192,273080,1,0,0:0:0:0:
256,192,273150,1,0,0:0:0:0:
256,192,273219,1,8,0:0:0:0:
256,192,273289,1,0,0:0:0:0:
256,192,273359,1,8,0:0:0:0:
256,192,273429,1,0,0:0:0:0:
256,192,273498,1,8,0:0:0:0:
256,192,273568,1,8,0:0:0:0:
256,192,273638,1,0,0:0:0:0:
256,192,273708,1,0,0:0:0:0:
256,192,273778,1,8,0:0:0:0:
256,192,273847,1,8,0:0:0:0:
256,192,273917,1,0,0:0:0:0:
256,192,273987,1,0,0:0:0:0:
256,192,274057,1,8,0:0:0:0:
256,192,274126,1,0,0:0:0:0:
256,192,274196,1,8,0:0:0:0:
256,192,274266,1,0,0:0:0:0:
256,192,274336,1,8,0:0:0:0:
256,192,274405,1,8,0:0:0:0:
256,192,274475,1,0,0:0:0:0:
256,192,274545,1,0,0:0:0:0:
256,192,274615,1,12,0:0:0:0:
256,192,274894,1,0,0:0:0:0:
256,192,275033,1,0,0:0:0:0:
256,192,275173,1,0,0:0:0:0:
256,192,275312,1,0,0:0:0:0:
256,192,275452,1,8,0:0:0:0:
256,192,275592,1,0,0:0:0:0:
256,192,275731,1,0,0:0:0:0:
256,192,275871,1,0,0:0:0:0:
256,192,276010,1,8,0:0:0:0:
256,192,276150,1,0,0:0:0:0:
256,192,276289,1,8,0:0:0:0:
256,192,276429,1,0,0:0:0:0:
256,192,276568,1,0,0:0:0:0:
256,192,276708,1,0,0:0:0:0:
256,192,276847,1,0,0:0:0:0:
256,192,276987,1,0,0:0:0:0:
256,192,277126,1,8,0:0:0:0:
256,192,277266,1,0,0:0:0:0:
256,192,277405,1,0,0:0:0:0:
256,192,277545,1,0,0:0:0:0:
256,192,277685,1,8,0:0:0:0:
256,192,277824,1,0,0:0:0:0:
256,192,277964,1,8,0:0:0:0:
256,192,278033,1,8,0:0:0:0:
256,192,278103,1,0,0:0:0:0:
256,192,278173,1,0,0:0:0:0:
256,192,278243,1,8,0:0:0:0:
256,192,278312,1,0,0:0:0:0:
256,192,278382,1,8,0:0:0:0:
256,192,278452,1,0,0:0:0:0:
256,192,278522,1,8,0:0:0:0:
256,192,278592,1,8,0:0:0:0:
256,192,278661,1,0,0:0:0:0:
256,192,278731,1,0,0:0:0:0:
256,192,278801,1,8,0:0:0:0:
256,192,278871,1,8,0:0:0:0:
256,192,278940,1,0,0:0:0:0:
256,192,279010,1,0,0:0:0:0:
256,192,279080,1,8,0:0:0:0:
256,192,279150,1,0,0:0:0:0:
256,192,279219,1,8,0:0:0:0:
256,192,279289,1,0,0:0:0:0:
256,192,279359,1,8,0:0:0:0:
256,192,279429,1,8,0:0:0:0:
256,192,279498,1,0,0:0:0:0:
256,192,279568,1,0,0:0:0:0:
256,192,279638,1,8,0:0:0:0:
256,192,279708,1,8,0:0:0:0:
256,192,279778,1,8,0:0:0:0:
256,192,279847,1,8,0:0:0:0:
256,192,279917,1,0,0:0:0:0:
256,192,279987,1,0,0:0:0:0:
256,192,280057,1,8,0:0:0:0:
256,192,280126,1,8,0:0:0:0:
256,192,280196,1,0,0:0:0:0:
256,192,280266,1,8,0:0:0:0:
256,192,280336,1,0,0:0:0:0:
256,192,280405,1,0,0:0:0:0:
256,192,280475,1,8,0:0:0:0:
256,192,280545,1,8,0:0:0:0:
256,192,280615,1,8,0:0:0:0:
256,192,280685,1,8,0:0:0:0:
256,192,280754,1,0,0:0:0:0:
256,192,280824,1,0,0:0:0:0:
256,192,280894,1,8,0:0:0:0:
256,192,280964,1,8,0:0:0:0:
256,192,281033,1,0,0:0:0:0:
256,192,281103,1,8,0:0:0:0:
256,192,281173,1,0,0:0:0:0:
256,192,281243,1,0,0:0:0:0:
256,192,281312,1,8,0:0:0:0:
256,192,281382,1,0,0:0:0:0:
256,192,281452,1,8,0:0:0:0:
256,192,282150,1,12,0:0:0:0:
256,192,282289,1,0,0:0:0:0:
256,192,282429,1,0,0:0:0:0:
256,192,282568,1,0,0:0:0:0:
256,192,282708,1,0,0:0:0:0:
256,192,282847,1,0,0:0:0:0:
256,192,282987,1,8,0:0:0:0:
256,192,283057,1,0,0:0:0:0:
256,192,283126,1,8,0:0:0:0:
256,192,283266,1,0,0:0:0:0:
256,192,283405,1,0,0:0:0:0:
256,192,283545,1,0,0:0:0:0:
256,192,283685,1,0,0:0:0:0:
256,192,283824,1,8,0:0:0:0:
256,192,283964,1,8,0:0:0:0:
256,192,284103,1,0,0:0:0:0:
256,192,284243,1,0,0:0:0:0:
256,192,284382,1,0,0:0:0:0:
256,192,284522,1,0,0:0:0:0:
256,192,284661,1,0,0:0:0:0:
256,192,284731,1,0,0:0:0:0:
256,192,284801,1,8,0:0:0:0:
256,192,284940,1,0,0:0:0:0:
256,192,285080,1,0,0:0:0:0:
256,192,285219,1,0,0:0:0:0:
256,192,285359,1,0,0:0:0:0:
256,192,285498,1,8,0:0:0:0:
256,192,285638,1,8,0:0:0:0:
256,192,285778,1,0,0:0:0:0:
256,192,285917,1,0,0:0:0:0:
256,192,286057,1,0,0:0:0:0:
256,192,286196,1,0,0:0:0:0:
256,192,286336,1,8,0:0:0:0:
256,192,286405,1,8,0:0:0:0:
256,192,286475,1,0,0:0:0:0:
256,192,286615,1,0,0:0:0:0:
256,192,286754,1,0,0:0:0:0:
256,192,286894,1,8,0:0:0:0:
256,192,287033,1,0,0:0:0:0:
256,192,287173,1,8,0:0:0:0:
256,192,287312,1,0,0:0:0:0:
256,192,287452,1,8,0:0:0:0:
256,192,287592,1,0,0:0:0:0:
256,192,287731,1,0,0:0:0:0:
256,192,287871,1,0,0:0:0:0:
256,192,288010,1,12,0:0:0:0:
256,192,288289,1,0,0:0:0:0:
256,192,288429,1,0,0:0:0:0:
256,192,288568,1,0,0:0:0:0:
256,192,288708,1,0,0:0:0:0:
256,192,288847,1,8,0:0:0:0:
256,192,288917,1,8,0:0:0:0:
256,192,288987,1,0,0:0:0:0:
256,192,289126,1,0,0:0:0:0:
256,192,289266,1,0,0:0:0:0:
256,192,289405,1,0,0:0:0:0:
256,192,289545,1,0,0:0:0:0:
256,192,289685,1,8,0:0:0:0:
256,192,289824,1,8,0:0:0:0:
256,192,289964,1,0,0:0:0:0:
256,192,290103,1,0,0:0:0:0:
256,192,290243,1,0,0:0:0:0:
256,192,290382,1,0,0:0:0:0:
256,192,290522,1,8,0:0:0:0:
256,192,290592,1,0,0:0:0:0:
256,192,290661,1,0,0:0:0:0:
256,192,290801,1,0,0:0:0:0:
256,192,290940,1,0,0:0:0:0:
256,192,291080,1,0,0:0:0:0:
256,192,291219,1,0,0:0:0:0:
256,192,291359,1,8,0:0:0:0:
256,192,291498,1,8,0:0:0:0:
256,192,291638,1,0,0:0:0:0:
256,192,291778,1,0,0:0:0:0:
256,192,291917,1,0,0:0:0:0:
256,192,292057,1,0,0:0:0:0:
256,192,292196,1,8,0:0:0:0:
256,192,292266,1,8,0:0:0:0:
256,192,292336,1,0,0:0:0:0:
256,192,292475,1,0,0:0:0:0:
256,192,292615,1,0,0:0:0:0:
256,192,292754,1,0,0:0:0:0:
256,192,292894,1,0,0:0:0:0:
256,192,293033,1,8,0:0:0:0:
256,192,293173,1,8,0:0:0:0:
256,192,293312,1,0,0:0:0:0:
256,192,293452,1,0,0:0:0:0:
256,192,293592,1,0,0:0:0:0:
256,192,293731,1,0,0:0:0:0:
256,192,293871,1,8,0:0:0:0:
256,192,293940,1,0,0:0:0:0:
256,192,294010,1,0,0:0:0:0:
256,192,294150,1,0,0:0:0:0:
256,192,294289,1,0,0:0:0:0:
256,192,294429,1,0,0:0:0:0:
256,192,294568,1,0,0:0:0:0:
256,192,294708,1,8,0:0:0:0:
256,192,294778,1,0,0:0:0:0:
256,192,294847,1,8,0:0:0:0:
256,192,294987,1,0,0:0:0:0:
256,192,295126,1,0,0:0:0:0:
256,192,295266,1,0,0:0:0:0:
256,192,295405,1,0,0:0:0:0:
256,192,295545,1,8,0:0:0:0:
256,192,295685,1,8,0:0:0:0:
256,192,295824,1,0,0:0:0:0:
256,192,295964,1,0,0:0:0:0:
256,192,296103,1,0,0:0:0:0:
256,192,296243,1,0,0:0:0:0:
256,192,296382,1,8,0:0:0:0:
256,192,296452,1,0,0:0:0:0:
256,192,296522,1,8,0:0:0:0:
256,192,296661,1,0,0:0:0:0:
256,192,296801,1,0,0:0:0:0:
256,192,296940,1,0,0:0:0:0:
256,192,297080,1,0,0:0:0:0:
256,192,297219,1,8,0:0:0:0:
256,192,297359,1,8,0:0:0:0:
256,192,297498,1,0,0:0:0:0:
256,192,297638,1,0,0:0:0:0:
256,192,297778,1,0,0:0:0:0:
256,192,297917,1,0,0:0:0:0:
256,192,298057,1,0,0:0:0:0:
256,192,298126,1,0,0:0:0:0:
256,192,298196,1,8,0:0:0:0:
256,192,298336,1,0,0:0:0:0:
256,192,298475,1,0,0:0:0:0:
256,192,298615,1,0,0:0:0:0:
256,192,298754,1,0,0:0:0:0:
256,192,298894,1,8,0:0:0:0:
256,192,299033,1,0,0:0:0:0:
256,192,299173,1,0,0:0:0:0:
256,192,299312,1,0,0:0:0:0:
256,192,299452,1,0,0:0:0:0:
256,192,299592,1,0,0:0:0:0:
256,192,299731,1,8,0:0:0:0:
256,192,299801,1,0,0:0:0:0:
256,192,299871,1,8,0:0:0:0:
256,192,300010,1,0,0:0:0:0:
256,192,300150,1,0,0:0:0:0:
256,192,300289,1,8,0:0:0:0:
256,192,300429,1,0,0:0:0:0:
256,192,300568,1,8,0:0:0:0:
256,192,300708,1,0,0:0:0:0:
256,192,300847,1,8,0:0:0:0:
256,192,300987,1,0,0:0:0:0:
256,192,301126,1,0,0:0:0:0:
256,192,301266,1,0,0:0:0:0:
256,192,301405,1,12,0:0:0:0:
256,192,301685,1,0,0:0:0:0:
256,192,301824,1,0,0:0:0:0:
256,192,301964,1,0,0:0:0:0:
256,192,302103,1,0,0:0:0:0:
256,192,302243,1,8,0:0:0:0:
256,192,302312,1,8,0:0:0:0:
256,192,302382,1,0,0:0:0:0:
256,192,302522,1,0,0:0:0:0:
256,192,302661,1,0,0:0:0:0:
256,192,302801,1,0,0:0:0:0:
256,192,302940,1,0,0:0:0:0:
256,192,303080,1,8,0:0:0:0:
256,192,303219,1,8,0:0:0:0:
256,192,303359,1,0,0:0:0:0:
256,192,303498,1,0,0:0:0:0:
256,192,303638,1,0,0:0:0:0:
256,192,303778,1,0,0:0:0:0:
256,192,303917,1,8,0:0:0:0:
256,192,303987,1,0,0:0:0:0:
256,192,304057,1,0,0:0:0:0:
256,192,304196,1,0,0:0:0:0:
256,192,304336,1,0,0:0:0:0:
256,192,304475,1,0,0:0:0:0:
256,192,304615,1,0,0:0:0:0:
256,192,304754,1,8,0:0:0:0:
256,192,304894,1,8,0:0:0:0:
256,192,305033,1,0,0:0:0:0:
256,192,305173,1,0,0:0:0:0:
256,192,305312,1,0,0:0:0:0:
256,192,305452,1,0,0:0:0:0:
256,192,305592,1,8,0:0:0:0:
256,192,305661,1,8,0:0:0:0:
256,192,305731,1,0,0:0:0:0:
256,192,305871,1,0,0:0:0:0:
256,192,306010,1,0,0:0:0:0:
256,192,306150,1,0,0:0:0:0:
256,192,306289,1,0,0:0:0:0:
256,192,306429,1,8,0:0:0:0:
256,192,306568,1,8,0:0:0:0:
256,192,306708,1,0,0:0:0:0:
256,192,306847,1,0,0:0:0:0:
256,192,306987,1,0,0:0:0:0:
256,192,307126,1,0,0:0:0:0:
256,192,307266,1,8,0:0:0:0:
256,192,307336,1,0,0:0:0:0:
256,192,307405,1,0,0:0:0:0:
256,192,307545,1,0,0:0:0:0:
256,192,307685,1,0,0:0:0:0:
256,192,307824,1,0,0:0:0:0:
256,192,307964,1,0,0:0:0:0:
256,192,308103,1,12,0:0:0:0:
256,192,308382,1,8,0:0:0:0:
256,192,308661,1,0,0:0:0:0:
256,192,308801,1,0,0:0:0:0:
256,192,308940,1,12,0:0:0:0:
256,192,309080,1,0,0:0:0:0:
256,192,309219,1,0,0:0:0:0:
256,192,309359,1,0,0:0:0:0:
256,192,309498,1,8,0:0:0:0:
256,192,309638,1,0,0:0:0:0:
256,192,309778,1,8,0:0:0:0:
256,192,309917,1,0,0:0:0:0:
256,192,310057,1,0,0:0:0:0:
256,192,310196,1,8,0:0:0:0:
256,192,310336,1,8,0:0:0:0:
256,192,310475,1,0,0:0:0:0:
256,192,310615,1,8,0:0:0:0:
256,192,310754,1,0,0:0:0:0:
256,192,310894,1,8,0:0:0:0:
256,192,311033,1,8,0:0:0:0:
256,192,311173,1,0,0:0:0:0:
256,192,311312,1,8,0:0:0:0:
256,192,311452,1,0,0:0:0:0:
256,192,311592,1,0,0:0:0:0:
256,192,311731,1,0,0:0:0:0:
256,192,311871,1,8,0:0:0:0:
256,192,312010,1,8,0:0:0:0:
256,192,312150,1,0,0:0:0:0:
256,192,312289,1,8,0:0:0:0:
256,192,312429,1,8,0:0:0:0:
256,192,312568,1,0,0:0:0:0:
256,192,312708,1,0,0:0:0:0:
256,192,312847,1,8,0:0:0:0:
256,192,312987,1,0,0:0:0:0:
256,192,313126,1,8,0:0:0:0:
256,192,313266,1,0,0:0:0:0:
256,192,313405,1,0,0:0:0:0:
256,192,313545,1,8,0:0:0:0:
256,192,313685,1,0,0:0:0:0:
256,192,313824,1,8,0:0:0:0:
256,192,313964,1,0,0:0:0:0:
256,192,314103,1,0,0:0:0:0:
256,192,314243,1,8,0:0:0:0:
256,192,314382,1,8,0:0:0:0:
256,192,314522,1,0,0:0:0:0:
256,192,314661,1,0,0:0:0:0:
256,192,314801,1,12,0:0:0:0:
256,192,315080,1,8,0:0:0:0:
256,192,315219,1,0,0:0:0:0:
256,192,315359,1,0,0:0:0:0:
256,192,315498,1,0,0:0:0:0:
256,192,315638,1,8,0:0:0:0:
256,192,315708,1,8,0:0:0:0:
256,192,315778,1,0,0:0:0:0:
256,192,315917,1,8,0:0:0:0:
256,192,316057,1,8,0:0:0:0:
256,192,316196,1,0,0:0:0:0:
256,192,316336,1,0,0:0:0:0:
256,192,316475,1,8,0:0:0:0:
256,192,316615,1,0,0:0:0:0:
256,192,316754,1,8,0:0:0:0:
256,192,316894,1,8,0:0:0:0:
256,192,317033,1,0,0:0:0:0:
256,192,317173,1,0,0:0:0:0:
256,192,317312,1,8,0:0:0:0:
256,192,317382,1,0,0:0:0:0:
256,192,317452,1,0,0:0:0:0:
256,192,317592,1,8,0:0:0:0:
256,192,317731,1,8,0:0:0:0:
256,192,317871,1,0,0:0:0:0:
256,192,318010,1,0,0:0:0:0:
256,192,318150,1,8,0:0:0:0:
256,192,318289,1,8,0:0:0:0:
256,192,318429,1,8,0:0:0:0:
256,192,318568,1,0,0:0:0:0:
256,192,318708,1,8,0:0:0:0:
256,192,318847,1,0,0:0:0:0:
256,192,318987,1,8,0:0:0:0:
256,192,319057,1,8,0:0:0:0:
256,192,319126,1,0,0:0:0:0:
256,192,319266,1,8,0:0:0:0:
256,192,319405,1,8,0:0:0:0:
256,192,319545,1,0,0:0:0:0:
256,192,319685,1,0,0:0:0:0:
256,192,319824,1,8,0:0:0:0:
256,192,319964,1,8,0:0:0:0:
256,192,320103,1,8,0:0:0:0:
256,192,320243,1,0,0:0:0:0:
256,192,320382,1,8,0:0:0:0:
256,192,320522,1,0,0:0:0:0:
256,192,320661,1,8,0:0:0:0:
256,192,320731,1,0,0:0:0:0:
256,192,320801,1,0,0:0:0:0:
256,192,320940,1,8,0:0:0:0:
256,192,321080,1,8,0:0:0:0:
256,192,321219,1,0,0:0:0:0:
256,192,321359,1,0,0:0:0:0:
256,192,321498,1,12,0:0:0:0:
256,192,321778,1,8,0:0:0:0:
256,192,321917,1,8,0:0:0:0:
256,192,322057,1,0,0:0:0:0:
256,192,322196,1,0,0:0:0:0:
256,192,322336,1,8,0:0:0:0:
256,192,322475,1,8,0:0:0:0:
256,192,322615,1,0,0:0:0:0:
256,192,322754,1,8,0:0:0:0:
256,192,322894,1,0,0:0:0:0:
256,192,323033,1,8,0:0:0:0:
256,192,323173,1,0,0:0:0:0:
256,192,323312,1,0,0:0:0:0:
256,192,323452,1,8,0:0:0:0:
256,192,323592,1,0,0:0:0:0:
256,192,323731,1,8,0:0:0:0:
256,192,323871,1,0,0:0:0:0:
256,192,324010,1,8,0:0:0:0:
256,192,324150,1,0,0:0:0:0:
256,192,324289,1,8,0:0:0:0:
256,192,324429,1,8,0:0:0:0:
256,192,324568,1,0,0:0:0:0:
256,192,324708,1,8,0:0:0:0:
256,192,324847,1,0,0:0:0:0:
256,192,324987,1,8,0:0:0:0:
256,192,325126,1,8,0:0:0:0:
256,192,325266,1,8,0:0:0:0:
256,192,325405,1,0,0:0:0:0:
256,192,325545,1,0,0:0:0:0:
256,192,325685,1,8,0:0:0:0:
256,192,325824,1,8,0:0:0:0:
256,192,325964,1,8,0:0:0:0:
256,192,326103,1,0,0:0:0:0:
256,192,326243,1,8,0:0:0:0:
256,192,326382,1,8,0:0:0:0:
256,192,326522,1,8,0:0:0:0:
256,192,326661,1,0,0:0:0:0:
256,192,326801,1,0,0:0:0:0:
256,192,326940,1,0,0:0:0:0:
256,192,327080,1,8,0:0:0:0:
256,192,327219,1,0,0:0:0:0:
256,192,327359,1,8,0:0:0:0:
256,192,327498,1,0,0:0:0:0:
256,192,327638,1,8,0:0:0:0:
256,192,327778,1,8,0:0:0:0:
256,192,327917,1,8,0:0:0:0:
256,192,328057,1,0,0:0:0:0:
256,192,328196,1,12,0:0:0:0:
256,192,328475,1,8,0:0:0:0:
256,192,328615,1,0,0:0:0:0:
256,192,328754,1,0,0:0:0:0:
256,192,328894,1,0,0:0:0:0:
256,192,329033,1,8,0:0:0:0:
256,192,329103,1,8,0:0:0:0:
256,192,329173,1,0,0:0:0:0:
256,192,329312,1,8,0:0:0:0:
256,192,329452,1,8,0:0:0:0:
256,192,329592,1,0,0:0:0:0:
256,192,329731,1,0,0:0:0:0:
256,192,329871,1,8,0:0:0:0:
256,192,330010,1,8,0:0:0:0:
256,192,330150,1,8,0:0:0:0:
256,192,330289,1,8,0:0:0:0:
256,192,330429,1,8,0:0:0:0:
256,192,330568,1,0,0:0:0:0:
256,192,330708,1,8,0:0:0:0:
256,192,330778,1,0,0:0:0:0:
256,192,330847,1,0,0:0:0:0:
256,192,330987,1,8,0:0:0:0:
256,192,331126,1,8,0:0:0:0:
256,192,331266,1,0,0:0:0:0:
256,192,331405,1,0,0:0:0:0:
256,192,331545,1,8,0:0:0:0:
256,192,331685,1,8,0:0:0:0:
256,192,331824,1,8,0:0:0:0:
256,192,331964,1,0,0:0:0:0:
256,192,332103,1,8,0:0:0:0:
256,192,332243,1,0,0:0:0:0:
256,192,332382,1,8,0:0:0:0:
256,192,332452,1,8,0:0:0:0:
256,192,332522,1,0,0:0:0:0:
256,192,332661,1,8,0:0:0:0:
256,192,332801,1,8,0:0:0:0:
256,192,332940,1,0,0:0:0:0:
256,192,333080,1,0,0:0:0:0:
256,192,333219,1,8,0:0:0:0:
256,192,333359,1,8,0:0:0:0:
256,192,333498,1,8,0:0:0:0:
256,192,333638,1,0,0:0:0:0:
256,192,333778,1,8,0:0:0:0:
256,192,333917,1,0,0:0:0:0:
256,192,334057,1,8,0:0:0:0:
256,192,334126,1,0,0:0:0:0:
256,192,334196,1,0,0:0:0:0:
256,192,334336,1,8,0:0:0:0:
256,192,334475,1,8,0:0:0:0:
256,192,334615,1,0,0:0:0:0:
256,192,334754,1,0,0:0:0:0:
256,192,334894,1,12,0:0:0:0:
256,192,335731,1,12,0:0:0:0:
256,192,335871,1,8,0:0:0:0:
256,192,336010,1,0,0:0:0:0:
256,192,336150,1,8,0:0:0:0:
256,192,336289,1,0,0:0:0:0:
256,192,336429,1,8,0:0:0:0:
256,192,336568,1,0,0:0:0:0:
256,192,336708,1,0,0:0:0:0:
256,192,336847,1,0,0:0:0:0:
256,192,336987,1,8,0:0:0:0:
256,192,337126,1,0,0:0:0:0:
256,192,337266,1,8,0:0:0:0:
256,192,337405,1,8,0:0:0:0:
256,192,337545,1,0,0:0:0:0:
256,192,337685,1,0,0:0:0:0:
256,192,337824,1,8,0:0:0:0:
256,192,337964,1,0,0:0:0:0:
256,192,338103,1,8,0:0:0:0:
256,192,338243,1,0,0:0:0:0:
256,192,338382,1,8,0:0:0:0:
256,192,338522,1,0,0:0:0:0:
256,192,338615,1,0,0:0:0:0:
256,192,338708,1,8,0:0:0:0:
256,192,338940,1,0,0:0:0:0:
256,192,339080,1,8,0:0:0:0:
256,192,339219,1,8,0:0:0:0:
256,192,339359,1,0,0:0:0:0:
256,192,339498,1,8,0:0:0:0:
256,192,339638,1,8,0:0:0:0:
256,192,339778,1,0,0:0:0:0:
256,192,339917,1,8,0:0:0:0:
256,192,340057,1,0,0:0:0:0:
256,192,340196,1,8,0:0:0:0:
256,192,340336,1,8,0:0:0:0:
256,192,340475,1,0,0:0:0:0:
256,192,340615,1,0,0:0:0:0:
256,192,340754,1,8,0:0:0:0:
256,192,340894,1,0,0:0:0:0:
256,192,341033,1,8,0:0:0:0:
256,192,341173,1,0,0:0:0:0:
256,192,341312,1,8,0:0:0:0:
256,192,341452,1,0,0:0:0:0:
256,192,341592,1,12,0:0:0:0:
256,192,341871,1,0,0:0:0:0:
256,192,342010,1,8,0:0:0:0:
256,192,342150,1,0,0:0:0:0:
256,192,342289,1,0,0:0:0:0:
256,192,342429,1,8,0:0:0:0:
256,192,342568,1,0,0:0:0:0:
256,192,342708,1,8,0:0:0:0:
256,192,342847,1,8,0:0:0:0:
256,192,342987,1,0,0:0:0:0:
256,192,343126,1,0,0:0:0:0:
256,192,343266,1,8,0:0:0:0:
256,192,343405,1,0,0:0:0:0:
256,192,343545,1,0,0:0:0:0:
256,192,343685,1,0,0:0:0:0:
256,192,343824,1,8,0:0:0:0:
256,192,343964,1,0,0:0:0:0:
256,192,344103,1,8,0:0:0:0:
256,192,344243,1,0,0:0:0:0:
256,192,344382,1,8,0:0:0:0:
256,192,344522,1,8,0:0:0:0:
256,192,344661,1,0,0:0:0:0:
256,192,344801,1,0,0:0:0:0:
256,192,344940,1,8,0:0:0:0:
256,192,345080,1,0,0:0:0:0:
256,192,345219,1,0,0:0:0:0:
256,192,345359,1,8,0:0:0:0:
256,192,345498,1,0,0:0:0:0:
256,192,345638,1,0,0:0:0:0:
256,192,345778,1,8,0:0:0:0:
256,192,345917,1,0,0:0:0:0:
256,192,346057,1,8,0:0:0:0:
256,192,346196,1,0,0:0:0:0:
256,192,346336,1,8,0:0:0:0:
256,192,346475,1,8,0:0:0:0:
256,192,346615,1,0,0:0:0:0:
256,192,346754,1,8,0:0:0:0:
256,192,346894,1,8,0:0:0:0:
256,192,347033,1,0,0:0:0:0:
256,192,347173,1,8,0:0:0:0:
256,192,347312,1,0,0:0:0:0:
256,192,347452,1,8,0:0:0:0:
256,192,347592,1,0,0:0:0:0:
256,192,347731,1,8,0:0:0:0:
256,192,347871,1,0,0:0:0:0:
256,192,348010,1,8,0:0:0:0:
256,192,348150,1,8,0:0:0:0:
256,192,348289,1,0,0:0:0:0:
256,192,348429,1,0,0:0:0:0:
256,192,348568,1,0,0:0:0:0:
256,192,348708,1,0,0:0:0:0:
256,192,348847,1,8,0:0:0:0:
256,192,348987,1,0,0:0:0:0:
256,192,349126,1,8,0:0:0:0:
256,192,349266,1,8,0:0:0:0:
256,192,349405,1,8,0:0:0:0:
256,192,349545,1,8,0:0:0:0:
256,192,349685,1,0,0:0:0:0:
256,192,349824,1,0,0:0:0:0:
256,192,349964,1,8,0:0:0:0:
256,192,350103,1,8,0:0:0:0:
256,192,350243,1,0,0:0:0:0:
256,192,350382,1,0,0:0:0:0:
256,192,350522,1,0,0:0:0:0:
256,192,350661,1,0,0:0:0:0:
256,192,350801,1,8,0:0:0:0:
256,192,350940,1,0,0:0:0:0:
256,192,351080,1,8,0:0:0:0:
256,192,351219,1,0,0:0:0:0:
256,192,351359,1,8,0:0:0:0:
256,192,351498,1,8,0:0:0:0:
256,192,351638,1,0,0:0:0:0:
256,192,351778,1,0,0:0:0:0:
256,192,351847,1,0,0:0:0:0:
256,192,351917,1,8,0:0:0:0:
256,192,351987,1,8,0:0:0:0:
256,192,352057,1,0,0:0:0:0:
256,192,352126,1,0,0:0:0:0:
256,192,352196,1,8,0:0:0:0:
256,192,352266,1,8,0:0:0:0:
256,192,352336,1,0,0:0:0:0:
256,192,352405,1,0,0:0:0:0:
256,192,352475,1,8,0:0:0:0:
256,192,352615,1,0,0:0:0:0:
256,192,352754,1,8,0:0:0:0:
256,192,352894,1,8,0:0:0:0:
256,192,353033,1,0,0:0:0:0:
256,192,353173,1,0,0:0:0:0:
256,192,353312,1,8,0:0:0:0:
256,192,353452,1,8,0:0:0:0:
256,192,353592,1,0,0:0:0:0:
256,192,353731,1,8,0:0:0:0:
256,192,353871,1,0,0:0:0:0:
256,192,354010,1,0,0:0:0:0:
256,192,354150,1,8,0:0:0:0:
256,192,354289,1,0,0:0:0:0:
256,192,354429,1,8,0:0:0:0:
256,192,354568,1,0,0:0:0:0:
256,192,354708,1,8,0:0:0:0:
256,192,354847,1,0,0:0:0:0:
256,192,354987,1,12,0:0:0:0:
256,192,355126,1,0,0:0:0:0:
256,192,355266,1,8,0:0:0:0:
256,192,355405,1,0,0:0:0:0:
256,192,355545,1,8,0:0:0:0:
256,192,355685,1,0,0:0:0:0:
256,192,355824,1,8,0:0:0:0:
256,192,355964,1,8,0:0:0:0:
256,192,356103,1,8,0:0:0:0:
256,192,356243,1,8,0:0:0:0:
256,192,356382,1,0,0:0:0:0:
256,192,356522,1,0,0:0:0:0:
256,192,356661,1,8,0:0:0:0:
256,192,356801,1,0,0:0:0:0:
256,192,356940,1,8,0:0:0:0:
256,192,357080,1,0,0:0:0:0:
256,192,357219,1,0,0:0:0:0:
256,192,357359,1,0,0:0:0:0:
256,192,357498,1,8,0:0:0:0:
256,192,357638,1,8,0:0:0:0:
256,192,357778,1,8,0:0:0:0:
256,192,357917,1,8,0:0:0:0:
256,192,358057,1,0,0:0:0:0:
256,192,358196,1,0,0:0:0:0:
256,192,358336,1,8,0:0:0:0:
256,192,358475,1,8,0:0:0:0:
256,192,358615,1,8,0:0:0:0:
256,192,358754,1,0,0:0:0:0:
256,192,358894,1,0,0:0:0:0:
256,192,359033,1,0,0:0:0:0:
256,192,359173,1,8,0:0:0:0:
256,192,359312,1,8,0:0:0:0:
256,192,359452,1,8,0:0:0:0:
256,192,359592,1,8,0:0:0:0:
256,192,359731,1,0,0:0:0:0:
256,192,359871,1,0,0:0:0:0:
256,192,360010,1,8,0:0:0:0:
256,192,360150,1,0,0:0:0:0:
256,192,360289,1,0,0:0:0:0:
256,192,360429,1,8,0:0:0:0:
256,192,360568,1,8,0:0:0:0:
256,192,360708,1,8,0:0:0:0:
256,192,360847,1,0,0:0:0:0:
256,192,360987,1,0,0:0:0:0:
256,192,361126,1,0,0:0:0:0:
256,192,361266,1,8,0:0:0:0:
256,192,361405,1,8,0:0:0:0:
256,192,361545,1,8,0:0:0:0:
256,192,361685,1,0,0:0:0:0:
256,192,361824,1,0,0:0:0:0:
256,192,361964,1,0,0:0:0:0:
256,192,362103,1,8,0:0:0:0:
256,192,362243,1,8,0:0:0:0:
256,192,362382,1,8,0:0:0:0:
256,192,362522,1,8,0:0:0:0:
256,192,362592,1,8,0:0:0:0:
256,192,362661,1,0,0:0:0:0:
256,192,362731,1,0,0:0:0:0:
256,192,362801,1,0,0:0:0:0:
256,192,362871,1,0,0:0:0:0:
256,192,362940,1,8,0:0:0:0:
256,192,363010,1,8,0:0:0:0:
256,192,363080,1,8,0:0:0:0:
256,192,363150,1,8,0:0:0:0:
256,192,363219,1,8,0:0:0:0:
256,192,363289,1,8,0:0:0:0:
256,192,363360,1,4,0:0:0:0:
256,192,363639,1,8,0:0:0:0:
256,192,363708,1,0,0:0:0:0:
256,192,363778,1,8,0:0:0:0:
256,192,363848,1,0,0:0:0:0:
256,192,363918,1,8,0:0:0:0:
256,192,363987,1,8,0:0:0:0:
256,192,364057,1,8,0:0:0:0:
256,192,364127,1,8,0:0:0:0:
256,192,364197,1,0,0:0:0:0:
256,192,364266,1,0,0:0:0:0:
256,192,364336,1,0,0:0:0:0:
256,192,364406,1,0,0:0:0:0:
256,192,364476,1,8,0:0:0:0:
256,192,364546,1,8,0:0:0:0:
256,192,364615,1,0,0:0:0:0:
256,192,364685,1,0,0:0:0:0:
256,192,364755,1,8,0:0:0:0:
256,192,364825,1,8,0:0:0:0:
256,192,364894,1,8,0:0:0:0:
256,192,364964,1,8,0:0:0:0:
256,192,365034,1,8,0:0:0:0:
256,192,365104,1,8,0:0:0:0:
256,192,365173,1,8,0:0:0:0:
256,192,365243,1,8,0:0:0:0:
256,192,365313,1,0,0:0:0:0:
256,192,365383,1,0,0:0:0:0:
256,192,365453,1,0,0:0:0:0:
256,192,365522,1,0,0:0:0:0:
256,192,365592,1,8,0:0:0:0:
256,192,365662,1,0,0:0:0:0:
256,192,365732,1,0,0:0:0:0:
256,192,365801,1,0,0:0:0:0:
256,192,365871,1,8,0:0:0:0:
256,192,365941,1,0,0:0:0:0:
256,192,366011,1,8,0:0:0:0:
256,192,366080,1,0,0:0:0:0:
256,192,366150,1,8,0:0:0:0:
256,192,366220,1,8,0:0:0:0:
256,192,366290,1,0,0:0:0:0:
256,192,366360,1,8,0:0:0:0:
256,192,366429,1,0,0:0:0:0:
256,192,366499,1,0,0:0:0:0:
256,192,366569,1,0,0:0:0:0:
256,192,366639,1,0,0:0:0:0:
256,192,366708,1,8,0:0:0:0:
256,192,366778,1,8,0:0:0:0:
256,192,366848,1,0,0:0:0:0:
256,192,366918,1,0,0:0:0:0:
256,192,366987,1,8,0:0:0:0:
256,192,367057,1,8,0:0:0:0:
256,192,367127,1,8,0:0:0:0:
256,192,367197,1,0,0:0:0:0:
256,192,367266,1,8,0:0:0:0:
256,192,367336,1,8,0:0:0:0:
256,192,367406,1,0,0:0:0:0:
256,192,367476,1,0,0:0:0:0:
256,192,367546,1,8,0:0:0:0:
256,192,367615,1,0,0:0:0:0:
256,192,367685,1,0,0:0:0:0:
256,192,367755,1,0,0:0:0:0:
256,192,367825,1,8,0:0:0:0:
256,192,367894,1,8,0:0:0:0:
256,192,367964,1,8,0:0:0:0:
256,192,368034,1,8,0:0:0:0:
256,192,368104,1,0,0:0:0:0:
256,192,368173,1,0,0:0:0:0:
256,192,368243,1,0,0:0:0:0:
256,192,368313,1,0,0:0:0:0:
256,192,368383,1,8,0:0:0:0:
256,192,368453,1,0,0:0:0:0:
256,192,368522,1,8,0:0:0:0:
256,192,368592,1,8,0:0:0:0:
256,192,368662,1,0,0:0:0:0:
256,192,368732,1,0,0:0:0:0:
256,192,368801,1,0,0:0:0:0:
256,192,368871,1,0,0:0:0:0:
256,192,368941,1,8,0:0:0:0:
256,192,369011,1,0,0:0:0:0:
256,192,369080,1,0,0:0:0:0:
256,192,369150,1,0,0:0:0:0:
256,192,369220,1,8,0:0:0:0:
256,192,369290,1,8,0:0:0:0:
256,192,369360,1,0,0:0:0:0:
256,192,369429,1,0,0:0:0:0:
256,192,369499,1,8,0:0:0:0:
256,192,369569,1,8,0:0:0:0:
256,192,369639,1,8,0:0:0:0:
256,192,369708,1,0,0:0:0:0:
256,192,369778,1,8,0:0:0:0:
256,192,369848,1,8,0:0:0:0:
256,192,369918,1,0,0:0:0:0:
256,192,369987,1,0,0:0:0:0:
256,192,370057,1,8,0:0:0:0:
256,192,370127,1,8,0:0:0:0:
256,192,370197,1,8,0:0:0:0:
256,192,370266,1,8,0:0:0:0:
256,192,370336,1,0,0:0:0:0:
256,192,370406,1,0,0:0:0:0:
256,192,370476,1,0,0:0:0:0:
256,192,370546,1,0,0:0:0:0:
256,192,370615,1,8,0:0:0:0:
256,192,370685,1,0,0:0:0:0:
256,192,370755,1,8,0:0:0:0:
256,192,370825,1,8,0:0:0:0:
256,192,370894,1,0,0:0:0:0:
256,192,370964,1,0,0:0:0:0:
256,192,371034,1,0,0:0:0:0:
256,192,371104,1,0,0:0:0:0:
256,192,371173,1,8,0:0:0:0:
256,192,371243,1,0,0:0:0:0:
256,192,371313,1,0,0:0:0:0:
256,192,371383,1,0,0:0:0:0:
256,192,371453,1,8,0:0:0:0:
256,192,371522,1,8,0:0:0:0:
256,192,371592,1,0,0:0:0:0:
256,192,371662,1,0,0:0:0:0:
256,192,371732,1,8,0:0:0:0:
256,192,371801,1,8,0:0:0:0:
256,192,371871,1,8,0:0:0:0:
256,192,371941,1,8,0:0:0:0:
256,192,372011,1,8,0:0:0:0:
256,192,372080,1,8,0:0:0:0:
256,192,372150,1,8,0:0:0:0:
256,192,372220,1,8,0:0:0:0:
256,192,372290,1,0,0:0:0:0:
256,192,372360,1,0,0:0:0:0:
256,192,372429,1,0,0:0:0:0:
256,192,372499,1,0,0:0:0:0:
256,192,372569,1,8,0:0:0:0:
256,192,372639,1,0,0:0:0:0:
256,192,372708,1,8,0:0:0:0:
256,192,372778,1,0,0:0:0:0:
256,192,372848,1,8,0:0:0:0:
256,192,372918,1,0,0:0:0:0:
256,192,372987,1,8,0:0:0:0:
256,192,373057,1,8,0:0:0:0:
256,192,373127,1,0,0:0:0:0:
256,192,373197,1,0,0:0:0:0:
256,192,373266,1,0,0:0:0:0:
256,192,373336,1,0,0:0:0:0:
256,192,373406,1,8,0:0:0:0:
256,192,373476,1,8,0:0:0:0:
256,192,373546,1,0,0:0:0:0:
256,192,373615,1,0,0:0:0:0:
256,192,373685,1,8,0:0:0:0:
256,192,373755,1,8,0:0:0:0:
256,192,373825,1,8,0:0:0:0:
256,192,373894,1,8,0:0:0:0:
256,192,373964,1,8,0:0:0:0:
256,192,374034,1,8,0:0:0:0:
256,192,374104,1,8,0:0:0:0:
256,192,374173,1,8,0:0:0:0:
256,192,374243,1,0,0:0:0:0:
256,192,374313,1,0,0:0:0:0:
256,192,374383,1,8,0:0:0:0:
256,192,374453,1,8,0:0:0:0:
256,192,374522,1,0,0:0:0:0:
256,192,374592,1,0,0:0:0:0:
256,192,374662,1,0,0:0:0:0:
256,192,374732,1,0,0:0:0:0:
256,192,374801,1,8,0:0:0:0:
256,192,374871,1,0,0:0:0:0:
256,192,374941,1,8,0:0:0:0:
256,192,375011,1,0,0:0:0:0:
256,192,375080,1,8,0:0:0:0:
256,192,375150,1,8,0:0:0:0:
256,192,375220,1,8,0:0:0:0:
256,192,375290,1,8,0:0:0:0:
256,192,375360,1,0,0:0:0:0:
256,192,375429,1,0,0:0:0:0:
256,192,375499,1,0,0:0:0:0:
256,192,375569,1,0,0:0:0:0:
256,192,375639,1,8,0:0:0:0:
256,192,375708,1,0,0:0:0:0:
256,192,375778,1,0,0:0:0:0:
256,192,375848,1,0,0:0:0:0:
256,192,375918,1,8,0:0:0:0:
256,192,375987,1,8,0:0:0:0:
256,192,376057,1,0,0:0:0:0:
256,192,376127,1,0,0:0:0:0:
256,192,376197,1,8,0:0:0:0:
256,192,376266,1,8,0:0:0:0:
256,192,376336,1,8,0:0:0:0:
256,192,376406,1,8,0:0:0:0:
256,192,376476,1,0,0:0:0:0:
256,192,376546,1,0,0:0:0:0:
256,192,376615,1,8,0:0:0:0:
256,192,376685,1,8,0:0:0:0:
256,192,376755,1,0,0:0:0:0:
256,192,376825,1,0,0:0:0:0:
256,192,376894,1,0,0:0:0:0:
256,192,376964,1,0,0:0:0:0:
256,192,377034,1,8,0:0:0:0:
256,192,377104,1,0,0:0:0:0:
256,192,377173,1,0,0:0:0:0:
256,192,377243,1,0,0:0:0:0:
256,192,377313,1,8,0:0:0:0:
256,192,377383,1,0,0:0:0:0:
256,192,377453,1,8,0:0:0:0:
256,192,377522,1,8,0:0:0:0:
256,192,377592,1,0,0:0:0:0:
256,192,377662,1,0,0:0:0:0:
256,192,377732,1,0,0:0:0:0:
256,192,377801,1,0,0:0:0:0:
256,192,377871,1,8,0:0:0:0:
256,192,377941,1,0,0:0:0:0:
256,192,378011,1,0,0:0:0:0:
256,192,378080,1,0,0:0:0:0:
256,192,378150,1,8,0:0:0:0:
256,192,378220,1,8,0:0:0:0:
256,192,378290,1,8,0:0:0:0:
256,192,378360,1,0,0:0:0:0:
256,192,378429,1,8,0:0:0:0:
256,192,378499,1,8,0:0:0:0:
256,192,378569,1,0,0:0:0:0:
256,192,378639,1,0,0:0:0:0:
256,192,378708,1,8,0:0:0:0:
256,192,378778,1,0,0:0:0:0:
256,192,378848,1,8,0:0:0:0:
256,192,378918,1,8,0:0:0:0:
256,192,378987,1,0,0:0:0:0:
256,192,379057,1,0,0:0:0:0:
256,192,379127,1,0,0:0:0:0:
256,192,379197,1,0,0:0:0:0:
256,192,379266,1,8,0:0:0:0:
256,192,379336,1,0,0:0:0:0:
256,192,379406,1,0,0:0:0:0:
256,192,379476,1,0,0:0:0:0:
256,192,379546,1,8,0:0:0:0:
256,192,379615,1,8,0:0:0:0:
256,192,379685,1,8,0:0:0:0:
256,192,379755,1,8,0:0:0:0:
256,192,379825,1,0,0:0:0:0:
256,192,379894,1,0,0:0:0:0:
256,192,379964,1,0,0:0:0:0:
256,192,380034,1,0,0:0:0:0:
256,192,380104,1,8,0:0:0:0:
256,192,380173,1,0,0:0:0:0:
256,192,380243,1,0,0:0:0:0:
256,192,380313,1,0,0:0:0:0:
256,192,380383,1,8,0:0:0:0:
256,192,380453,1,8,0:0:0:0:
256,192,380522,1,0,0:0:0:0:
256,192,380592,1,0,0:0:0:0:
256,192,380662,1,8,0:0:0:0:
256,192,380732,1,8,0:0:0:0:
256,192,380801,1,8,0:0:0:0:
256,192,380871,1,8,0:0:0:0:
256,192,380941,1,8,0:0:0:0:
256,192,381011,1,8,0:0:0:0:
256,192,381080,1,8,0:0:0:0:
256,192,381150,1,8,0:0:0:0:
256,192,381220,1,0,0:0:0:0:
256,192,381290,1,0,0:0:0:0:
256,192,381360,1,0,0:0:0:0:
256,192,381429,1,0,0:0:0:0:
256,192,381499,1,8,0:0:0:0:
256,192,381569,1,0,0:0:0:0:
256,192,381639,1,8,0:0:0:0:
256,192,381708,1,0,0:0:0:0:
256,192,381778,1,8,0:0:0:0:
256,192,381848,1,8,0:0:0:0:
256,192,381918,1,8,0:0:0:0:
256,192,381987,1,8,0:0:0:0:
256,192,382057,1,0,0:0:0:0:
256,192,382127,1,0,0:0:0:0:
256,192,382197,1,0,0:0:0:0:
256,192,382266,1,0,0:0:0:0:
256,192,382336,1,8,0:0:0:0:
256,192,382406,1,0,0:0:0:0:
256,192,382476,1,0,0:0:0:0:
256,192,382546,1,0,0:0:0:0:
256,192,382615,1,8,0:0:0:0:
256,192,382685,1,8,0:0:0:0:
256,192,382755,1,8,0:0:0:0:
256,192,382825,1,8,0:0:0:0:
256,192,382894,1,8,0:0:0:0:
256,192,382964,1,8,0:0:0:0:
256,192,383034,1,0,0:0:0:0:
256,192,383104,1,0,0:0:0:0:
256,192,383173,1,8,0:0:0:0:
256,192,383243,1,0,0:0:0:0:
256,192,383313,1,8,0:0:0:0:
256,192,383383,1,8,0:0:0:0:
256,192,383453,1,0,0:0:0:0:
256,192,383522,1,0,0:0:0:0:
256,192,383592,1,0,0:0:0:0:
256,192,383662,1,0,0:0:0:0:
256,192,383732,1,8,0:0:0:0:
256,192,383801,1,0,0:0:0:0:
256,192,383871,1,0,0:0:0:0:
256,192,383941,1,0,0:0:0:0:
256,192,384011,1,8,0:0:0:0:
256,192,384080,1,8,0:0:0:0:
256,192,384150,1,0,0:0:0:0:
256,192,384220,1,8,0:0:0:0:
256,192,384290,1,0,0:0:0:0:
256,192,384359,1,0,0:0:0:0:
256,192,384429,1,0,0:0:0:0:
256,192,384499,1,0,0:0:0:0:
256,192,384569,1,8,0:0:0:0:
256,192,384639,1,0,0:0:0:0:
256,192,384708,1,0,0:0:0:0:
256,192,384778,1,0,0:0:0:0:
256,192,384848,1,8,0:0:0:0:
256,192,384918,1,8,0:0:0:0:
256,192,384987,1,8,0:0:0:0:
256,192,385057,1,0,0:0:0:0:
256,192,385127,1,8,0:0:0:0:
256,192,385197,1,8,0:0:0:0:
256,192,385266,1,0,0:0:0:0:
256,192,385336,1,0,0:0:0:0:
256,192,385406,1,8,0:0:0:0:
256,192,385476,1,8,0:0:0:0:
256,192,385546,1,8,0:0:0:0:
256,192,385615,1,8,0:0:0:0:
256,192,385685,1,0,0:0:0:0:
256,192,385755,1,0,0:0:0:0:
256,192,385825,1,0,0:0:0:0:
256,192,385894,1,0,0:0:0:0:
256,192,385964,1,8,0:0:0:0:
256,192,386034,1,0,0:0:0:0:
256,192,386104,1,8,0:0:0:0:
256,192,386173,1,0,0:0:0:0:
256,192,386243,1,8,0:0:0:0:
256,192,386313,1,8,0:0:0:0:
256,192,386383,1,8,0:0:0:0:
256,192,386453,1,8,0:0:0:0:
256,192,386522,1,0,0:0:0:0:
256,192,386592,1,0,0:0:0:0:
256,192,386662,1,0,0:0:0:0:
256,192,386732,1,0,0:0:0:0:
256,192,386801,1,8,0:0:0:0:
256,192,386871,1,0,0:0:0:0:
256,192,386941,1,8,0:0:0:0:
256,192,387011,1,8,0:0:0:0:
256,192,387080,1,0,0:0:0:0:
256,192,387150,1,0,0:0:0:0:
256,192,387220,1,0,0:0:0:0:
256,192,387290,1,0,0:0:0:0:
256,192,387359,1,8,0:0:0:0:
256,192,387429,1,8,0:0:0:0:
256,192,387499,1,8,0:0:0:0:
256,192,387569,1,8,0:0:0:0:
256,192,387639,1,0,0:0:0:0:
256,192,387708,1,0,0:0:0:0:
256,192,387778,1,0,0:0:0:0:
256,192,387848,1,0,0:0:0:0:
256,192,387918,1,8,0:0:0:0:
256,192,387987,1,8,0:0:0:0:
256,192,388057,1,0,0:0:0:0:
256,192,388127,1,0,0:0:0:0:
256,192,388197,1,8,0:0:0:0:
256,192,388266,1,0,0:0:0:0:
256,192,388336,1,8,0:0:0:0:
256,192,388406,1,0,0:0:0:0:
256,192,388476,1,8,0:0:0:0:
256,192,388546,1,8,0:0:0:0:
256,192,388615,1,8,0:0:0:0:
256,192,388685,1,8,0:0:0:0:
256,192,388755,1,0,0:0:0:0:
256,192,388825,1,0,0:0:0:0:
256,192,388894,1,0,0:0:0:0:
256,192,388964,1,0,0:0:0:0:
256,192,389034,1,8,0:0:0:0:
256,192,389104,1,0,0:0:0:0:
256,192,389173,1,0,0:0:0:0:
256,192,389243,1,0,0:0:0:0:
256,192,389313,1,8,0:0:0:0:
256,192,389383,1,8,0:0:0:0:
256,192,389453,1,0,0:0:0:0:
256,192,389522,1,0,0:0:0:0:
256,192,389592,1,8,0:0:0:0:
256,192,389662,1,8,0:0:0:0:
256,192,389732,1,8,0:0:0:0:
256,192,389801,1,8,0:0:0:0:
256,192,389871,1,8,0:0:0:0:
256,192,389941,1,8,0:0:0:0:
256,192,390011,1,8,0:0:0:0:
256,192,390080,1,8,0:0:0:0:
256,192,390150,1,0,0:0:0:0:
256,192,390220,1,0,0:0:0:0:
256,192,390290,1,0,0:0:0:0:
256,192,390359,1,0,0:0:0:0:
256,192,390429,1,8,0:0:0:0:
256,192,390499,1,0,0:0:0:0:
256,192,390569,1,0,0:0:0:0:
256,192,390639,1,0,0:0:0:0:
256,192,390708,1,8,0:0:0:0:
256,192,390778,1,0,0:0:0:0:
256,192,390848,1,8,0:0:0:0:
256,192,390918,1,8,0:0:0:0:
256,192,390987,1,0,0:0:0:0:
256,192,391057,1,0,0:0:0:0:
256,192,391127,1,0,0:0:0:0:
256,192,391197,1,0,0:0:0:0:
256,192,391266,1,8,0:0:0:0:
256,192,391336,1,0,0:0:0:0:
256,192,391406,1,0,0:0:0:0:
256,192,391476,1,0,0:0:0:0:
256,192,391546,1,8,0:0:0:0:
256,192,391615,1,8,0:0:0:0:
256,192,391685,1,8,0:0:0:0:
256,192,391755,1,8,0:0:0:0:
256,192,391825,1,8,0:0:0:0:
256,192,391894,1,8,0:0:0:0:
256,192,391964,1,0,0:0:0:0:
256,192,392034,1,0,0:0:0:0:
256,192,392104,1,8,0:0:0:0:
256,192,392173,1,8,0:0:0:0:
256,192,392243,1,0,0:0:0:0:
256,192,392313,1,0,0:0:0:0:
256,192,392383,1,8,0:0:0:0:
256,192,392453,1,0,0:0:0:0:
256,192,392522,1,0,0:0:0:0:
256,192,392592,1,0,0:0:0:0:
256,192,392662,1,8,0:0:0:0:
256,192,392732,1,0,0:0:0:0:
256,192,392801,1,8,0:0:0:0:
256,192,392871,1,0,0:0:0:0:
256,192,392941,1,8,0:0:0:0:
256,192,393011,1,8,0:0:0:0:
256,192,393080,1,8,0:0:0:0:
256,192,393150,1,8,0:0:0:0:
256,192,393220,1,0,0:0:0:0:
256,192,393290,1,0,0:0:0:0:
256,192,393359,1,0,0:0:0:0:
256,192,393429,1,0,0:0:0:0:
256,192,393499,1,8,0:0:0:0:
256,192,393569,1,0,0:0:0:0:
256,192,393639,1,0,0:0:0:0:
256,192,393708,1,0,0:0:0:0:
256,192,393778,1,8,0:0:0:0:
256,192,393848,1,8,0:0:0:0:
256,192,393918,1,8,0:0:0:0:
256,192,393987,1,0,0:0:0:0:
256,192,394057,1,8,0:0:0:0:
256,192,394127,1,8,0:0:0:0:
256,192,394197,1,0,0:0:0:0:
256,192,394266,1,0,0:0:0:0:
256,192,394336,1,8,0:0:0:0:
256,192,394406,1,8,0:0:0:0:
256,192,394476,1,0,0:0:0:0:
256,192,394546,1,8,0:0:0:0:
256,192,394615,1,0,0:0:0:0:
256,192,394685,1,0,0:0:0:0:
256,192,394755,1,0,0:0:0:0:
256,192,394825,1,0,0:0:0:0:
256,192,394894,1,8,0:0:0:0:
256,192,394964,1,0,0:0:0:0:
256,192,395034,1,0,0:0:0:0:
256,192,395104,1,0,0:0:0:0:
256,192,395173,1,8,0:0:0:0:
256,192,395243,1,8,0:0:0:0:
256,192,395313,1,8,0:0:0:0:
256,192,395383,1,8,0:0:0:0:
256,192,395453,1,0,0:0:0:0:
256,192,395522,1,0,0:0:0:0:
256,192,395592,1,0,0:0:0:0:
256,192,395662,1,0,0:0:0:0:
256,192,395732,1,8,0:0:0:0:
256,192,395801,1,0,0:0:0:0:
256,192,395871,1,8,0:0:0:0:
256,192,395941,1,8,0:0:0:0:
256,192,396011,1,0,0:0:0:0:
256,192,396080,1,0,0:0:0:0:
256,192,396150,1,0,0:0:0:0:
256,192,396220,1,0,0:0:0:0:
256,192,396290,1,8,0:0:0:0:
256,192,396359,1,8,0:0:0:0:
256,192,396429,1,0,0:0:0:0:
256,192,396499,1,0,0:0:0:0:
256,192,396569,1,8,0:0:0:0:
256,192,396639,1,8,0:0:0:0:
256,192,396708,1,8,0:0:0:0:
256,192,396778,1,8,0:0:0:0:
256,192,396848,1,0,0:0:0:0:
256,192,396918,1,0,0:0:0:0:
256,192,396987,1,0,0:0:0:0:
256,192,397057,1,0,0:0:0:0:
256,192,397127,1,8,0:0:0:0:
256,192,397197,1,0,0:0:0:0:
256,192,397266,1,8,0:0:0:0:
256,192,397336,1,0,0:0:0:0:
256,192,397406,1,8,0:0:0:0:
256,192,397476,1,8,0:0:0:0:
256,192,397546,1,8,0:0:0:0:
256,192,397615,1,8,0:0:0:0:
256,192,397685,1,0,0:0:0:0:
256,192,397755,1,0,0:0:0:0:
256,192,397825,1,0,0:0:0:0:
256,192,397894,1,0,0:0:0:0:
256,192,397964,1,8,0:0:0:0:
256,192,398034,1,0,0:0:0:0:
256,192,398104,1,0,0:0:0:0:
256,192,398173,1,0,0:0:0:0:
256,192,398243,1,8,0:0:0:0:
256,192,398313,1,8,0:0:0:0:
256,192,398383,1,0,0:0:0:0:
256,192,398453,1,0,0:0:0:0:
256,192,398522,1,8,0:0:0:0:
256,192,398592,1,8,0:0:0:0:
256,192,398662,1,8,0:0:0:0:
256,192,398732,1,8,0:0:0:0:
256,192,398801,1,8,0:0:0:0:
256,192,398871,1,8,0:0:0:0:
256,192,398941,1,8,0:0:0:0:
256,192,399011,1,8,0:0:0:0:
256,192,399080,1,0,0:0:0:0:
256,192,399359,1,0,0:0:0:0:
256,192,399639,1,8,0:0:0:0:
256,192,399708,1,8,0:0:0:0:
256,192,399778,1,0,0:0:0:0:
256,192,399848,1,0,0:0:0:0:
256,192,399918,1,8,0:0:0:0:
256,192,399987,1,0,0:0:0:0:
256,192,400057,1,8,0:0:0:0:
256,192,400127,1,8,0:0:0:0:
256,192,400197,1,0,0:0:0:0:
256,192,400266,1,0,0:0:0:0:
256,192,400336,1,8,0:0:0:0:
256,192,400406,1,0,0:0:0:0:
256,192,400476,1,0,0:0:0:0:
256,192,400546,1,0,0:0:0:0:
256,192,400615,1,8,0:0:0:0:
256,192,400685,1,0,0:0:0:0:
256,192,400755,1,8,0:0:0:0:
256,192,400825,1,8,0:0:0:0:
256,192,400894,1,0,0:0:0:0:
256,192,400964,1,8,0:0:0:0:
256,192,401034,1,0,0:0:0:0:
256,192,401104,1,0,0:0:0:0:
256,192,401173,1,8,0:0:0:0:
256,192,401243,1,0,0:0:0:0:
256,192,401313,1,8,0:0:0:0:
256,192,401383,1,8,0:0:0:0:
256,192,401453,1,8,0:0:0:0:
256,192,401522,1,8,0:0:0:0:
256,192,401592,1,0,0:0:0:0:
256,192,401662,1,0,0:0:0:0:
256,192,401732,1,0,0:0:0:0:
256,192,401801,1,0,0:0:0:0:
256,192,401871,1,8,0:0:0:0:
256,192,401941,1,0,0:0:0:0:
256,192,402011,1,8,0:0:0:0:
256,192,402080,1,8,0:0:0:0:
256,192,402150,1,0,0:0:0:0:
256,192,402220,1,0,0:0:0:0:
256,192,402290,1,8,0:0:0:0:
256,192,402359,1,8,0:0:0:0:
256,192,402429,1,0,0:0:0:0:
256,192,402499,1,0,0:0:0:0:
256,192,402569,1,8,0:0:0:0:
256,192,402639,1,0,0:0:0:0:
256,192,402708,1,0,0:0:0:0:
256,192,402778,1,0,0:0:0:0:
256,192,402848,1,8,0:0:0:0:
256,192,402918,1,0,0:0:0:0:
256,192,402987,1,8,0:0:0:0:
256,192,403057,1,0,0:0:0:0:
256,192,403127,1,8,0:0:0:0:
256,192,403197,1,8,0:0:0:0:
256,192,403266,1,0,0:0:0:0:
256,192,403336,1,0,0:0:0:0:
256,192,403406,1,8,0:0:0:0:
256,192,403476,1,0,0:0:0:0:
256,192,403546,1,8,0:0:0:0:
256,192,403615,1,8,0:0:0:0:
256,192,403685,1,8,0:0:0:0:
256,192,403755,1,8,0:0:0:0:
256,192,403825,1,0,0:0:0:0:
256,192,403894,1,0,0:0:0:0:
256,192,403964,1,0,0:0:0:0:
256,192,404034,1,0,0:0:0:0:
256,192,404104,1,8,0:0:0:0:
256,192,404173,1,8,0:0:0:0:
256,192,404243,1,0,0:0:0:0:
256,192,404313,1,0,0:0:0:0:
256,192,404383,1,8,0:0:0:0:
256,192,404453,1,0,0:0:0:0:
256,192,404522,1,8,0:0:0:0:
256,192,404592,1,8,0:0:0:0:
256,192,404662,1,0,0:0:0:0:
256,192,404732,1,0,0:0:0:0:
256,192,404801,1,8,0:0:0:0:
256,192,404871,1,0,0:0:0:0:
256,192,404941,1,8,0:0:0:0:
256,192,405011,1,0,0:0:0:0:
256,192,405080,1,8,0:0:0:0:
256,192,405150,1,0,0:0:0:0:
256,192,405220,1,8,0:0:0:0:
256,192,405290,1,8,0:0:0:0:
256,192,405359,1,0,0:0:0:0:
256,192,405429,1,0,0:0:0:0:
256,192,405499,1,8,0:0:0:0:
256,192,405569,1,0,0:0:0:0:
256,192,405639,1,8,0:0:0:0:
256,192,405708,1,0,0:0:0:0:
256,192,405778,1,8,0:0:0:0:
256,192,405848,1,8,0:0:0:0:
256,192,405918,1,8,0:0:0:0:
256,192,405987,1,8,0:0:0:0:
256,192,406057,1,0,0:0:0:0:
256,192,406127,1,0,0:0:0:0:
256,192,406197,1,0,0:0:0:0:
256,192,406266,1,0,0:0:0:0:
256,192,406336,1,8,0:0:0:0:
256,192,406406,1,0,0:0:0:0:
256,192,406476,1,0,0:0:0:0:
256,192,406546,1,0,0:0:0:0:
256,192,406615,1,8,0:0:0:0:
256,192,406685,1,0,0:0:0:0:
256,192,406755,1,8,0:0:0:0:
256,192,406825,1,8,0:0:0:0:
256,192,406894,1,0,0:0:0:0:
256,192,406964,1,0,0:0:0:0:
256,192,407034,1,8,0:0:0:0:
256,192,407104,1,0,0:0:0:0:
256,192,407173,1,0,0:0:0:0:
256,192,407243,1,0,0:0:0:0:
256,192,407313,1,8,0:0:0:0:
256,192,407383,1,0,0:0:0:0:
256,192,407453,1,8,0:0:0:0:
256,192,407522,1,8,0:0:0:0:
256,192,407592,1,0,0:0:0:0:
256,192,407662,1,8,0:0:0:0:
256,192,407732,1,0,0:0:0:0:
256,192,407801,1,0,0:0:0:0:
256,192,407871,1,0,0:0:0:0:
256,192,407941,1,0,0:0:0:0:
256,192,408011,1,8,0:0:0:0:
256,192,408080,1,8,0:0:0:0:
256,192,408150,1,8,0:0:0:0:
256,192,408220,1,8,0:0:0:0:
256,192,408290,1,0,0:0:0:0:
256,192,408359,1,0,0:0:0:0:
256,192,408429,1,0,0:0:0:0:
256,192,408499,1,0,0:0:0:0:
256,192,408569,1,8,0:0:0:0:
256,192,408639,1,8,0:0:0:0:
256,192,408708,1,0,0:0:0:0:
256,192,408778,1,0,0:0:0:0:
256,192,408848,1,8,0:0:0:0:
256,192,408918,1,0,0:0:0:0:
256,192,408987,1,8,0:0:0:0:
256,192,409057,1,8,0:0:0:0:
256,192,409127,1,0,0:0:0:0:
256,192,409197,1,0,0:0:0:0:
256,192,409266,1,8,0:0:0:0:
256,192,409336,1,0,0:0:0:0:
256,192,409406,1,0,0:0:0:0:
256,192,409476,1,0,0:0:0:0:
256,192,409546,1,8,0:0:0:0:
256,192,409615,1,0,0:0:0:0:
256,192,409685,1,8,0:0:0:0:
256,192,409755,1,0,0:0:0:0:
256,192,409825,1,8,0:0:0:0:
256,192,409894,1,8,0:0:0:0:
256,192,409964,1,0,0:0:0:0:
256,192,410034,1,0,0:0:0:0:
256,192,410104,1,8,0:0:0:0:
256,192,410173,1,0,0:0:0:0:
256,192,410243,1,8,0:0:0:0:
256,192,410313,1,8,0:0:0:0:
256,192,410383,1,8,0:0:0:0:
256,192,410453,1,8,0:0:0:0:
256,192,410522,1,0,0:0:0:0:
256,192,410592,1,0,0:0:0:0:
256,192,410662,1,0,0:0:0:0:
256,192,410732,1,0,0:0:0:0:
256,192,410801,1,8,0:0:0:0:
256,192,410871,1,0,0:0:0:0:
256,192,410941,1,0,0:0:0:0:
256,192,411011,1,0,0:0:0:0:
256,192,411080,1,8,0:0:0:0:
256,192,411150,1,0,0:0:0:0:
256,192,411220,1,8,0:0:0:0:
256,192,411290,1,8,0:0:0:0:
256,192,411359,1,0,0:0:0:0:
256,192,411429,1,0,0:0:0:0:
256,192,411499,1,8,0:0:0:0:
256,192,411569,1,8,0:0:0:0:
256,192,411639,1,0,0:0:0:0:
256,192,411708,1,0,0:0:0:0:
256,192,411778,1,8,0:0:0:0:
256,192,411848,1,0,0:0:0:0:
256,192,411918,1,8,0:0:0:0:
256,192,411987,1,8,0:0:0:0:
256,192,412057,1,0,0:0:0:0:
256,192,412127,1,8,0:0:0:0:
256,192,412197,1,0,0:0:0:0:
256,192,412266,1,0,0:0:0:0:
256,192,412336,1,8,0:0:0:0:
256,192,412406,1,0,0:0:0:0:
256,192,412476,1,8,0:0:0:0:
256,192,412546,1,8,0:0:0:0:
256,192,412615,1,8,0:0:0:0:
256,192,412685,1,8,0:0:0:0:
256,192,412755,1,0,0:0:0:0:
256,192,412825,1,0,0:0:0:0:
256,192,412894,1,0,0:0:0:0:
256,192,412964,1,0,0:0:0:0:
256,192,413034,1,8,0:0:0:0:
256,192,413104,1,8,0:0:0:0:
256,192,413173,1,0,0:0:0:0:
256,192,413243,1,0,0:0:0:0:
256,192,413313,1,8,0:0:0:0:
256,192,413383,1,0,0:0:0:0:
256,192,413453,1,8,0:0:0:0:
256,192,413522,1,8,0:0:0:0:
256,192,413592,1,0,0:0:0:0:
256,192,413662,1,0,0:0:0:0:
256,192,413732,1,8,0:0:0:0:
256,192,413801,1,0,0:0:0:0:
256,192,413871,1,8,0:0:0:0:
256,192,413941,1,0,0:0:0:0:
256,192,414011,1,8,0:0:0:0:
256,192,414080,1,0,0:0:0:0:
256,192,414150,1,8,0:0:0:0:
256,192,414220,1,8,0:0:0:0:
256,192,414290,1,0,0:0:0:0:
256,192,414359,1,0,0:0:0:0:
256,192,414429,1,8,0:0:0:0:
256,192,414499,1,8,0:0:0:0:
256,192,414569,1,0,0:0:0:0:
256,192,414639,1,0,0:0:0:0:
256,192,414708,1,8,0:0:0:0:
256,192,414778,1,0,0:0:0:0:
256,192,414848,1,0,0:0:0:0:
256,192,414918,1,0,0:0:0:0:
256,192,414987,1,8,0:0:0:0:
256,192,415057,1,0,0:0:0:0:
256,192,415127,1,0,0:0:0:0:
256,192,415197,1,0,0:0:0:0:
256,192,415266,1,8,0:0:0:0:
256,192,415336,1,8,0:0:0:0:
256,192,415406,1,0,0:0:0:0:
256,192,415476,1,0,0:0:0:0:
256,192,415546,1,8,0:0:0:0:
256,192,415615,1,0,0:0:0:0:
256,192,415685,1,8,0:0:0:0:
256,192,415755,1,8,0:0:0:0:
256,192,415825,1,0,0:0:0:0:
256,192,415894,1,0,0:0:0:0:
256,192,415964,1,8,0:0:0:0:
256,192,416034,1,0,0:0:0:0:
256,192,416104,1,8,0:0:0:0:
256,192,416173,1,0,0:0:0:0:
256,192,416243,1,8,0:0:0:0:
256,192,416313,1,0,0:0:0:0:
256,192,416383,1,8,0:0:0:0:
256,192,416453,1,8,0:0:0:0:
256,192,416522,1,0,0:0:0:0:
256,192,416592,1,0,0:0:0:0:
256,192,416662,1,8,0:0:0:0:
256,192,416732,1,0,0:0:0:0:
256,192,416801,1,8,0:0:0:0:
256,192,416871,1,8,0:0:0:0:
256,192,416941,1,4,0:0:0:0:
256,192,417220,1,4,0:0:0:0:
256,192,417499,1,8,0:0:0:0:
256,192,417569,1,0,0:0:0:0:
256,192,417639,1,8,0:0:0:0:
256,192,417708,1,8,0:0:0:0:
256,192,417778,1,0,0:0:0:0:
256,192,417848,1,8,0:0:0:0:
256,192,417918,1,0,0:0:0:0:
256,192,417987,1,0,0:0:0:0:
256,192,418057,1,8,0:0:0:0:
256,192,418127,1,8,0:0:0:0:
256,192,418197,1,0,0:0:0:0:
256,192,418266,1,0,0:0:0:0:
256,192,418336,1,8,0:0:0:0:
256,192,418406,1,0,0:0:0:0:
256,192,418476,1,8,0:0:0:0:
256,192,418546,1,0,0:0:0:0:
256,192,418615,1,8,0:0:0:0:
256,192,418685,1,8,0:0:0:0:
256,192,418755,1,8,0:0:0:0:
256,192,418825,1,8,0:0:0:0:
256,192,418894,1,0,0:0:0:0:
256,192,418964,1,0,0:0:0:0:
256,192,419034,1,8,0:0:0:0:
256,192,419104,1,0,0:0:0:0:
256,192,419173,1,8,0:0:0:0:
256,192,419243,1,8,0:0:0:0:
256,192,419313,1,0,0:0:0:0:
256,192,419383,1,8,0:0:0:0:
256,192,419453,1,0,0:0:0:0:
256,192,419522,1,0,0:0:0:0:
256,192,419592,1,0,0:0:0:0:
256,192,419662,1,0,0:0:0:0:
256,192,419732,1,8,0:0:0:0:
256,192,419801,1,0,0:0:0:0:
256,192,419871,1,8,0:0:0:0:
256,192,419941,1,8,0:0:0:0:
256,192,420011,1,0,0:0:0:0:
256,192,420080,1,0,0:0:0:0:
256,192,420150,1,0,0:0:0:0:
256,192,420220,1,0,0:0:0:0:
256,192,420290,1,8,0:0:0:0:
256,192,420359,1,0,0:0:0:0:
256,192,420429,1,8,0:0:0:0:
256,192,420499,1,8,0:0:0:0:
256,192,420569,1,0,0:0:0:0:
256,192,420639,1,0,0:0:0:0:
256,192,420708,1,8,0:0:0:0:
256,192,420778,1,0,0:0:0:0:
256,192,420848,1,8,0:0:0:0:
256,192,420918,1,8,0:0:0:0:
256,192,420987,1,8,0:0:0:0:
256,192,421057,1,8,0:0:0:0:
256,192,421127,1,8,0:0:0:0:
256,192,421197,1,8,0:0:0:0:
256,192,421266,1,0,0:0:0:0:
256,192,421336,1,0,0:0:0:0:
256,192,421406,1,8,0:0:0:0:
256,192,421476,1,0,0:0:0:0:
256,192,421546,1,8,0:0:0:0:
256,192,421615,1,8,0:0:0:0:
256,192,421685,1,0,0:0:0:0:
256,192,421755,1,0,0:0:0:0:
256,192,421825,1,8,0:0:0:0:
256,192,421894,1,0,0:0:0:0:
256,192,421964,1,8,0:0:0:0:
256,192,422034,1,8,0:0:0:0:
256,192,422104,1,8,0:0:0:0:
256,192,422173,1,0,0:0:0:0:
256,192,422243,1,8,0:0:0:0:
256,192,422313,1,8,0:0:0:0:
256,192,422383,1,0,0:0:0:0:
256,192,422453,1,0,0:0:0:0:
256,192,422522,1,8,0:0:0:0:
256,192,422592,1,0,0:0:0:0:
256,192,422662,1,0,0:0:0:0:
256,192,422732,1,0,0:0:0:0:
256,192,422801,1,8,0:0:0:0:
256,192,422871,1,8,0:0:0:0:
256,192,422941,1,0,0:0:0:0:
256,192,423011,1,0,0:0:0:0:
256,192,423080,1,8,0:0:0:0:
256,192,423150,1,0,0:0:0:0:
256,192,423220,1,8,0:0:0:0:
256,192,423290,1,0,0:0:0:0:
256,192,423359,1,8,0:0:0:0:
256,192,423429,1,8,0:0:0:0:
256,192,423499,1,0,0:0:0:0:
256,192,423569,1,0,0:0:0:0:
256,192,423639,1,8,0:0:0:0:
256,192,423708,1,0,0:0:0:0:
256,192,423778,1,0,0:0:0:0:
256,192,423848,1,0,0:0:0:0:
256,192,423918,1,8,0:0:0:0:
256,192,423987,1,0,0:0:0:0:
256,192,424057,1,8,0:0:0:0:
256,192,424127,1,0,0:0:0:0:
256,192,424197,1,8,0:0:0:0:
256,192,424266,1,8,0:0:0:0:
256,192,424336,1,0,0:0:0:0:
256,192,424406,1,0,0:0:0:0:
256,192,424476,1,8,0:0:0:0:
256,192,424546,1,8,0:0:0:0:
256,192,424615,1,0,0:0:0:0:
256,192,424685,1,0,0:0:0:0:
256,192,424755,1,8,0:0:0:0:
256,192,424825,1,0,0:0:0:0:
256,192,424894,1,0,0:0:0:0:
256,192,424964,1,0,0:0:0:0:
256,192,425034,1,8,0:0:0:0:
256,192,425104,1,0,0:0:0:0:
256,192,425173,1,0,0:0:0:0:
256,192,425243,1,0,0:0:0:0:
256,192,425313,1,8,0:0:0:0:
256,192,425383,1,8,0:0:0:0:
256,192,425453,1,0,0:0:0:0:
256,192,425522,1,0,0:0:0:0:
256,192,425592,1,8,0:0:0:0:
256,192,425662,1,0,0:0:0:0:
256,192,425732,1,0,0:0:0:0:
256,192,425801,1,0,0:0:0:0:
256,192,425871,1,8,0:0:0:0:
256,192,425964,1,0,0:0:0:0:
256,192,426057,1,8,0:0:0:0:
256,192,426150,1,8,0:0:0:0:
256,192,426243,1,0,0:0:0:0:
256,192,426336,1,0,0:0:0:0:
256,192,426429,1,8,0:0:0:0:
256,192,426522,1,8,0:0:0:0:
256,192,426615,1,0,0:0:0:0:
256,192,426708,1,8,0:0:0:0:
256,192,426801,1,0,0:0:0:0:
256,192,426894,1,0,0:0:0:0:
256,192,426987,1,8,0:0:0:0:
256,192,427080,1,8,0:0:0:0:
256,192,427173,1,0,0:0:0:0:
256,192,427266,1,8,0:0:0:0:
256,192,427359,1,8,0:0:0:0:
256,192,427453,1,0,0:0:0:0:
256,192,427546,1,8,0:0:0:0:
256,192,427639,1,0,0:0:0:0:
256,192,427732,1,0,0:0:0:0:
256,192,427825,1,8,0:0:0:0:
256,192,427918,1,8,0:0:0:0:
256,192,428011,1,0,0:0:0:0:
256,192,428104,1,8,0:0:0:0:
256,192,428197,1,8,0:0:0:0:
256,192,428290,1,0,0:0:0:0:
256,192,428383,1,8,0:0:0:0:
256,192,428476,1,0,0:0:0:0:
256,192,428569,1,0,0:0:0:0:
256,192,428662,1,8,0:0:0:0:
256,192,428755,1,8,0:0:0:0:
256,192,428848,1,8,0:0:0:0:
256,192,428941,1,0,0:0:0:0:
256,192,429034,1,0,0:0:0:0:
256,192,429127,1,0,0:0:0:0:
256,192,429220,1,8,0:0:0:0:
256,192,429290,1,0,0:0:0:0:
256,192,429359,1,8,0:0:0:0:
256,192,429429,1,8,0:0:0:0:
256,192,429499,1,0,0:0:0:0:
256,192,429569,1,8,0:0:0:0:
256,192,429639,1,0,0:0:0:0:
256,192,429708,1,0,0:0:0:0:
256,192,429778,1,8,0:0:0:0:
256,192,429848,1,8,0:0:0:0:
256,192,429918,1,8,0:0:0:0:
256,192,429987,1,8,0:0:0:0:
256,192,430057,1,0,0:0:0:0:
256,192,430127,1,0,0:0:0:0:
256,192,430197,1,0,0:0:0:0:
256,192,430266,1,0,0:0:0:0:
256,192,430336,1,8,0:0:0:0:
256,192,430406,1,8,0:0:0:0:
256,192,430476,1,8,0:0:0:0:
256,192,430546,1,8,0:0:0:0:
256,192,430615,1,8,0:0:0:0:
256,192,430685,1,8,0:0:0:0:
256,192,430755,1,0,0:0:0:0:
256,192,430825,1,0,0:0:0:0:
256,192,430894,1,8,0:0:0:0:
256,192,430964,1,0,0:0:0:0:
256,192,431034,1,0,0:0:0:0:
256,192,431104,1,0,0:0:0:0:
256,192,431173,1,0,0:0:0:0:
256,192,431243,1,0,0:0:0:0:
256,192,431313,1,0,0:0:0:0:
256,192,431383,1,0,0:0:0:0:
256,192,431453,1,8,0:0:0:0:
256,192,431522,1,0,0:0:0:0:
256,192,431592,1,8,0:0:0:0:
256,192,431662,1,8,0:0:0:0:
256,192,431732,1,8,0:0:0:0:
256,192,431801,1,8,0:0:0:0:
256,192,431871,1,0,0:0:0:0:
256,192,431941,1,0,0:0:0:0:
256,192,432011,1,8,0:0:0:0:
256,192,432080,1,8,0:0:0:0:
256,192,432150,1,0,0:0:0:0:
256,192,432220,1,0,0:0:0:0:
256,192,432290,1,8,0:0:0:0:
256,192,432359,1,0,0:0:0:0:
256,192,432429,1,8,0:0:0:0:
256,192,432499,1,0,0:0:0:0:
256,192,432569,1,8,0:0:0:0:
256,192,432639,1,8,0:0:0:0:
256,192,432708,1,8,0:0:0:0:
256,192,432778,1,8,0:0:0:0:
256,192,432848,1,0,0:0:0:0:
256,192,432918,1,0,0:0:0:0:
256,192,432987,1,0,0:0:0:0:
256,192,433057,1,0,0:0:0:0:
256,192,433127,1,8,0:0:0:0:
256,192,433197,1,8,0:0:0:0:
256,192,433266,1,0,0:0:0:0:
256,192,433336,1,0,0:0:0:0:
256,192,433406,1,8,0:0:0:0:
256,192,433476,1,0,0:0:0:0:
256,192,433546,1,8,0:0:0:0:
256,192,433615,1,8,0:0:0:0:
256,192,433685,1,0,0:0:0:0:
256,192,433755,1,0,0:0:0:0:
256,192,433825,1,8,0:0:0:0:
256,192,433894,1,0,0:0:0:0:
256,192,433964,1,8,0:0:0:0:
256,192,434034,1,0,0:0:0:0:
256,192,434104,1,8,0:0:0:0:
256,192,434173,1,0,0:0:0:0:
256,192,434243,1,8,0:0:0:0:
256,192,434313,1,8,0:0:0:0:
256,192,434383,1,0,0:0:0:0:
256,192,434453,1,0,0:0:0:0:
256,192,434522,1,8,0:0:0:0:
256,192,434592,1,0,0:0:0:0:
256,192,434662,1,8,0:0:0:0:
256,192,434732,1,8,0:0:0:0:
256,192,434801,1,4,0:0:0:0:
256,192,435359,1,8,0:0:0:0:
256,192,435429,1,8,0:0:0:0:
256,192,435499,1,0,0:0:0:0:
256,192,435569,1,8,0:0:0:0:
256,192,435639,1,0,0:0:0:0:
256,192,435708,1,0,0:0:0:0:
256,192,435778,1,8,0:0:0:0:
256,192,435848,1,0,0:0:0:0:
256,192,435918,1,8,0:0:0:0:
256,192,435987,1,8,0:0:0:0:
256,192,436057,1,8,0:0:0:0:
256,192,436127,1,8,0:0:0:0:
256,192,436197,1,0,0:0:0:0:
256,192,436266,1,0,0:0:0:0:
256,192,436336,1,0,0:0:0:0:
256,192,436406,1,0,0:0:0:0:
256,192,436476,1,8,0:0:0:0:
256,192,436546,1,8,0:0:0:0:
256,192,436615,1,8,0:0:0:0:
256,192,436685,1,8,0:0:0:0:
256,192,436755,1,8,0:0:0:0:
256,192,436825,1,8,0:0:0:0:
256,192,436894,1,8,0:0:0:0:
256,192,436964,1,8,0:0:0:0:
256,192,437034,1,0,0:0:0:0:
256,192,437104,1,0,0:0:0:0:
256,192,437173,1,0,0:0:0:0:
256,192,437243,1,0,0:0:0:0:
256,192,437313,1,8,0:0:0:0:
256,192,437383,1,8,0:0:0:0:
256,192,437453,1,0,0:0:0:0:
256,192,437522,1,0,0:0:0:0:
256,192,437592,1,8,0:0:0:0:
256,192,437662,1,0,0:0:0:0:
256,192,437732,1,8,0:0:0:0:
256,192,437801,1,8,0:0:0:0:
256,192,437871,1,0,0:0:0:0:
256,192,437941,1,0,0:0:0:0:
256,192,438011,1,0,0:0:0:0:
256,192,438080,1,0,0:0:0:0:
256,192,438150,1,8,0:0:0:0:
256,192,438220,1,8,0:0:0:0:
256,192,438290,1,0,0:0:0:0:
256,192,438359,1,0,0:0:0:0:
256,192,438429,1,8,0:0:0:0:
256,192,438499,1,0,0:0:0:0:
256,192,438569,1,8,0:0:0:0:
256,192,438639,1,0,0:0:0:0:
256,192,438708,1,8,0:0:0:0:
256,192,438778,1,8,0:0:0:0:
256,192,438848,1,0,0:0:0:0:
256,192,438918,1,8,0:0:0:0:
256,192,438987,1,0,0:0:0:0:
256,192,439057,1,0,0:0:0:0:
256,192,439127,1,8,0:0:0:0:
256,192,439197,1,0,0:0:0:0:
256,192,439266,1,8,0:0:0:0:
256,192,439336,1,8,0:0:0:0:
256,192,439406,1,8,0:0:0:0:
256,192,439476,1,8,0:0:0:0:
256,192,439546,1,0,0:0:0:0:
256,192,439615,1,0,0:0:0:0:
256,192,439685,1,0,0:0:0:0:
256,192,439755,1,0,0:0:0:0:
256,192,439825,1,8,0:0:0:0:
256,192,439894,1,8,0:0:0:0:
256,192,439964,1,0,0:0:0:0:
256,192,440034,1,0,0:0:0:0:
256,192,440104,1,8,0:0:0:0:
256,192,440173,1,8,0:0:0:0:
256,192,440243,1,8,0:0:0:0:
256,192,440313,1,8,0:0:0:0:
256,192,440383,1,8,0:0:0:0:
256,192,440453,1,8,0:0:0:0:
256,192,440522,1,0,0:0:0:0:
256,192,440592,1,0,0:0:0:0:
256,192,440662,1,8,0:0:0:0:
256,192,440732,1,0,0:0:0:0:
256,192,440801,1,8,0:0:0:0:
256,192,440871,1,0,0:0:0:0:
256,192,440941,1,8,0:0:0:0:
256,192,441011,1,8,0:0:0:0:
256,192,441080,1,0,0:0:0:0:
256,192,441150,1,0,0:0:0:0:
256,192,441220,1,8,0:0:0:0:
256,192,441290,1,0,0:0:0:0:
256,192,441359,1,8,0:0:0:0:
256,192,441429,1,0,0:0:0:0:
256,192,441499,1,8,0:0:0:0:
256,192,441569,1,8,0:0:0:0:
256,192,441639,1,0,0:0:0:0:
256,192,441708,1,8,0:0:0:0:
256,192,441778,1,0,0:0:0:0:
256,192,441848,1,0,0:0:0:0:
256,192,441918,1,8,0:0:0:0:
256,192,441987,1,0,0:0:0:0:
256,192,442057,1,8,0:0:0:0:
256,192,442127,1,8,0:0:0:0:
256,192,442197,1,0,0:0:0:0:
256,192,442266,1,0,0:0:0:0:
256,192,442336,1,8,0:0:0:0:
256,192,442406,1,0,0:0:0:0:
256,192,442476,1,0,0:0:0:0:
256,192,442546,1,0,0:0:0:0:
256,192,442615,1,8,0:0:0:0:
256,192,442685,1,8,0:0:0:0:
256,192,442755,1,8,0:0:0:0:
256,192,442825,1,8,0:0:0:0:
256,192,442894,1,0,0:0:0:0:
256,192,442964,1,0,0:0:0:0:
256,192,443034,1,8,0:0:0:0:
256,192,443104,1,0,0:0:0:0:
256,192,443173,1,8,0:0:0:0:
256,192,443243,1,8,0:0:0:0:
256,192,443313,1,0,0:0:0:0:
256,192,443383,1,0,0:0:0:0:
256,192,443453,1,8,0:0:0:0:
256,192,443522,1,8,0:0:0:0:
256,192,443592,1,8,0:0:0:0:
256,192,443662,1,8,0:0:0:0:
256,192,443732,1,0,0:0:0:0:
256,192,443801,1,0,0:0:0:0:
256,192,443871,1,0,0:0:0:0:
256,192,443941,1,0,0:0:0:0:
256,192,444011,1,0,0:0:0:0:
256,192,444080,1,0,0:0:0:0:
256,192,444150,1,0,0:0:0:0:
256,192,444220,1,0,0:0:0:0:
256,192,444290,1,8,0:0:0:0:
256,192,444359,1,8,0:0:0:0:
256,192,444429,1,8,0:0:0:0:
256,192,444499,1,8,0:0:0:0:
256,192,444569,1,8,0:0:0:0:
256,192,444639,1,8,0:0:0:0:
256,192,444708,1,8,0:0:0:0:
256,192,444778,1,8,0:0:0:0:
256,192,444848,1,0,0:0:0:0:
256,192,444918,1,0,0:0:0:0:
256,192,444987,1,0,0:0:0:0:
256,192,445057,1,0,0:0:0:0:
256,192,445127,1,8,0:0:0:0:
256,192,445197,1,8,0:0:0:0:
256,192,445266,1,0,0:0:0:0:
256,192,445336,1,0,0:0:0:0:
256,192,445406,1,8,0:0:0:0:
256,192,445476,1,8,0:0:0:0:
256,192,445546,1,8,0:0:0:0:
256,192,445615,1,8,0:0:0:0:
256,192,445685,1,8,0:0:0:0:
256,192,445755,1,8,0:0:0:0:
256,192,445825,1,0,0:0:0:0:
256,192,445894,1,0,0:0:0:0:
256,192,445964,1,8,0:0:0:0:
256,192,446057,1,8,0:0:0:0:
256,192,446150,1,0,0:0:0:0:
256,192,446243,1,8,0:0:0:0:
256,192,446336,1,0,0:0:0:0:
256,192,446429,1,0,0:0:0:0:
256,192,446522,1,8,0:0:0:0:
256,192,446615,1,8,0:0:0:0:
256,192,446708,1,0,0:0:0:0:
256,192,446801,1,8,0:0:0:0:
256,192,446894,1,8,0:0:0:0:
256,192,446987,1,0,0:0:0:0:
256,192,447080,1,8,0:0:0:0:
256,192,447173,1,0,0:0:0:0:
256,192,447266,1,0,0:0:0:0:
256,192,447359,1,8,0:0:0:0:
256,192,447453,1,8,0:0:0:0:
256,192,447546,1,0,0:0:0:0:
256,192,447639,1,8,0:0:0:0:
256,192,447732,1,0,0:0:0:0:
256,192,447825,1,0,0:0:0:0:
256,192,447918,1,8,0:0:0:0:
256,192,448011,1,8,0:0:0:0:
256,192,448104,1,0,0:0:0:0:
256,192,448197,1,8,0:0:0:0:
256,192,448266,1,0,0:0:0:0:
256,192,448336,1,0,0:0:0:0:
256,192,448406,1,0,0:0:0:0:
256,192,448476,1,8,0:0:0:0:
256,192,448546,1,0,0:0:0:0:
256,192,448615,1,8,0:0:0:0:
256,192,448685,1,0,0:0:0:0:
256,192,448755,1,8,0:0:0:0:
256,192,448825,1,8,0:0:0:0:
256,192,448894,1,0,0:0:0:0:
256,192,448964,1,0,0:0:0:0:
256,192,449034,1,8,0:0:0:0:
256,192,449104,1,8,0:0:0:0:
256,192,449173,1,0,0:0:0:0:
256,192,449243,1,0,0:0:0:0:
256,192,449313,1,8,0:0:0:0:
256,192,449383,1,8,0:0:0:0:
256,192,449453,1,8,0:0:0:0:
256,192,449522,1,8,0:0:0:0:
256,192,449592,1,8,0:0:0:0:
256,192,449662,1,8,0:0:0:0:
256,192,449732,1,0,0:0:0:0:
256,192,449801,1,0,0:0:0:0:
256,192,449871,1,8,0:0:0:0:
256,192,449941,1,0,0:0:0:0:
256,192,450011,1,0,0:0:0:0:
256,192,450080,1,0,0:0:0:0:
256,192,450150,1,0,0:0:0:0:
256,192,450220,1,0,0:0:0:0:
256,192,450290,1,0,0:0:0:0:
256,192,450359,1,0,0:0:0:0:
256,192,450429,1,8,0:0:0:0:
256,192,450499,1,8,0:0:0:0:
256,192,450569,1,8,0:0:0:0:
256,192,450639,1,8,0:0:0:0:
256,192,450708,1,0,0:0:0:0:
256,192,450778,1,0,0:0:0:0:
256,192,450848,1,0,0:0:0:0:
256,192,450918,1,0,0:0:0:0:
256,192,450987,1,8,0:0:0:0:
256,192,451057,1,8,0:0:0:0:
256,192,451127,1,0,0:0:0:0:
256,192,451197,1,0,0:0:0:0:
256,192,451266,1,8,0:0:0:0:
256,192,451336,1,0,0:0:0:0:
256,192,451406,1,8,0:0:0:0:
256,192,451476,1,8,0:0:0:0:
256,192,451546,1,0,0:0:0:0:
256,192,451615,1,0,0:0:0:0:
256,192,451685,1,8,0:0:0:0:
256,192,451755,1,8,0:0:0:0:
256,192,451825,1,0,0:0:0:0:
256,192,451894,1,0,0:0:0:0:
256,192,451964,1,8,0:0:0:0:
256,192,452034,1,0,0:0:0:0:
256,192,452104,1,8,0:0:0:0:
256,192,452173,1,0,0:0:0:0:
256,192,452243,1,8,0:0:0:0:
256,192,452313,1,8,0:0:0:0:
256,192,452383,1,0,0:0:0:0:
256,192,452453,1,0,0:0:0:0:
256,192,452522,1,8,0:0:0:0:
256,192,452592,1,0,0:0:0:0:
256,192,452662,1,12,0:0:0:0:
