osu file format v14

[General]
AudioFilename: audio.mp3
AudioLeadIn: 0
PreviewTime: 220964
Countdown: 0
SampleSet: Drum
StackLeniency: 0
Mode: 0
LetterboxInBreaks: 0
WidescreenStoryboard: 1

[Editor]
Bookmarks: 33499,60289,87080,134382,167452,194243,221033,251173,274615,294708,308103,334894,363360,381220,399639,416941,434801,452662
DistanceSpacing: 0.6
BeatDivisor: 4
GridSize: 8
TimelineZoom: 2.2

[Metadata]
Title:Of Petrichor Weaves Black Noise
TitleUnicode:Of Petrichor Weaves Black Noise
Artist:Ne Obliviscaris
ArtistUnicode:Ne Obliviscaris
Creator:Blood9
Version:Swan of Pale, of Porcelain White
Source:
Tags:Asaben Val Portal of I Progressive blackened extreme melodic death black metal symphonic violin english featured artist fa
BeatmapID:3275891
BeatmapSetID:1557359

[Difficulty]
HPDrainRate:4.7
CircleSize:4.4
OverallDifficulty:9.7
ApproachRate:9.7
SliderMultiplier:2.05
SliderTickRate:2

[Events]
//Background and Video events
0,0,"Portal_of_I.jpg",0,0
//Break Periods
//Storyboard Layer 0 (Background)
//Storyboard Layer 1 (Fail)
//Storyboard Layer 2 (Pass)
//Storyboard Layer 3 (Foreground)
//Storyboard Layer 4 (Overlay)
//Storyboard Sound Samples

[TimingPoints]
393,545.454545454546,4,2,2,90,1,0
665,480,4,2,2,90,1,8
1146,586.395621579359,4,2,2,90,1,8
1439,489.346518503415,4,2,2,90,1,0
2417,489.346518503415,4,2,2,90,1,0
3884,508.474576271186,4,2,2,90,1,0
5409,494.233937397035,4,2,2,90,1,8
7385,508.474576271186,4,2,2,90,1,8
8409,545.454545454546,7,2,2,90,1,0
8681,491.803278688525,7,2,2,90,1,8
9418,498.960498960499,7,2,2,90,1,8
11911,508.474576271186,4,2,2,90,1,0
12419,480,4,2,2,90,1,8
12899,502.092050209205,4,2,2,90,1,8
13401,509.337860780985,4,2,2,90,1,8
13910,504.201680672269,4,2,2,90,1,8
14918,521.739130434783,4,2,2,90,1,0
15091,558.139534883721,4,2,2,90,1,8
15231,466.926070038911,4,2,2,90,1,8
15698,540.540540540541,4,2,2,90,1,8
15968,461.538461538462,4,2,2,90,1,0
16429,521.739130434783,4,2,2,90,1,8
16950,496.380558428128,4,2,2,90,1,8
17942,496.380558428128,4,2,2,90,1,8
19431,485.82995951417,4,2,2,90,1,0
20402,517.241379310345,4,2,2,90,1,8
20919,492.610837438424,4,2,2,90,1,8
22889,500,4,2,2,90,1,8
23889,504.201680672269,7,2,2,90,1,0
24897,512.273212379936,7,2,2,90,1,0
27458,476.190476190476,4,2,2,90,1,0
28410,545.454545454546,4,2,2,90,1,8
28955,454.545454545455,4,2,2,90,1,0
29409,500,4,2,2,90,1,0
29909,560.747663551402,4,2,2,90,1,0
30469,750,4,2,2,90,1,0
30844,576.923076923077,4,2,2,90,1,8
31997,750,4,2,2,90,1,0
33499,279.06976744186,6,3,10,90,1,0
33499,-166.666666666667,6,3,10,90,0,0
33638,-166.666666666667,6,3,2,90,0,0
34894,-166.666666666667,6,2,10,90,0,0
35033,-166.666666666667,6,3,2,90,0,0
35452,-166.666666666667,6,3,3,90,0,0
35731,-166.666666666667,6,3,2,90,0,0
36289,-166.666666666667,6,3,3,90,0,0
36429,-166.666666666667,6,3,2,90,0,0
36568,-166.666666666667,6,3,3,90,0,0
36708,-166.666666666667,6,3,2,90,0,0
36847,-166.666666666667,6,3,4,90,0,0
37126,-166.666666666667,6,3,2,90,0,0
38243,-166.666666666667,6,2,10,90,0,0
38382,-166.666666666667,6,3,2,90,0,0
38940,-166.666666666667,6,3,3,90,0,0
39080,-166.666666666667,6,2,10,90,0,0
39219,-166.666666666667,6,3,3,90,0,0
39359,-166.666666666667,6,3,2,90,0,0
39638,-166.666666666667,6,3,3,90,0,0
39778,-166.666666666667,6,3,2,90,0,0
39917,-166.666666666667,6,3,3,90,0,0
40057,-166.666666666667,6,3,2,90,0,0
40196,-166.666666666667,6,3,4,90,0,0
40336,-166.666666666667,6,3,2,90,0,0
41033,-166.666666666667,6,3,11,90,0,0
41173,-166.666666666667,6,3,2,90,0,0
41592,-166.666666666667,6,3,10,90,0,0
41731,-166.666666666667,6,3,2,90,0,0
42708,-166.666666666667,6,3,11,90,0,0
42847,-166.666666666667,6,3,2,90,0,0
43545,-133.333333333333,6,3,2,90,0,0
44103,-133.333333333333,6,3,10,90,0,0
44243,-133.333333333333,6,3,2,90,0,0
44382,-133.333333333333,6,3,11,90,0,0
44522,-133.333333333333,6,3,2,90,0,0
44801,-166.666666666667,6,3,2,90,0,0
44940,-166.666666666667,6,3,10,90,0,0
45080,-166.666666666667,6,3,2,90,0,0
45498,-166.666666666667,6,3,6,90,0,0
46057,-166.666666666667,6,3,2,90,0,0
46196,-166.666666666667,6,3,6,90,0,0
46336,-166.666666666667,6,3,2,90,0,0
46754,-166.666666666667,6,3,3,90,0,0
46894,-166.666666666667,6,3,2,90,0,0
48289,-166.666666666667,6,2,11,90,0,0
48429,-166.666666666667,6,3,2,90,0,0
49964,-166.666666666667,6,2,11,90,0,0
50103,-166.666666666667,6,3,6,90,0,0
50243,-166.666666666667,6,3,2,90,0,0
51638,-166.666666666667,6,2,11,90,0,0
51778,-166.666666666667,6,3,3,90,0,0
52196,-166.666666666667,6,3,2,90,0,0
52754,-166.666666666667,6,3,4,90,0,0
53033,-166.666666666667,6,3,2,90,0,0
53312,-166.666666666667,6,3,3,90,0,0
53452,-166.666666666667,6,3,2,90,0,0
54150,-166.666666666667,6,2,11,90,0,0
54289,-166.666666666667,6,3,2,90,0,0
54987,-166.666666666667,6,2,11,90,0,0
55126,-166.666666666667,6,3,2,90,0,0
55824,-166.666666666667,6,2,11,90,0,0
55964,-166.666666666667,6,3,2,90,0,0
56661,-166.666666666667,6,2,11,90,0,0
56801,-166.666666666667,6,3,6,90,0,0
56940,-133.333333333333,6,3,2,90,0,0
57498,-133.333333333333,6,2,11,90,0,0
57638,-133.333333333333,6,3,2,90,0,0
58196,-166.666666666667,6,3,2,90,0,0
58336,-166.666666666667,6,2,11,90,0,0
58475,-166.666666666667,6,2,2,90,0,0
58615,-111.111111111111,6,3,2,90,0,0
59033,-111.111111111111,6,3,3,90,0,0
59452,-111.111111111111,6,3,2,90,0,0
59522,-111.111111111111,6,3,3,90,0,0
59592,-111.111111111111,6,3,2,90,0,0
59661,-111.111111111111,6,3,3,90,0,0
59731,-111.111111111111,6,3,2,90,0,0
60010,-111.111111111111,6,3,3,90,0,0
60289,-94.3396226415094,6,3,2,90,0,0
60568,-100,6,3,3,90,0,0
60708,-100,6,3,12,90,0,0
60847,-100,6,3,3,90,0,0
61545,-100,6,3,12,90,0,0
61615,-100,6,3,3,90,0,0
62103,-111.111111111111,6,3,3,90,0,0
62382,-111.111111111111,6,3,12,90,0,0
62522,-100,6,3,3,90,0,0
63219,-100,6,3,12,90,0,0
63289,-100,6,3,3,90,0,0
63778,-111.111111111111,6,3,3,90,0,0
64057,-111.111111111111,6,3,12,90,0,0
64197,-100,6,3,3,90,0,0
64894,-100,6,3,12,90,0,0
65033,-100,6,3,3,90,0,0
65452,-111.111111111111,6,3,3,90,0,0
65731,-111.111111111111,6,3,12,90,0,0
65871,-100,6,3,3,90,0,0
66568,-100,6,3,12,90,0,0
66708,-100,6,3,3,90,0,0
66987,-100,6,3,2,90,0,0
68801,-111.111111111111,6,3,2,90,0,0
69220,-100,6,3,2,90,0,0
72150,-111.111111111111,6,3,2,90,0,0
72569,-100,6,3,2,90,0,0
72847,-66.6666666666667,6,3,2,90,0,0
73126,-100,6,3,2,90,0,0
73405,-100,6,3,3,90,0,0
73545,-100,6,3,2,90,0,0
73685,-100,6,3,3,90,0,0
74103,-100,6,3,12,90,0,0
74243,-100,6,3,3,90,0,0
74940,-100,6,3,12,90,0,0
75080,-100,6,3,3,90,0,0
75778,-100,6,3,12,90,0,0
75917,-100,6,3,3,90,0,0
76615,-100,6,3,12,90,0,0
76754,-100,6,3,3,90,0,0
77452,-100,6,3,12,90,0,0
77592,-100,6,3,3,90,0,0
78289,-100,6,3,12,90,0,0
78429,-100,6,3,3,90,0,0
78708,-100,6,3,3,90,0,0
78778,-100,6,3,6,90,0,0
79126,-100,6,3,3,90,0,0
79196,-100,6,3,6,90,0,0
79545,-100,6,3,2,90,0,0
79824,-100,6,3,3,90,0,0
80103,-100,6,3,2,90,0,0
80382,-100,6,3,4,90,0,0
80661,-100,6,3,3,90,0,0
80940,-100,6,3,2,90,0,0
81219,-100,6,3,3,90,0,0
85405,-142.857142857143,6,3,2,90,0,0
86243,-125,6,3,2,90,0,0
86382,-111.111111111111,6,3,2,90,0,0
86522,-100,6,3,3,90,0,0
86661,-100,6,3,3,90,0,0
86801,-100,6,3,2,90,0,0
87080,-86.9565217391304,6,3,4,85,0,0
87359,-86.9565217391304,6,3,2,85,0,0
87917,-86.9565217391304,6,3,11,85,0,0
87987,-86.9565217391304,6,3,2,85,0,0
88336,-86.9565217391304,6,3,6,85,0,0
88475,-181.818181818181,6,3,2,85,0,0
88615,-181.818181818181,6,3,6,85,0,0
88754,-86.9565217391304,6,3,2,85,0,0
88894,-86.9565217391304,6,3,6,85,0,0
89033,-86.9565217391304,6,3,2,85,0,0
89173,-86.9565217391304,6,3,6,85,0,0
89312,-86.9565217391304,6,3,2,85,0,0
89592,-86.9565217391304,6,3,11,85,0,0
89661,-86.9565217391304,6,3,2,85,0,0
89871,-181.818181818181,6,3,2,85,0,0
90010,-181.818181818181,6,3,6,85,0,0
90150,-181.818181818181,6,3,2,85,0,0
90289,-181.818181818181,6,3,6,85,0,0
90429,-86.9565217391304,6,3,2,85,0,0
90568,-86.9565217391304,6,3,6,85,0,0
90708,-86.9565217391304,6,3,2,85,0,0
90847,-86.9565217391304,6,3,6,85,0,0
90987,-86.9565217391304,6,3,2,85,0,0
91266,-86.9565217391304,6,3,11,85,0,0
91336,-86.9565217391304,6,3,2,85,0,0
91685,-86.9565217391304,6,3,6,85,0,0
91824,-181.818181818181,6,3,2,85,0,0
91964,-181.818181818181,6,3,6,85,0,0
92103,-86.9565217391304,6,3,2,85,0,0
92243,-86.9565217391304,6,3,6,85,0,0
92382,-86.9565217391304,6,3,2,85,0,0
92522,-86.9565217391304,6,3,6,85,0,0
92661,-181.818181818181,6,3,2,85,0,0
92940,-86.9565217391304,6,3,11,85,0,0
93010,-86.9565217391304,6,3,2,85,0,0
93359,-86.9565217391304,6,3,6,85,0,0
93498,-86.9565217391304,6,3,3,85,0,0
93778,-86.9565217391304,6,3,3,85,0,0
96010,-181.818181818181,6,3,3,85,0,0
96289,-86.9565217391304,6,3,3,85,0,0
96847,-86.9565217391304,6,3,2,85,0,0
97126,-86.9565217391304,6,3,3,85,0,0
97685,-181.818181818181,6,3,3,85,0,0
97964,-86.9565217391304,6,3,3,85,0,0
99080,-181.818181818182,6,3,3,85,0,0
99359,-86.9565217391304,6,3,3,85,0,0
100196,-181.818181818182,6,3,3,85,0,0
100336,-181.818181818182,6,3,2,85,0,0
100475,-86.9565217391304,6,3,3,85,0,0
100754,-86.9565217391304,6,3,2,85,0,0
101312,-86.9565217391304,6,3,11,85,0,0
101382,-86.9565217391304,6,3,2,85,0,0
101731,-86.9565217391304,6,3,6,85,0,0
101871,-86.9565217391304,6,3,2,85,0,0
102010,-86.9565217391304,6,3,6,85,0,0
102150,-133.333333333333,6,3,2,85,0,0
102289,-133.333333333333,6,3,6,85,0,0
102429,-133.333333333333,6,3,2,85,0,0
102568,-133.333333333333,6,3,6,85,0,0
102708,-133.333333333333,6,3,2,85,0,0
102987,-86.9565217391304,6,3,11,85,0,0
103057,-86.9565217391304,6,3,2,85,0,0
103405,-86.9565217391304,6,3,6,85,0,0
103545,-86.9565217391304,6,3,2,85,0,0
103685,-86.9565217391304,6,3,6,85,0,0
103824,-86.9565217391304,6,3,2,85,0,0
103964,-86.9565217391304,6,3,6,85,0,0
104103,-86.9565217391304,6,3,2,85,0,0
104243,-86.9565217391304,6,3,6,85,0,0
104382,-86.9565217391304,6,3,2,85,0,0
104661,-86.9565217391304,6,3,11,85,0,0
104731,-86.9565217391304,6,3,2,85,0,0
105080,-86.9565217391304,6,3,6,85,0,0
105219,-86.9565217391304,6,3,2,85,0,0
105359,-86.9565217391304,6,3,6,85,0,0
105498,-86.9565217391304,6,3,2,85,0,0
105638,-86.9565217391304,6,3,6,85,0,0
105778,-133.333333333333,6,3,2,85,0,0
105917,-133.333333333333,6,3,6,85,0,0
106057,-133.333333333333,6,3,2,85,0,0
106336,-86.9565217391304,6,3,11,85,0,0
106405,-86.9565217391304,6,3,2,85,0,0
106754,-86.9565217391304,6,3,6,85,0,0
106894,-181.818181818181,6,3,2,85,0,0
107033,-181.818181818181,6,3,6,85,0,0
107173,-86.9565217391304,6,3,2,85,0,0
107452,-86.9565217391304,6,3,3,85,0,0
108010,-181.818181818181,6,3,3,85,0,0
108847,-86.9565217391304,6,3,2,85,0,0
109126,-86.9565217391304,6,3,3,85,0,0
109545,-108.695652173913,6,3,2,85,0,0
109685,-86.9565217391304,6,3,2,85,0,0
110243,-86.9565217391304,6,3,3,85,0,0
110382,-86.9565217391304,6,3,2,85,0,0
110522,-86.9565217391304,6,3,3,85,0,0
112196,-112.359550561798,6,3,2,85,0,0
112475,-112.359550561798,6,3,3,85,0,0
112754,-112.359550561798,6,3,2,85,0,0
113592,-112.359550561798,6,3,3,85,0,0
113871,-312.5,6,3,2,100,0,0
114080,-312.5,6,3,2,5,0,0
114150,-83.3333333333333,6,3,6,100,0,1
114708,-83.3333333333333,6,3,2,100,0,1
114778,-83.3333333333333,6,3,6,100,0,1
115545,-83.3333333333333,6,3,2,100,0,1
115615,-83.3333333333333,6,3,6,100,0,1
116382,-83.3333333333333,6,3,2,100,0,1
116452,-83.3333333333333,6,3,6,100,0,1
117219,-83.3333333333333,6,3,2,100,0,1
117289,-83.3333333333333,6,3,6,100,0,1
118057,-83.3333333333333,6,3,2,100,0,1
118126,-83.3333333333333,6,3,6,100,0,1
118894,-83.3333333333333,6,3,2,100,0,1
118964,-83.3333333333333,6,3,6,100,0,1
120568,-83.3333333333333,6,3,2,100,0,1
120638,-83.3333333333333,6,3,7,100,0,1
126708,-111.111111111111,6,3,7,100,0,1
126987,-133.333333333333,6,3,3,100,0,1
127057,-133.333333333333,6,3,7,100,0,1
127266,-83.3333333333333,6,3,2,100,0,1
127336,-83.3333333333333,6,3,6,100,0,1
128103,-83.3333333333333,6,3,2,100,0,1
128173,-83.3333333333333,6,3,6,100,0,1
128940,-83.3333333333333,6,3,2,100,0,1
129010,-83.3333333333333,6,3,6,100,0,1
129778,-83.3333333333333,6,3,2,100,0,1
129847,-83.3333333333333,6,3,6,100,0,1
130615,-83.3333333333333,6,3,2,100,0,1
130685,-83.3333333333333,6,3,6,100,0,1
131452,-83.3333333333333,6,3,2,100,0,1
131522,-83.3333333333333,6,3,6,100,0,1
132289,-83.3333333333333,6,3,2,100,0,1
132359,-83.3333333333333,6,3,6,100,0,1
133964,-100,6,3,2,100,0,0
134033,-100,6,3,3,85,0,0
139824,-100,6,3,2,85,0,0
140103,-100,6,3,3,85,0,0
140382,-100,6,3,2,85,0,0
140661,-303.030303030303,6,3,2,85,0,0
145545,-303.030303030303,6,3,2,5,0,0
145685,-666.666666666667,6,3,2,55,0,0
146382,-666.666666666667,6,3,2,5,0,0
146522,-1000,6,3,2,55,0,0
147219,-1000,6,3,2,5,0,0
147359,-500,6,3,2,55,0,0
147498,-500,6,3,2,5,0,0
147638,-222.222222222221,6,3,4,55,0,0
147778,-222.222222222221,6,3,4,25,0,0
148057,-333.333333333333,6,3,2,5,0,0
148196,-333.333333333333,6,3,3,55,0,0
148336,-333.333333333333,6,3,3,25,0,0
148754,-333.333333333333,6,3,4,55,0,0
148894,-333.333333333333,6,3,3,55,0,0
149033,-166.666666666667,6,3,4,55,0,0
149173,-333.333333333333,6,3,2,5,0,0
150708,-500,6,3,2,55,0,0
150847,-500,6,3,2,5,0,0
150987,-222.222222222221,6,3,4,55,0,0
151126,-222.222222222221,6,3,4,25,0,0
151406,-333.333333333333,6,3,2,5,0,0
151545,-333.333333333333,6,3,3,55,0,0
151685,-333.333333333333,6,3,3,25,0,0
152103,-333.333333333333,6,3,4,55,0,0
152243,-333.333333333333,6,3,3,55,0,0
152382,-166.666666666667,6,3,4,55,0,0
152522,-333.333333333333,6,3,2,5,0,0
153498,-166.666666666667,6,3,4,55,0,0
153778,-166.666666666667,6,3,2,5,0,0
154057,-500,6,3,2,55,0,0
154196,-500,6,3,2,5,0,0
154336,-222.222222222221,6,3,4,55,0,0
154475,-222.222222222221,6,3,4,25,0,0
154755,-333.333333333333,6,3,2,5,0,0
154894,-333.333333333333,6,3,3,55,0,0
155033,-333.333333333333,6,3,3,25,0,0
155452,-333.333333333333,6,3,4,55,0,0
155592,-333.333333333333,6,3,3,55,0,0
155731,-333.333333333334,6,3,4,55,0,0
156010,-333.333333333333,6,3,2,5,0,0
157405,-333.333333333333,6,3,2,55,0,0
157824,-333.333333333333,6,3,4,55,0,0
158243,-333.333333333333,6,3,3,55,0,0
158661,-333.333333333333,6,3,3,25,0,0
158801,-333.333333333333,6,3,4,25,0,0
158940,-333.333333333333,6,3,2,25,0,0
159080,-500,6,3,4,55,0,0
159847,-500,6,3,2,5,0,0
159917,-333.333333333333,6,3,2,55,0,0
160615,-333.333333333333,6,3,2,5,0,0
160754,-333.333333333333,6,3,3,55,0,0
161312,-333.333333333333,6,3,4,55,0,0
161592,-333.333333333333,6,3,3,55,0,0
161871,-333.333333333333,6,3,4,55,0,0
162150,-333.333333333333,6,3,3,60,0,0
162429,-333.333333333333,6,3,4,60,0,0
162708,-333.333333333333,6,3,3,60,0,0
162987,-333.333333333333,6,3,4,60,0,0
163266,-333.333333333333,6,3,3,65,0,0
163545,-333.333333333333,6,3,4,65,0,0
163824,-333.333333333333,6,3,3,65,0,0
164103,-333.333333333333,6,3,4,65,0,0
164382,-333.333333333333,6,3,3,70,0,0
164661,-333.333333333333,6,3,4,70,0,0
164940,-333.333333333333,6,3,3,70,0,0
165219,-333.333333333333,6,3,4,70,0,0
165498,-333.333333333333,6,3,3,75,0,0
165778,-333.333333333333,6,3,4,75,0,0
166057,-333.333333333333,6,3,3,75,0,0
166336,-333.333333333333,6,3,4,75,0,0
166615,-333.333333333333,6,3,3,75,0,0
166894,-111.111111111111,6,3,4,80,0,0
167033,-111.111111111111,6,3,2,5,0,0
167173,-90.9090909090909,6,3,4,85,0,0
167312,-90.9090909090909,6,3,2,5,0,0
167452,-95.2380952380952,6,3,2,100,0,0
167731,-95.2380952380952,6,2,10,100,0,0
167871,-95.2380952380952,6,3,2,5,0,0
168010,-192.307692307692,6,3,2,100,0,0
168219,-192.307692307692,6,3,2,5,0,0
168289,-76.9230769230769,6,3,2,100,0,0
168568,-76.9230769230769,6,2,10,100,0,0
168708,-76.9230769230769,6,3,2,5,0,0
168847,-103.092783505155,6,3,2,100,0,0
169057,-103.092783505155,6,3,2,5,0,0
169126,-95.2380952380952,6,3,10,100,0,0
169266,-95.2380952380952,6,3,2,100,0,0
169405,-95.2380952380952,6,2,10,100,0,0
169545,-95.2380952380952,6,3,2,5,0,0
169685,-86.9565217391304,6,3,2,100,0,0
169894,-86.9565217391304,6,3,2,5,0,0
169964,-80,6,3,2,100,0,0
170173,-80,6,3,2,5,0,0
170243,-74.0740740740741,6,3,2,100,0,0
170452,-74.0740740740741,6,3,2,5,0,0
170522,-243.90243902439,6,3,2,100,0,0
170731,-243.90243902439,6,3,2,5,0,0
170801,-95.2380952380952,6,3,10,100,0,0
170940,-95.2380952380952,6,3,2,100,0,0
171080,-95.2380952380952,6,2,10,100,0,0
171219,-95.2380952380952,6,3,2,5,0,0
171359,-192.307692307692,6,3,2,100,0,0
171568,-192.307692307692,6,3,2,5,0,0
171638,-76.9230769230769,6,3,2,100,0,0
171917,-76.9230769230769,6,2,10,100,0,0
172057,-76.9230769230769,6,3,2,5,0,0
172196,-103.092783505155,6,3,2,100,0,0
172405,-103.092783505155,6,3,2,5,0,0
172475,-95.2380952380952,6,3,10,100,0,0
172615,-95.2380952380952,6,3,2,100,0,0
172754,-95.2380952380952,6,2,10,100,0,0
172894,-95.2380952380952,6,3,2,5,0,0
173033,-86.9565217391304,6,3,2,100,0,0
173243,-86.9565217391304,6,3,2,5,0,0
173312,-243.90243902439,6,3,2,100,0,0
173522,-243.90243902439,6,3,2,5,0,0
173592,-80,6,3,4,100,0,0
173661,-80,6,3,2,5,0,0
173731,-95.2380952380952,6,3,2,100,0,0
173801,-95.2380952380952,6,3,2,5,0,0
173871,-117.647058823529,6,3,4,100,0,0
173940,-117.647058823529,6,3,2,5,0,0
174010,-153.846153846154,6,3,2,100,0,0
174080,-153.846153846154,6,3,2,5,0,0
174150,-95.2380952380952,6,3,10,90,0,0
174289,-95.2380952380952,6,3,2,90,0,0
174429,-95.2380952380952,6,3,3,90,0,0
174568,-166.666666666667,6,3,3,90,0,0
174847,-166.666666666667,6,3,2,5,0,0
174987,-95.2380952380952,6,3,3,90,0,0
175126,-95.2380952380952,6,3,2,90,0,0
175266,-95.2380952380952,6,2,6,90,0,0
175405,-95.2380952380952,6,3,2,5,0,0
175545,-243.90243902439,6,3,3,90,0,0
175685,-243.90243902439,6,3,2,90,0,0
175754,-243.90243902439,6,3,2,5,0,0
175824,-95.2380952380952,6,3,3,90,0,0
175964,-95.2380952380952,6,3,2,90,0,0
176103,-95.2380952380952,6,3,3,90,0,0
176243,-80,6,3,2,90,0,0
176312,-80,6,3,2,5,0,0
176382,-95.2380952380952,6,3,3,90,0,0
176452,-95.2380952380952,6,3,2,5,0,0
176522,-117.647058823529,6,3,2,90,0,0
176592,-117.647058823529,6,3,2,5,0,0
176661,-103.092783505155,6,3,3,90,0,0
176801,-103.092783505155,6,3,2,90,0,0
176871,-103.092783505155,6,3,2,5,0,0
176940,-166.666666666667,6,3,3,90,0,0
177080,-166.666666666667,6,3,2,90,0,0
177219,-166.666666666667,6,2,6,90,0,0
177359,-166.666666666667,6,3,2,5,0,0
177498,-95.2380952380952,6,3,3,90,0,0
177638,-95.2380952380952,6,3,2,90,0,0
177778,-95.2380952380952,6,3,3,90,0,0
177917,-243.90243902439,6,3,2,90,0,0
178057,-243.90243902439,6,2,6,90,0,0
178126,-243.90243902439,6,3,2,5,0,0
178196,-243.90243902439,6,3,2,90,0,0
178266,-243.90243902439,6,3,2,5,0,0
178336,-108.695652173913,6,3,2,100,0,0
180568,-108.695652173913,6,3,3,100,0,0
180847,-95.2380952380952,6,3,2,90,0,0
186847,-95.2380952380952,6,3,3,90,0,0
186987,-95.2380952380952,6,3,2,90,0,0
187126,-95.2380952380952,6,3,3,90,0,0
187266,-95.2380952380952,6,3,2,90,0,0
187405,-95.2380952380952,6,3,3,90,0,0
187545,-95.2380952380952,6,3,2,90,0,0
187824,-95.2380952380952,6,3,3,90,0,0
193405,-125,6,3,2,90,0,0
193685,-125,6,3,3,90,0,0
193964,-125,6,3,2,90,0,0
194243,-200,6,3,2,80,0,0
194661,-200,6,3,2,5,0,0
194801,-125,6,3,2,80,0,0
194940,-125,6,3,2,5,0,0
195080,-125,6,3,2,80,0,0
195359,-125,6,3,4,80,0,0
195498,-125,6,3,4,5,0,0
195638,-125,6,3,3,80,0,0
195917,-111.111111111111,6,3,4,80,0,0
196057,-111.111111111111,6,3,2,5,0,0
196196,-111.111111111111,6,3,4,80,0,0
196336,-200,6,3,2,80,0,0
196475,-200,6,2,6,80,0,0
196615,-200,6,3,3,80,0,0
196754,-142.857142857143,6,3,2,80,0,0
196894,-142.857142857143,6,3,2,5,0,0
197033,-142.857142857143,6,3,2,80,0,0
197312,-125,6,3,4,80,0,0
197452,-125,6,3,2,5,0,0
197592,-111.111111111111,6,3,4,80,0,0
197731,-111.111111111111,6,3,2,5,0,0
197871,-111.111111111111,6,3,4,80,0,0
198010,-200,6,3,2,80,0,0
198150,-200,6,2,6,80,0,0
198289,-200,6,3,3,80,0,0
198429,-142.857142857143,6,3,2,80,0,0
198568,-142.857142857143,6,3,2,5,0,0
198708,-142.857142857143,6,3,3,80,0,0
198847,-142.857142857143,6,3,4,80,0,0
198987,-142.857142857143,6,3,3,80,0,0
199266,-111.111111111111,6,3,4,80,0,0
199405,-111.111111111111,6,3,2,5,0,0
199545,-111.111111111111,6,3,4,80,0,0
199685,-200,6,3,2,80,0,0
199824,-200,6,2,6,80,0,0
199964,-200,6,2,3,80,0,0
200103,-125,6,3,2,80,0,0
200243,-125,6,3,2,5,0,0
200382,-142.857142857143,6,3,4,80,0,0
200522,-142.857142857143,6,3,2,5,0,0
200661,-166.666666666667,6,3,4,80,0,0
200801,-166.666666666667,6,3,2,5,0,0
200940,-111.111111111111,6,3,2,80,0,0
201359,-111.111111111111,6,3,3,80,0,0
201638,-111.111111111111,6,3,4,80,0,0
201917,-111.111111111111,6,3,3,80,0,0
202057,-111.111111111111,6,3,2,80,0,0
202196,-111.111111111111,6,3,3,80,0,0
202336,-111.111111111111,6,3,4,80,0,0
202475,-111.111111111111,6,3,4,80,0,0
202615,-105.263157894737,6,3,2,80,0,0
202894,-125,6,3,2,80,0,0
203034,-125,6,3,3,80,0,0
203173,-153.846153846153,6,3,3,80,0,0
203313,-153.846153846153,6,3,4,80,0,0
203592,-153.846153846153,6,3,3,80,0,0
203732,-153.846153846153,6,3,2,80,0,0
203871,-153.846153846153,6,3,3,80,0,0
204010,-111.111111111111,6,3,4,80,0,0
204289,-166.666666666667,6,3,2,80,0,0
204568,-133.333333333333,6,3,2,80,0,0
204709,-133.333333333333,6,3,3,80,0,0
204847,-111.111111111111,6,3,3,80,0,0
204988,-111.111111111111,6,3,4,80,0,0
205267,-111.111111111111,6,3,3,80,0,0
205407,-111.111111111111,6,3,2,80,0,0
205546,-111.111111111111,6,3,3,80,0,0
205686,-111.111111111111,6,3,4,80,0,0
205964,-111.111111111111,6,3,2,80,0,0
206243,-133.333333333333,6,3,2,80,0,0
206384,-133.333333333333,6,3,3,80,0,0
206522,-166.666666666667,6,3,3,80,0,0
206663,-166.666666666667,6,3,4,80,0,0
206801,-90.9090909090909,6,3,4,80,0,0
206942,-90.9090909090909,6,3,3,80,0,0
207080,-111.111111111111,6,3,2,80,0,0
207221,-111.111111111111,6,3,3,80,0,0
207359,-142.857142857143,6,3,6,80,0,0
207638,-142.857142857143,6,3,2,80,0,0
207778,-142.857142857143,6,3,6,80,0,0
208057,-142.857142857143,6,3,3,80,0,0
208196,-142.857142857143,6,3,6,80,0,0
208475,-142.857142857143,6,3,2,80,0,0
208615,-142.857142857143,6,3,6,80,0,0
208754,-142.857142857143,6,3,2,80,0,0
209452,-142.857142857143,6,3,6,80,0,0
209731,-142.857142857143,6,3,3,80,0,0
209871,-142.857142857143,6,3,6,80,0,0
210150,-142.857142857143,6,3,2,80,0,0
210289,-142.857142857143,6,3,6,80,0,0
210429,-142.857142857143,6,3,2,80,0,0
211126,-142.857142857143,6,3,6,80,0,0
211405,-142.857142857143,6,3,3,80,0,0
211545,-142.857142857143,6,3,6,80,0,0
211824,-142.857142857143,6,3,2,80,0,0
211964,-142.857142857143,6,3,6,80,0,0
212103,-142.857142857143,6,3,2,80,0,0
212661,-100,6,3,2,80,0,0
212801,-100,6,3,6,80,0,0
213080,-100,6,3,3,80,0,0
213219,-100,6,3,6,80,0,0
213498,-100,6,3,2,80,0,0
213638,-100,6,3,6,80,0,0
213778,-100,6,3,2,80,0,0
214336,-100,6,3,2,80,0,0
214754,-100,6,3,3,80,0,0
214894,-100,6,3,2,80,0,0
215173,-100,6,3,2,80,0,0
215452,-100,6,3,3,80,0,0
215731,-100,6,3,2,80,0,0
216010,-100,6,3,2,80,0,0
216289,-117.647058823529,6,3,2,80,0,0
216429,-117.647058823529,6,3,3,80,0,0
216568,-142.857142857143,6,3,2,80,0,0
217126,-142.857142857143,6,3,3,80,0,0
217405,-142.857142857143,6,3,2,80,0,0
217545,-142.857142857143,6,3,4,80,0,0
217685,-142.857142857143,6,3,2,80,0,0
218382,-142.857142857143,6,3,3,80,0,0
218801,-142.857142857143,6,3,3,80,0,0
219080,-142.857142857143,6,3,2,80,0,0
220196,-142.857142857143,6,3,2,85,0,0
220475,-142.857142857143,6,3,2,90,0,0
220754,-142.857142857143,6,3,2,95,0,0
221033,-142.857142857143,6,3,6,100,0,0
223824,-227.272727272727,6,3,6,80,0,0
223964,-227.272727272727,6,3,2,5,0,0
224103,-156.25,6,3,6,90,0,0
224243,-156.25,6,3,2,5,0,0
224382,-100,6,3,10,100,0,1
224452,-100,6,3,3,100,0,1
226894,-222.222222222221,6,3,3,100,0,1
227173,-90.9090909090909,6,3,3,100,0,1
227312,-133.333333333333,6,3,3,100,0,1
227452,-83.3333333333333,6,3,3,100,0,1
227592,-117.647058823529,6,3,3,100,0,1
227731,-100,6,3,3,100,0,1
228150,-117.647058823529,6,3,3,100,0,1
228289,-90.9090909090909,6,3,3,100,0,1
228429,-133.333333333333,6,3,3,100,0,1
228568,-100,6,3,3,100,0,1
229405,-83.3333333333333,6,3,3,100,0,1
229545,-100,6,3,3,100,0,1
229685,-125,6,3,3,100,0,1
229824,-166.666666666667,6,3,3,100,0,1
229964,-100,6,3,3,100,0,1
231359,-111.111111111111,6,3,3,100,0,1
231638,-125,6,3,3,100,0,1
231917,-100,6,3,3,100,0,1
234150,-100,6,3,2,100,0,1
234289,-100,6,3,3,100,0,1
234429,-100,6,3,2,100,0,1
234708,-125,6,3,3,100,0,1
234987,-166.666666666667,6,3,3,100,0,1
235266,-100,6,3,3,100,0,1
235824,-129.87012987013,6,3,3,100,0,1
236103,-100,6,3,3,100,0,1
236522,-142.857142857143,6,3,3,100,0,1
236940,-100,6,3,3,100,0,1
237498,-100,6,3,2,100,0,1
237638,-100,6,3,3,100,0,1
240847,-166.666666666667,6,3,2,100,0,1
240987,-166.666666666667,6,3,3,100,0,1
241126,-100,6,3,2,100,0,1
241405,-100,6,3,3,100,0,1
242661,-133.333333333333,6,3,3,100,0,1
242801,-90.9090909090909,6,3,3,100,0,1
242940,-100,6,3,3,100,0,1
243080,-117.647058823529,6,3,3,100,0,1
243219,-153.846153846154,6,3,3,100,0,1
243359,-200,6,3,3,100,0,1
243638,-100,6,3,3,100,0,1
244196,-153.846153846153,6,3,2,100,0,1
244336,-153.846153846153,6,3,3,100,0,1
244475,-100,6,3,3,100,0,1
245033,-166.666666666667,6,3,3,100,0,1
245312,-100,6,3,3,100,0,1
245871,-117.647058823529,6,3,3,100,0,1
246150,-100,6,3,3,100,0,1
247545,-166.666666666667,6,3,2,100,0,1
247685,-166.666666666667,6,3,3,100,0,1
247824,-100,6,3,2,100,0,1
248103,-125,6,3,3,100,0,1
248382,-166.666666666667,6,3,3,100,0,1
248661,-100,6,3,3,100,0,1
248940,-111.111111111111,6,3,3,100,0,1
249080,-153.846153846153,6,3,3,100,0,1
249219,-100,6,3,3,100,0,1
249359,-133.333333333333,6,3,3,100,0,1
249498,-100,6,3,3,100,0,1
249778,-100,6,3,3,100,0,1
249917,-133.333333333333,6,3,3,100,0,1
250057,-90.9090909090909,6,3,3,100,0,1
250196,-117.647058823529,6,3,3,100,0,1
250336,-100,6,3,3,100,0,1
250754,-196.078431372549,6,3,3,100,0,1
250894,-196.078431372549,6,3,2,100,0,1
251033,-196.078431372549,6,3,3,100,0,1
251173,-100,6,3,2,100,0,1
251452,-100,6,3,3,100,0,1
254243,-83.3333333333333,6,3,2,100,0,1
254382,-100,6,3,3,100,0,1
257033,-125,6,3,3,100,0,1
257312,-142.857142857143,6,3,3,100,0,1
257592,-100,6,3,2,100,0,1
257731,-100,6,3,3,100,0,1
257871,-100,6,3,2,100,0,1
258150,-100,6,3,3,100,0,1
260940,-100,6,3,2,100,0,1
261080,-100,6,3,3,100,0,1
261219,-111.111111111111,6,3,3,100,0,1
261498,-90.9090909090909,6,3,3,100,0,1
261778,-111.111111111111,6,3,3,100,0,1
264289,-83.3333333333333,6,3,2,100,0,1
264429,-100,6,3,3,100,0,1
264568,-100,6,3,2,100,0,1
264847,-100,6,3,3,100,0,1
267080,-90.9090909090909,6,3,3,100,0,1
267359,-100,6,3,3,100,0,1
267638,-111.111111111111,6,3,2,100,0,1
267778,-111.111111111111,6,3,3,100,0,1
267917,-100,6,3,3,100,0,1
269592,-83.3333333333333,6,3,3,100,0,1
269731,-90.9090909090909,6,3,3,100,0,1
269871,-100,6,3,3,100,0,1
270010,-111.111111111111,6,3,3,100,0,1
270150,-125,6,3,3,100,0,1
270289,-142.857142857143,6,3,3,100,0,1
270429,-90.9090909090909,6,3,3,100,0,1
270708,-100,6,3,3,100,0,1
270987,-111.111111111111,6,3,2,100,0,1
271126,-111.111111111111,6,3,3,100,0,1
271266,-100,6,3,2,100,0,1
271545,-100,6,3,3,100,0,1
272103,-111.111111111111,6,3,3,100,0,1
273778,-83.3333333333333,6,3,3,100,0,1
273917,-90.9090909090909,6,3,3,100,0,1
274057,-100,6,3,3,100,0,1
274196,-111.111111111111,6,3,3,100,0,1
274336,-125,6,3,3,100,0,1
274475,-142.857142857143,6,3,3,100,0,1
274615,-192.307692307692,6,3,4,100,0,0
274824,-192.307692307692,6,3,4,5,0,0
274894,-192.307692307692,6,3,5,70,0,0
277964,-192.307692307692,6,3,5,60,0,0
278243,-192.307692307692,6,3,5,65,0,0
278522,-100,6,3,5,70,0,0
278801,-117.647058823529,6,3,5,75,0,0
279080,-142.857142857143,6,3,5,80,0,0
279359,-181.818181818182,6,3,5,85,0,0
279638,-192.307692307692,6,3,2,90,0,0
279708,-192.307692307692,6,3,2,90,0,0
280475,-192.307692307692,6,3,2,85,0,0
280754,-192.307692307692,6,3,2,77,0,0
281033,-192.307692307692,6,3,2,70,0,0
281312,-66.6666666666667,6,3,7,90,0,0
281452,-66.6666666666667,6,3,2,5,0,0
282150,-66.6666666666667,6,3,3,80,0,0
284243,-66.6666666666667,6,3,5,80,0,0
284382,-66.6666666666667,6,3,3,80,0,0
284661,-66.6666666666667,6,3,2,80,0,0
284940,-66.6666666666667,6,3,3,80,0,0
286336,-83.3333333333333,6,3,4,80,0,0
286615,-66.6666666666667,6,3,4,80,0,0
286754,-66.6666666666667,6,3,3,80,0,0
286894,-66.6666666666667,6,3,2,80,0,0
287173,-66.6666666666667,6,3,3,80,0,0
287731,-66.6666666666667,6,3,2,80,0,0
288010,-100,6,3,2,80,0,0
288568,-133.333333333333,6,3,5,80,0,0
288847,-133.333333333333,6,3,11,80,0,0
289126,-133.333333333333,6,3,5,80,0,0
289405,-133.333333333333,6,3,2,80,0,0
289685,-100,6,3,5,80,0,0
289964,-100,6,3,2,80,0,0
290243,-133.333333333333,6,3,5,80,0,0
290522,-133.333333333333,6,3,11,80,0,0
290801,-133.333333333333,6,3,5,80,0,0
291080,-133.333333333333,6,3,2,80,0,0
291359,-100,6,3,5,80,0,0
291638,-100,6,3,2,80,0,0
291917,-133.333333333333,6,3,5,80,0,0
292196,-133.333333333333,6,3,11,80,0,0
292475,-133.333333333333,6,3,5,80,0,0
292754,-133.333333333333,6,3,2,80,0,0
293033,-100,6,3,5,80,0,0
293312,-100,6,3,2,80,0,0
293592,-133.333333333333,6,3,5,80,0,0
293871,-133.333333333333,6,3,11,80,0,0
294150,-133.333333333333,6,3,5,80,0,0
294429,-133.333333333333,6,3,2,80,0,0
294708,-76.9230769230769,6,3,2,80,0,0
295545,-76.9230769230769,6,3,3,80,0,0
296382,-76.9230769230769,6,3,4,80,0,0
296475,-76.9230769230769,6,3,3,80,0,0
297219,-62.5,6,3,3,80,0,0
297638,-62.5,6,3,5,80,0,0
297777,-62.5,6,3,3,80,0,0
298057,-76.9230769230769,6,3,3,80,0,0
298335,-76.9230769230769,6,3,3,80,0,0
299731,-90.9090909090909,6,3,4,80,0,0
300149,-90.9090909090909,6,3,3,80,0,0
300289,-90.9090909090909,6,3,2,80,0,0
300568,-90.9090909090909,6,3,3,80,0,0
301126,-90.9090909090909,6,3,2,80,0,0
301405,-83.3333333333333,6,3,2,80,0,0
301615,-83.3333333333333,6,3,2,5,0,0
301685,-83.3333333333333,6,3,2,80,0,0
301963,-83.3333333333333,6,3,5,80,0,0
302242,-83.3333333333333,6,3,11,80,0,0
302521,-83.3333333333333,6,3,5,80,0,0
302800,-83.3333333333333,6,3,2,80,0,0
303080,-83.3333333333333,6,3,5,80,0,0
303289,-83.3333333333333,6,3,5,5,0,0
303359,-83.3333333333333,6,3,2,80,0,0
303638,-83.3333333333333,6,3,5,80,0,0
303917,-83.3333333333333,6,3,11,80,0,0
304196,-83.3333333333333,6,3,5,80,0,0
304475,-83.3333333333333,6,3,2,80,0,0
304754,-83.3333333333333,6,3,5,80,0,0
304964,-83.3333333333333,6,3,5,5,0,0
305033,-83.3333333333333,6,3,2,80,0,0
305312,-83.3333333333333,6,3,5,80,0,0
305591,-83.3333333333333,6,3,11,80,0,0
305870,-83.3333333333333,6,3,5,80,0,0
306149,-83.3333333333333,6,3,2,80,0,0
306428,-83.3333333333333,6,3,5,80,0,0
306638,-83.3333333333333,6,3,5,5,0,0
306707,-83.3333333333333,6,3,2,80,0,0
306987,-83.3333333333333,6,3,5,80,0,0
307266,-83.3333333333333,6,3,11,80,0,0
307545,-83.3333333333333,6,3,5,80,0,0
307824,-83.3333333333333,6,3,2,80,0,0
308103,-192.307692307692,6,3,7,80,0,0
308173,-192.307692307692,6,3,2,5,0,0
308940,-98.0392156862745,6,3,3,90,0,0
309359,-107.52688172043,6,3,3,90,0,0
309429,-107.52688172043,6,3,3,5,0,0
309498,-107.52688172043,6,3,3,90,0,0
309638,-107.52688172043,6,3,2,90,0,0
309708,-107.52688172043,6,3,3,5,0,0
309778,-107.52688172043,6,3,3,90,0,0
311033,-107.52688172043,6,3,5,90,0,0
311172,-107.52688172043,6,3,3,90,0,0
311451,-107.52688172043,6,3,2,90,0,0
311730,-107.52688172043,6,3,3,90,0,0
312778,-107.52688172043,6,3,3,5,0,0
312847,-107.52688172043,6,3,3,90,0,0
312987,-107.52688172043,6,3,2,90,0,0
313057,-107.52688172043,6,3,3,5,0,0
313126,-107.52688172043,6,3,4,90,0,0
313544,-107.52688172043,6,3,3,90,0,0
313615,-107.52688172043,6,3,3,5,0,0
313685,-107.52688172043,6,3,2,90,0,0
313894,-107.52688172043,6,3,2,5,0,0
313964,-107.52688172043,6,3,2,90,0,0
314243,-107.52688172043,6,3,3,90,0,0
314521,-107.52688172043,6,3,2,90,0,0
314801,-91.743119266055,6,3,2,90,0,0
315010,-91.743119266055,6,3,2,5,0,0
315080,-142.857142857143,6,3,2,90,0,0
315358,-142.857142857143,6,3,5,90,0,0
315638,-105.263157894737,6,3,11,90,0,0
315917,-95.2380952380954,6,3,5,90,0,0
316196,-86.9565217391306,6,3,2,90,0,0
316475,-98.0392156862745,6,3,5,90,0,0
316685,-98.0392156862745,6,3,5,5,0,0
316754,-133.333333333333,6,3,2,90,0,0
317033,-133.333333333333,6,3,5,90,0,0
317312,-105.263157894737,6,3,11,90,0,0
317592,-95.2380952380954,6,3,5,90,0,0
317871,-86.9565217391304,6,3,2,90,0,0
318150,-87.719298245614,6,3,5,90,0,0
318359,-87.719298245614,6,3,5,5,0,0
318429,-142.857142857143,6,3,2,90,0,0
318708,-105.263157894737,6,3,5,90,0,0
318778,-105.263157894737,6,3,2,90,0,0
318986,-105.263157894737,6,3,11,90,0,0
319265,-105.263157894737,6,3,5,90,0,0
319544,-105.263157894737,6,3,2,90,0,0
319824,-95.2380952380954,6,3,5,90,0,0
320033,-95.2380952380954,6,3,5,5,0,0
320103,-142.857142857143,6,3,2,90,0,0
320382,-105.263157894737,6,3,5,90,0,0
320452,-105.263157894737,6,3,2,90,0,0
320661,-105.263157894737,6,3,11,90,0,0
320940,-100,6,3,5,90,0,0
321219,-111.111111111111,6,3,2,90,0,0
321498,-90.0900900900901,6,3,2,90,0,0
321778,-90.0900900900901,6,3,3,90,0,0
322336,-106.382978723404,6,3,3,90,0,0
322824,-106.382978723404,6,3,3,5,0,0
322894,-93.4579439252336,6,3,3,90,0,0
323033,-93.4579439252336,6,3,2,90,0,0
323103,-93.4579439252336,6,3,3,5,0,0
323173,-100,6,3,4,90,0,0
323265,-100,6,3,3,90,0,0
324428,-100,6,3,5,90,0,0
324567,-100,6,3,3,90,0,0
326173,-100,6,3,3,5,0,0
326243,-100,6,3,3,90,0,0
326382,-100,6,3,2,90,0,0
326452,-100,6,3,3,5,0,0
326522,-106.382978723404,6,3,4,90,0,0
326939,-106.382978723404,6,3,3,90,0,0
327079,-106.382978723404,6,3,2,90,0,0
327358,-106.382978723404,6,3,2,90,0,0
327638,-106.382978723404,6,3,3,90,0,0
327916,-106.382978723404,6,3,2,90,0,0
328196,-90.9090909090909,6,3,2,90,0,0
328405,-90.9090909090909,6,3,2,5,0,0
328475,-142.857142857143,6,3,2,90,0,0
328753,-142.857142857143,6,3,5,90,0,0
329033,-105.263157894737,6,3,11,90,0,0
329312,-95.2380952380951,6,3,5,90,0,0
329592,-86.9565217391304,6,3,2,90,0,0
329871,-91.743119266055,6,3,5,90,0,0
330080,-91.743119266055,6,3,5,5,0,0
330150,-133.333333333333,6,3,2,90,0,0
330428,-133.333333333333,6,3,5,90,0,0
330708,-105.263157894737,6,3,11,90,0,0
330987,-95.2380952380951,6,3,5,90,0,0
331266,-86.9565217391304,6,3,2,90,0,0
331545,-85.4700854700855,6,3,5,90,0,0
331754,-85.4700854700855,6,3,5,5,0,0
331824,-142.857142857143,6,3,2,90,0,0
332103,-105.263157894737,6,3,5,90,0,0
332381,-105.263157894737,6,3,11,90,0,0
332660,-105.263157894737,6,3,5,90,0,0
332939,-105.263157894737,6,3,2,90,0,0
333219,-95.2380952380952,6,3,5,90,0,0
333429,-95.2380952380952,6,3,5,5,0,0
333498,-142.857142857143,6,3,2,90,0,0
333778,-105.263157894737,6,3,5,90,0,0
334056,-105.263157894737,6,3,11,90,0,0
334336,-95.2380952380952,6,3,5,90,0,0
334615,-105.263157894737,6,3,2,90,0,0
334893,-105.263157894737,6,3,7,90,0,0
334963,-105.263157894737,6,3,2,5,0,0
335731,-133.333333333333,6,3,3,90,0,0
337824,-133.333333333333,6,3,5,90,0,0
337964,-133.333333333333,6,3,3,90,0,0
338243,-133.333333333333,6,3,2,90,0,0
338382,-133.333333333333,6,3,3,90,0,0
338940,-133.333333333333,6,3,3,90,0,0
340754,-133.333333333333,6,3,2,90,0,0
341033,-133.333333333333,6,3,3,90,0,0
341312,-133.333333333333,6,3,2,90,0,0
341731,-133.333333333333,6,3,3,90,0,0
344522,-133.333333333333,6,3,5,90,0,0
344661,-133.333333333333,6,3,3,90,0,0
344940,-133.333333333333,6,3,3,90,0,0
346615,-133.333333333333,6,3,2,90,0,0
346754,-133.333333333333,6,3,3,90,0,0
347173,-133.333333333333,6,3,3,90,0,0
347452,-133.333333333333,6,3,2,90,0,0
347731,-133.333333333333,6,3,3,90,0,0
348010,-133.333333333333,6,3,2,90,0,0
348289,-100,6,3,2,80,0,0
348568,-100,6,3,3,80,0,0
348987,-100,6,3,2,80,0,0
349126,-100,6,3,2,80,0,0
349405,-133.333333333333,6,3,3,80,0,0
349685,-200,6,3,2,80,0,0
349964,-100,6,3,2,80,0,0
350243,-100,6,3,3,80,0,0
350382,-100,6,3,2,80,0,0
350522,-100,6,3,3,80,0,0
350661,-100,6,3,2,80,0,0
351080,-100,6,3,3,80,0,0
351359,-200,6,3,2,80,0,0
351638,-200,6,3,2,80,0,0
351917,-133.333333333333,6,3,2,80,0,0
352196,-100,6,3,2,80,0,0
352754,-133.333333333333,6,3,3,80,0,0
353033,-200,6,3,2,80,0,0
353452,-133.333333333333,6,3,2,80,0,0
354080,-133.333333333333,6,3,2,5,0,0
354150,-133.333333333333,6,3,2,80,0,0
354289,-133.333333333333,6,3,3,80,0,0
354429,-133.333333333333,6,3,2,80,0,0
354568,-133.333333333333,6,3,3,80,0,0
354708,-133.333333333333,6,3,2,80,0,0
354987,-133.333333333333,6,3,3,80,0,0
355126,-133.333333333333,6,3,2,80,0,0
355266,-133.333333333333,6,3,3,80,0,0
355405,-133.333333333333,6,3,2,80,0,0
355545,-133.333333333333,6,3,3,80,0,0
356103,-133.333333333333,6,3,5,80,0,0
356243,-133.333333333333,6,3,3,80,0,0
356661,-133.333333333333,6,3,2,80,0,0
356801,-133.333333333333,6,3,3,80,0,0
357778,-133.333333333333,6,3,5,80,0,0
357917,-133.333333333333,6,3,3,80,0,0
358336,-100,6,3,4,80,0,0
358615,-100,6,3,3,80,0,0
358754,-100,6,3,2,80,0,0
358894,-100,6,3,3,80,0,0
360010,-100,6,3,6,80,0,0
360150,-100,6,3,3,80,0,0
360429,-100,6,3,5,80,0,0
360568,-100,6,3,3,80,0,0
360847,-100,6,3,6,80,0,0
360987,-100,6,3,3,80,0,0
361266,-100,6,3,5,80,0,0
361405,-100,6,3,3,80,0,0
361685,-100,6,3,6,80,0,0
361824,-100,6,3,3,80,0,0
362103,-100,6,3,5,80,0,0
362243,-100,6,3,3,80,0,0
362522,-100,6,3,2,80,0,0
362940,-100,6,3,3,80,0,0
363360,279.06976744186,4,3,2,75,1,1
363360,-125,4,3,2,75,0,1
363639,-100,4,3,8,90,0,1
363708,-100,4,3,6,90,0,1
363918,-100,4,3,8,90,0,1
363987,-100,4,3,6,90,0,1
364476,-100,4,3,8,90,0,1
364546,-100,4,3,6,90,0,1
364755,-100,4,3,8,90,0,1
364825,-100,4,3,6,90,0,1
365313,-100,4,3,8,90,0,1
365383,-100,4,3,6,90,0,1
365592,-100,4,3,8,90,0,1
365662,-100,4,3,6,90,0,1
366150,-100,4,3,8,90,0,1
366220,-100,4,3,6,90,0,1
366429,-100,4,3,8,90,0,1
366499,-100,4,3,6,90,0,1
366987,-100,4,3,8,90,0,1
367057,-100,4,3,6,90,0,1
367266,-100,4,3,8,90,0,1
367336,-100,4,3,6,90,0,1
367825,-100,4,3,8,90,0,1
367894,-100,4,3,6,90,0,1
368104,-100,4,3,8,90,0,1
368173,-100,4,3,6,90,0,1
368662,-111.111111111111,4,3,8,90,0,1
368732,-111.111111111111,4,3,6,90,0,1
368941,-125,4,3,8,90,0,1
369011,-125,4,3,6,90,0,1
369220,-100,4,3,6,90,0,1
369499,-100,4,3,8,90,0,1
369569,-100,4,3,6,90,0,1
369778,-100,4,3,8,90,0,1
369848,-100,4,3,6,90,0,1
370336,-100,4,3,8,90,0,1
370406,-100,4,3,6,90,0,1
370615,-100,4,3,8,90,0,1
370685,-100,4,3,6,90,0,1
370894,-111.111111111111,4,3,6,90,0,1
371173,-125,4,3,8,90,0,1
371243,-125,4,3,6,90,0,1
371453,-100,4,3,8,90,0,1
371522,-100,4,3,6,90,0,1
372011,-100,4,3,8,90,0,1
372080,-100,4,3,6,90,0,1
372290,-100,4,3,8,90,0,1
372360,-100,4,3,6,90,0,1
372848,-100,4,3,8,90,0,1
372918,-100,4,3,6,90,0,1
373127,-100,4,3,8,90,0,1
373197,-100,4,3,6,90,0,1
373685,-100,4,3,8,90,0,1
373755,-100,4,3,6,90,0,1
373964,-100,4,3,8,90,0,1
374034,-100,4,3,6,90,0,1
374522,-100,4,3,8,90,0,1
374592,-100,4,3,6,90,0,1
374801,-100,4,3,8,90,0,1
374871,-100,4,3,6,90,0,1
375360,-100,4,3,8,90,0,1
375429,-100,4,3,6,90,0,1
375639,-100,4,3,8,90,0,1
375708,-100,4,3,6,90,0,1
376197,-100,4,3,8,90,0,1
376266,-100,4,3,6,90,0,1
376476,-100,4,3,8,90,0,1
376546,-100,4,3,6,90,0,1
377034,-100,4,3,8,90,0,1
377104,-100,4,3,6,90,0,1
377313,-100,4,3,8,90,0,1
377383,-100,4,3,6,90,0,1
377592,-111.111111111111,4,3,6,90,0,1
377871,-125,4,3,8,90,0,1
377941,-125,4,3,6,90,0,1
378150,-100,4,3,8,90,0,1
378220,-100,4,3,6,90,0,1
378708,-100,4,3,8,90,0,1
378778,-100,4,3,6,90,0,1
378987,-100,4,3,8,90,0,1
379057,-100,4,3,6,90,0,1
379546,-100,4,3,8,90,0,1
379615,-100,4,3,6,90,0,1
379825,-111.111111111111,4,3,8,90,0,1
379894,-111.111111111111,4,3,6,90,0,1
380104,-125,4,3,6,90,0,1
380383,-100,4,3,8,90,0,1
380453,-100,4,3,6,90,0,1
380662,-100,4,3,8,90,0,1
380732,-100,4,3,6,90,0,1
381220,-95.2380952380952,4,3,8,100,0,1
381290,-95.2380952380952,4,3,6,100,0,1
381499,-105.263157894737,4,3,6,100,0,1
381778,-92.5925925925926,4,3,8,100,0,1
381848,-92.5925925925926,4,3,6,100,0,1
382336,-133.333333333333,4,3,8,100,0,1
382406,-133.333333333333,4,3,6,100,0,1
382615,-92.5925925925926,4,3,6,100,0,1
382894,-92.5925925925926,4,3,8,100,0,1
382964,-92.5925925925926,4,3,6,100,0,1
383453,-95.2380952380952,4,3,8,100,0,1
383522,-95.2380952380952,4,3,6,100,0,1
383732,-105.263157894737,4,3,6,100,0,1
384011,-92.5925925925926,4,3,8,100,0,1
384080,-92.5925925925926,4,3,6,100,0,1
384569,-133.333333333333,4,3,8,100,0,1
384639,-133.333333333333,4,3,6,100,0,1
384848,-92.5925925925926,4,3,6,100,0,1
385127,-92.5925925925926,4,3,8,100,0,1
385197,-92.5925925925926,4,3,6,100,0,1
385685,-95.2380952380952,4,3,8,100,0,1
385755,-95.2380952380952,4,3,6,100,0,1
385964,-105.263157894737,4,3,6,100,0,1
386243,-92.5925925925926,4,3,8,100,0,1
386313,-92.5925925925926,4,3,6,100,0,1
386801,-92.5925925925926,4,3,8,100,0,1
386871,-92.5925925925926,4,3,6,100,0,1
387080,-133.333333333333,4,3,6,100,0,1
387359,-100,4,3,8,100,0,1
387429,-100,4,3,6,100,0,1
387639,-111.111111111111,4,3,6,100,0,1
387918,-95.2380952380952,4,3,8,100,0,1
387987,-95.2380952380952,4,3,6,100,0,1
388476,-92.5925925925926,4,3,8,100,0,1
388546,-92.5925925925926,4,3,6,100,0,1
389034,-92.5925925925926,4,3,8,100,0,1
389104,-92.5925925925926,4,3,6,100,0,1
389313,-133.333333333333,4,3,6,100,0,1
389592,-92.5925925925926,4,3,8,100,0,1
389662,-92.5925925925926,4,3,6,100,0,1
390150,-95.2380952380952,4,3,8,100,0,1
390220,-95.2380952380952,4,3,6,100,0,1
390429,-105.263157894737,4,3,6,100,0,1
390708,-92.5925925925926,4,3,8,100,0,1
390778,-92.5925925925926,4,3,6,100,0,1
391266,-133.333333333333,4,3,8,100,0,1
391336,-133.333333333333,4,3,6,100,0,1
391546,-92.5925925925926,4,3,6,100,0,1
391825,-92.5925925925926,4,3,8,100,0,1
391894,-92.5925925925926,4,3,6,100,0,1
392383,-95.2380952380952,4,3,8,100,0,1
392453,-95.2380952380952,4,3,6,100,0,1
392662,-105.263157894737,4,3,6,100,0,1
392941,-92.5925925925926,4,3,8,100,0,1
393011,-92.5925925925926,4,3,6,100,0,1
393499,-133.333333333333,4,3,8,100,0,1
393569,-133.333333333333,4,3,6,100,0,1
393778,-92.5925925925926,4,3,6,100,0,1
394057,-92.5925925925926,4,3,8,100,0,1
394127,-92.5925925925926,4,3,6,100,0,1
394615,-95.2380952380952,4,3,8,100,0,1
394685,-95.2380952380952,4,3,6,100,0,1
394894,-105.263157894737,4,3,6,100,0,1
395173,-92.5925925925926,4,3,8,100,0,1
395243,-92.5925925925926,4,3,6,100,0,1
395732,-92.5925925925926,4,3,8,100,0,1
395801,-92.5925925925926,4,3,6,100,0,1
396011,-133.333333333333,4,3,6,100,0,1
396290,-100,4,3,8,100,0,1
396359,-100,4,3,6,100,0,1
396569,-111.111111111111,4,3,6,100,0,1
396848,-95.2380952380952,4,3,8,100,0,1
396918,-95.2380952380952,4,3,6,100,0,1
397406,-92.5925925925926,4,3,8,100,0,1
397476,-92.5925925925926,4,3,6,100,0,1
397964,-92.5925925925926,4,3,8,100,0,1
398034,-92.5925925925926,4,3,6,100,0,1
398243,-133.333333333333,4,3,6,100,0,1
398522,-92.5925925925926,4,3,8,100,0,1
398592,-92.5925925925926,4,3,6,100,0,1
399080,-312.5,4,3,4,100,0,0
399569,-312.5,4,3,4,5,0,0
399639,-100,4,3,3,85,0,0
400197,-142.857142857143,4,3,3,85,0,0
400336,-125,4,3,3,85,0,0
400476,-111.111111111111,4,3,3,85,0,0
400615,-100,4,3,3,85,0,0
400755,-90.9090909090909,4,3,3,85,0,0
400894,-100,4,3,3,85,0,0
401034,-111.111111111111,4,3,3,85,0,0
401173,-125,4,3,3,85,0,0
401313,-83.3333333333333,4,3,3,85,0,0
401871,-100,4,3,3,85,0,0
402429,-166.666666666667,4,3,2,85,0,0
402569,-142.857142857143,4,3,2,85,0,0
402708,-125,4,3,2,85,0,0
402848,-111.111111111111,4,3,2,85,0,0
402987,-100,4,3,2,85,0,0
403266,-100,4,3,6,85,0,0
403406,-100,4,3,3,85,0,0
403546,-100,4,3,2,85,0,0
403615,-100,4,3,3,85,0,0
404662,-111.111111111111,4,3,3,85,0,0
404801,-100,4,3,3,85,0,0
404941,-90.9090909090909,4,3,3,85,0,0
405080,-83.3333333333333,4,3,3,85,0,0
405220,-76.9230769230769,4,3,3,85,0,0
405359,-83.3333333333333,4,3,3,85,0,0
405499,-90.9090909090909,4,3,3,85,0,0
405639,-100,4,3,3,85,0,0
405778,-76.9230769230769,4,3,3,85,0,0
406336,-100,4,3,3,85,0,0
406894,-125,4,3,3,85,0,0
407034,-111.111111111111,4,3,3,85,0,0
407173,-100,4,3,3,85,0,0
407313,-90.9090909090909,4,3,3,85,0,0
407453,-83.3333333333333,4,3,3,85,0,0
407592,-90.9090909090909,4,3,3,85,0,0
407732,-100,4,3,2,85,0,0
408011,-83.3333333333333,4,3,3,85,0,0
408569,-100,4,3,3,85,0,0
409127,-142.857142857143,4,3,3,85,0,0
409266,-125,4,3,3,85,0,0
409406,-111.111111111111,4,3,3,85,0,0
409545,-100,4,3,3,85,0,0
409685,-90.9090909090909,4,3,3,85,0,0
409824,-100,4,3,3,85,0,0
409964,-111.111111111111,4,3,3,85,0,0
410103,-125,4,3,3,85,0,0
410243,-90.9090909090909,4,3,3,85,0,0
410801,-100,4,3,3,85,0,0
411359,-166.666666666667,4,3,3,85,0,0
411499,-142.857142857143,4,3,3,85,0,0
411638,-125,4,3,3,85,0,0
411778,-111.111111111111,4,3,3,85,0,0
411917,-100,4,3,3,85,0,0
412196,-100,4,3,4,85,0,0
412336,-100,4,3,3,85,0,0
412476,-111.111111111111,4,3,2,85,0,0
412755,-111.111111111111,4,3,3,85,0,0
413034,-100,4,3,3,85,0,0
413592,-142.857142857143,4,3,3,85,0,0
413731,-125,4,3,3,85,0,0
413871,-111.111111111111,4,3,3,85,0,0
414010,-100,4,3,3,85,0,0
414150,-90.9090909090909,4,3,3,85,0,0
414289,-100,4,3,3,85,0,0
414429,-111.111111111111,4,3,3,85,0,0
414568,-125,4,3,3,85,0,0
414708,-90.9090909090909,4,3,3,85,0,0
415825,-166.666666666667,4,3,3,85,0,0
415964,-142.857142857143,4,3,3,85,0,0
416104,-125,4,3,3,85,0,0
416243,-111.111111111111,4,3,3,85,0,0
416383,-100,4,3,3,85,0,0
416662,-100,4,3,3,85,0,0
416802,-100,4,3,3,85,0,0
416941,-90.9090909090909,4,3,2,100,0,0
417150,-90.9090909090909,4,3,2,5,0,0
417220,-90.9090909090909,4,3,3,100,0,0
417359,-90.9090909090909,4,3,2,100,0,0
417429,-90.9090909090909,4,3,3,5,0,0
417499,-153.846153846153,4,3,2,100,0,1
418336,-125,4,3,2,100,0,1
418476,-105.263157894737,4,3,2,100,0,1
418615,-81.9672131147541,4,3,2,100,0,1
420290,-90.9090909090909,4,3,2,100,0,1
420569,-100,4,3,2,100,0,1
420848,-81.9672131147541,4,3,2,100,0,1
421406,-81.9672131147541,4,3,3,100,0,1
421476,-81.9672131147541,4,3,2,100,0,1
422522,-175.438596491228,4,3,2,100,0,1
423080,-81.9672131147541,4,3,2,100,0,1
423639,-81.9672131147541,4,3,3,100,0,1
423918,-81.9672131147541,4,3,2,100,0,1
424755,-200,4,3,2,100,0,1
425034,-142.857142857143,4,3,2,100,0,1
425313,-90.9090909090909,4,3,2,100,0,1
425592,-111.111111111111,4,3,4,100,0,1
425732,-111.111111111111,4,3,3,100,0,1
425871,-80,4,3,2,100,0,1
426150,-80,4,3,3,100,0,1
428662,-90.9090909090909,4,3,3,100,0,1
429778,-108.695652173913,4,3,3,100,0,1
430057,-121.951219512195,4,3,3,100,0,1
430336,-102.040816326531,4,3,3,90,0,1
433685,-95.2380952380952,4,3,3,90,0,1
433964,-90.9090909090909,4,3,3,90,0,1
434243,-83.3333333333333,4,3,3,90,0,1
434383,-90.9090909090909,4,3,3,90,0,1
434522,-100,4,3,3,90,0,1
434662,-111.111111111111,4,3,3,90,0,1
434801,-111.111111111111,4,3,2,100,0,0
435290,-111.111111111111,4,3,2,5,0,0
435359,-83.3333333333333,4,3,2,90,0,0
435499,-100,4,3,3,90,0,0
435778,-100,4,3,3,90,0,0
436336,-100,4,3,3,90,0,0
437592,-90.9090909090909,4,3,3,90,0,0
437732,-100,4,3,3,90,0,0
439546,-111.111111111111,4,3,3,90,0,0
439825,-83.3333333333333,4,3,3,90,0,0
439964,-100,4,3,3,90,0,0
442057,-76.9230769230769,4,3,3,90,0,0
442336,-83.3333333333333,4,3,3,90,0,0
442615,-100,4,3,3,90,0,0
442894,-90.9090909090909,4,3,3,90,0,0
443034,-83.3333333333333,4,3,3,90,0,0
443173,-100,4,3,3,90,0,0
443732,-100,4,3,2,90,0,0
444011,-100,4,3,3,90,0,0
445127,-111.111111111111,4,3,3,90,0,0
445406,-100,4,3,3,90,0,0
445964,-83.3333333333333,4,3,3,90,0,0
446104,-86.9565217391303,4,3,3,90,0,0
446243,-90.9090909090909,4,3,3,90,0,0
446383,-95.2380952380951,4,3,3,90,0,0
446522,-100,4,3,3,90,0,0
446662,-105.263157894737,4,3,3,90,0,0
446801,-111.111111111111,4,3,3,90,0,0
446941,-117.647058823529,4,3,3,90,0,0
447080,-125,4,3,3,90,0,0
447918,-125,4,3,2,90,0,0
448057,-125,4,3,3,90,0,0
448197,-100,4,3,2,90,0,0
448476,-100,4,3,3,90,0,0
450429,-90.9090909090909,4,3,3,90,0,0
450708,-111.111111111111,4,3,3,90,0,0
450987,-100,4,3,3,90,0,0
452104,-100,4,3,3,90,0,0
452662,500,4,3,2,90,1,0
452662,-156.25,4,3,2,90,0,0
460662,-156.25,4,3,2,5,0,0

[Colours]
Combo1 : 183,98,219
Combo2 : 160,113,22
Combo3 : 221,207,32
Combo4 : 175,164,163
Combo5 : 211,190,183
Combo6 : 98,96,192
Combo7 : 248,137,27
Combo8 : 242,80,80

[HitObjects]
71,161,33499,69,4,0:2:0:0:
90,238,33638,1,0,0:0:0:0:
56,161,33778,1,4,0:2:0:0:
194,203,33917,2,0,P|177:237|170:265,2,61.499998123169,0|4|0,0:0|0:2|0:0,0:0:0:0:
195,4,34336,37,12,0:2:0:0:
163,98,34475,1,0,0:0:0:0:
208,3,34615,1,4,0:2:0:0:
296,151,34754,2,0,P|357:137|352:73,1,122.999996246338
171,208,35173,70,0,P|196:181|235:174,1,61.499998123169,12|0,0:3|0:0,0:0:0:0:
261,238,35452,2,0,P|299:248|306:284,1,61.499998123169,12|0,0:3|0:0,0:0:0:0:
258,331,35731,1,12,0:1:0:0:
255,337,35871,1,0,0:0:0:0:
193,289,36010,2,0,P|150:279|119:277,1,61.499998123169,12|0,0:2|0:0,0:0:0:0:
462,329,36289,37,8,0:3:0:0:
499,212,36429,1,8,0:3:0:0:
354,225,36568,1,8,0:3:0:0:
362,261,36708,1,8,0:1:0:0:
426,125,36847,69,4,0:2:0:0:
506,96,36987,1,0,0:0:0:0:
415,129,37126,1,4,0:2:0:0:
364,0,37266,2,0,P|402:2|434:11,2,61.499998123169,0|4|0,0:0|0:2|0:0,0:0:0:0:
230,131,37685,37,12,0:2:0:0:
130,165,37824,1,0,0:0:0:0:
236,140,37964,1,4,0:2:0:0:
152,18,38103,2,0,P|81:27|80:93,1,122.999996246338
135,174,38522,70,0,P|130:212|123:242,1,61.499998123169,12|0,0:3|0:0,0:0:0:0:
0,175,38801,1,4,0:2:0:0:
11,180,38940,2,0,P|30:238|38:299,1,122.999996246338,8|0,0:3|0:0,0:0:0:0:
196,294,39359,2,0,P|188:333|182:359,1,61.499998123169,12|0,0:2|0:0,0:0:0:0:
406,249,39638,37,8,0:3:0:0:
434,370,39778,1,8,0:3:0:0:
287,333,39917,1,8,0:3:0:0:
278,360,40057,1,8,0:1:0:0:
418,252,40196,70,0,L|482:263,1,61.499998123169,4|0,0:2|0:0,0:0:0:0:
303,182,40475,1,2,0:3:0:0:
292,180,40615,2,0,B|239:170|239:170|232:166|232:166|151:152,1,122.999996246338,2|2,0:3|0:3,0:0:0:0:
453,103,41033,2,0,P|461:133|469:176,1,61.499998123169,10|0,0:2|0:0,0:0:0:0:
383,13,41312,1,2,0:3:0:0:
373,11,41452,2,0,B|324:13|295:52|299:93|320:105|339:83,1,122.999996246338,0|2,0:0|0:3,0:0:0:0:
284,261,41871,38,0,P|254:253|211:245,1,61.499998123169,2|0,0:3|0:0,0:0:0:0:
52,322,42150,1,2,0:3:0:0:
43,312,42289,2,0,P|52:255|109:249,1,122.999996246338,2|2,0:3|0:3,0:0:0:0:
193,380,42708,70,0,B|202:362|202:362|202:342|191:322,1,61.499998123169,10|2,0:2|0:3,0:0:0:0:
170,181,42987,1,2,0:3:0:0:
170,170,43126,2,0,P|180:109|194:49,1,122.999996246338,2|2,0:3|0:3,0:0:0:0:
289,174,43545,37,2,0:3:0:0:
236,235,43685,1,2,0:3:0:0:
89,119,43824,1,0,0:0:0:0:
29,180,43964,2,0,B|-7:200|-11:251|17:273|17:273|53:271|74:302,1,153.750005865097,2|2,0:3|0:3,0:0:0:0:
246,367,44382,70,0,L|333:381,1,76.8750029325486,10|2,0:2|0:3,0:0:0:0:
151,346,44661,1,0,0:0:0:0:
175,251,44801,2,0,P|226:260|295:277,1,122.999996246338,0|2,0:0|0:3,0:0:0:0:
412,301,45219,37,2,0:3:0:0:
422,304,45359,1,2,0:3:0:0:
327,192,45498,69,8,0:2:0:0:
294,174,45568,1,8,0:2:0:0:
279,140,45638,1,8,0:2:0:0:
286,103,45708,1,8,0:2:0:0:
315,80,45778,2,0,P|344:87|374:94,1,61.499998123169,8|8,0:2|0:2,0:0:0:0:
486,166,46057,37,8,0:2:0:0:
358,346,46196,1,8,0:2:0:0:
507,271,46336,1,8,0:2:0:0:
221,322,46475,69,0,0:0:0:0:
211,312,46615,37,8,0:3:0:0:
323,271,46754,1,8,0:3:0:0:
33,211,46894,69,4,0:2:0:0:
52,288,47033,1,0,0:0:0:0:
18,211,47173,1,2,0:2:0:0:
133,229,47312,2,0,P|168:238|207:242,2,61.499998123169,0|2|0,0:0|0:2|0:0,0:0:0:0:
58,113,47731,37,10,0:2:0:0:
36,14,47871,1,0,0:0:0:0:
72,113,48010,1,2,0:2:0:0:
207,24,48150,2,0,P|267:36|327:46,1,122.999996246338
408,168,48568,69,2,0:2:0:0:
496,149,48708,1,0,0:0:0:0:
404,180,48847,1,2,0:2:0:0:
426,29,48987,2,0,P|459:40|467:72,2,61.499998123169,0|2|0,0:0|0:2|0:0,0:0:0:0:
316,225,49405,37,10,0:2:0:0:
210,192,49545,1,0,0:0:0:0:
315,237,49685,1,2,0:2:0:0:
327,46,49824,2,0,P|271:63|269:121,1,122.999996246338,0|4,0:0|0:2,0:0:0:0:
421,260,50243,69,2,0:2:0:0:
448,335,50382,1,0,0:0:0:0:
431,255,50522,1,2,0:2:0:0:
295,324,50661,2,0,P|289:354|286:384,2,61.499998123169,0|2|0,0:0|0:2|0:0,0:0:0:0:
192,214,51080,37,12,0:2:0:0:
137,323,51219,1,0,0:0:0:0:
202,217,51359,1,2,0:2:0:0:
8,166,51498,2,0,P|-2:222|47:251,1,122.999996246338
114,197,51917,70,0,P|111:167|88:148,1,61.499998123169,4|0,0:2|0:0,0:0:0:0:
260,325,52196,2,0,P|236:344|234:373,1,61.499998123169,2|0,0:2|0:0,0:0:0:0:
454,250,52475,1,2,0:2:0:0:
466,252,52615,1,0,0:0:0:0:
374,236,52754,2,0,P|343:231|312:229,1,61.499998123169,12|0,0:2|0:0,0:0:0:0:
329,41,53033,37,2,0:2:0:0:
450,13,53173,1,8,0:3:0:0:
440,169,53312,1,8,0:3:0:0:
412,164,53452,1,8,0:1:0:0:
489,303,53592,70,0,P|487:272|465:251,1,61.499998123169,4|0,0:2|0:0,0:0:0:0:
313,149,53871,1,2,0:2:0:0:
303,142,54010,2,0,P|249:147|234:215,1,122.999996246338
127,384,54429,38,0,L|187:373,1,61.499998123169,10|0,0:2|0:0,0:0:0:0:
357,330,54708,1,2,0:2:0:0:
368,326,54847,2,0,B|430:315|430:315|433:312|433:312|512:298,1,122.999996246338
230,205,55266,70,0,P|199:210|169:216,1,61.499998123169,2|0,0:2|0:0,0:0:0:0:
0,242,55545,1,2,0:2:0:0:
3,251,55685,2,0,P|71:243|77:175,1,122.999996246338
34,80,56103,38,0,P|38:49|45:19,1,61.499998123169,10|0,0:2|0:0,0:0:0:0:
179,7,56382,1,2,0:2:0:0:
190,16,56522,2,0,P|195:84|200:138,1,122.999996246338,0|4,0:0|0:2,0:0:0:0:
147,257,56940,69,2,0:2:0:0:
104,122,57080,1,0,0:0:0:0:
142,247,57219,1,2,0:2:0:0:
20,81,57359,2,0,P|3:167|77:182,1,153.750005865097
203,147,57778,37,12,0:2:0:0:
341,224,57917,1,0,0:0:0:0:
206,159,58057,1,2,0:2:0:0:
202,346,58196,2,0,B|228:354|250:318|244:314|241:311|275:271|312:286,1,122.999996246338
80,358,58615,69,8,0:2:0:0:
72,313,58685,1,8,2:2:0:0:
95,273,58754,1,8,2:2:0:0:
136,255,58824,1,8,2:2:0:0:
181,264,58894,1,8,2:2:0:0:
209,301,58964,1,8,2:2:0:0:
198,322,59033,37,8,0:3:0:0:
205,325,59103,1,8,2:3:0:0:
213,327,59173,1,8,2:3:0:0:
221,330,59243,1,8,2:3:0:0:
229,334,59312,1,8,2:3:0:0:
238,336,59382,1,8,2:3:0:0:
267,370,59452,69,8,0:2:0:0:
294,363,59522,1,8,2:3:0:0:
320,356,59592,1,8,2:3:0:0:
346,349,59661,1,8,2:3:0:0:
381,316,59731,38,0,L|388:361,1,46.1249985923767,8|8,0:3|2:3,0:0:0:0:
275,260,59871,2,0,L|282:214,1,46.1249985923767,8|8,0:3|2:3,0:0:0:0:
397,331,60010,2,0,L|404:376,1,46.1249985923767,8|8,0:3|2:3,0:0:0:0:
261,263,60150,2,0,L|268:218,1,46.1249985923767,8|8,0:3|2:3,0:0:0:0:
509,93,60289,22,0,L|452:104,3,54.3250000828934,4|0|0|0,0:2|0:0|0:0|0:0,0:0:0:0:
481,204,60568,1,2,0:3:0:0:
466,218,60638,1,0,0:0:0:0:
445,220,60708,2,0,P|426:221|381:198,1,51.25,10|0,0:2|0:0,0:0:0:0:
331,78,60847,101,2,0:3:0:0:
351,74,60917,1,0,0:0:0:0:
368,79,60987,1,2,0:3:0:0:
379,89,61057,1,0,0:0:0:0:
384,100,61126,5,2,0:3:0:0:
379,140,61196,1,0,0:0:0:0:
339,163,61266,1,2,0:3:0:0:
289,148,61336,1,0,0:0:0:0:
258,101,61405,2,0,P|256:75|267:40,1,51.25,2|0,0:3|0:0,0:0:0:0:
249,245,61545,102,0,P|265:247|300:235,3,51.25,10|0|2|0,0:2|0:0|0:3|0:0,0:0:0:0:
389,179,61824,2,0,P|369:182|335:171,1,51.25,2|0,0:3|0:0,0:0:0:0:
182,5,61964,5,2,0:3:0:0:
200,0,62033,1,0,0:0:0:0:
218,1,62103,2,0,P|239:12|254:31,1,46.1249985923767,2|0,0:3|0:0,0:0:0:0:
237,114,62243,1,2,0:3:0:0:
239,130,62312,1,0,0:0:0:0:
232,146,62382,2,0,P|222:163|190:178,1,46.1249985923767,10|0,0:2|0:0,0:0:0:0:
83,38,62522,101,2,0:3:0:0:
88,55,62592,1,0,0:0:0:0:
83,70,62661,1,2,0:3:0:0:
71,81,62731,1,0,0:0:0:0:
60,86,62801,5,2,0:3:0:0:
26,109,62871,1,0,0:0:0:0:
15,153,62940,1,2,0:3:0:0:
33,201,63010,1,0,0:0:0:0:
86,219,63080,2,0,P|124:208|137:196,1,51.25,2|0,0:3|0:0,0:0:0:0:
159,0,63219,102,0,P|159:35|193:62,3,51.25,10|0|2|0,0:2|0:0|0:3|0:0,0:0:0:0:
73,95,63498,2,0,P|92:118|114:129,1,51.25,2|0,0:3|0:0,0:0:0:0:
239,111,63638,5,2,0:3:0:0:
259,108,63708,1,0,0:0:0:0:
275,119,63778,2,0,P|289:141|288:174,1,46.1249985923767,2|0,0:3|0:0,0:0:0:0:
366,213,63917,1,2,0:3:0:0:
370,230,63987,1,0,0:0:0:0:
365,248,64057,2,0,P|352:277|329:295,1,46.1249985923767,10|0,0:2|0:0,0:0:0:0:
184,319,64196,101,2,0:3:0:0:
184,298,64266,1,0,0:0:0:0:
192,282,64336,1,2,0:3:0:0:
204,273,64405,1,0,0:0:0:0:
216,271,64475,5,2,0:3:0:0:
247,244,64545,1,0,0:0:0:0:
258,199,64615,1,2,0:3:0:0:
236,152,64685,1,0,0:0:0:0:
182,137,64754,2,0,P|156:148|134:177,1,51.25,2|0,0:3|0:0,0:0:0:0:
237,349,64894,102,0,P|217:329|182:322,3,51.25,10|0|2|0,0:2|0:0|0:3|0:0,0:0:0:0:
192,238,65173,2,0,P|171:238|144:255,1,51.25,2|0,0:3|0:0,0:0:0:0:
137,376,65312,5,2,0:3:0:0:
118,384,65382,1,0,0:0:0:0:
97,381,65452,2,0,P|76:361|70:341,1,46.1249985923767,2|0,0:3|0:0,0:0:0:0:
3,285,65592,1,2,0:3:0:0:
2,266,65661,1,0,0:0:0:0:
7,248,65731,2,0,P|20:221|40:210,1,46.1249985923767,10|0,0:2|0:0,0:0:0:0:
159,130,65871,101,2,0:3:0:0:
175,140,65940,1,0,0:0:0:0:
183,156,66010,1,2,0:3:0:0:
185,171,66080,1,0,0:0:0:0:
180,183,66150,5,2,0:3:0:0:
176,222,66219,1,0,0:0:0:0:
195,255,66289,1,2,0:3:0:0:
229,265,66359,1,0,0:0:0:0:
259,252,66429,1,2,0:3:0:0:
268,223,66498,1,0,0:0:0:0:
252,198,66568,101,10,0:2:0:0:
223,247,66638,1,0,0:0:0:0:
237,302,66708,1,2,0:3:0:0:
283,333,66778,1,0,0:0:0:0:
338,323,66847,2,0,P|359:300|372:267,1,51.25,2|0,0:3|0:0,0:0:0:0:
299,134,66987,6,0,P|280:124|240:121,3,51.25,4|0|0|0,0:2|0:0|0:0|0:0,0:0:0:0:
378,82,67266,2,0,P|392:74|432:78,1,51.25,2|0,0:2|0:0,0:0:0:0:
259,8,67405,101,10,0:2:0:0:
233,0,67475,1,0,0:0:0:0:
211,8,67545,1,2,0:2:0:0:
202,27,67615,1,0,0:0:0:0:
186,35,67685,1,2,0:2:0:0:
171,31,67754,1,0,0:0:0:0:
168,18,67824,5,2,0:2:0:0:
206,32,67894,1,0,0:0:0:0:
223,68,67964,1,2,0:2:0:0:
222,108,68033,1,0,0:0:0:0:
192,137,68103,2,0,P|168:142|129:133,1,51.25,2|0,0:2|0:0,0:0:0:0:
81,2,68243,102,0,P|82:23|58:59,3,51.25,10|0|2|0,0:2|0:0|0:2|0:0,0:0:0:0:
53,136,68522,2,0,P|14:145|-11:138,1,51.25,2|0,0:2|0:0,0:0:0:0:
156,265,68661,5,2,0:2:0:0:
173,277,68731,1,0,0:0:0:0:
193,277,68801,2,0,P|215:266|227:237,1,46.1249985923767,2|0,0:2|0:0,0:0:0:0:
315,219,68940,1,2,0:2:0:0:
319,201,69010,1,0,0:0:0:0:
315,182,69080,2,0,P|312:166|285:135,1,46.1249985923767,10|0,0:2|0:0,0:0:0:0:
148,78,69219,101,2,0:2:0:0:
139,96,69289,1,0,0:0:0:0:
139,114,69359,1,2,0:2:0:0:
144,128,69429,1,0,0:0:0:0:
152,137,69498,5,2,0:2:0:0:
193,158,69568,1,0,0:0:0:0:
210,200,69638,1,2,0:2:0:0:
205,246,69708,1,0,0:0:0:0:
173,277,69778,2,0,P|143:284|103:271,1,51.25,2|0,0:2|0:0,0:0:0:0:
8,203,69917,102,0,P|23:209|62:202,3,51.25,10|0|2|0,0:2|0:0|0:2|0:0,0:0:0:0:
91,133,70196,2,0,P|116:129|143:138,1,51.25,2|0,0:2|0:0,0:0:0:0:
207,254,70336,6,0,P|218:233|219:197,1,51.25,2|0,0:2|0:0,0:0:0:0:
195,76,70475,2,0,P|213:99|221:140,1,51.25,2|0,0:2|0:0,0:0:0:0:
213,256,70615,2,0,P|227:221|226:194,1,51.25,2|0,0:2|0:0,0:0:0:0:
339,157,70754,101,10,0:2:0:0:
339,140,70824,1,0,0:0:0:0:
327,131,70894,1,2,0:2:0:0:
314,131,70964,1,0,0:0:0:0:
306,139,71033,1,2,0:2:0:0:
306,150,71103,1,0,0:0:0:0:
311,158,71173,5,2,0:2:0:0:
334,191,71243,1,0,0:0:0:0:
373,199,71312,1,2,0:2:0:0:
413,190,71382,1,0,0:0:0:0:
439,158,71452,2,0,P|444:126|433:94,1,51.25,2|0,0:2|0:0,0:0:0:0:
265,21,71592,102,0,P|273:54|287:66,3,51.25,10|0|2|0,0:2|0:0|0:2|0:0,0:0:0:0:
211,113,71871,2,0,P|197:146|177:157,1,51.25,2|0,0:2|0:0,0:0:0:0:
309,291,72010,5,2,0:2:0:0:
328,295,72080,1,0,0:0:0:0:
347,287,72150,2,0,P|362:268|361:235,1,46.1249985923767,2|0,0:2|0:0,0:0:0:0:
400,136,72289,1,2,0:2:0:0:
392,119,72359,1,0,0:0:0:0:
376,108,72429,2,0,P|354:102|319:108,1,46.1249985923767,10|0,0:2|0:0,0:0:0:0:
219,133,72568,1,2,0:2:0:0:
207,150,72638,1,0,0:0:0:0:
204,170,72708,2,0,P|210:193|249:221,1,51.25,2|0,0:2|0:0,0:0:0:0:
499,244,72847,102,0,B|509:210|509:210|509:200|509:200|522:149,3,76.8750029325486,2|0|2|0,0:2|0:0|0:2|0:0,0:0:0:0:
460,48,73126,2,0,L|467:112,1,51.25,2|0,0:0|0:0,0:0:0:0:
354,317,73266,5,10,0:2:0:0:
384,352,73336,1,0,0:0:0:0:
421,349,73405,1,4,0:2:0:0:
441,326,73475,1,0,0:0:0:0:
440,302,73545,2,0,P|433:283|400:269,1,51.25,4|0,0:2|0:0,0:0:0:0:
265,376,73685,101,4,0:2:0:0:
244,376,73754,1,0,0:0:0:0:
227,363,73824,2,0,P|215:330|229:302,1,51.25
168,227,73964,1,2,0:3:0:0:
172,206,74033,1,0,0:0:0:0:
185,189,74103,2,0,P|214:176|234:178,1,51.25,10|0,0:2|0:0,0:0:0:0:
394,203,74243,5,2,0:3:0:0:
399,222,74312,1,0,0:0:0:0:
397,239,74382,1,2,0:3:0:0:
390,252,74452,1,0,0:0:0:0:
378,259,74522,101,2,0:3:0:0:
334,242,74592,1,0,0:0:0:0:
312,195,74661,1,2,0:3:0:0:
328,140,74731,1,0,0:0:0:0:
379,105,74801,2,0,P|408:102|436:115,1,51.25,2|0,0:3|0:0,0:0:0:0:
511,261,74940,6,0,P|488:279|453:281,3,51.25,10|0|2|0,0:2|0:0|0:3|0:0,0:0:0:0:
432,365,75219,2,0,P|405:348|382:347,1,51.25,2|0,0:3|0:0,0:0:0:0:
298,202,75359,101,2,0:3:0:0:
316,210,75429,1,0,0:0:0:0:
325,227,75498,2,0,P|324:248|296:277,1,51.25,2|0,0:3|0:0,0:0:0:0:
297,361,75638,1,2,0:3:0:0:
279,379,75708,1,0,0:0:0:0:
259,384,75778,2,0,P|236:383|205:367,1,51.25,10|0,0:2|0:0,0:0:0:0:
101,269,75917,5,2,0:3:0:0:
117,255,75987,1,0,0:0:0:0:
134,253,76057,1,2,0:3:0:0:
148,259,76126,1,0,0:0:0:0:
156,268,76196,101,2,0:3:0:0:
150,313,76266,1,0,0:0:0:0:
103,336,76336,1,2,0:3:0:0:
51,317,76405,1,0,0:0:0:0:
25,260,76475,2,0,P|35:228|55:205,1,51.25,2|0,0:3|0:0,0:0:0:0:
182,157,76615,6,0,P|157:177|128:180,3,51.25,10|0|2|0,0:2|0:0|0:3|0:0,0:0:0:0:
44,80,76894,2,0,P|74:89|90:113,1,51.25,2|0,0:3|0:0,0:0:0:0:
287,58,77033,101,2,0:3:0:0:
272,43,77103,1,0,0:0:0:0:
252,38,77173,2,0,P|222:45|202:61,1,51.25,2|0,0:3|0:0,0:0:0:0:
196,131,77312,1,2,0:3:0:0:
183,147,77382,1,0,0:0:0:0:
179,167,77452,2,0,P|183:194|216:220,1,51.25,10|0,0:2|0:0,0:0:0:0:
355,210,77592,5,2,0:3:0:0:
359,190,77661,1,0,0:0:0:0:
351,173,77731,1,2,0:3:0:0:
337,164,77801,1,0,0:0:0:0:
324,163,77871,101,2,0:3:0:0:
294,197,77940,1,0,0:0:0:0:
296,248,78010,1,2,0:3:0:0:
337,286,78080,1,0,0:0:0:0:
398,284,78150,2,0,P|428:258|442:232,1,51.25,2|0,0:3|0:0,0:0:0:0:
366,50,78289,6,0,P|343:38|307:37,3,51.25,10|0|2|0,0:2|0:0|0:3|0:0,0:0:0:0:
258,111,78568,2,0,P|223:119|199:114,1,51.25,2|0,0:3|0:0,0:0:0:0:
68,14,78708,101,8,0:3:0:0:
14,45,78778,1,8,2:2:0:0:
0,105,78847,1,8,2:2:0:0:
24,161,78917,1,8,2:2:0:0:
77,191,78987,2,0,P|111:193|157:179,1,51.25,8|8,2:2|2:2,2:0:0:0:
252,101,79126,5,8,2:3:0:0:
313,104,79196,1,8,2:2:0:0:
357,147,79266,1,8,2:2:0:0:
365,208,79336,1,8,2:2:0:0:
337,262,79405,1,8,2:2:0:0:
280,286,79475,1,8,2:2:0:0:
221,266,79545,1,8,2:3:0:0:
166,279,79615,1,8,2:3:0:0:
142,324,79685,1,8,2:3:0:0:
157,367,79754,1,8,2:3:0:0:
194,384,79824,1,8,0:3:0:0:
227,371,79894,1,8,2:3:0:0:
230,340,79964,1,8,0:3:0:0:
211,322,80033,1,8,2:3:0:0:
190,324,80103,1,8,0:1:0:0:
178,340,80173,1,8,2:1:0:0:
179,355,80243,2,0,P|189:365|231:347,1,51.25,8|8,0:1|2:1,2:0:0:0:
409,355,80382,101,4,0:2:0:0:
415,346,80452,1,0,0:0:0:0:
418,336,80522,2,0,P|422:310|413:279,1,51.25
283,207,80661,5,4,0:2:0:0:
271,156,80731,1,0,0:0:0:0:
282,111,80801,1,0,0:0:0:0:
313,84,80871,1,0,0:0:0:0:
348,84,80940,1,4,0:2:0:0:
369,106,81010,1,0,0:0:0:0:
369,131,81080,1,0,0:0:0:0:
358,148,81150,1,0,0:0:0:0:
343,152,81219,101,10,0:2:0:0:
315,102,81289,1,0,0:0:0:0:
327,46,81359,1,0,0:0:0:0:
372,12,81429,1,0,0:0:0:0:
427,13,81498,1,0,0:0:0:0:
468,51,81568,1,0,0:0:0:0:
474,107,81638,6,0,P|470:132|450:166,1,51.25
337,155,81778,2,0,P|319:130|313:96,1,51.25,2|0,0:2|0:0,0:0:0:0:
481,100,81917,2,0,P|478:136|463:165,1,51.25
508,333,82057,101,0,0:0:0:0:
489,350,82126,1,0,0:0:0:0:
464,358,82196,1,0,0:0:0:0:
438,355,82266,1,0,0:0:0:0:
416,339,82336,2,0,P|402:321|403:284,3,51.25,2|0|0|0,0:2|0:0|0:0|0:0,0:0:0:0:
335,247,82615,2,0,P|367:220|392:215,3,51.25
293,344,82894,5,10,0:2:0:0:
234,364,82964,1,0,0:0:0:0:
180,349,83033,1,0,0:0:0:0:
155,303,83103,1,0,0:0:0:0:
172,260,83173,1,0,0:0:0:0:
211,249,83243,1,0,0:0:0:0:
240,268,83312,102,0,P|246:289|234:323,1,51.25
83,344,83452,2,0,P|73:321|74:285,1,51.25,2|0,0:2|0:0,0:0:0:0:
249,267,83592,2,0,P|254:294|243:327,1,51.25
146,75,83731,5,0,0:0:0:0:
171,75,83801,1,0,0:0:0:0:
189,92,83871,1,0,0:0:0:0:
194,116,83940,1,0,0:0:0:0:
188,140,84010,2,0,P|166:157|127:152,3,51.25,2|0|0|0,0:2|0:0|0:0|0:0,0:0:0:0:
103,221,84289,2,0,P|85:209|73:181,3,51.25
19,61,84568,101,10,0:2:0:0:
66,22,84638,1,0,0:0:0:0:
122,21,84708,1,0,0:0:0:0:
161,53,84778,1,0,0:0:0:0:
160,98,84847,1,0,0:0:0:0:
125,119,84917,1,0,0:0:0:0:
91,105,84987,6,0,P|83:91|90:51,1,51.25
241,5,85126,2,0,P|250:29|255:63,1,51.25,2|0,0:2|0:0,0:0:0:0:
81,110,85266,2,0,P|75:83|86:50,1,51.25
256,174,85405,101,8,0:3:0:0:
269,179,85475,1,0,0:0:0:0:
280,170,85545,1,0,0:0:0:0:
278,155,85615,1,0,0:0:0:0:
264,149,85685,2,0,P|251:166|258:178,1,35.8749989051819,8|0,0:3|0:0,0:0:0:0:
223,353,85824,5,8,0:3:0:0:
224,363,85894,1,0,0:0:0:0:
231,370,85964,1,0,0:0:0:0:
241,373,86033,1,0,0:0:0:0:
247,366,86103,2,0,P|243:351|222:361,1,35.8749989051819,8|0,0:3|0:0,0:0:0:0:
333,255,86243,102,0,P|301:270|279:270,1,41,8|0,0:2|0:0,0:0:0:0:
174,245,86382,2,0,P|209:259|242:257,1,46.1249985923767,8|0,0:3|0:0,0:0:0:0:
380,188,86522,6,0,P|352:178|321:178,1,51.25,8|0,0:3|0:0,0:0:0:0:
147,150,86661,2,0,P|195:139|220:144,1,51.25,8|0,0:3|0:0,0:0:0:0:
299,26,86801,102,0,P|306:53|304:91,1,51.25,8|0,0:1|0:0,0:0:0:0:
311,100,86940,2,0,P|316:68|324:51,1,51.25,8|0,0:1|0:0,0:0:0:0:
152,73,87080,85,4,0:2:0:0:
99,79,87150,1,0,0:0:0:0:
67,111,87219,1,0,0:0:0:0:
66,152,87289,1,0,0:0:0:0:
80,184,87359,2,0,P|86:220|71:253,1,58.9375011241436,2|0,0:3|0:0,0:0:0:0:
22,326,87498,101,0,0:0:0:0:
45,284,87568,1,0,0:0:0:0:
81,264,87638,1,2,0:3:0:0:
115,264,87708,1,0,0:0:0:0:
141,278,87778,2,0,B|171:274|171:274|175:270|175:270|204:266,1,58.9375011241436
304,354,87917,6,0,B|314:369|314:369|323:320,1,58.9375011241436,10|0,0:2|0:0,0:0:0:0:
401,226,88057,101,0,0:0:0:0:
458,234,88126,1,0,0:0:0:0:
490,279,88196,1,2,0:3:0:0:
483,331,88266,1,0,0:0:0:0:
447,362,88336,1,8,0:2:0:0:
412,364,88405,1,0,0:0:0:0:
392,350,88475,6,0,L|400:312,3,28.1875008602143,2|0|8|0,0:3|0:0|0:2|0:0,0:0:0:0:
284,259,88754,101,2,0:3:0:0:
294,215,88824,1,0,0:0:0:0:
331,195,88894,1,8,0:2:0:0:
360,203,88964,1,0,0:0:0:0:
373,212,89033,6,0,B|386:221|406:220|406:220|427:192,1,58.9375011241436,2|0,0:3|0:0,0:0:0:0:
503,109,89173,2,0,P|485:86|447:82,1,58.9375011241436,8|0,0:2|0:0,0:0:0:0:
377,35,89312,101,2,0:3:0:0:
365,34,89382,1,0,0:0:0:0:
354,38,89452,2,0,P|326:61|324:93,1,58.9375011241436
191,152,89592,5,10,0:2:0:0:
134,165,89661,1,0,0:0:0:0:
89,147,89731,1,0,0:0:0:0:
78,113,89801,1,0,0:0:0:0:
86,90,89871,102,0,P|102:81|128:82,3,28.1875008602143,2|0|8|0,0:3|0:0|0:2|0:0,0:0:0:0:
163,25,90150,2,0,P|178:34|190:57,3,28.1875008602143,2|0|8|0,0:3|0:0|0:2|0:0,0:0:0:0:
384,136,90429,5,2,0:3:0:0:
363,108,90499,1,0,0:0:0:0:
340,108,90569,2,0,B|308:121|308:121|291:149,1,58.9375011241436,8|0,0:2|0:0,0:0:0:0:
225,241,90708,101,0,3:0:0:0:
213,239,90778,1,0,3:0:0:0:
202,241,90847,1,8,3:2:0:0:
191,247,90917,1,0,3:0:0:0:
184,255,90987,1,2,3:3:0:0:
180,266,91057,1,0,3:0:0:0:
182,276,91126,2,0,B|173:282|159:281|159:281|117:247,1,58.9375011241436,0|0,3:0|3:0,3:0:0:0:
12,128,91266,5,10,0:2:0:0:
29,77,91336,1,0,0:0:0:0:
71,58,91405,1,0,0:0:0:0:
112,57,91475,1,0,0:0:0:0:
143,75,91545,1,2,0:3:0:0:
153,105,91615,1,0,0:0:0:0:
176,122,91685,1,8,0:2:0:0:
203,121,91754,1,0,0:0:0:0:
221,107,91824,102,0,L|228:73,3,28.1875008602143,2|0|8|0,0:3|0:0|0:2|0:0,0:0:0:0:
83,135,92103,5,2,0:3:0:0:
72,181,92173,1,0,0:0:0:0:
86,219,92243,1,8,0:2:0:0:
118,232,92312,1,0,0:0:0:0:
147,230,92382,102,0,B|172:221|172:221|178:221|178:221|220:208,1,58.9375011241436,2|0,0:3|0:0,0:0:0:0:
234,290,92522,2,0,B|208:297|208:297|202:297|202:297|177:306,1,58.9375011241436,8|0,0:2|0:0,0:0:0:0:
100,304,92661,6,0,P|92:292|88:278,3,28.1875008602143,2|0|0|0,0:3|0:0|0:0|0:0,0:0:0:0:
277,224,92940,101,10,0:2:0:0:
334,211,93010,1,0,0:0:0:0:
389,231,93080,1,0,0:0:0:0:
416,283,93150,1,0,0:0:0:0:
400,339,93219,6,0,P|356:358|338:349,1,58.9375011241436,2|0,0:3|0:0,0:0:0:0:
279,376,93359,2,0,P|242:344|242:324,1,58.9375011241436,8|0,0:2|0:0,0:0:0:0:
211,199,93498,101,4,0:2:0:0:
218,208,93568,1,0,0:0:0:0:
223,224,93638,1,0,0:0:0:0:
215,246,93708,1,0,0:0:0:0:
188,259,93778,5,4,0:2:0:0:
173,214,93847,1,0,0:0:0:0:
184,168,93917,1,0,0:0:0:0:
224,143,93987,1,0,0:0:0:0:
271,144,94057,1,2,0:2:0:0:
303,169,94126,1,0,0:0:0:0:
324,204,94196,1,0,0:0:0:0:
360,223,94266,1,0,0:0:0:0:
401,221,94336,1,2,0:2:0:0:
433,201,94405,1,0,0:0:0:0:
445,167,94475,1,0,0:0:0:0:
435,138,94545,1,0,0:0:0:0:
416,122,94615,101,10,0:2:0:0:
410,124,94685,1,0,0:0:0:0:
404,130,94754,1,0,0:0:0:0:
400,141,94824,1,0,0:0:0:0:
400,155,94894,1,2,0:2:0:0:
405,171,94964,1,0,0:0:0:0:
419,185,95033,1,0,0:0:0:0:
441,192,95103,1,0,0:0:0:0:
467,188,95173,1,2,0:2:0:0:
494,165,95243,1,0,0:0:0:0:
506,123,95312,6,0,B|497:106|485:101|485:101|453:92,1,58.9375011241436
360,24,95452,101,2,0:2:0:0:
336,27,95522,1,0,0:0:0:0:
317,42,95592,2,0,P|301:73|299:102,1,58.9375011241436
240,152,95731,5,2,0:2:0:0:
241,170,95801,1,0,0:0:0:0:
250,184,95871,2,0,P|277:201|303:206,1,58.9375011241436
390,168,96010,102,0,B|379:157|379:157|363:152,3,28.1875008602143,2|0|0|0,0:2|0:0|0:0|0:0,0:0:0:0:
364,341,96289,6,0,B|337:355|337:355|381:359,1,58.9375011241436,10|0,0:2|0:2,0:2:0:0:
447,245,96429,2,0,B|474:259|474:259|430:263,1,58.9375011241436
276,278,96568,101,2,0:2:0:0:
231,263,96638,1,0,0:0:0:0:
190,273,96708,1,0,0:0:0:0:
167,300,96778,1,0,0:0:0:0:
163,328,96847,1,4,0:2:0:0:
166,339,96917,1,0,0:0:0:0:
174,346,96987,6,0,B|197:342|197:342|217:307,1,58.9375011241436
96,126,97126,101,4,0:2:0:0:
143,165,97196,1,0,0:0:0:0:
201,142,97266,1,0,0:0:0:0:
209,81,97336,1,0,0:0:0:0:
184,41,97405,1,2,0:2:0:0:
149,31,97475,1,0,0:0:0:0:
120,39,97545,1,0,0:0:0:0:
104,56,97615,1,0,0:0:0:0:
104,78,97685,6,0,L|145:87,3,28.1875008602143,2|0|0|0,0:2|0:0|0:0|0:0,0:0:0:0:
287,71,97964,101,10,0:2:0:0:
333,65,98033,1,0,0:0:0:0:
361,86,98103,1,0,0:0:0:0:
370,107,98173,1,0,0:0:0:0:
376,116,98243,1,2,0:2:0:0:
386,123,98312,1,0,0:0:0:0:
396,126,98382,1,0,0:0:0:0:
407,126,98452,1,0,0:0:0:0:
418,123,98522,6,0,P|438:102|437:69,1,58.9375011241436,2|0,0:2|0:0,0:0:0:0:
447,203,98661,2,0,P|467:224|466:257,1,58.9375011241436
296,226,98801,101,2,0:2:0:0:
338,205,98871,1,0,0:0:0:0:
375,221,98940,1,0,0:0:0:0:
390,252,99010,1,0,0:0:0:0:
386,281,99080,6,0,L|377:316,3,28.1875008602143,2|0|0|0,0:2|0:0|0:0|0:0,0:0:0:0:
181,374,99359,102,0,L|244:353,1,58.9375011241436,2|0,0:2|0:0,0:0:0:0:
306,323,99498,2,0,L|243:302,1,58.9375011241436
73,170,99638,5,10,0:2:0:0:
26,195,99708,1,0,0:0:0:0:
26,242,99778,2,0,B|30:254|30:254|59:267|94:246,1,58.9375011241436
181,250,99917,101,2,0:2:0:0:
216,281,99987,1,0,0:0:0:0:
214,322,100057,1,0,0:0:0:0:
187,344,100126,1,0,0:0:0:0:
157,347,100196,6,0,P|138:338|114:329,3,28.1875008602143,4|0|4|0,0:2|0:0|0:2|0:0,0:0:0:0:
248,188,100475,101,4,0:2:0:0:
259,185,100545,1,0,0:0:0:0:
270,187,100615,1,0,0:0:0:0:
279,193,100685,1,0,0:0:0:0:
285,202,100754,5,2,0:3:0:0:
302,252,100824,1,0,0:0:0:0:
352,268,100894,1,0,0:0:0:0:
403,253,100964,1,0,0:0:0:0:
431,208,101033,1,2,0:3:0:0:
431,154,101103,1,0,0:0:0:0:
396,113,101173,1,0,0:0:0:0:
343,105,101243,1,0,0:0:0:0:
295,126,101312,101,10,0:2:0:0:
316,80,101382,1,0,0:0:0:0:
295,37,101452,1,0,0:0:0:0:
253,21,101522,1,0,0:0:0:0:
212,26,101592,1,2,0:3:0:0:
189,52,101661,1,0,0:0:0:0:
187,81,101731,1,8,0:2:0:0:
195,102,101801,1,0,0:0:0:0:
208,113,101871,1,2,0:3:0:0:
218,117,101940,1,0,0:0:0:0:
229,116,102010,1,8,0:2:0:0:
240,111,102080,1,0,0:0:0:0:
245,105,102150,6,0,P|240:125|239:143,3,38.4375014662743,2|0|8|0,0:3|0:0|0:2|0:0,0:0:0:0:
290,204,102429,2,0,P|295:224|296:242,3,38.4375014662743,2|0|8|0,0:3|0:0|0:2|0:0,0:0:0:0:
134,279,102708,101,2,0:3:0:0:
122,279,102778,1,0,0:0:0:0:
109,289,102847,1,0,0:0:0:0:
103,314,102917,1,0,0:0:0:0:
126,342,102987,6,0,B|146:339|160:341|160:341|162:328|181:315,1,58.9375011241436,8|0,0:2|0:0,0:0:0:0:
256,255,103126,1,0,0:0:0:0:
245,220,103196,1,0,0:0:0:0:
216,213,103266,102,0,B|196:210|182:212|182:212|179:199|161:186,1,58.9375011241436,2|0,0:3|0:0,0:0:0:0:
288,106,103405,5,8,0:2:0:0:
299,107,103475,1,0,0:0:0:0:
310,111,103545,1,2,0:3:0:0:
317,120,103615,1,0,0:0:0:0:
327,141,103685,1,8,0:2:0:0:
353,163,103754,1,0,0:0:0:0:
400,158,103824,102,0,B|420:156|427:140|427:140|421:103,1,58.9375011241436,2|0,0:3|0:0,0:0:0:0:
463,51,103964,2,0,B|461:31|445:24|445:24|408:30,1,58.9375011241436,8|0,0:2|0:0,0:0:0:0:
260,10,104103,5,2,0:3:0:0:
207,17,104173,1,0,0:0:0:0:
184,65,104243,1,8,0:2:0:0:
195,116,104312,1,0,0:0:0:0:
243,138,104382,1,2,0:3:0:0:
293,120,104452,1,0,0:0:0:0:
345,128,104522,1,0,0:0:0:0:
382,165,104592,1,0,0:0:0:0:
385,217,104661,101,10,0:2:0:0:
334,215,104731,1,0,0:0:0:0:
310,173,104801,1,0,0:0:0:0:
321,130,104871,1,0,0:0:0:0:
357,111,104940,1,2,0:3:0:0:
392,112,105010,1,0,0:0:0:0:
416,129,105080,1,8,0:2:0:0:
424,151,105150,1,0,0:0:0:0:
420,166,105219,1,2,0:3:0:0:
411,174,105289,1,0,0:0:0:0:
403,186,105359,1,8,0:2:0:0:
401,203,105429,1,0,0:0:0:0:
407,222,105498,5,2,0:3:0:0:
423,239,105568,1,0,0:0:0:0:
448,246,105638,1,8,0:2:0:0:
468,267,105708,1,0,0:0:0:0:
474,301,105778,102,0,B|455:309|455:309|425:299,3,38.4375014662743,2|0|8|0,0:3|0:0|0:2|0:0,0:0:0:0:
369,370,106057,2,0,B|350:361|350:361|320:371,3,38.4375014662743,2|0|0|0,0:3|0:0|0:0|0:0,0:0:0:0:
199,200,106336,5,10,0:2:0:0:
176,209,106405,1,0,0:0:0:0:
164,230,106475,2,0,P|165:274|188:293,1,58.9375011241436
184,359,106615,101,2,0:3:0:0:
196,371,106685,1,0,0:0:0:0:
214,372,106754,2,0,P|249:362|264:328,1,58.9375011241436,8|0,0:2|0:0,0:0:0:0:
310,283,106894,6,0,P|332:284|347:290,3,28.1875008602143,2|0|8|0,0:3|0:0|0:2|0:0,0:0:0:0:
470,367,107173,101,4,0:2:0:0:
504,326,107243,1,0,0:0:0:0:
501,273,107312,1,0,0:0:0:0:
467,232,107382,1,0,0:0:0:0:
414,221,107452,1,2,0:2:0:0:
368,241,107522,1,0,0:0:0:0:
342,280,107592,1,0,0:0:0:0:
301,296,107661,1,0,0:0:0:0:
260,289,107731,1,2,0:2:0:0:
238,260,107801,1,0,0:0:0:0:
235,230,107871,1,0,0:0:0:0:
247,210,107940,1,0,0:0:0:0:
262,201,108010,6,0,L|275:163,3,28.1875008602143,10|0|0|0,0:2|0:0|0:0|0:0,0:0:0:0:
338,120,108289,2,0,L|325:82,1,28.1875008602143,2|0,0:2|0:0,0:0:0:0:
263,168,108429,2,0,L|253:194,1,28.1875008602143,0|0,0:2|0:0,0:0:0:0:
195,98,108568,101,2,0:2:0:0:
184,87,108638,1,0,0:0:0:0:
181,63,108708,1,0,0:0:0:0:
204,31,108778,1,0,0:0:0:0:
256,26,108847,6,0,B|261:37|261:37|215:26,1,58.9375011241436,4|0,0:2|0:0,0:0:0:0:
90,29,108987,101,0,0:0:0:0:
59,79,109057,1,0,0:0:0:0:
72,124,109126,1,2,0:2:0:0:
101,144,109196,1,0,0:0:0:0:
124,145,109266,1,0,0:0:0:0:
139,152,109336,1,0,0:0:0:0:
145,161,109405,1,2,0:2:0:0:
152,186,109475,1,0,0:0:0:0:
144,214,109545,2,0,P|132:243|113:264,1,47.1499984172059
24,342,109685,6,0,B|38:356|38:356|84:347,3,58.9375011241436,10|0|0|0,0:2|0:0|0:0|0:0,0:0:0:0:
176,338,109964,101,2,0:2:0:0:
192,300,110033,1,0,0:0:0:0:
227,278,110103,1,0,0:0:0:0:
268,277,110173,1,0,0:0:0:0:
306,291,110243,1,4,0:2:0:0:
328,317,110312,1,0,0:0:0:0:
354,329,110382,1,4,0:2:0:0:
377,327,110452,1,0,0:0:0:0:
391,313,110522,6,0,P|372:293|363:262,1,58.9375011241436,4|0,0:2|0:0,0:0:0:0:
470,148,110661,2,0,P|466:190|454:213,1,58.9375011241436
311,176,110801,101,2,0:2:0:0:
286,151,110871,1,0,0:0:0:0:
286,117,110940,1,0,0:0:0:0:
312,93,111010,1,0,0:0:0:0:
347,90,111080,2,0,B|357:106|357:106|344:145,3,58.9375011241436,2|0|0|0,0:2|0:0|0:0|0:0,0:0:0:0:
176,122,111359,6,0,L|109:112,1,58.9375011241436,10|0,0:2|0:0,0:0:0:0:
219,38,111498,2,0,L|286:28,1,58.9375011241436
62,59,111638,101,2,0:2:0:0:
38,85,111708,1,0,0:0:0:0:
32,120,111778,1,0,0:0:0:0:
45,152,111847,1,0,0:0:0:0:
72,174,111917,5,2,0:2:0:0:
86,183,111987,1,0,0:0:0:0:
96,204,112057,1,0,0:0:0:0:
96,233,112126,1,0,0:0:0:0:
78,263,112196,101,8,0:3:0:0:
114,259,112266,1,8,0:3:0:0:
150,255,112336,1,8,0:3:0:0:
185,251,112405,1,8,0:3:0:0:
206,226,112475,6,0,L|272:241,3,45.6125000347996,8|8|8|8,0:3|0:3|0:3|0:3,0:0:0:0:
303,334,112754,102,0,P|330:333|360:317,1,45.6125000347996,8|8,0:1|0:1,0:0:0:0:
312,343,112894,2,0,P|339:342|369:326,1,45.6125000347996,8|8,0:1|0:1,0:0:0:0:
465,191,113033,5,8,0:2:0:0:
450,234,113103,1,8,0:2:0:0:
411,258,113173,1,8,0:2:0:0:
367,249,113243,1,8,0:2:0:0:
335,194,113312,101,8,0:3:0:0:
332,213,113382,1,8,0:3:0:0:
329,231,113452,1,8,0:3:0:0:
326,249,113522,1,8,0:3:0:0:
297,264,113592,5,8,0:3:0:0:
299,276,113662,1,8,0:3:0:0:
301,286,113732,1,8,0:3:0:0:
303,297,113802,1,8,0:3:0:0:
304,314,113871,102,0,P|335:314|362:326,1,49.2,4|0,0:2|2:0,0:0:0:0:
295,344,114150,5,2,0:3:0:0:
237,364,114219,1,8,1:2:0:0:
177,347,114289,1,2,0:3:0:0:
144,294,114359,1,8,1:2:0:0:
148,232,114429,1,2,0:3:0:0:
188,186,114498,1,8,1:2:0:0:
247,168,114568,1,2,0:3:0:0:
307,181,114638,1,8,1:2:0:0:
358,215,114708,1,2,0:3:0:0:
416,212,114778,1,8,1:2:0:0:
459,178,114847,1,2,0:3:0:0:
470,126,114917,1,8,1:2:0:0:
450,80,114987,1,2,0:3:0:0:
410,62,115057,1,8,1:2:0:0:
374,68,115126,1,2,0:3:0:0:
355,92,115196,1,8,1:2:0:0:
356,116,115266,1,2,0:3:0:0:
363,125,115336,1,8,1:2:0:0:
375,124,115405,1,2,0:3:0:0:
381,113,115475,1,8,1:2:0:0:
373,103,115545,101,2,0:3:0:0:
328,82,115615,1,8,1:2:0:0:
278,85,115685,1,2,0:3:0:0:
241,117,115754,1,8,1:2:0:0:
217,160,115824,1,2,0:3:0:0:
172,181,115894,1,8,1:2:0:0:
123,170,115964,1,2,0:3:0:0:
99,127,116033,1,8,1:2:0:0:
110,79,116103,1,2,0:3:0:0:
145,54,116173,1,8,1:2:0:0:
181,52,116243,2,0,B|191:58|192:73|192:73|178:115,1,61.499998123169,2|8,0:3|1:2,0:0:0:0:
129,256,116382,6,0,P|100:279|84:310,3,61.499998123169,2|8|2|8,0:3|1:2|0:3|1:2,0:0:0:0:
20,326,116661,2,0,P|35:359|68:372,3,61.499998123169,2|8|2|8,0:3|1:2|0:3|1:2,0:0:0:0:
153,347,116940,101,2,0:3:0:0:
158,344,117010,1,8,1:2:0:0:
164,343,117080,1,2,0:3:0:0:
170,343,117150,1,8,1:2:0:0:
175,344,117219,5,2,0:3:0:0:
192,284,117289,1,8,1:2:0:0:
243,249,117359,1,2,0:3:0:0:
304,242,117429,1,8,1:2:0:0:
354,275,117498,1,2,0:3:0:0:
410,290,117568,1,8,1:2:0:0:
463,274,117638,1,2,0:3:0:0:
493,231,117708,1,8,1:2:0:0:
482,182,117778,1,2,0:3:0:0:
449,154,117847,1,8,1:2:0:0:
431,121,117917,1,2,0:3:0:0:
425,90,117987,1,8,1:2:0:0:
437,68,118057,101,2,0:3:0:0:
413,117,118126,1,8,1:2:0:0:
362,139,118196,1,2,0:3:0:0:
307,126,118266,1,8,1:2:0:0:
272,82,118336,1,2,0:3:0:0:
230,50,118405,1,8,1:2:0:0:
181,43,118475,1,2,0:3:0:0:
139,63,118545,1,8,1:2:0:0:
119,101,118615,1,2,0:3:0:0:
87,120,118685,1,8,1:2:0:0:
57,113,118754,1,2,0:3:0:0:
41,93,118824,1,8,1:2:0:0:
39,74,118894,5,2,0:3:0:0:
82,96,118964,1,8,1:2:0:0:
130,97,119033,1,2,0:3:0:0:
173,73,119103,1,8,1:2:0:0:
221,66,119173,1,2,0:3:0:0:
259,91,119243,1,8,1:2:0:0:
279,128,119312,1,2,0:3:0:0:
274,167,119382,1,8,1:2:0:0:
255,199,119452,1,2,0:3:0:0:
229,216,119522,1,8,1:2:0:0:
204,217,119592,1,2,0:3:0:0:
186,212,119661,1,8,1:2:0:0:
177,203,119731,101,2,0:2:0:0:
208,157,119801,1,8,1:2:0:0:
261,142,119871,1,2,0:2:0:0:
314,154,119940,1,8,1:2:0:0:
345,199,120010,1,2,0:2:0:0:
385,237,120080,1,8,1:2:0:0:
440,234,120150,1,2,0:2:0:0:
483,201,120219,1,8,1:2:0:0:
486,145,120289,5,2,0:2:0:0:
455,142,120359,1,8,1:2:0:0:
430,160,120429,2,0,B|421:171|428:198|428:198|441:206|445:224,1,61.499998123169,2|8,0:2|1:2,0:0:0:0:
431,362,120568,101,4,0:2:0:0:
371,376,120638,1,8,1:2:0:0:
313,353,120708,1,0,0:0:0:0:
284,298,120778,1,8,1:2:0:0:
289,237,120847,1,2,0:2:0:0:
330,200,120917,1,8,1:2:0:0:
379,200,120987,1,2,0:2:0:0:
402,235,121057,1,8,1:2:0:0:
388,268,121126,1,2,0:2:0:0:
376,273,121196,1,8,1:2:0:0:
364,268,121266,1,2,0:2:0:0:
357,257,121336,1,8,1:2:0:0:
362,246,121405,5,2,0:2:0:0:
417,285,121475,1,8,1:2:0:0:
477,273,121545,1,2,0:2:0:0:
498,221,121615,1,8,1:2:0:0:
486,173,121685,1,2,0:2:0:0:
451,147,121754,1,8,1:2:0:0:
401,148,121824,1,2,0:2:0:0:
352,159,121894,1,8,1:2:0:0:
305,142,121964,1,2,0:2:0:0:
285,97,122033,1,8,1:2:0:0:
298,49,122103,1,2,0:2:0:0:
341,25,122173,1,8,1:2:0:0:
389,34,122243,101,2,0:2:0:0:
403,80,122312,1,8,1:2:0:0:
381,124,122382,1,2,0:2:0:0:
336,144,122452,1,8,1:2:0:0:
288,129,122522,1,2,0:2:0:0:
249,97,122592,1,8,1:2:0:0:
201,85,122661,1,2,0:2:0:0:
155,103,122731,1,8,1:2:0:0:
131,146,122801,1,2,0:2:0:0:
141,194,122871,1,8,1:2:0:0:
176,226,122940,1,2,0:2:0:0:
225,226,123010,1,8,1:2:0:0:
269,203,123080,5,2,0:2:0:0:
317,192,123150,1,8,1:2:0:0:
362,210,123219,1,2,0:2:0:0:
392,249,123289,1,8,1:2:0:0:
393,298,123359,1,2,0:2:0:0:
370,342,123429,1,8,1:2:0:0:
328,367,123498,1,2,0:2:0:0:
278,364,123568,1,8,1:2:0:0:
237,336,123638,1,2,0:2:0:0:
197,319,123708,1,8,1:2:0:0:
160,325,123778,1,2,0:2:0:0:
138,346,123847,1,8,1:2:0:0:
131,369,123917,101,2,0:2:0:0:
198,365,123987,1,8,1:2:0:0:
233,314,124057,1,2,0:2:0:0:
228,259,124126,1,8,1:2:0:0:
187,231,124196,1,2,0:2:0:0:
143,232,124266,1,8,1:2:0:0:
110,214,124336,1,2,0:2:0:0:
100,184,124405,1,8,1:2:0:0:
107,160,124475,5,2,0:2:0:0:
130,168,124545,1,8,1:2:0:0:
134,185,124615,1,2,0:2:0:0:
130,196,124685,1,8,1:2:0:0:
125,200,124754,101,2,0:2:0:0:
78,229,124824,1,8,1:2:0:0:
77,284,124894,1,2,0:2:0:0:
118,321,124964,1,8,1:2:0:0:
172,314,125033,1,2,0:2:0:0:
211,275,125103,1,8,1:2:0:0:
265,262,125173,1,2,0:2:0:0:
317,279,125243,1,8,1:2:0:0:
338,329,125312,1,2,0:2:0:0:
335,341,125382,1,8,1:2:0:0:
323,343,125452,1,2,0:2:0:0:
314,333,125522,1,8,1:2:0:0:
318,321,125592,5,2,0:2:0:0:
376,359,125661,1,8,1:2:0:0:
446,350,125731,1,2,0:2:0:0:
476,285,125801,1,8,1:2:0:0:
456,216,125871,1,2,0:2:0:0:
393,193,125940,1,8,1:2:0:0:
331,212,126010,1,2,0:2:0:0:
275,239,126080,1,8,1:2:0:0:
218,222,126150,1,2,0:2:0:0:
192,176,126219,1,8,1:2:0:0:
199,130,126289,2,0,P|228:113|262:109,1,61.499998123169,2|8,0:2|1:2,0:0:0:0:
437,115,126429,101,2,0:2:0:0:
473,83,126498,1,8,1:2:0:0:
475,39,126568,1,2,0:2:0:0:
446,15,126638,1,8,1:2:0:0:
415,15,126708,2,0,B|421:45|421:45|423:48|423:48|431:84,3,46.1249985923767,2|8|2|8,0:2|1:2|0:2|1:2,0:0:0:0:
469,121,126987,2,0,B|463:151|463:151|461:154|461:154|453:190,3,38.4375014662743,4|8|0|8,0:2|1:2|0:0|1:2,0:0:0:0:
375,266,127266,5,4,0:2:0:0:
342,318,127336,1,8,1:2:0:0:
282,332,127405,1,0,0:0:0:0:
226,305,127475,1,8,1:2:0:0:
211,244,127545,1,2,0:3:0:0:
221,183,127615,1,8,1:2:0:0:
190,129,127685,1,2,0:3:0:0:
133,107,127754,1,8,1:2:0:0:
78,135,127824,1,2,0:3:0:0:
56,192,127894,1,8,1:2:0:0:
78,249,127964,1,2,0:3:0:0:
137,261,128033,1,8,1:2:0:0:
191,231,128103,1,2,0:3:0:0:
199,172,128173,1,8,1:2:0:0:
177,120,128243,1,2,0:3:0:0:
198,72,128312,1,8,1:2:0:0:
240,47,128382,1,2,0:3:0:0:
281,57,128452,1,8,1:2:0:0:
302,86,128522,1,2,0:3:0:0:
302,116,128592,1,8,1:2:0:0:
290,137,128661,1,2,0:3:0:0:
267,147,128731,1,8,1:2:0:0:
242,142,128801,1,2,0:3:0:0:
230,119,128871,1,8,1:2:0:0:
234,95,128940,101,2,0:3:0:0:
285,74,129010,1,8,1:2:0:0:
333,100,129080,1,2,0:3:0:0:
348,153,129150,1,8,1:2:0:0:
332,205,129219,1,2,0:3:0:0:
285,228,129289,1,8,1:2:0:0:
236,217,129359,1,2,0:3:0:0:
189,216,129429,1,8,1:2:0:0:
155,242,129498,1,2,0:3:0:0:
147,278,129568,1,8,1:2:0:0:
161,305,129638,1,2,0:3:0:0:
181,318,129708,1,8,1:2:0:0:
199,320,129778,5,2,0:3:0:0:
228,281,129847,1,8,1:2:0:0:
223,231,129917,1,2,0:3:0:0:
186,197,129987,1,8,1:2:0:0:
138,183,130057,1,2,0:3:0:0:
100,156,130126,1,8,1:2:0:0:
92,113,130196,1,2,0:3:0:0:
104,74,130266,1,8,1:2:0:0:
133,52,130336,1,2,0:3:0:0:
163,49,130405,1,8,1:2:0:0:
186,56,130475,1,2,0:3:0:0:
200,67,130545,1,8,1:2:0:0:
205,78,130615,101,2,0:3:0:0:
161,76,130685,1,8,1:2:0:0:
132,107,130754,1,2,0:3:0:0:
135,150,130824,1,8,1:2:0:0:
166,179,130894,1,2,0:3:0:0:
206,177,130964,1,8,1:2:0:0:
237,158,131033,1,2,0:3:0:0:
270,152,131103,1,8,1:2:0:0:
297,166,131173,1,2,0:3:0:0:
309,187,131243,1,8,1:2:0:0:
309,205,131312,1,2,0:3:0:0:
303,216,131382,1,8,1:2:0:0:
299,221,131452,5,2,0:3:0:0:
349,198,131522,1,8,1:2:0:0:
401,215,131592,1,2,0:3:0:0:
429,261,131661,1,8,1:2:0:0:
425,316,131731,1,2,0:3:0:0:
387,352,131801,1,8,1:2:0:0:
338,358,131871,1,2,0:3:0:0:
298,335,131940,1,8,1:2:0:0:
271,300,132010,1,2,0:3:0:0:
236,287,132080,1,8,1:2:0:0:
205,293,132150,1,2,0:3:0:0:
185,307,132219,1,8,1:2:0:0:
177,323,132289,101,2,0:3:0:0:
237,309,132359,1,8,1:2:0:0:
272,258,132429,1,2,0:3:0:0:
258,198,132498,1,8,1:2:0:0:
207,163,132568,1,2,0:3:0:0:
149,171,132638,1,8,1:2:0:0:
93,172,132708,1,2,0:3:0:0:
58,132,132778,1,8,1:2:0:0:
69,84,132847,1,2,0:3:0:0:
107,64,132917,1,8,1:2:0:0:
138,83,132987,1,2,0:3:0:0:
147,112,133057,1,8,1:2:0:0:
134,132,133126,5,2,0:2:0:0:
133,76,133196,1,8,0:2:0:0:
176,41,133266,1,2,0:2:0:0:
231,39,133336,1,8,0:2:0:0:
276,69,133405,1,2,0:2:0:0:
290,119,133475,1,8,0:2:0:0:
275,165,133545,1,2,0:2:0:0:
243,198,133615,1,8,0:2:0:0:
247,240,133685,1,2,0:2:0:0:
269,268,133754,1,8,0:2:0:0:
298,276,133824,1,2,0:2:0:0:
322,273,133894,1,8,0:2:0:0:
338,262,133964,102,0,L|326:209,1,51.25,4|0,0:2|0:0,0:0:0:0:
184,110,134103,2,0,L|172:163,1,51.25
342,256,134243,2,0,L|330:203,1,51.25,2|0,0:2|0:0,0:0:0:0:
458,56,134382,37,0,0:0:0:0:
467,51,134452,1,0,0:0:0:0:
476,48,134522,1,2,0:2:0:0:
486,47,134592,1,0,0:0:0:0:
496,48,134661,1,0,0:0:0:0:
505,52,134731,1,0,0:0:0:0:
512,59,134801,5,10,0:2:0:0:
475,15,134871,1,0,0:0:0:0:
421,11,134940,1,0,0:0:0:0:
374,33,135010,1,0,0:0:0:0:
347,73,135080,1,2,0:2:0:0:
337,118,135150,1,0,0:0:0:0:
304,146,135219,1,0,0:0:0:0:
262,145,135289,1,0,0:0:0:0:
232,120,135359,1,2,0:2:0:0:
229,84,135429,1,0,0:0:0:0:
251,60,135498,1,0,0:0:0:0:
281,60,135568,1,0,0:0:0:0:
299,81,135638,102,0,L|281:156,1,51.25,2|0,0:2|0:0,0:0:0:0:
218,230,135778,2,0,L|200:155,1,51.25
150,3,135917,2,0,L|132:78,1,51.25,2|0,0:2|0:0,0:0:0:0:
54,223,136057,5,0,0:0:0:0:
33,224,136126,1,0,0:0:0:0:
15,218,136196,1,2,0:2:0:0:
4,205,136266,1,0,0:0:0:0:
2,190,136336,1,0,0:0:0:0:
6,178,136405,1,0,0:0:0:0:
12,170,136475,101,10,0:2:0:0:
62,160,136545,1,0,0:0:0:0:
106,179,136615,1,0,0:0:0:0:
128,219,136685,1,0,0:0:0:0:
127,262,136754,1,2,0:2:0:0:
102,304,136824,1,0,0:0:0:0:
106,350,136894,1,0,0:0:0:0:
135,381,136964,1,0,0:0:0:0:
175,384,137033,1,2,0:2:0:0:
197,352,137103,1,0,0:0:0:0:
184,318,137173,1,0,0:0:0:0:
151,310,137243,1,0,0:0:0:0:
129,331,137312,6,0,L|185:347,1,51.25,2|0,0:2|0:0,0:0:0:0:
269,384,137452,2,0,L|276:329,1,51.25
258,167,137592,2,0,L|204:186,1,51.25,2|0,0:2|0:0,0:0:0:0:
68,326,137731,101,0,0:0:0:0:
85,363,137801,1,0,0:0:0:0:
118,375,137871,1,2,0:2:0:0:
147,366,137940,1,0,0:0:0:0:
157,342,138010,1,0,0:0:0:0:
147,323,138080,1,0,0:0:0:0:
133,316,138150,5,10,0:2:0:0:
123,261,138219,1,0,0:0:0:0:
148,216,138289,1,0,0:0:0:0:
191,199,138359,1,0,0:0:0:0:
230,210,138429,1,2,0:2:0:0:
241,243,138498,1,0,0:0:0:0:
226,270,138568,1,0,0:0:0:0:
200,274,138638,1,0,0:0:0:0:
182,263,138708,2,0,P|179:243|190:214,3,51.25,2|0|0|0,0:2|0:0|0:0|0:0,0:0:0:0:
317,126,138987,101,2,0:2:0:0:
373,131,139057,1,0,0:0:0:0:
413,169,139126,1,0,0:0:0:0:
422,224,139196,1,0,0:0:0:0:
387,268,139266,1,2,0:2:0:0:
390,324,139336,1,0,0:0:0:0:
434,352,139405,1,0,0:0:0:0:
482,334,139475,1,0,0:0:0:0:
490,285,139545,1,2,0:2:0:0:
462,247,139615,1,0,0:0:0:0:
418,245,139685,1,0,0:0:0:0:
393,277,139754,1,0,0:0:0:0:
404,313,139824,5,8,0:3:0:0:
426,292,139894,1,8,2:3:0:0:
449,271,139964,1,8,2:3:0:0:
471,250,140033,1,8,2:3:0:0:
510,239,140103,101,8,0:3:0:0:
495,217,140173,1,8,2:3:0:0:
480,195,140243,1,8,2:3:0:0:
465,173,140312,1,8,2:3:0:0:
426,159,140382,5,8,0:1:0:0:
433,139,140452,1,8,2:1:0:0:
440,119,140522,1,8,2:1:0:0:
447,99,140592,1,8,2:1:0:0:
492,75,140661,6,0,B|553:152|490:235|400:242|355:170|355:170|408:81|338:-25|210:-15|160:91|210:171|210:171|79:307|-83:225|-97:11|102:0|93:122,1,1183.8749963871,4|0,0:2|0:0,0:0:0:0:
66,212,145685,2,0,P|18:188|5:168,1,76.8749976539612,0|0,2:0|0:0,0:0:0:0:
21,172,146522,2,0,P|37:191|60:199,1,51.25,0|0,2:0|0:0,0:0:0:0:
351,69,147359,6,0,P|336:70|327:77,1,20.5,4|0,2:1|0:0,0:0:0:0:
215,132,147638,1,2,2:3:0:0:
220,129,147778,2,0,P|264:128|303:157,1,92.2499971847535,2|0,2:3|0:0,0:0:0:0:
329,273,148196,102,0,P|336:259|352:252,3,30.7499990615845,2|0|2|0,2:2|2:0|2:2|2:0,0:0:0:0:
239,206,148754,1,2,2:3:0:0:
253,225,148894,1,2,2:2:0:0:
183,332,149033,2,0,P|200:305|198:270,1,61.499998123169,2|0,2:2|0:0,0:0:0:0:
445,340,150708,6,0,P|436:335|422:333,1,20.5,2|0,2:2|0:0,0:0:0:0:
357,285,150987,1,2,2:3:0:0:
358,280,151126,2,0,P|385:256|444:249,1,92.2499971847535,2|0,2:3|0:0,0:0:0:0:
494,168,151545,102,0,P|476:168|461:161,3,30.7499990615845,2|0|2|2,2:2|2:0|2:2|2:2,0:0:0:0:
418,86,152103,1,2,2:3:0:0:
424,71,152243,1,2,2:2:0:0:
508,3,152382,2,0,P|503:28|521:73,1,61.499998123169,2|0,2:2|0:0,0:0:0:0:
90,48,153498,6,0,P|141:69|162:132,1,122.999996246338,4|0,2:1|0:0,0:0:0:0:
0,243,154057,102,0,P|15:238|28:240,1,20.5,2|0,2:2|0:0,0:0:0:0:
76,291,154336,1,2,2:3:0:0:
79,296,154475,2,0,P|104:310|170:297,1,92.2499971847535,2|0,2:3|0:0,0:0:0:0:
223,382,154894,6,0,P|202:376|186:380,3,30.7499990615845,2|0|2|2,2:2|2:0|2:2|2:2,0:0:0:0:
244,303,155452,1,2,2:3:0:0:
278,330,155592,1,2,2:2:0:0:
370,258,155731,2,0,P|342:250|305:258,1,61.499998123169,2|0,2:2|0:0,0:0:0:0:
501,376,157405,101,2,2:2:0:0:
420,271,157685,1,2,2:2:0:0:
444,264,157824,1,2,2:3:0:0:
450,255,158103,5,2,2:3:0:0:
339,225,158243,1,2,2:2:0:0:
334,210,158522,101,2,2:2:0:0:
339,215,158661,2,0,P|360:221|376:221,2,30.7499990615845,2|2|2,2:2|2:3|2:2,0:0:0:0:
512,47,159080,6,0,P|468:39|414:79,1,112.75,2|0,2:2|0:0,0:0:0:0:
413,85,159917,2,0,P|382:126|278:116,1,153.749995307922,0|0,2:0|0:0,0:0:0:0:
205,0,160754,101,2,2:2:0:0:
201,6,161033,5,2,2:2:0:0:
173,47,161173,1,2,2:2:0:0:
219,123,161312,1,2,2:2:0:0:
211,133,161592,101,2,2:2:0:0:
228,164,161732,1,2,2:2:0:0:
180,223,161871,1,2,2:2:0:0:
185,233,162150,5,2,2:2:0:0:
181,248,162289,1,2,2:2:0:0:
227,334,162429,1,2,2:2:0:0:
212,343,162708,101,2,2:2:0:0:
210,323,162847,1,2,2:2:0:0:
256,264,162987,1,2,2:2:0:0:
268,262,163266,5,2,2:2:0:0:
278,267,163405,1,2,2:2:0:0:
334,323,163545,1,2,2:2:0:0:
336,335,163824,101,2,2:2:0:0:
350,341,163963,1,2,2:2:0:0:
433,315,164103,1,2,2:2:0:0:
443,304,164382,5,2,2:2:0:0:
446,287,164522,1,2,2:2:0:0:
431,201,164661,1,2,2:2:0:0:
420,186,164940,101,2,2:2:0:0:
400,181,165080,1,2,2:2:0:0:
305,186,165219,1,2,2:2:0:0:
282,182,165498,5,2,2:2:0:0:
268,163,165638,1,2,2:2:0:0:
275,69,165778,1,2,2:2:0:0:
283,49,166057,101,2,2:2:0:0:
274,27,166196,1,2,2:2:0:0:
168,2,166336,1,2,2:2:0:0:
132,0,166615,5,2,2:2:0:0:
104,18,166754,1,2,2:2:0:0:
19,167,166894,102,0,P|58:151|111:176,1,92.2499971847535,2|0,2:2|0:0,0:0:0:0:
253,232,167173,6,0,P|194:220|141:249,1,112.750003440857,2|0,2:2|0:0,0:0:0:0:
121,358,167452,38,0,B|100:384|68:398|30:376|10:331|71:289|125:301|141:329|139:333|137:339|158:360|191:374|234:371|273:334,1,322.874990146637,4|0,0:2|2:0,0:0:0:0:
297,114,168010,102,0,P|281:95|295:117,1,79.9499995120239,4|0,0:2|2:0,0:0:0:0:
385,277,168289,6,0,B|444:213|418:148|375:106|375:106|376:143|360:176|327:188|323:185|318:181|281:228|304:270|341:284,1,399.749981700898,12|0,0:2|2:0,0:0:0:0:
130,261,168847,102,0,B|113:245|103:222|103:193|103:193|85:226|68:235|44:238,1,149.137503527269,4|0,0:2|2:0,0:0:0:0:
76,93,169126,6,0,B|109:82|142:59|136:12|89:-10|57:-12|14:11|-11:65|-11:127|56:182,1,322.874990146637,4|0,0:2|2:0,0:0:0:0:
417,175,169685,2,0,B|439:200|442:229|442:229|406:181|344:166,1,176.812503372431,4|0,0:2|2:0,0:0:0:0:
215,33,169964,102,0,B|288:30|309:94|305:128|271:153|249:137|241:121,1,192.1875,4|0,0:2|2:0,0:0:0:0:
205,303,170243,2,0,B|170:312|170:312|160:269|188:222|226:198|273:213,1,207.562500791788,12|0,0:2|2:0,0:3:0:0:
356,267,170522,2,0,B|370:269|384:280|384:280|381:259|354:251,1,63.0375009618759,4|0,0:2|2:0,0:0:0:0:
442,39,170801,6,0,B|488:59|496:94|487:141|460:156|439:158|409:148|386:160|362:202|365:245|386:284|429:301,1,322.874990146637,4|0,0:2|2:0,0:0:0:0:
251,332,171359,102,0,B|254:301|229:289|229:289|224:325,1,79.9499995120239,4|0,0:2|2:0,0:0:0:0:
430,365,171638,6,0,B|449:355|486:358|486:358|487:310|473:247|428:207|340:198|293:242|293:242|309:259|319:281|323:307,1,399.749981700898,12|0,0:2|2:0,0:0:0:0:
189,158,172196,102,0,B|161:191|123:172|123:172|141:138|187:146,1,149.137503527269,4|0,0:2|2:0,0:0:0:0:
310,74,172475,6,0,B|347:76|368:107|356:145|318:165|288:165|268:140|255:108|242:79|206:66|161:67|120:82,1,322.874990146637,4|0,0:2|2:0,0:0:0:0:
6,262,173033,102,0,B|9:288|35:308|35:308|50:183,1,176.812503372431,4|0,0:2|2:0,0:0:0:0:
108,79,173312,6,0,B|125:92|127:111|127:111|119:148,1,63.0375009618759,12|0,0:2|2:0,0:0:0:0:
207,275,173592,102,0,P|190:264|214:267,1,64.0625,4|0,0:1|2:0,0:0:0:0:
310,201,173731,6,0,P|310:183|318:202,1,53.8124983577729,0|0,0:0|2:0,0:0:0:0:
401,254,173871,102,0,P|413:244|405:261,1,43.5625008308888,4|0,0:1|2:0,0:0:0:0:
402,329,174010,6,0,P|414:335|397:335,1,33.3124984750748,0|0,0:0|2:0,0:0:0:0:
148,341,174150,102,0,B|172:379|172:379|297:320|297:320|332:360,1,215.249993431091,4|2,0:2|2:2,0:0:0:0:
315,358,174568,2,0,B|376:375,2,61.499998123169,0|2|0,0:0|2:2|2:0,0:0:0:0:
335,171,174987,6,0,B|373:117|435:111|488:142|509:190|490:242|449:254|449:254|413:236|428:203,1,322.874990146637,10|0,0:2|2:0,0:0:0:0:
232,83,175545,102,0,B|225:109|207:105|207:105|213:78,1,63.0375009618759,2|0,0:2|2:0,0:0:0:0:
262,248,175824,6,0,B|247:231|234:188|269:155|269:155|315:109|303:72|293:43,1,215.249993431091,2|2,0:2|2:2,0:0:0:0:
31,145,176243,102,0,B|33:179|33:179|67:182,1,64.0625,0|0,0:0|2:0,0:0:0:0:
107,263,176382,2,0,B|130:247|130:247|118:222,1,53.8124983577729,2|0,0:2|2:0,0:0:0:0:
166,147,176522,2,0,B|145:136|145:136|132:155,1,43.5625008308888,0|0,0:0|2:0,0:0:0:0:
51,349,176661,6,0,B|58:366|79:377|92:373|92:373|185:334,1,149.137503527269,10|0,0:2|2:0,0:0:0:0:
249,221,176940,2,0,B|269:198|294:174|294:174|259:230|247:286,1,184.499994369507,2|0,0:2|0:0,0:0:0:0:
324,310,177498,102,0,B|313:340|322:367|322:367|298:354|255:361,2,107.624996715546,2|0|2,0:2|2:0|2:2,0:0:0:0:
477,190,177917,6,0,B|461:200|441:196|441:196|434:185|416:172,1,63.0375009618759,0|0,0:0|2:0,0:0:0:0:
349,129,178196,2,0,L|355:160,1,21.0125003206253,0|0,0:0|2:0,0:0:0:0:
439,54,178336,101,8,2:2:0:0:
409,13,178405,1,8,2:2:0:0:
357,13,178475,1,8,2:2:0:0:
318,47,178545,1,8,2:2:0:0:
308,104,178615,5,8,0:3:0:0:
287,119,178685,1,8,2:3:0:0:
261,120,178754,1,8,2:3:0:0:
240,104,178824,1,8,2:3:0:0:
227,64,178894,101,8,0:2:0:0:
277,74,178964,1,8,2:2:0:0:
299,119,179033,1,8,2:2:0:0:
295,170,179103,1,8,2:2:0:0:
261,209,179173,5,8,2:2:0:0:
229,175,179243,1,8,0:2:0:0:
183,170,179312,1,8,2:2:0:0:
140,188,179382,1,8,2:2:0:0:
116,228,179452,101,8,0:3:0:0:
95,230,179522,1,8,2:3:0:0:
80,215,179592,1,8,2:3:0:0:
74,195,179661,1,8,2:3:0:0:
81,175,179731,5,8,2:2:0:0:
131,182,179801,1,8,2:2:0:0:
152,225,179871,1,8,2:2:0:0:
152,271,179940,1,8,2:2:0:0:
126,306,180010,101,8,2:2:0:0:
81,319,180080,1,8,2:2:0:0:
33,299,180150,1,8,2:2:0:0:
24,243,180219,1,8,2:2:0:0:
58,198,180289,5,8,0:3:0:0:
78,202,180359,1,8,2:3:0:0:
98,206,180429,1,8,2:3:0:0:
118,210,180498,1,8,2:3:0:0:
138,241,180568,101,8,0:3:0:0:
150,239,180638,1,8,2:3:0:0:
163,236,180708,1,8,2:3:0:0:
176,233,180777,1,8,2:3:0:0:
205,197,180847,5,4,0:2:0:0:
258,190,180917,1,0,0:0:0:0:
296,219,180987,1,0,0:0:0:0:
306,260,181057,1,0,0:0:0:0:
323,280,181126,1,4,0:2:0:0:
349,285,181196,1,0,0:0:0:0:
375,281,181266,1,0,0:0:0:0:
394,262,181336,1,0,0:0:0:0:
397,235,181405,1,4,0:2:0:0:
385,210,181475,1,0,0:0:0:0:
361,197,181545,1,0,0:0:0:0:
334,198,181615,1,0,0:0:0:0:
316,218,181685,101,12,0:2:0:0:
320,175,181754,1,0,0:0:0:0:
298,137,181824,1,0,0:0:0:0:
257,122,181894,1,0,0:0:0:0:
215,132,181964,1,4,0:2:0:0:
183,156,182033,1,0,0:0:0:0:
146,166,182103,1,0,0:0:0:0:
110,164,182173,1,0,0:0:0:0:
81,148,182243,2,0,P|60:125|51:88,3,53.8124983577729,4|0|0|0,0:2|0:0|0:0|0:0,0:0:0:0:
91,266,182522,5,4,0:2:0:0:
98,319,182592,1,0,0:0:0:0:
135,357,182661,1,0,0:0:0:0:
185,374,182731,1,0,0:0:0:0:
231,364,182801,1,4,0:2:0:0:
262,334,182871,1,0,0:0:0:0:
268,297,182940,1,0,0:0:0:0:
253,268,183010,1,0,0:0:0:0:
231,253,183080,1,4,0:2:0:0:
219,250,183150,1,0,0:0:0:0:
208,249,183219,2,0,P|189:270|181:305,1,53.8124983577729
400,324,183359,101,12,0:2:0:0:
403,313,183429,1,0,0:0:0:0:
400,302,183498,1,0,0:0:0:0:
391,295,183568,1,0,0:0:0:0:
379,291,183638,5,4,0:2:0:0:
418,253,183708,1,0,0:0:0:0:
420,199,183778,1,0,0:0:0:0:
385,158,183847,1,0,0:0:0:0:
333,142,183917,1,4,0:2:0:0:
299,103,183987,1,0,0:0:0:0:
290,55,184057,1,0,0:0:0:0:
316,18,184126,1,0,0:0:0:0:
358,11,184196,101,4,0:2:0:0:
348,58,184266,1,0,0:0:0:0:
320,91,184336,1,0,0:0:0:0:
283,100,184405,1,0,0:0:0:0:
250,98,184475,1,4,0:2:0:0:
227,83,184545,1,0,0:0:0:0:
205,78,184615,1,0,0:0:0:0:
188,79,184685,1,0,0:0:0:0:
180,86,184754,5,4,0:2:0:0:
163,113,184824,1,0,0:0:0:0:
168,144,184894,2,0,P|197:178|199:209,1,53.8124983577729
125,330,185033,102,0,P|133:295|146:278,3,53.8124983577729,12|0|0|0,0:2|0:0|0:0|0:0,0:0:0:0:
98,208,185312,5,4,0:2:0:0:
94,218,185382,1,0,0:0:0:0:
84,222,185452,1,0,0:0:0:0:
73,221,185522,1,0,0:0:0:0:
64,214,185592,1,4,0:2:0:0:
59,204,185661,1,0,0:0:0:0:
59,193,185731,1,0,0:0:0:0:
63,183,185801,1,0,0:0:0:0:
72,177,185871,101,4,0:2:0:0:
118,151,185940,1,0,0:0:0:0:
171,153,186010,1,0,0:0:0:0:
212,186,186080,1,0,0:0:0:0:
256,216,186150,1,4,0:2:0:0:
308,224,186219,1,0,0:0:0:0:
360,211,186289,1,0,0:0:0:0:
405,182,186359,1,0,0:0:0:0:
422,131,186429,1,4,0:2:0:0:
408,79,186498,1,0,0:0:0:0:
367,43,186568,1,0,0:0:0:0:
313,38,186638,1,0,0:0:0:0:
262,57,186708,5,12,0:2:0:0:
252,76,186778,1,0,0:0:0:0:
253,97,186847,2,0,P|280:119|308:125,1,53.8124983577729,4|0,0:2|0:0,0:0:0:0:
452,204,186987,101,4,0:2:0:0:
457,189,187057,1,0,0:0:0:0:
454,174,187126,2,0,P|422:188|404:210,1,53.8124983577729,4|0,0:2|0:0,0:0:0:0:
306,321,187266,5,4,0:2:0:0:
316,322,187336,1,0,0:0:0:0:
326,323,187405,1,4,0:2:0:0:
336,324,187475,1,0,0:0:0:0:
346,325,187545,101,4,0:2:0:0:
337,277,187615,1,0,0:0:0:0:
297,249,187685,1,0,0:0:0:0:
249,248,187754,1,0,0:0:0:0:
204,268,187824,5,2,0:2:0:0:
246,272,187894,1,0,0:0:0:0:
283,250,187964,1,0,0:0:0:0:
297,210,188033,1,0,0:0:0:0:
285,168,188103,101,2,0:2:0:0:
306,199,188173,1,0,0:0:0:0:
342,207,188243,1,0,0:0:0:0:
378,199,188312,1,0,0:0:0:0:
401,169,188382,5,10,0:2:0:0:
394,115,188452,1,0,0:0:0:0:
352,80,188522,1,0,0:0:0:0:
298,73,188592,1,0,0:0:0:0:
248,91,188661,1,2,0:2:0:0:
213,132,188731,1,0,0:0:0:0:
165,157,188801,1,0,0:0:0:0:
111,154,188871,1,0,0:0:0:0:
68,121,188940,1,2,0:2:0:0:
63,67,189010,1,0,0:0:0:0:
98,26,189080,1,0,0:0:0:0:
150,12,189150,1,0,0:0:0:0:
194,41,189219,101,2,0:2:0:0:
148,63,189289,1,0,0:0:0:0:
130,108,189359,1,0,0:0:0:0:
143,151,189429,1,0,0:0:0:0:
179,172,189498,1,2,0:2:0:0:
219,169,189568,1,0,0:0:0:0:
255,177,189638,1,0,0:0:0:0:
275,205,189708,1,0,0:0:0:0:
277,237,189778,1,2,0:2:0:0:
264,260,189847,1,0,0:0:0:0:
244,269,189917,1,0,0:0:0:0:
227,269,189987,1,0,0:0:0:0:
216,266,190057,5,10,0:2:0:0:
217,255,190126,1,0,0:0:0:0:
213,244,190196,1,0,0:0:0:0:
206,235,190266,1,0,0:0:0:0:
195,231,190336,1,2,0:2:0:0:
179,229,190405,1,0,0:0:0:0:
159,237,190475,1,0,0:0:0:0:
139,255,190545,1,0,0:0:0:0:
106,258,190615,102,0,B|86:260|79:252|79:252|63:229,3,53.8124983577729,2|0|0|0,0:2|0:0|0:0|0:0,0:0:0:0:
287,153,190894,5,2,0:2:0:0:
319,155,190964,1,0,0:0:0:0:
347,169,191033,2,0,P|364:190|368:219,1,53.8124983577729
191,363,191173,101,2,0:2:0:0:
172,343,191243,1,0,0:0:0:0:
170,316,191312,2,0,P|191:289|209:278,1,53.8124983577729
347,333,191452,5,2,0:2:0:0:
373,327,191522,1,0,0:0:0:0:
399,330,191592,1,0,0:0:0:0:
420,346,191661,1,0,0:0:0:0:
431,370,191731,101,10,0:2:0:0:
458,343,191801,1,0,0:0:0:0:
462,305,191871,1,0,0:0:0:0:
448,270,191940,1,0,0:0:0:0:
416,249,192010,1,2,0:2:0:0:
385,226,192080,1,0,0:0:0:0:
371,190,192150,1,0,0:0:0:0:
377,153,192219,1,0,0:0:0:0:
399,122,192289,1,2,0:2:0:0:
429,112,192359,1,0,0:0:0:0:
455,115,192429,1,0,0:0:0:0:
471,127,192498,1,0,0:0:0:0:
478,141,192568,5,2,0:2:0:0:
451,181,192638,1,0,0:0:0:0:
404,194,192708,1,0,0:0:0:0:
356,183,192778,1,0,0:0:0:0:
329,142,192847,1,2,0:2:0:0:
323,93,192917,1,0,0:0:0:0:
348,51,192987,1,0,0:0:0:0:
392,32,193057,1,0,0:0:0:0:
439,40,193126,101,2,0:2:0:0:
444,49,193196,1,0,0:0:0:0:
445,59,193266,1,0,0:0:0:0:
441,69,193336,1,0,0:0:0:0:
437,120,193405,5,8,0:3:0:0:
404,115,193475,1,8,2:3:0:0:
371,110,193545,1,8,2:3:0:0:
338,105,193615,1,8,2:3:0:0:
317,69,193685,101,8,0:3:0:0:
294,72,193755,1,8,2:3:0:0:
271,75,193825,1,8,2:3:0:0:
249,79,193895,1,8,2:3:0:0:
220,114,193964,6,0,L|175:99,1,41,8|8,0:1|2:1,0:0:0:0:
52,37,194103,2,0,L|97:22,1,41,8|8,0:1|2:1,0:0:0:0:
249,4,194243,38,0,P|291:83|293:169,1,153.75,2|0,0:2|2:0,0:0:0:0:
212,205,194801,2,0,P|205:155|216:116,1,82,2|0,2:3|0:0,0:0:0:0:
400,71,195080,101,8,2:2:0:0:
413,88,195219,1,0,2:0:0:0:
372,148,195359,2,0,P|367:168|388:226,1,82,2|0,2:3|2:0,0:0:0:0:
512,197,195638,5,2,2:2:0:0:
448,171,195778,1,2,0:2:0:0:
427,340,195917,102,0,P|444:312|413:330,1,92.2499971847535,2|0,0:2|0:0,0:0:0:0:
471,287,196196,2,0,P|416:269|385:284,1,92.2499971847535,2|0,0:2|2:0,0:0:0:0:
341,357,196475,5,0,0:0:0:0:
339,367,196615,1,2,2:2:0:0:
199,202,196754,102,0,P|241:194|275:219,1,71.7499978103638,8|0,2:2|0:0,0:0:0:0:
175,309,197033,1,2,2:3:0:0:
153,290,197173,1,0,2:0:0:0:
90,354,197312,2,0,P|49:361|4:339,1,82,2|0,2:3|0:0,0:0:0:0:
66,155,197592,6,0,P|79:182|54:157,1,92.2499971847535,2|0,0:2|0:0,0:0:0:0:
111,212,197871,2,0,P|75:227|23:213,1,92.2499971847535,2|0,0:2|2:0,0:0:0:0:
0,90,198150,101,0,0:0:0:0:
8,86,198289,1,2,2:2:0:0:
157,15,198429,6,0,P|190:10|234:40,1,71.7499978103638,8|0,2:2|0:0,0:0:0:0:
266,160,198708,1,2,2:3:0:0:
294,142,198847,1,2,2:3:0:0:
369,170,198987,1,2,2:2:0:0:
327,65,199126,1,0,0:0:0:0:
499,81,199266,102,0,P|496:105|486:74,1,92.2499971847535,2|0,0:2|0:0,0:0:0:0:
494,151,199545,2,0,P|443:129|425:81,1,92.2499971847535,2|0,0:2|2:0,0:0:0:0:
440,0,199824,5,0,0:0:0:0:
446,10,199964,1,2,0:2:0:0:
414,275,200103,102,0,P|451:282|502:258,1,82,8|0,2:2|0:0,0:0:0:0:
335,291,200382,2,0,P|353:330|394:352,1,71.7499978103638,2|0,2:2|0:0,0:0:0:0:
271,247,200661,2,0,P|256:285|269:327,1,61.499998123169,2|0,2:2|0:0,0:0:0:0:
323,184,200940,5,2,0:2:0:0:
251,171,201080,1,0,2:0:0:0:
325,198,201219,101,2,0:2:0:0:
252,151,201359,1,2,2:2:0:0:
193,231,201498,1,2,2:2:0:0:
93,194,201638,1,2,2:3:0:0:
205,54,201778,5,8,2:2:0:0:
220,80,201917,1,2,2:2:0:0:
103,168,202057,101,2,2:3:0:0:
95,186,202196,1,2,2:2:0:0:
194,250,202336,5,2,2:2:0:0:
198,259,202475,1,0,0:0:0:0:
35,309,202615,102,0,P|81:335|140:311,1,97.374997399807,2|0,0:2|2:0,0:0:0:0:
176,384,202894,2,0,P|211:360|224:320,1,82,2|2,0:2|2:2,0:0:0:0:
301,334,203173,2,0,P|309:289|296:255,1,66.6249969501497,2|2,2:2|2:3,0:0:0:0:
248,152,203452,5,8,2:2:0:0:
278,138,203592,1,2,2:2:0:0:
372,200,203731,101,2,2:3:0:0:
396,208,203871,1,2,2:2:0:0:
512,133,204010,2,0,P|492:122|431:144,1,92.2499971847535,2|0,2:2|2:0,0:0:0:0:
458,334,204289,6,0,P|471:297|463:260,1,61.499998123169,2|0,0:2|2:0,0:0:0:0:
365,205,204568,2,0,P|355:245|366:291,1,76.8750029325486,2|2,0:2|2:2,0:0:0:0:
467,352,204847,2,0,P|486:299|470:241,1,92.2499971847535,2|2,2:2|2:3,0:0:0:0:
338,130,205126,101,8,2:2:0:0:
302,143,205266,1,2,2:2:0:0:
249,238,205405,5,2,2:3:0:0:
269,247,205545,1,2,2:2:0:0:
309,340,205685,101,2,2:2:0:0:
242,371,205824,1,0,0:0:0:0:
132,293,205964,6,0,P|79:289|44:325,1,92.2499971847535,2|0,0:2|2:0,0:0:0:0:
178,206,206243,2,0,P|216:201|252:234,1,76.8750029325486,2|2,0:2|2:2,0:0:0:0:
127,130,206522,2,0,P|95:126|62:152,1,61.499998123169,2|2,2:2|2:3,0:0:0:0:
315,120,206801,102,0,P|341:81|319:7,1,112.750003440857,8|2,2:2|2:2,0:0:0:0:
406,168,207080,2,0,P|375:200|374:255,1,92.2499971847535,2|2,2:3|2:2,0:0:0:0:
342,112,207359,2,0,P|359:65|349:24,1,71.7499978103638,4|0,2:2|2:0,0:0:0:0:
512,99,207638,5,8,2:3:0:0:
480,156,207778,1,8,2:2:0:0:
415,154,207917,1,8,2:2:0:0:
341,32,208057,101,8,2:3:0:0:
299,18,208196,1,8,2:2:0:0:
267,49,208336,1,8,2:2:0:0:
256,169,208475,5,8,2:1:0:0:
213,186,208615,1,8,2:2:0:0:
117,94,208754,101,8,2:2:0:0:
261,158,208894,1,8,2:2:0:0:
176,6,209033,5,8,2:2:0:0:
146,243,209173,1,8,2:2:0:0:
61,137,209312,101,8,2:3:0:0:
111,93,209452,1,8,2:2:0:0:
175,114,209592,1,8,2:2:0:0:
216,253,209731,5,8,2:3:0:0:
252,277,209871,1,8,2:2:0:0:
294,266,210010,1,8,2:2:0:0:
343,160,210150,101,8,2:1:0:0:
300,142,210289,1,8,2:2:0:0:
223,238,210429,5,8,2:2:0:0:
422,205,210568,1,8,2:2:0:0:
181,127,210708,1,8,2:2:0:0:
89,374,210987,101,8,2:3:0:0:
108,378,211126,1,8,2:2:0:0:
127,372,211266,1,8,2:2:0:0:
157,273,211405,5,8,2:3:0:0:
165,270,211545,1,8,2:2:0:0:
174,271,211685,1,8,2:2:0:0:
239,342,211824,101,8,2:1:0:0:
248,345,211964,1,8,2:2:0:0:
338,269,212103,5,8,2:2:0:0:
164,344,212243,1,8,2:2:0:0:
413,373,212382,1,8,2:2:0:0:
487,151,212661,102,0,B|435:160|435:160|435:162|435:162|382:171,1,102.5,8|8,2:3|2:2,2:0:0:0:
340,282,212940,5,8,2:2:0:0:
356,292,213010,101,0,2:0:0:0:
372,291,213080,5,8,2:3:0:0:
414,246,213219,1,8,2:2:0:0:
388,190,213359,1,8,2:2:0:0:
281,175,213498,101,8,2:1:0:0:
269,147,213638,1,8,2:2:0:0:
342,88,213778,5,8,2:2:0:0:
307,254,213917,1,8,2:2:0:0:
239,45,214057,101,8,2:2:0:0:
291,265,214196,1,8,2:2:0:0:
428,145,214336,5,8,2:1:0:0:
400,136,214475,1,0,2:0:0:0:
311,240,214615,101,8,2:1:0:0:
362,224,214754,1,8,2:3:0:0:
430,379,214894,5,8,2:1:0:0:
361,358,215033,1,8,2:3:0:0:
174,178,215173,101,8,2:2:0:0:
270,147,215312,1,8,2:3:0:0:
221,325,215452,5,8,2:3:0:0:
160,273,215592,1,8,2:3:0:0:
328,237,215731,101,8,2:1:0:0:
310,301,215871,1,8,2:1:0:0:
259,131,216010,5,8,2:1:0:0:
336,86,216150,1,0,2:0:0:0:
178,163,216289,101,8,2:1:0:0:
236,216,216429,1,8,2:3:0:0:
170,89,216568,5,8,2:1:0:0:
108,131,216708,1,8,2:3:0:0:
249,238,216847,101,8,2:2:0:0:
223,367,216987,1,8,2:3:0:0:
128,345,217126,5,8,2:3:0:0:
109,259,217266,1,8,2:3:0:0:
15,277,217405,101,8,2:1:0:0:
5,309,217545,1,2,2:2:0:0:
159,192,217685,5,8,2:1:0:0:
91,180,217824,1,0,2:0:0:0:
210,100,217964,101,8,2:1:0:0:
136,114,218103,1,8,2:3:0:0:
315,187,218243,5,8,2:1:0:0:
235,172,218382,1,8,2:3:0:0:
389,30,218522,101,8,2:2:0:0:
435,134,218661,1,8,2:3:0:0:
332,185,218801,5,8,2:3:0:0:
308,265,218940,1,8,2:3:0:0:
406,302,219080,101,8,2:1:0:0:
426,371,219219,1,8,2:1:0:0:
209,312,219359,5,8,2:1:0:0:
311,274,219498,1,0,2:0:0:0:
186,188,219638,101,8,2:1:0:0:
110,165,219778,1,8,2:3:0:0:
240,86,219917,5,8,2:1:0:0:
310,76,220057,1,8,2:3:0:0:
206,301,220196,101,8,2:2:0:0:
165,110,220336,1,8,2:2:0:0:
53,323,220475,5,8,2:2:0:0:
117,56,220615,1,8,2:2:0:0:
321,364,220754,101,8,2:2:0:0:
263,8,220894,1,8,2:2:0:0:
236,80,221033,5,4,0:2:0:0:
227,94,223824,22,0,L|167:112,1,45.1000013763428,8|0,2:3|0:0,0:0:0:0:
229,78,224103,102,0,L|293:99,1,65.6,8|0,2:3|0:0,0:0:0:0:
151,42,224382,53,4,0:2:0:0:
108,70,224452,1,0,0:0:0:0:
103,121,224522,1,0,0:0:0:0:
127,166,224592,1,0,0:0:0:0:
173,185,224661,1,2,0:2:0:0:
222,172,224731,1,0,0:0:0:0:
272,161,224801,1,0,0:0:0:0:
321,173,224871,1,0,0:0:0:0:
354,210,224940,1,2,0:2:0:0:
360,261,225010,1,0,0:0:0:0:
335,306,225080,1,0,0:0:0:0:
288,328,225150,1,0,0:0:0:0:
237,326,225219,101,10,0:2:0:0:
229,285,225289,1,0,0:0:0:0:
247,248,225359,1,0,0:0:0:0:
281,225,225429,1,0,0:0:0:0:
321,219,225498,1,2,0:2:0:0:
359,233,225568,1,0,0:0:0:0:
396,250,225638,1,0,0:0:0:0:
437,249,225708,1,0,0:0:0:0:
469,223,225778,1,2,0:2:0:0:
481,184,225847,1,0,0:0:0:0:
474,143,225917,1,0,0:0:0:0:
441,118,225987,1,0,0:0:0:0:
400,113,226057,5,2,0:2:0:0:
363,122,226126,1,0,0:0:0:0:
340,149,226196,1,0,0:0:0:0:
320,176,226266,1,0,0:0:0:0:
290,186,226336,1,2,0:2:0:0:
262,186,226405,1,0,0:0:0:0:
241,170,226475,1,0,0:0:0:0:
231,148,226545,1,0,0:0:0:0:
234,127,226615,1,2,0:2:0:0:
247,114,226685,1,0,0:0:0:0:
261,110,226754,1,0,0:0:0:0:
272,114,226824,1,0,0:0:0:0:
279,121,226894,102,0,L|273:150,3,23.0624992961884,10|0|0|0,0:2|0:0|0:0|0:0,0:0:0:0:
209,271,227173,6,0,P|180:282|156:309,1,56.3750017204285,2|0,0:2|0:0,0:0:0:0:
91,343,227312,2,0,P|108:361|135:370,1,38.4375014662743
310,307,227452,102,0,P|331:292|341:252,1,61.499998123169,2|0,0:2|0:0,0:0:0:0:
397,205,227592,2,0,P|379:189|353:182,1,43.5625008308888
255,352,227731,5,4,0:2:0:0:
292,374,227801,1,0,0:0:0:0:
335,370,227871,1,0,0:0:0:0:
371,346,227940,1,0,0:0:0:0:
383,304,228010,1,2,0:2:0:0:
366,263,228080,1,0,0:0:0:0:
326,243,228150,2,0,B|305:233|305:233|300:209,1,43.5625008308888
358,36,228289,102,0,B|357:69|357:69|329:93,1,56.3750017204285,2|0,0:2|0:0,0:0:0:0:
283,140,228429,2,0,B|263:135|263:135|252:114,1,38.4375014662743
481,188,228568,6,0,L|466:244,1,51.25,10|0,0:2|0:0,0:0:0:0:
387,374,228708,2,0,L|373:324,1,51.25
209,308,228847,101,2,0:2:0:0:
194,315,228917,1,0,0:0:0:0:
173,318,228987,1,0,0:0:0:0:
149,309,229057,1,0,0:0:0:0:
133,283,229126,1,2,0:2:0:0:
135,248,229196,1,0,0:0:0:0:
160,216,229266,1,0,0:0:0:0:
206,214,229336,1,0,0:0:0:0:
251,248,229405,6,0,P|251:282|238:313,1,61.499998123169,2|0,0:2|0:0,0:0:0:0:
135,109,229545,2,0,P|153:83|187:80,1,51.25
276,157,229685,2,0,P|298:170|313:190,1,41,2|0,0:2|0:0,0:0:0:0:
118,219,229824,2,0,P|97:220|77:211,1,30.7499990615845
285,369,229964,101,2,0:2:0:0:
334,327,230033,1,0,0:0:0:0:
380,338,230103,1,0,0:0:0:0:
398,360,230173,1,0,0:0:0:0:
403,371,230243,5,10,0:2:0:0:
443,369,230312,1,0,0:0:0:0:
469,337,230382,1,0,0:0:0:0:
468,295,230452,1,0,0:0:0:0:
448,258,230522,1,2,0:2:0:0:
409,243,230592,1,0,0:0:0:0:
383,226,230661,1,0,0:0:0:0:
373,207,230731,1,0,0:0:0:0:
375,197,230801,102,0,B|378:185|392:181|392:181|436:181,1,51.25,2|0,0:2|0:0,0:0:0:0:
305,271,230940,2,0,B|296:279|282:276|282:276|244:254,1,51.25
185,108,231080,5,4,0:2:0:0:
145,95,231150,1,0,0:0:0:0:
106,107,231219,1,0,0:0:0:0:
78,137,231289,1,0,0:0:0:0:
69,177,231359,102,0,P|82:199|107:208,3,46.1249985923767,2|0|0|0,0:2|0:0|0:0|0:0,0:0:0:0:
147,262,231638,2,0,P|173:251|177:218,3,41,2|0|0|0,0:2|0:0|0:0|0:0,0:0:0:0:
325,109,231917,5,10,0:2:0:0:
345,85,231987,1,0,0:0:0:0:
344,54,232057,1,0,0:0:0:0:
329,27,232126,1,0,0:0:0:0:
302,11,232196,1,2,0:2:0:0:
273,11,232266,1,0,0:0:0:0:
251,25,232336,1,0,0:0:0:0:
242,46,232405,1,0,0:0:0:0:
247,65,232475,1,2,0:2:0:0:
261,75,232545,1,0,0:0:0:0:
276,77,232615,1,0,0:0:0:0:
288,72,232685,1,0,0:0:0:0:
293,63,232754,101,2,0:2:0:0:
281,45,232824,1,0,0:0:0:0:
252,34,232894,1,0,0:0:0:0:
211,41,232964,1,0,0:0:0:0:
177,79,233033,2,0,B|157:84|149:77|149:77|148:61|130:44,1,51.25,2|0,0:2|0:0,0:0:0:0:
267,162,233173,5,0,0:0:0:0:
282,175,233243,1,0,0:0:0:0:
280,205,233312,1,2,0:2:0:0:
244,226,233382,1,0,0:0:0:0:
204,192,233452,2,0,P|212:159|240:154,1,51.25
423,77,233592,101,10,0:2:0:0:
465,104,233661,1,0,0:0:0:0:
482,152,233731,1,0,0:0:0:0:
475,202,233801,1,0,0:0:0:0:
441,241,233871,1,2,0:2:0:0:
391,249,233940,1,0,0:0:0:0:
347,276,234010,1,0,0:0:0:0:
329,324,234080,1,0,0:0:0:0:
344,372,234150,5,8,0:3:0:0:
348,370,234219,1,0,0:0:0:0:
352,368,234289,1,8,0:3:0:0:
356,366,234359,1,0,0:0:0:0:
360,364,234429,101,4,0:2:0:0:
337,327,234498,1,0,0:0:0:0:
296,311,234568,2,0,P|260:318|236:332,1,51.25
446,294,234708,5,2,0:2:0:0:
475,274,234778,1,0,0:0:0:0:
478,241,234847,2,0,P|481:219|467:191,1,41
282,127,234987,101,2,0:2:0:0:
268,148,235057,1,0,0:0:0:0:
268,173,235126,2,0,P|288:193|296:196,1,30.7499990615845
134,365,235266,5,10,0:2:0:0:
92,345,235336,1,0,0:0:0:0:
74,302,235405,1,0,0:0:0:0:
80,256,235475,1,0,0:0:0:0:
105,217,235545,1,2,0:2:0:0:
126,202,235615,1,0,0:0:0:0:
134,183,235685,1,0,0:0:0:0:
132,167,235754,1,0,0:0:0:0:
124,160,235824,102,0,B|116:149|116:149|105:144|88:143,1,39.4624992172051,2|0,0:2|0:0,0:0:0:0:
44,87,235964,2,0,B|31:89|31:89|22:96|13:111,1,39.4624992172051
159,286,236103,5,2,0:2:0:0:
208,306,236173,1,0,0:0:0:0:
260,295,236243,1,0,0:0:0:0:
295,255,236312,1,0,0:0:0:0:
337,221,236382,1,2,0:2:0:0:
362,215,236452,1,0,0:0:0:0:
381,220,236522,2,0,B|394:230|394:230|384:273,1,35.8749989051819
322,357,236661,102,0,P|337:345|362:335,3,35.8749989051819,2|0|0|0,0:2|0:0|0:0|0:0,0:0:0:0:
448,139,236940,5,10,0:2:0:0:
423,93,237010,1,0,0:0:0:0:
375,73,237080,1,0,0:0:0:0:
323,76,237150,1,0,0:0:0:0:
281,105,237219,1,2,0:2:0:0:
239,135,237289,1,0,0:0:0:0:
188,146,237359,1,0,0:0:0:0:
139,129,237429,1,0,0:0:0:0:
110,86,237498,101,2,0:3:0:0:
109,75,237568,1,0,0:0:0:0:
112,65,237638,1,2,0:2:0:0:
119,58,237708,1,0,0:0:0:0:
128,54,237778,5,4,0:2:0:0:
183,63,237847,1,0,0:0:0:0:
208,107,237917,1,0,0:0:0:0:
206,153,237987,1,0,0:0:0:0:
180,184,238057,1,2,0:2:0:0:
146,195,238126,1,0,0:0:0:0:
115,189,238196,102,0,P|91:166|64:158,1,51.25
164,304,238336,5,2,0:2:0:0:
176,319,238405,1,0,0:0:0:0:
190,324,238475,2,0,P|236:308|247:292,1,51.25
382,89,238615,101,10,0:2:0:0:
417,90,238685,1,0,0:0:0:0:
447,108,238754,1,0,0:0:0:0:
461,140,238824,1,0,0:0:0:0:
458,175,238894,2,0,P|433:189|420:212,1,51.25,2|0,0:2|0:0,0:0:0:0:
378,288,239033,1,0,0:0:0:0:
342,282,239103,1,0,0:0:0:0:
316,256,239173,1,2,0:2:0:0:
309,220,239243,1,0,0:0:0:0:
319,185,239312,6,0,P|332:164|337:139,1,51.25
203,85,239452,2,0,P|225:95|241:115,3,51.25,2|0|0|0,0:2|0:0|0:0|0:0,0:0:0:0:
206,251,239731,101,2,0:2:0:0:
192,266,239800,1,0,0:0:0:0:
161,272,239871,1,0,0:0:0:0:
123,255,239940,1,0,0:0:0:0:
104,207,240010,2,0,P|79:192|51:188,1,51.25,2|0,0:2|0:0,0:0:0:0:
224,357,240150,5,0,0:0:0:0:
219,363,240219,1,0,0:0:0:0:
216,367,240289,101,10,0:2:0:0:
199,340,240359,1,0,0:0:0:0:
212,301,240429,1,0,0:0:0:0:
256,276,240498,1,0,0:0:0:0:
315,291,240568,2,0,P|348:306|371:304,1,51.25,2|0,0:2|0:0,0:0:0:0:
454,197,240708,5,0,0:0:0:0:
444,201,240778,1,0,0:0:0:0:
438,209,240847,102,0,L|452:257,1,30.7499990615845,8|0,0:3|0:0,0:0:0:0:
492,302,240987,2,0,L|478:350,1,30.7499990615845,8|0,0:3|0:0,0:0:0:0:
272,154,241126,5,4,0:2:0:0:
291,106,241196,1,0,0:0:0:0:
338,85,241266,1,0,0:0:0:0:
389,90,241336,1,0,0:0:0:0:
430,118,241405,1,2,0:2:0:0:
446,166,241475,1,0,0:0:0:0:
431,215,241545,101,0,0:0:0:0:
397,238,241615,1,0,0:0:0:0:
355,237,241685,1,2,0:2:0:0:
333,215,241754,1,0,0:0:0:0:
320,186,241824,1,0,0:0:0:0:
324,166,241894,1,0,0:0:0:0:
341,154,241964,5,10,0:2:0:0:
306,132,242033,1,0,0:0:0:0:
264,133,242103,1,0,0:0:0:0:
230,157,242173,1,0,0:0:0:0:
197,182,242243,1,2,0:2:0:0:
156,184,242312,1,0,0:0:0:0:
119,164,242382,1,0,0:0:0:0:
106,124,242452,1,0,0:0:0:0:
119,84,242522,102,0,L|180:60,1,51.25,2|0,0:2|0:0,0:0:0:0:
223,13,242661,2,0,L|259:34,1,38.4375014662743
165,273,242801,6,0,P|151:298|122:308,1,56.3750017204285,2|0,0:2|0:0,0:0:0:0:
140,322,242940,2,0,P|101:321|76:295,1,51.25
15,155,243080,102,0,P|44:167|58:184,1,43.5625008308888,2|0,0:2|0:0,0:0:0:0:
65,164,243219,2,0,P|70:186|66:202,1,33.3124984750748
41,271,243359,6,0,L|5:261,1,25.625,2|0,0:2|0:0,0:0:0:0:
20,255,243498,2,0,L|45:262,1,25.625
175,190,243638,101,10,0:2:0:0:
184,185,243708,1,0,0:0:0:0:
193,188,243778,1,0,0:0:0:0:
200,194,243847,1,0,0:0:0:0:
200,204,243917,1,2,0:2:0:0:
194,218,243987,1,0,0:0:0:0:
175,227,244057,1,0,0:0:0:0:
150,220,244126,1,0,0:0:0:0:
134,193,244196,6,0,P|141:172|165:156,3,33.3124984750748,2|0|2|0,0:3|0:0|0:2|0:0,0:0:0:0:
286,232,244475,101,4,0:2:0:0:
286,252,244545,1,0,0:0:0:0:
294,270,244615,1,0,0:0:0:0:
311,281,244685,1,0,0:0:0:0:
331,283,244754,5,2,0:2:0:0:
306,237,244824,1,0,0:0:0:0:
254,231,244894,1,0,0:0:0:0:
207,253,244964,1,0,0:0:0:0:
187,299,245033,102,0,P|192:322|202:345,3,30.7499990615845,2|0|0|0,0:2|0:0|0:0|0:0,0:0:0:0:
429,186,245312,5,10,0:2:0:0:
411,191,245382,1,0,0:0:0:0:
398,203,245452,1,0,0:0:0:0:
393,220,245522,1,0,0:0:0:0:
396,237,245592,101,2,0:2:0:0:
438,233,245661,1,0,0:0:0:0:
456,193,245731,1,0,0:0:0:0:
443,151,245801,1,0,0:0:0:0:
403,132,245871,6,0,P|373:120|345:94,3,43.5625008308888,2|0|0|0,0:2|0:0|0:0|0:0,0:0:0:0:
461,31,246150,101,2,0:2:0:0:
460,36,246219,1,0,0:0:0:0:
459,41,246289,1,0,0:0:0:0:
458,46,246359,1,0,0:0:0:0:
457,51,246429,5,2,0:2:0:0:
411,29,246498,1,0,0:0:0:0:
359,33,246568,1,0,0:0:0:0:
322,68,246638,1,0,0:0:0:0:
315,118,246708,1,2,0:2:0:0:
335,165,246778,1,0,0:0:0:0:
380,186,246847,1,0,0:0:0:0:
431,181,246917,1,0,0:0:0:0:
465,143,246987,101,10,0:2:0:0:
425,133,247057,1,0,0:0:0:0:
390,154,247126,1,0,0:0:0:0:
374,192,247196,1,0,0:0:0:0:
379,232,247266,6,0,P|402:269|404:293,3,51.25,2|0|0|0,0:2|0:0|0:0|0:0,0:0:0:0:
249,350,247545,102,0,L|214:339,1,30.7499990615845,8|0,0:3|0:0,0:0:0:0:
304,298,247685,2,0,L|339:287,1,30.7499990615845,8|0,0:3|0:0,0:0:0:0:
153,164,247824,5,4,0:2:0:0:
96,167,247894,1,0,0:0:0:0:
57,208,247964,1,0,0:0:0:0:
58,263,248033,1,0,0:0:0:0:
88,310,248103,102,0,B|115:309|115:309|133:281,3,41,2|0|0|0,0:2|0:0|0:0|0:0,0:0:0:0:
190,263,248382,2,0,B|189:243|189:243|163:218,3,30.7499990615845,2|0|0|0,0:2|0:0|0:0|0:0,0:0:0:0:
37,84,248661,5,10,0:2:0:0:
33,93,248731,1,0,0:0:0:0:
32,103,248801,1,0,0:0:0:0:
35,112,248871,1,0,0:0:0:0:
39,121,248940,102,0,L|97:103,1,46.1249985923767,2|0,0:2|0:0,0:0:0:0:
137,56,249080,2,0,L|163:80,1,33.3124984750748
230,177,249219,6,0,P|257:174|277:162,1,51.25,2|0,0:2|0:0,0:0:0:0:
342,125,249359,2,0,P|337:95|325:88,1,38.4375014662743
123,188,249498,101,2,0:2:0:0:
80,204,249568,1,0,0:0:0:0:
58,245,249638,1,0,0:0:0:0:
64,290,249708,1,0,0:0:0:0:
92,331,249778,6,0,B|118:320|118:320|129:286,1,51.25,2|0,0:2|0:0,0:0:0:0:
176,248,249917,2,0,B|159:231|159:231|132:227,1,38.4375014662743
31,150,250057,102,0,P|45:117|74:106,1,56.3750017204285,2|0,0:2|0:0,0:0:0:0:
94,47,250196,2,0,P|130:64|139:83,1,43.5625008308888
249,143,250336,5,10,0:2:0:0:
299,143,250405,1,0,0:0:0:0:
337,117,250475,1,0,0:0:0:0:
347,77,250545,1,0,0:0:0:0:
331,44,250615,1,2,0:2:0:0:
301,35,250685,1,0,0:0:0:0:
274,41,250754,101,0,0:0:0:0:
269,48,250824,1,0,0:0:0:0:
266,56,250894,2,0,P|279:70|302:80,1,26.1375001595306,2|0,0:3|0:0,0:0:0:0:
327,186,251033,2,0,P|303:182|295:175,1,26.1375001595306,2|0,0:2|0:0,0:0:0:0:
478,73,251173,53,4,0:2:0:0:
462,66,251243,1,0,0:0:0:0:
447,65,251312,1,0,0:0:0:0:
431,69,251382,1,0,0:0:0:0:
419,80,251452,101,2,0:2:0:0:
467,108,251522,1,0,0:0:0:0:
487,157,251592,1,0,0:0:0:0:
474,206,251661,1,0,0:0:0:0:
432,231,251731,1,2,0:2:0:0:
410,272,251801,1,0,0:0:0:0:
415,315,251871,1,0,0:0:0:0:
441,345,251940,1,0,0:0:0:0:
478,352,252010,5,10,0:2:0:0:
484,290,252080,1,0,0:0:0:0:
449,241,252150,1,0,0:0:0:0:
396,222,252219,1,0,0:0:0:0:
342,232,252289,1,2,0:2:0:0:
304,267,252359,1,0,0:0:0:0:
291,314,252429,2,0,P|292:334|311:369,1,51.25
487,344,252568,102,0,P|489:299|482:279,3,51.25,2|0|0|0,0:2|0:0|0:0|0:0,0:0:0:0:
512,183,252847,1,2,0:2:0:0:
484,139,252917,1,0,0:0:0:0:
439,119,252987,1,0,0:0:0:0:
392,123,253057,1,0,0:0:0:0:
354,144,253126,1,2,0:2:0:0:
312,142,253196,1,0,0:0:0:0:
282,117,253266,1,0,0:0:0:0:
282,81,253336,1,0,0:0:0:0:
307,59,253405,1,2,0:2:0:0:
337,63,253475,1,0,0:0:0:0:
350,88,253545,1,0,0:0:0:0:
339,111,253615,1,0,0:0:0:0:
316,116,253685,5,10,0:2:0:0:
286,68,253754,1,0,0:0:0:0:
234,56,253824,1,0,0:0:0:0:
187,67,253894,1,0,0:0:0:0:
158,100,253964,1,2,0:2:0:0:
118,103,254033,1,0,0:0:0:0:
88,81,254103,1,0,0:0:0:0:
88,49,254173,1,0,0:0:0:0:
110,32,254243,102,0,B|145:38|148:100,1,61.499998123169,8|0,0:3|0:0,0:0:0:0:
218,144,254382,2,0,P|214:174|194:201,1,51.25,8|0,0:3|0:0,0:0:0:0:
113,315,254522,5,4,0:2:0:0:
97,315,254592,1,0,0:0:0:0:
82,309,254661,1,0,0:0:0:0:
70,299,254731,1,0,0:0:0:0:
65,283,254801,101,2,0:2:0:0:
105,236,254871,1,0,0:0:0:0:
163,233,254940,1,0,0:0:0:0:
212,261,255010,1,0,0:0:0:0:
236,308,255080,1,2,0:2:0:0:
285,324,255150,1,0,0:0:0:0:
330,307,255219,1,0,0:0:0:0:
348,264,255289,1,0,0:0:0:0:
335,221,255359,5,10,0:2:0:0:
286,258,255429,1,0,0:0:0:0:
272,314,255498,1,0,0:0:0:0:
298,365,255568,1,0,0:0:0:0:
350,384,255638,1,2,0:2:0:0:
401,370,255708,1,0,0:0:0:0:
432,329,255778,2,0,P|439:297|436:273,1,51.25
347,155,255917,2,0,P|332:181|329:205,3,51.25,2|0|0|0,0:2|0:0|0:0|0:0,0:0:0:0:
472,71,256196,101,2,0:2:0:0:
503,112,256266,1,0,0:0:0:0:
481,156,256336,1,0,0:0:0:0:
437,151,256405,1,0,0:0:0:0:
423,110,256475,1,2,0:2:0:0:
451,81,256545,1,0,0:0:0:0:
485,96,256615,1,0,0:0:0:0:
483,132,256685,1,0,0:0:0:0:
453,146,256754,1,2,0:2:0:0:
433,123,256824,1,0,0:0:0:0:
443,95,256894,1,0,0:0:0:0:
469,95,256964,1,0,0:0:0:0:
476,117,257033,5,10,0:2:0:0:
464,156,257103,1,0,0:0:0:0:
430,170,257173,2,0,P|399:171|371:153,1,41
263,57,257312,101,2,0:2:0:0:
282,33,257382,1,0,0:0:0:0:
307,28,257452,2,0,P|333:29|349:34,1,35.8749989051819
431,63,257592,6,0,P|433:82|409:115,3,51.25,2|0|2|0,0:3|0:0|0:2|0:0,0:0:0:0:
256,66,257871,101,4,0:2:0:0:
244,54,257940,1,0,0:0:0:0:
238,39,258010,1,0,0:0:0:0:
236,23,258080,1,0,0:0:0:0:
241,8,258150,5,2,0:2:0:0:
193,53,258219,1,0,0:0:0:0:
188,117,258289,1,0,0:0:0:0:
219,170,258359,1,0,0:0:0:0:
273,192,258429,1,2,0:2:0:0:
302,239,258498,1,0,0:0:0:0:
302,292,258568,1,0,0:0:0:0:
270,332,258638,1,0,0:0:0:0:
221,340,258708,101,10,0:2:0:0:
190,286,258778,1,0,0:0:0:0:
202,229,258847,1,0,0:0:0:0:
246,194,258917,1,0,0:0:0:0:
299,190,258987,1,2,0:2:0:0:
346,210,259057,1,0,0:0:0:0:
372,250,259126,1,0,0:0:0:0:
376,296,259196,1,0,0:0:0:0:
358,333,259266,1,2,0:2:0:0:
375,370,259336,1,0,0:0:0:0:
407,374,259405,1,0,0:0:0:0:
428,359,259475,1,0,0:0:0:0:
429,341,259545,5,2,0:2:0:0:
394,296,259615,1,0,0:0:0:0:
388,242,259685,1,0,0:0:0:0:
410,196,259754,1,0,0:0:0:0:
456,179,259824,1,2,0:2:0:0:
499,196,259894,1,0,0:0:0:0:
510,238,259964,1,0,0:0:0:0:
490,273,260033,1,0,0:0:0:0:
451,275,260103,1,2,0:2:0:0:
426,248,260173,1,0,0:0:0:0:
436,216,260243,1,0,0:0:0:0:
464,206,260312,1,0,0:0:0:0:
487,221,260382,101,10,0:2:0:0:
466,273,260452,1,0,0:0:0:0:
413,286,260522,1,0,0:0:0:0:
362,277,260592,1,0,0:0:0:0:
324,246,260661,1,2,0:2:0:0:
308,202,260731,1,0,0:0:0:0:
312,158,260801,1,0,0:0:0:0:
289,123,260871,1,0,0:0:0:0:
249,113,260940,1,2,0:3:0:0:
223,137,261010,1,0,0:0:0:0:
224,167,261080,1,2,0:2:0:0:
244,182,261150,1,0,0:0:0:0:
262,183,261219,6,0,P|280:156|279:131,3,46.1249985923767,4|0|0|0,0:2|0:0|0:0|0:0,0:0:0:0:
370,126,261498,2,0,P|353:99|357:59,3,56.3750017204285,2|0|0|0,0:2|0:0|0:0|0:0,0:0:0:0:
273,28,261778,2,0,P|271:59|258:82,3,46.1249985923767,2|0|0|0,0:2|0:0|0:0|0:0,0:0:0:0:
391,0,262057,101,10,0:2:0:0:
432,34,262126,1,0,0:0:0:0:
447,85,262196,1,0,0:0:0:0:
438,135,262266,1,0,0:0:0:0:
405,173,262336,1,2,0:2:0:0:
357,181,262405,1,0,0:0:0:0:
320,152,262475,1,0,0:0:0:0:
312,108,262545,1,0,0:0:0:0:
338,75,262615,2,0,P|371:79|381:87,3,46.1249985923767,2|0|0|0,0:2|0:0|0:0|0:0,0:0:0:0:
329,179,262894,5,2,0:2:0:0:
312,162,262964,1,0,0:0:0:0:
288,154,263033,1,0,0:0:0:0:
260,156,263103,1,0,0:0:0:0:
237,176,263173,1,2,0:2:0:0:
206,188,263243,1,0,0:0:0:0:
171,185,263312,1,0,0:0:0:0:
141,163,263382,1,0,0:0:0:0:
133,122,263452,1,2,0:2:0:0:
102,101,263522,1,0,0:0:0:0:
73,116,263592,1,0,0:0:0:0:
70,143,263661,1,0,0:0:0:0:
88,156,263731,101,10,0:2:0:0:
141,129,263801,1,0,0:0:0:0:
199,132,263871,1,0,0:0:0:0:
240,169,263940,1,0,0:0:0:0:
256,220,264010,1,2,0:2:0:0:
241,271,264080,1,0,0:0:0:0:
199,300,264150,1,0,0:0:0:0:
150,305,264219,1,0,0:0:0:0:
105,288,264289,6,0,P|87:271|68:230,1,61.499998123169,8|0,0:3|0:0,0:0:0:0:
138,101,264429,2,0,P|150:71|178:51,1,51.25,8|0,0:3|0:0,0:0:0:0:
305,166,264568,101,4,0:2:0:0:
299,179,264638,1,0,0:0:0:0:
285,185,264708,1,0,0:0:0:0:
271,180,264778,1,0,0:0:0:0:
263,167,264847,5,2,0:2:0:0:
264,124,264917,1,0,0:0:0:0:
295,103,264987,1,0,0:0:0:0:
330,112,265057,1,0,0:0:0:0:
349,139,265126,1,2,0:2:0:0:
348,168,265196,1,0,0:0:0:0:
332,192,265266,1,0,0:0:0:0:
310,204,265336,1,0,0:0:0:0:
288,206,265405,101,10,0:2:0:0:
255,252,265475,1,0,0:0:0:0:
249,305,265545,1,0,0:0:0:0:
272,350,265615,1,0,0:0:0:0:
313,375,265685,1,2,0:2:0:0:
358,373,265754,1,0,0:0:0:0:
386,340,265824,1,0,0:0:0:0:
384,299,265894,1,0,0:0:0:0:
355,272,265964,1,2,0:2:0:0:
319,277,266033,1,0,0:0:0:0:
304,304,266103,1,0,0:0:0:0:
309,329,266173,1,0,0:0:0:0:
323,343,266243,5,2,0:2:0:0:
293,377,266312,1,0,0:0:0:0:
249,382,266382,1,0,0:0:0:0:
213,361,266452,1,0,0:0:0:0:
195,326,266522,1,2,0:2:0:0:
161,313,266592,1,0,0:0:0:0:
131,324,266661,1,0,0:0:0:0:
125,353,266731,1,0,0:0:0:0:
143,374,266801,1,2,0:2:0:0:
163,371,266871,1,0,0:0:0:0:
173,356,266940,1,0,0:0:0:0:
171,341,267010,1,0,0:0:0:0:
159,334,267080,102,0,P|139:345|127:388,3,56.3750017204285,10|0|0|0,0:2|0:0|0:0|0:0,0:0:0:0:
61,231,267359,2,0,P|81:253|82:293,3,51.25,2|0|0|0,0:2|0:0|0:0|0:0,0:0:0:0:
213,197,267638,2,0,P|195:217|190:247,3,46.1249985923767,2|0|2|0,0:3|0:0|0:2|0:0,0:0:0:0:
127,111,267917,5,4,0:2:0:0:
125,125,267987,1,0,0:0:0:0:
127,140,268057,1,0,0:0:0:0:
133,153,268126,1,0,0:0:0:0:
142,165,268196,101,2,0:2:0:0:
190,127,268266,1,0,0:0:0:0:
195,68,268336,1,0,0:0:0:0:
167,19,268405,1,0,0:0:0:0:
116,0,268475,1,2,0:2:0:0:
65,9,268545,1,0,0:0:0:0:
31,44,268615,1,0,0:0:0:0:
21,89,268685,1,0,0:0:0:0:
30,129,268754,5,10,0:2:0:0:
74,87,268824,1,0,0:0:0:0:
132,72,268894,1,0,0:0:0:0:
188,77,268964,1,0,0:0:0:0:
235,105,269033,1,2,0:2:0:0:
263,149,269103,1,0,0:0:0:0:
277,198,269173,1,0,0:0:0:0:
272,247,269243,1,0,0:0:0:0:
253,288,269312,1,2,0:2:0:0:
274,322,269382,1,0,0:0:0:0:
309,321,269452,1,0,0:0:0:0:
326,296,269522,1,0,0:0:0:0:
320,268,269592,102,0,P|296:258|258:268,1,61.499998123169,2|0,0:2|0:0,0:0:0:0:
200,384,269731,2,0,P|219:362|214:313,1,56.3750017204285
155,228,269871,2,0,P|171:258|194:272,1,51.25,2|0,0:2|0:0,0:0:0:0:
300,246,270010,2,0,P|270:253|254:267,1,46.1249985923767
225,377,270150,2,0,P|230:359|229:334,1,41,2|0,0:2|0:0,0:0:0:0:
150,257,270289,2,0,P|159:266|186:271,1,35.8749989051819
432,235,270429,6,0,P|409:222|364:223,3,56.3750017204285,10|0|0|0,0:2|0:0|0:0|0:0,0:0:0:0:
354,144,270708,2,0,P|325:153|304:174,3,51.25,2|0|0|0,0:2|0:0|0:0|0:0,0:0:0:0:
194,157,270987,102,0,P|214:174|259:184,1,46.1249985923767,8|0,0:3|0:0,0:0:0:0:
314,324,271126,2,0,P|346:313|363:295,1,46.1249985923767,8|0,0:3|0:0,0:0:0:0:
498,52,271266,5,4,0:2:0:0:
464,27,271336,1,0,0:0:0:0:
426,25,271405,1,0,0:0:0:0:
396,46,271475,1,0,0:0:0:0:
387,78,271545,1,2,0:2:0:0:
363,97,271615,1,0,0:0:0:0:
334,98,271685,1,0,0:0:0:0:
311,85,271754,1,0,0:0:0:0:
301,64,271824,101,2,0:2:0:0:
337,35,271894,1,0,0:0:0:0:
382,45,271964,1,0,0:0:0:0:
410,80,272033,1,0,0:0:0:0:
404,125,272103,6,0,P|386:149|341:155,3,46.1249985923767,10|0|0|0,0:2|0:0|0:0|0:0,0:0:0:0:
340,232,272382,2,0,P|321:218|291:215,3,46.1249985923767,2|0|0|0,0:2|0:0|0:0|0:0,0:0:0:0:
251,145,272661,2,0,P|224:165|200:170,3,46.1249985923767,2|0|0|0,0:2|0:0|0:0|0:0,0:0:0:0:
156,220,272940,101,2,0:2:0:0:
182,211,273010,1,0,0:0:0:0:
200,178,273080,1,0,0:0:0:0:
184,149,273150,1,0,0:0:0:0:
151,135,273219,1,2,0:2:0:0:
116,153,273289,1,0,0:0:0:0:
107,193,273359,1,0,0:0:0:0:
124,234,273429,1,0,0:0:0:0:
167,249,273498,1,2,0:2:0:0:
194,290,273568,1,0,0:0:0:0:
191,342,273638,1,0,0:0:0:0:
151,380,273708,1,0,0:0:0:0:
93,373,273778,6,0,P|122:352|133:324,1,61.499998123169,10|0,0:2|0:0,0:0:0:0:
190,234,273917,2,0,P|207:256|210:283,1,56.3750017204285
256,377,274057,2,0,P|274:349|277:316,1,51.25,2|0,0:2|0:0,0:0:0:0:
316,254,274196,2,0,P|330:277|336:295,1,46.1249985923767
385,355,274336,2,0,P|399:324|396:301,1,41,2|0,0:2|0:0,0:0:0:0:
457,282,274475,2,0,P|467:302|470:325,1,35.8749989051819
296,169,274615,102,0,B|275:178|267:195|267:195|290:176|321:177,1,79.9499995120239,4|0,0:2|0:0,0:0:0:0:
451,285,274894,53,12,0:1:0:0:
435,288,275033,1,8,0:1:0:0:
443,198,275173,37,12,0:1:0:0:
426,214,275312,1,8,0:1:0:0:
394,112,275452,69,12,0:1:0:0:
385,147,275592,1,8,0:1:0:0:
303,52,275731,37,12,0:1:0:0:
318,105,275871,1,8,0:1:0:0:
179,39,276010,69,12,0:1:0:0:
240,98,276150,1,8,0:1:0:0:
37,88,276289,37,12,0:1:0:0:
162,120,276429,1,8,0:1:0:0:
3,174,276568,69,12,0:1:0:0:
160,132,276708,1,8,0:1:0:0:
33,285,276847,37,12,0:1:0:0:
174,147,276987,1,8,0:1:0:0:
142,383,277126,69,12,0:1:0:0:
210,146,277266,1,8,0:1:0:0:
306,384,277405,37,12,0:1:0:0:
239,112,277545,1,8,0:1:0:0:
464,295,277685,69,12,0:1:0:0:
222,43,277824,1,8,0:1:0:0:
417,68,277964,37,12,0:1:0:0:
420,80,278033,1,0,0:0:0:0:
417,93,278104,1,8,0:1:0:0:
408,103,278173,1,0,0:0:0:0:
396,117,278242,69,12,0:1:0:0:
408,103,278312,1,0,0:0:0:0:
427,97,278383,1,8,0:1:0:0:
447,102,278452,1,0,0:0:0:0:
467,119,278521,37,12,0:1:0:0:
438,113,278591,1,0,0:0:0:0:
417,93,278662,1,8,0:1:0:0:
408,63,278731,1,0,0:0:0:0:
414,33,278800,69,12,0:1:0:0:
426,71,278870,1,0,0:0:0:0:
416,109,278941,1,8,0:1:0:0:
387,141,279010,1,0,0:0:0:0:
336,159,279079,37,12,0:1:0:0:
368,121,279149,1,0,0:0:0:0:
416,109,279220,1,8,0:1:0:0:
469,120,279289,1,0,0:0:0:0:
512,154,279358,69,12,0:1:0:0:
463,145,279428,1,0,0:0:0:0:
428,109,279499,1,8,0:1:0:0:
411,58,279568,1,0,0:0:0:0:
423,9,279638,37,2,0:3:0:0:
463,48,279708,1,0,0:0:0:0:
455,103,279779,1,0,0:0:0:0:
414,140,279847,1,0,0:0:0:0:
359,128,279918,69,2,0:3:0:0:
332,91,279987,1,0,0:0:0:0:
288,80,280057,1,0,0:0:0:0:
248,102,280126,1,0,0:0:0:0:
238,146,280196,37,2,0:3:0:0:
267,158,280266,1,0,0:0:0:0:
289,180,280336,1,0,0:0:0:0:
295,211,280405,1,0,0:0:0:0:
285,241,280475,69,2,0:3:0:0:
229,229,280545,1,0,0:0:0:0:
182,260,280615,1,0,0:0:0:0:
174,315,280685,1,0,0:0:0:0:
201,362,280754,1,2,0:3:0:0:
255,373,280824,1,0,0:0:0:0:
302,338,280894,1,0,0:0:0:0:
326,281,280964,1,0,0:0:0:0:
377,244,281033,1,2,0:3:0:0:
442,255,281103,1,0,0:0:0:0:
470,318,281173,1,0,0:0:0:0:
441,381,281243,1,0,0:0:0:0:
367,384,281312,38,0,B|295:355|295:355|368:372,1,153.750005865097,4|0,0:2|0:0,0:0:0:0:
295,355,282150,69,12,0:2:0:0:
40,380,282289,1,2,0:2:0:0:
106,322,282429,37,2,0:2:0:0:
119,340,282568,1,2,0:2:0:0:
6,303,282708,1,2,0:2:0:0:
24,290,282847,1,0,0:0:0:0:
224,101,282987,70,0,B|243:24|243:24|212:95,1,153.750005865097,2|0,0:2|0:0,0:0:0:0:
145,167,283266,37,2,0:2:0:0:
132,149,283405,1,2,0:2:0:0:
271,170,283545,1,0,0:0:0:0:
253,183,283684,1,2,0:2:0:0:
190,240,283824,69,8,0:2:0:0:
427,47,283964,1,0,0:0:0:0:
330,29,284103,37,0,0:0:0:0:
338,49,284243,1,4,0:1:0:0:
402,127,284382,1,0,0:0:0:0:
394,147,284521,1,2,0:2:0:0:
283,274,284661,70,0,B|297:357|297:357|268:279,1,153.750005865097,4|0,0:2|0:0,0:0:0:0:
190,240,284940,37,2,0:2:0:0:
182,220,285079,1,0,0:0:0:0:
81,304,285219,1,2,0:2:0:0:
89,284,285359,1,0,0:0:0:0:
185,342,285498,69,8,0:2:0:0:
86,188,285638,1,0,0:0:0:0:
163,135,285778,37,2,0:2:0:0:
183,127,285917,1,2,0:2:0:0:
201,42,286057,1,2,0:2:0:0:
221,34,286196,1,2,0:2:0:0:
157,260,286336,70,0,B|92:271|92:271|155:251,1,122.999996246338,4|0,0:1|0:0,0:0:0:0:
305,262,286615,37,4,0:1:0:0:
325,270,286754,1,2,0:2:0:0:
374,355,286894,69,8,0:3:0:0:
417,187,287033,1,8,0:3:0:0:
317,106,287173,37,8,0:3:0:0:
409,170,287312,1,8,0:3:0:0:
257,332,287452,69,8,0:2:0:0:
446,271,287592,1,8,0:3:0:0:
336,194,287731,37,8,0:1:0:0:
337,186,287871,1,8,0:1:0:0:
149,203,288010,70,0,B|107:163|40:203|55:258|80:281|80:281|115:292|115:336,1,205,4|2,0:2|0:3,0:0:0:0:
43,355,288429,1,0,0:0:0:0:
203,314,288568,2,0,P|184:346|191:384,1,76.8750029325486,2|0,0:3|0:0,0:0:0:0:
458,230,288847,37,10,0:2:0:0:
468,241,288917,1,0,0:0:0:0:
467,256,288987,1,0,0:0:0:0:
382,185,289126,1,2,0:3:0:0:
351,314,289266,1,0,0:0:0:0:
262,220,289405,1,2,0:3:0:0:
271,246,289545,1,0,0:0:0:0:
308,112,289685,70,0,P|297:20|206:35,1,205,2|2,0:3|0:3,0:0:0:0:
188,115,290103,1,0,0:0:0:0:
104,235,290243,2,0,P|59:247|27:224,1,76.8750029325486,2|0,0:3|0:0,0:0:0:0:
112,69,290522,37,10,0:2:0:0:
101,59,290592,1,0,0:0:0:0:
86,60,290662,1,0,0:0:0:0:
13,117,290801,1,2,0:3:0:0:
116,232,290940,1,0,0:0:0:0:
3,287,291080,1,2,0:3:0:0:
20,304,291219,1,0,0:0:0:0:
201,273,291359,70,0,B|240:261|273:299|264:305|256:311|283:351|330:339|330:339|352:309|382:312,1,205,2|2,0:3|0:3,0:0:0:0:
454,351,291778,1,0,0:0:0:0:
512,230,291917,2,0,P|485:203|444:207,1,76.8750029325486,2|0,0:3|0:0,0:0:0:0:
326,76,292196,37,10,0:2:0:0:
337,66,292266,1,0,0:0:0:0:
352,67,292336,1,0,0:0:0:0:
368,151,292475,1,2,0:3:0:0:
442,16,292615,1,0,0:0:0:0:
481,128,292754,1,2,0:3:0:0:
471,105,292894,1,0,0:0:0:0:
265,136,293033,70,0,P|164:114|63:97,1,205,2|2,0:3|0:3,0:0:0:0:
20,26,293452,1,0,0:0:0:0:
0,203,293592,2,0,P|36:189|75:185,1,76.8750029325486,2|0,0:3|0:0,0:0:0:0:
275,53,293871,37,10,0:2:0:0:
262,45,293941,1,0,0:0:0:0:
248,49,294011,1,0,0:0:0:0:
267,143,294150,1,2,0:3:0:0:
145,52,294289,1,0,0:0:0:0:
154,172,294429,1,2,0:3:0:0:
165,153,294568,1,0,0:0:0:0:
80,98,294708,22,0,B|78:111|62:120|62:120|50:156|71:185,2,88.8333292668662,4|0|0,0:2|2:0|2:0,0:0:0:0:
123,258,294987,1,0,0:0:0:0:
102,268,295126,1,0,0:0:0:0:
45,335,295266,1,0,0:0:0:0:
34,331,295405,1,0,0:0:0:0:
224,362,295545,102,0,P|229:353|233:331,1,33.3124984750748,12|8,0:2|2:2,0:0:0:0:
206,251,295685,1,2,0:2:0:0:
318,202,295824,1,2,0:2:0:0:
273,261,295964,1,2,0:2:0:0:
203,244,296103,1,2,0:2:0:0:
200,236,296243,1,0,0:0:0:0:
114,112,296382,6,0,B|118:106|125:102|125:102|155:130|197:123,2,88.8333292668662,4|0|0,0:1|2:0|2:0,0:0:0:0:
299,24,296661,1,2,0:2:0:0:
235,3,296801,1,2,0:2:0:0:
183,45,296940,1,0,0:0:0:0:
181,56,297080,1,2,0:2:0:0:
358,172,297219,102,0,B|354:170|353:165|353:165|371:156|381:132,1,41,8|8,0:2|2:2,0:0:0:0:
393,30,297359,1,0,0:0:0:0:
500,129,297498,5,0,0:0:0:0:
441,160,297638,1,4,0:1:0:0:
379,133,297778,1,0,0:0:0:0:
377,120,297917,1,2,0:2:0:0:
469,260,298057,102,0,B|441:259|424:274|424:274|412:253|386:246,2,88.8333292668662,4|0|0,0:2|2:0|2:0,0:0:0:0:
334,347,298336,1,2,0:2:0:0:
352,340,298475,1,0,0:0:0:0:
285,257,298615,1,2,0:2:0:0:
297,260,298754,1,0,0:0:0:0:
188,371,298894,6,0,P|197:361|202:339,1,33.3124984750748,8|8,0:2|2:2,0:0:0:0:
178,253,299033,1,0,0:0:0:0:
68,296,299173,1,2,0:2:0:0:
134,312,299312,1,2,0:2:0:0:
179,260,299452,1,2,0:2:0:0:
171,245,299592,1,2,0:2:0:0:
58,283,299731,102,0,P|50:274|45:255,1,28.1875008602143,4|0,0:1|2:0,0:0:0:0:
51,181,299870,1,0,0:0:0:0:
57,170,300010,1,4,0:1:0:0:
110,126,300150,1,2,0:2:0:0:
48,5,300289,5,8,0:3:0:0:
17,89,300429,1,8,0:3:0:0:
106,120,300568,1,8,0:3:0:0:
94,71,300708,1,8,0:3:0:0:
234,4,300847,101,8,0:2:0:0:
260,104,300987,1,8,0:3:0:0:
178,116,301126,1,8,0:1:0:0:
191,67,301266,1,8,0:1:0:0:
413,221,301405,6,0,B|334:228|334:228|323:250|323:250|238:255,1,184.499994369507,4|0,0:2|0:0,0:0:0:0:
168,217,301685,1,2,0:3:0:0:
239,242,301824,1,0,0:0:0:0:
285,334,301964,101,2,0:3:0:0:
218,348,302103,1,0,0:0:0:0:
338,251,302243,5,10,0:2:0:0:
356,255,302312,1,0,0:0:0:0:
369,269,302382,1,0,0:0:0:0:
354,354,302522,101,2,0:3:0:0:
295,337,302661,1,0,0:0:0:0:
375,277,302801,5,2,0:3:0:0:
413,272,302940,1,0,0:0:0:0:
505,379,303080,102,0,B|512:353|487:332|487:332|472:279|515:245|515:245|498:251|472:247,1,184.499994369507,2|0,0:3|0:0,0:0:0:0:
415,194,303359,1,2,0:3:0:0:
493,174,303498,1,0,0:0:0:0:
417,120,303638,5,2,0:3:0:0:
404,189,303778,1,0,0:0:0:0:
502,62,303917,101,10,0:2:0:0:
489,49,303987,1,0,0:0:0:0:
470,45,304057,1,0,0:0:0:0:
405,109,304196,5,2,0:3:0:0:
360,94,304336,1,0,0:0:0:0:
314,19,304475,101,2,0:3:0:0:
289,26,304615,1,0,0:0:0:0:
248,132,304754,6,0,B|233:117|202:111|202:111|253:156|228:237,1,184.499994369507,2|0,0:3|0:0,0:0:0:0:
173,287,305033,1,2,0:3:0:0:
156,211,305173,1,0,0:0:0:0:
250,308,305312,101,2,0:3:0:0:
222,370,305452,1,0,0:0:0:0:
327,288,305592,5,10,0:2:0:0:
324,263,305661,1,0,0:0:0:0:
302,246,305731,1,0,0:0:0:0:
345,373,305871,101,2,0:3:0:0:
382,364,306010,1,0,0:0:0:0:
456,278,306150,5,2,0:3:0:0:
433,271,306289,1,0,0:0:0:0:
368,90,306429,102,0,B|367:82|354:74|354:74|371:69|388:58|388:58|348:118|378:189,1,184.499994369507,2|0,0:3|0:0,0:0:0:0:
443,199,306708,1,2,0:3:0:0:
466,134,306847,1,0,0:0:0:0:
337,6,306987,5,2,0:3:0:0:
359,87,307126,1,0,0:0:0:0:
260,136,307266,101,10,0:2:0:0:
245,108,307336,1,0,0:0:0:0:
254,71,307405,1,0,0:0:0:0:
325,191,307545,5,2,0:3:0:0:
260,218,307685,1,0,0:0:0:0:
203,141,307824,101,2,0:3:0:0:
236,146,307964,1,0,0:0:0:0:
101,93,308103,86,0,P|96:111|96:127,1,26.6499998373413,4|0,0:2|0:0,0:0:0:0:
101,93,308940,102,0,B|112:86|123:73|123:73|107:109|100:152,1,104.550000638123,12|2,0:2|0:2,0:0:0:0:
42,187,309219,1,2,0:2:0:0:
208,331,309359,6,0,P|243:324|257:302,1,47.6625014909077,2|0,0:2|0:0,0:0:0:0:
339,353,309498,102,0,B|328:325|298:313|272:322|272:322|261:346|232:360|200:349,1,142.987504472723,2|0,0:2|0:0,0:0:0:0:
403,125,309778,6,0,B|437:112|437:112|468:128|468:128|512:116,1,95.3250029818154,2|0,0:2|0:0,0:0:0:0:
310,88,310057,101,2,0:2:0:0:
348,185,310196,6,0,P|321:148|332:92,1,95.3250029818154,2|0,0:2|0:0,0:0:0:0:
385,53,310475,1,2,0:2:0:0:
120,178,310615,102,0,B|110:186|90:192|63:177|66:174|70:170|49:155|26:159|2:177,1,95.3250029818154,8|2,0:2|0:2,0:0:0:0:
122,279,310894,5,2,0:2:0:0:
300,180,311033,1,4,0:1:0:0:
226,351,311173,1,0,0:0:0:0:
291,167,311312,1,2,0:2:0:0:
102,63,311452,101,4,0:2:0:0:
168,87,311592,6,0,B|174:102|174:111|174:111|127:85|89:84,1,95.3250029818154,0|2,0:0|0:2,0:0:0:0:
17,219,311871,101,0,0:0:0:0:
30,231,312010,2,0,P|70:219|97:173,1,95.3250029818154,2|0,0:2|0:0,0:0:0:0:
219,35,312289,6,0,B|249:44|249:44|262:75|262:75|292:86,1,95.3250029818154,8|0,0:2|0:0,0:0:0:0:
357,44,312568,1,2,0:2:0:0:
180,182,312708,102,0,L|167:243,1,47.6625014909077,2|0,0:2|0:0,0:0:0:0:
197,295,312847,6,0,B|200:310|190:324|175:322|175:322|201:209,1,142.987504472723,2|0,0:2|0:0,0:0:0:0:
405,292,313126,102,0,B|430:319|430:319|403:372,1,95.3250029818154,4|0,0:1|0:0,0:0:0:0:
342,241,313405,5,4,0:1:0:0:
336,240,313545,2,0,P|354:221|375:213,1,47.6625014909077,2|0,0:2|0:0,0:0:0:0:
433,157,313685,101,8,0:3:0:0:
431,152,313825,2,0,P|455:160|471:176,1,47.6625014909077,8|0,0:3|0:0,0:0:0:0:
234,364,313964,5,8,0:3:0:0:
161,322,314103,1,8,0:3:0:0:
152,253,314243,1,8,0:3:0:0:
172,217,314382,1,8,0:3:0:0:
272,181,314522,101,8,0:1:0:0:
270,174,314661,1,8,0:1:0:0:
214,39,314801,6,0,B|245:25|280:39|292:72|288:74|285:76|304:106|332:109|359:87,1,167.587501790028,4|0,0:2|0:0,0:0:0:0:
359,71,315080,102,0,P|395:55|447:56,1,71.7499978103638,2|0,0:3|0:0,0:0:0:0:
453,151,315359,2,0,P|480:178|498:227,1,71.7499978103638,2|0,0:3|0:0,0:0:0:0:
163,200,315638,5,10,0:2:0:0:
163,175,315708,1,0,0:0:0:0:
172,152,315778,1,0,0:0:0:0:
308,285,315917,102,0,B|292:306|263:301|263:301|249:277|222:269|189:277,1,107.624996715546,2|0,0:3|0:0,0:0:0:0:
70,331,316196,6,0,B|77:308|101:289|138:286|138:286|126:272|113:271,1,117.875002248287,2|0,0:3|0:0,0:0:0:0:
426,193,316475,102,0,B|478:196|470:165|445:158|414:167|393:189|389:235|414:273,1,156.825000957184,2|0,0:3|0:0,0:0:0:0:
420,271,316754,6,0,B|389:302|389:302|335:293,1,76.8750029325486,2|0,0:3|0:0,0:0:0:0:
261,367,317033,2,0,B|224:343|224:343|221:288,1,76.8750029325486,2|0,0:3|0:0,0:0:0:0:
135,137,317312,101,10,0:2:0:0:
142,118,317382,1,0,0:0:0:0:
137,99,317452,1,0,0:0:0:0:
197,195,317592,6,0,B|231:196|231:196|255:231|255:231|299:232,1,107.624996715546,2|0,0:3|0:0,0:0:0:0:
103,230,317871,102,0,B|116:218|116:218|81:233|81:233|66:269|66:269|40:284,1,117.875002248287,2|0,0:3|0:0,0:0:0:0:
282,15,318150,6,0,B|335:2|335:2|368:28|356:88|312:115,1,175.274997860413,2|0,0:3|0:0,0:0:0:0:
346,124,318429,2,0,P|305:136|262:111,1,71.7499978103638,2|0,0:3|0:0,0:0:0:0:
135,67,318708,102,0,B|142:77|152:78|152:78|191:68,2,48.6874986999035,2|0|0,0:3|2:0|3:0,0:0:0:0:
404,202,318987,5,10,0:2:0:0:
407,213,319057,1,0,0:0:0:0:
410,224,319126,1,0,0:0:0:0:
122,361,319266,101,2,0:3:0:0:
173,219,319405,1,0,0:0:0:0:
42,238,319545,5,2,0:3:0:0:
192,305,319685,1,0,0:0:0:0:
297,181,319824,102,0,B|316:212|316:212|308:260|308:260|288:282|288:282|280:337,1,161.437495073319,2|0,0:3|0:0,0:0:0:0:
285,352,320103,2,0,B|314:350|314:350|330:339|330:339|364:335,1,71.7499978103638,2|0,0:3|0:0,0:0:0:0:
460,279,320382,6,0,B|445:272|432:274|432:274|434:259|423:243,2,48.6874986999035,2|0|0,0:3|2:0|0:0,0:0:0:0:
499,68,320661,101,10,0:2:0:0:
497,82,320731,1,0,0:0:0:0:
495,96,320801,1,0,0:0:0:0:
281,82,320940,6,0,B|296:62|324:48|353:61|353:61|362:98,1,102.5,2|0,0:3|0:0,0:0:0:0:
444,155,321219,102,0,B|439:172|419:178|409:174|409:174|344:150,1,92.2499971847535,2|0,0:3|0:0,0:0:0:0:
115,56,321498,6,0,B|103:62|81:65|59:43|62:40|64:36|40:17|17:16|-9:27,1,113.77500277771,4|0,0:2|0:0,0:0:0:0:
135,140,321778,101,2,0:2:0:0:
143,136,321917,1,2,0:2:0:0:
15,94,322057,1,2,0:0:0:0:
56,164,322196,1,2,0:2:0:0:
206,260,322336,6,0,B|218:278|237:285|237:285|243:312|234:339|204:361,1,96.3499985298157,12|2,0:2|0:2,0:0:0:0:
154,362,322615,1,2,0:2:0:0:
269,218,322754,102,0,P|290:204|330:208,1,48.1749992649078,2|0,0:2|0:0,0:0:0:0:
390,234,322894,6,0,B|409:229|433:237|423:273|370:277|347:246|351:243|354:240|333:210|290:223,1,164.512494979477,2|0,0:2|0:0,0:0:0:0:
69,288,323173,102,0,B|70:278|70:278|43:285|16:314|15:348,1,102.5,4|0,0:1|0:0,0:0:0:0:
169,301,323452,5,2,0:2:0:0:
89,351,323592,102,0,B|110:357|127:337|127:337|124:334|124:334|127:337|127:337|141:318|180:320,1,102.5,2|2,0:2|0:2,0:0:0:0:
234,369,323871,1,2,0:2:0:0:
18,242,324010,6,0,B|3:190|3:190|0:173|10:151|26:143,1,102.5,8|2,0:2|0:2,0:0:0:0:
250,78,324289,101,2,0:2:0:0:
174,263,324429,1,4,0:1:0:0:
311,168,324568,1,0,0:0:0:0:
164,247,324708,1,2,0:2:0:0:
109,29,324847,5,4,0:2:0:0:
31,77,324987,102,0,B|52:80|68:92|68:92|79:71|94:53|128:42,1,102.5,0|2,0:0|0:2,0:0:0:0:
232,167,325266,5,0,0:0:0:0:
218,162,325405,1,2,0:2:0:0:
197,63,325545,1,0,0:0:0:0:
253,274,325685,102,0,P|289:234|347:225,1,102.5,8|0,0:2|0:0,0:0:0:0:
401,171,325964,1,2,0:2:0:0:
471,328,326103,6,0,L|414:309,1,51.25,2|0,0:2|0:0,0:0:0:0:
352,330,326243,102,0,B|333:323|333:323|324:301|324:301|431:338,1,153.75,2|0,0:2|0:0,0:0:0:0:
142,348,326522,6,0,B|117:348|89:357|89:357|85:330|64:308,1,96.3499985298157,4|0,0:1|0:0,0:0:0:0:
202,198,326801,101,4,0:1:0:0:
128,242,326940,6,0,B|170:233|170:233|184:223|184:223|232:214,1,96.3499985298157,2|8,0:2|0:3,0:0:0:0:
267,277,327219,1,8,0:3:0:0:
492,173,327359,101,8,0:3:0:0:
408,186,327498,1,8,0:3:0:0:
388,255,327638,1,8,0:3:0:0:
405,288,327778,1,8,0:3:0:0:
324,349,327917,5,8,0:1:0:0:
316,344,328057,1,8,0:1:0:0:
116,158,328196,102,0,B|81:126|81:126|219:151,1,169.125005161286,4|0,0:2|0:0,0:0:0:0:
216,133,328475,6,0,P|247:152|258:193,1,71.7499978103638,2|0,0:3|0:0,0:0:0:0:
357,228,328754,2,0,P|320:251|300:293,1,71.7499978103638,2|0,0:3|0:0,0:0:0:0:
458,65,329033,101,10,0:2:0:0:
476,48,329103,1,0,0:0:0:0:
478,23,329173,1,0,0:0:0:0:
356,87,329312,6,0,B|375:95|386:115|386:115|366:109|344:104|310:103,1,107.624996715546,2|0,0:3|0:0,0:0:0:0:
487,201,329592,102,0,B|486:179|481:168|471:147|471:147|496:158|508:183|499:213,1,117.875002248287,2|0,0:3|0:0,0:0:0:0:
305,332,329871,6,0,B|292:365|253:368|228:361|228:361|218:327|197:310|143:309,1,167.587501790028,2|0,0:3|0:0,0:0:0:0:
150,293,330150,102,0,P|107:299|77:331,1,76.8750029325486,2|0,0:3|0:0,0:0:0:0:
229,209,330429,2,0,P|267:227|320:217,1,76.8750029325486,2|0,0:3|0:0,0:0:0:0:
198,67,330708,5,10,0:2:0:0:
188,49,330778,1,0,0:0:0:0:
189,29,330847,1,0,0:0:0:0:
159,157,330987,102,0,B|130:173|127:205|137:205|140:205|138:235|108:251,1,107.624996715546,2|0,0:3|0:0,0:0:0:0:
266,139,331266,6,0,B|250:148|239:133|253:120|264:116|295:117|292:141|302:153|325:160|337:156|352:139,1,117.875002248287,2|0,0:3|0:0,0:0:0:0:
31,289,331545,102,0,B|-5:290|-31:269|11:241|49:257|93:298|94:342|66:377,1,179.887500686216,2|0,0:3|0:0,0:0:0:0:
60,371,331824,6,0,B|84:374|84:374|114:354|149:349,1,71.7499978103638,2|0,0:3|0:0,0:0:0:0:
281,299,332103,102,0,B|248:277|207:275|207:275|219:288,1,97.374997399807,2|0,0:3|0:0,0:0:0:0:
442,159,332382,5,10,0:2:0:0:
443,149,332452,1,0,0:0:0:0:
444,139,332522,1,0,0:0:0:0:
217,158,332661,101,2,0:3:0:0:
311,50,332801,1,0,0:0:0:0:
134,114,332940,5,2,0:3:0:0:
252,230,333080,1,0,0:0:0:0:
423,233,333219,102,0,B|429:254|447:268|471:274|471:274|478:305|475:345|429:381,1,161.437495073319,2|0,0:3|0:0,0:0:0:0:
434,379,333498,6,0,B|413:373|404:354|404:354|381:366|353:361,1,71.7499978103638,2|0,0:3|0:0,0:0:0:0:
489,202,333778,102,0,B|478:173|478:173|486:126|486:126|477:98,1,97.374997399807,2|0,0:3|0:0,0:0:0:0:
247,348,334057,5,10,0:2:0:0:
256,350,334126,1,0,0:0:0:0:
265,352,334196,1,0,0:0:0:0:
216,218,334336,102,0,B|227:224|235:214|228:199|228:199|147:227,1,107.624996715546,2|0,0:3|0:0,0:0:0:0:
93,303,334615,2,0,B|147:323|147:323|156:326|181:317|187:297,1,97.374997399807,2|0,0:3|0:0,0:0:0:0:
255,73,334894,6,0,P|227:93|212:118,1,48.6874986999035,4|0,0:2|0:0,0:0:0:0:
255,73,335731,85,4,0:2:0:0:
264,203,335871,2,0,B|270:167|245:153|245:153|232:152|214:141,1,76.8750029325486,2|2,0:2|0:2,0:0:0:0:
133,14,336150,2,0,B|161:37|185:22|185:22|193:11|211:1,1,76.8750029325486,2|2,0:2|0:2,0:0:0:0:
339,39,336429,1,0,0:0:0:0:
95,113,336568,37,2,0:2:0:0:
85,110,336708,2,0,B|48:103|48:103|43:100|43:100|8:94,1,76.8750029325486,0|2,0:0|0:2,0:0:0:0:
163,317,336987,2,0,B|200:310|200:310|205:307|205:307|240:301,1,76.8750029325486,2|2,0:2|0:2,0:0:0:0:
324,280,337266,1,2,0:2:0:0:
46,221,337405,69,8,0:2:0:0:
112,384,337545,1,2,0:2:0:0:
197,229,337685,1,2,0:2:0:0:
163,307,337824,1,4,0:1:0:0:
13,316,337964,1,2,0:2:0:0:
22,338,338103,1,2,0:2:0:0:
140,138,338243,37,4,0:2:0:0:
145,111,338382,1,2,0:2:0:0:
160,38,338522,70,0,B|131:38|131:38|89:15,2,51.2500019550324,2|0|0,0:2|2:0|2:0,0:0:0:0:
233,9,338801,2,0,L|321:27,1,76.8750029325486,2|2,3:2|0:2,0:0:0:0:
103,225,339080,37,8,0:2:0:0:
242,111,339219,1,2,0:2:0:0:
333,243,339359,1,2,0:2:0:0:
245,200,339498,1,2,0:2:0:0:
333,111,339638,1,2,0:2:0:0:
324,148,339778,1,0,0:0:0:0:
443,214,339917,70,0,B|450:217|470:209|477:163|415:135,1,76.8750029325486,4|2,0:2|0:2,0:0:0:0:
389,42,340196,1,2,0:2:0:0:
410,37,340336,1,2,0:2:0:0:
311,0,340475,37,2,0:2:0:0:
319,5,340615,1,2,0:2:0:0:
233,45,340754,69,8,0:3:0:0:
127,191,340894,1,8,0:3:0:0:
122,109,341033,1,8,0:3:0:0:
92,267,341173,1,8,0:3:0:0:
63,230,341312,1,8,0:1:0:0:
94,300,341452,1,8,0:1:0:0:
10,294,341592,37,4,0:2:0:0:
9,302,341731,1,2,0:2:0:0:
59,220,341871,1,2,0:2:0:0:
168,272,342010,1,2,0:2:0:0:
235,151,342150,1,0,0:0:0:0:
275,336,342289,1,2,0:2:0:0:
349,129,342429,69,8,0:2:0:0:
136,172,342568,1,0,0:0:0:0:
335,132,342708,1,2,0:2:0:0:
175,49,342847,37,2,0:2:0:0:
251,70,342987,1,2,0:2:0:0:
165,47,343126,1,2,0:2:0:0:
315,5,343266,69,4,0:2:0:0:
307,4,343405,1,2,0:2:0:0:
389,54,343545,1,2,0:2:0:0:
331,140,343684,1,2,0:2:0:0:
209,133,343824,1,2,0:2:0:0:
128,241,343963,1,2,0:2:0:0:
230,360,344103,37,8,0:2:0:0:
34,331,344243,1,0,0:0:0:0:
218,358,344382,1,2,0:2:0:0:
131,230,344522,69,4,0:1:0:0:
132,343,344661,1,0,0:0:0:0:
139,237,344801,1,0,0:0:0:0:
241,266,344940,37,4,0:2:0:0:
245,261,345080,1,2,0:2:0:0:
326,318,345219,1,2,0:2:0:0:
396,238,345359,1,2,0:2:0:0:
338,129,345498,1,2,0:2:0:0:
468,53,345638,1,2,0:2:0:0:
507,230,345778,69,8,0:2:0:0:
302,216,345917,1,0,0:0:0:0:
495,230,346057,1,2,0:2:0:0:
312,216,346196,1,2,0:2:0:0:
484,230,346335,1,2,0:2:0:0:
294,46,346475,37,2,0:2:0:0:
224,134,346615,1,4,0:2:0:0:
303,206,346754,1,2,0:2:0:0:
351,141,346894,1,2,0:2:0:0:
333,122,347033,1,2,0:2:0:0:
220,220,347173,69,8,0:3:0:0:
254,335,347312,1,8,0:3:0:0:
367,244,347452,37,8,0:3:0:0:
347,312,347591,1,8,0:3:0:0:
224,231,347731,69,8,0:3:0:0:
238,282,347870,1,8,0:3:0:0:
365,255,348010,37,8,0:1:0:0:
354,293,348149,1,8,0:1:0:0:
146,186,348289,70,0,B|162:184|163:164|131:134|68:147|55:202|63:203|69:204|48:256|-28:230,2,205,8|8|8,0:1|0:3|0:3,0:0:0:0:
185,258,348987,1,8,0:3:0:0:
282,29,349126,2,0,P|332:44|387:47,1,102.5,8|8,0:2|0:3,0:0:0:0:
310,142,349405,2,0,P|260:157|205:160,1,76.8750029325486,8|8,0:3|0:3,0:0:0:0:
333,239,349685,2,0,P|359:243|384:251,1,51.25,8|8,0:1|0:1,0:0:0:0:
276,366,349964,38,0,P|193:328|237:247,2,205,8|8|8,0:1|0:3|0:3,0:0:0:0:
355,330,350661,1,8,0:3:0:0:
463,274,350801,69,8,0:2:0:0:
484,280,350940,1,8,0:3:0:0:
417,197,351080,1,8,0:3:0:0:
396,203,351219,1,8,0:3:0:0:
497,144,351359,2,0,P|500:102|507:73,1,51.25,8|8,0:1|0:1,0:0:0:0:
338,103,351638,38,0,P|339:115|345:136,2,34.1666666666667,8|0|0,0:1|2:0|2:0,0:0:0:0:
193,80,351917,2,0,P|204:98|224:121,2,51.2500019550324,8|0|0,0:1|2:0|2:0,0:0:0:0:
43,160,352196,2,0,P|106:160|126:155,2,68.3333333333333,8|0|0,0:1|2:0|2:0,0:0:0:0:
0,351,352475,70,0,P|20:306|69:301,1,102.5,8|8,0:2|0:3,0:0:0:0:
178,221,352754,2,0,P|213:231|214:286,1,76.8750029325486,8|8,0:3|0:3,0:0:0:0:
356,353,353033,2,0,P|343:378|304:378,1,51.25,8|8,0:1|0:1,0:0:0:0:
232,352,353312,37,8,0:1:0:0:
387,250,353452,2,0,B|427:243|453:286|445:292|436:298|453:352|519:345,1,153.750005865097,8|8,0:3|0:3,0:0:0:0:
356,353,353871,2,0,P|318:302|260:261,1,115.312504398823,8|0,0:3|0:0,0:0:0:0:
211,234,354150,69,8,0:3:0:0:
214,239,354289,1,8,0:3:0:0:
147,282,354429,37,8,0:3:0:0:
147,291,354568,1,8,0:3:0:0:
64,312,354708,69,8,0:3:0:0:
62,325,354847,1,8,0:3:0:0:
151,118,354987,38,0,P|76:83|5:60,2,153.750005865097,4|2|2,0:2|0:2|0:2,0:0:0:0:
220,167,355685,1,2,0:2:0:0:
441,80,355824,2,0,P|438:40|415:10,1,76.8750029325486,8|2,0:2|0:2,0:0:0:0:
305,177,356103,2,0,P|337:156|374:150,1,76.8750029325486,4|2,0:1|0:2,0:0:0:0:
274,337,356382,2,0,P|282:288|289:247,1,76.8750029325486,2|2,0:2|0:2,0:0:0:0:
442,221,356661,69,4,0:2:0:0:
458,228,356801,1,2,0:2:0:0:
405,314,356940,37,2,0:2:0:0:
389,307,357080,1,0,0:0:0:0:
496,134,357219,69,2,0:2:0:0:
512,141,357359,1,2,0:2:0:0:
328,200,357498,38,0,P|292:187|255:177,1,76.8750029325486,8|2,0:2|0:2,0:0:0:0:
126,23,357778,2,0,P|163:32|199:46,1,76.8750029325486,4|2,0:1|0:2,0:0:0:0:
73,220,358057,2,0,P|36:206|0:196,1,76.8750029325486,2|2,0:2|0:2,0:0:0:0:
235,295,358336,70,0,B|241:347|171:378|118:335|126:284|126:284|150:267|146:235,2,205,4|2|2,0:1|0:2|0:2,0:0:0:0:
155,179,359033,1,2,0:2:0:0:
312,98,359173,38,0,P|292:51|274:2,1,102.5,8|2,0:2|0:2,0:0:0:0:
411,165,359452,2,0,P|461:172|512:180,1,102.5,0|2,0:0|0:2,0:0:0:0:
307,210,359731,2,0,P|275:250|242:289,1,102.5,2|2,0:2|0:2,0:0:0:0:
416,68,360010,69,4,0:1:0:0:
471,278,360150,1,2,0:2:0:0:
400,156,360289,1,2,0:2:0:0:
256,320,360429,37,4,0:1:0:0:
475,197,360569,1,2,0:2:0:0:
378,346,360709,1,2,0:2:0:0:
315,95,360847,69,4,0:1:0:0:
463,284,360988,1,2,0:2:0:0:
312,195,361127,1,2,0:2:0:0:
505,15,361266,37,4,0:1:0:0:
385,243,361406,1,2,0:2:0:0:
389,21,361546,1,2,0:2:0:0:
455,293,361685,69,4,0:1:0:0:
236,139,361825,1,2,0:2:0:0:
115,377,361965,1,2,0:2:0:0:
442,371,362103,37,4,0:1:0:0:
316,133,362243,1,2,0:2:0:0:
100,291,362382,1,2,0:2:0:0:
473,181,362522,69,8,0:3:0:0:
483,119,362592,1,8,0:3:0:0:
460,73,362661,1,8,0:3:0:0:
420,59,362731,1,8,0:3:0:0:
389,60,362801,1,8,0:3:0:0:
374,75,362871,1,8,0:3:0:0:
371,84,362940,37,8,0:3:0:0:
317,66,363010,1,8,0:3:0:0:
272,81,363080,1,8,0:3:0:0:
251,111,363150,1,8,0:3:0:0:
247,135,363219,1,8,0:3:0:0:
239,148,363289,1,8,0:3:0:0:
233,150,363360,22,0,P|216:152|198:122,3,41,4|0|0|0,0:2|2:0|2:0|2:0,0:0:0:0:
275,52,363639,101,2,0:2:0:0:
299,45,363708,1,8,1:2:0:0:
322,55,363778,1,2,0:2:0:0:
337,75,363848,1,8,1:2:0:0:
338,100,363918,5,2,0:2:0:0:
349,154,363987,1,8,1:2:0:0:
395,186,364057,1,2,0:2:0:0:
451,187,364127,1,8,1:2:0:0:
488,144,364197,101,2,0:2:0:0:
454,121,364266,1,8,1:2:0:0:
443,81,364336,1,2,0:2:0:0:
462,44,364406,1,8,1:2:0:0:
500,30,364476,5,2,0:2:0:0:
512,52,364546,1,8,1:2:0:0:
509,77,364615,1,2,0:2:0:0:
492,96,364685,1,8,1:2:0:0:
466,100,364755,101,2,0:2:0:0:
432,41,364825,1,8,1:2:0:0:
373,11,364894,1,2,0:2:0:0:
306,2,364964,1,8,1:2:0:0:
242,24,365034,1,2,0:2:0:0:
203,78,365104,1,8,1:2:0:0:
213,143,365173,1,2,0:2:0:0:
269,178,365243,1,8,1:2:0:0:
333,161,365313,5,2,0:2:0:0:
337,120,365383,1,8,1:2:0:0:
311,87,365453,1,2,0:2:0:0:
271,78,365522,1,8,1:2:0:0:
238,102,365592,101,2,0:2:0:0:
253,102,365662,1,8,1:2:0:0:
266,109,365732,1,2,0:2:0:0:
275,121,365801,1,8,1:2:0:0:
280,135,365871,1,2,0:2:0:0:
279,150,365941,1,8,1:2:0:0:
272,164,366011,1,2,0:2:0:0:
261,174,366080,1,8,1:2:0:0:
246,178,366150,5,2,0:2:0:0:
288,159,366220,1,8,1:2:0:0:
333,167,366290,1,2,0:2:0:0:
371,192,366360,1,8,1:2:0:0:
379,236,366429,101,2,0:2:0:0:
411,252,366499,1,8,1:2:0:0:
446,248,366569,1,2,0:2:0:0:
470,221,366639,1,8,1:2:0:0:
468,185,366708,5,2,0:2:0:0:
446,170,366778,1,8,1:2:0:0:
437,145,366848,1,2,0:2:0:0:
445,120,366918,1,8,1:2:0:0:
463,103,366987,101,2,0:2:0:0:
458,159,367057,1,8,1:2:0:0:
428,207,367127,1,2,0:2:0:0:
376,230,367197,1,8,1:2:0:0:
321,218,367266,5,2,0:2:0:0:
313,177,367336,1,8,1:2:0:0:
285,146,367406,1,2,0:2:0:0:
245,134,367476,1,8,1:2:0:0:
205,146,367546,101,2,0:2:0:0:
201,171,367615,1,8,1:2:0:0:
185,191,367685,1,2,0:2:0:0:
161,200,367755,1,8,1:2:0:0:
135,194,367825,5,2,0:2:0:0:
149,191,367894,1,8,1:2:0:0:
161,181,367964,1,2,0:2:0:0:
166,166,368034,1,8,1:2:0:0:
164,150,368104,1,2,0:2:0:0:
154,138,368173,1,8,1:2:0:0:
138,134,368243,1,2,0:2:0:0:
123,140,368313,1,8,1:2:0:0:
114,152,368383,101,2,0:2:0:0:
139,149,368453,1,8,1:2:0:0:
156,131,368522,1,2,0:2:0:0:
160,105,368592,1,8,1:2:0:0:
149,81,368662,2,0,P|128:72|88:79,3,46.1249985923767,2|8|2|8,0:2|1:2|0:2|1:2,0:0:0:0:
3,186,368941,2,0,P|22:170|29:145,3,41,2|8|2|8,0:2|1:2|0:2|1:2,0:0:0:0:
3,12,369220,5,2,0:2:0:0:
0,32,369290,1,8,1:2:0:0:
6,51,369360,1,2,0:2:0:0:
21,64,369429,1,8,1:2:0:0:
40,69,369499,101,2,0:2:0:0:
70,21,369569,1,8,1:2:0:0:
126,15,369639,1,2,0:2:0:0:
176,39,369708,1,8,1:2:0:0:
189,93,369778,5,2,0:2:0:0:
222,117,369848,1,8,1:2:0:0:
262,122,369918,1,2,0:2:0:0:
299,107,369987,1,8,1:2:0:0:
314,68,370057,101,2,0:2:0:0:
306,54,370127,1,8,1:2:0:0:
291,49,370197,1,2,0:2:0:0:
276,54,370266,1,8,1:2:0:0:
269,68,370336,1,2,0:2:0:0:
271,83,370406,1,8,1:2:0:0:
280,94,370476,1,2,0:2:0:0:
295,97,370546,1,8,1:2:0:0:
309,93,370615,5,2,0:2:0:0:
334,110,370685,1,8,1:2:0:0:
347,137,370755,1,2,0:2:0:0:
347,167,370825,1,8,1:2:0:0:
334,194,370894,102,0,P|311:208|272:206,3,46.1249985923767,2|8|2|8,0:2|1:2|0:2|1:2,0:0:0:0:
174,151,371173,2,0,P|195:159|210:183,3,41,2|8|2|8,0:2|1:2|0:2|1:2,0:0:0:0:
214,303,371453,5,2,0:2:0:0:
208,283,371522,1,8,1:2:0:0:
214,263,371592,1,2,0:2:0:0:
230,250,371662,1,8,1:2:0:0:
250,250,371732,101,2,0:2:0:0:
286,304,371801,1,8,1:2:0:0:
264,367,371871,1,2,0:2:0:0:
198,380,371941,1,8,1:2:0:0:
137,350,372011,1,2,0:2:0:0:
106,291,372080,1,8,1:2:0:0:
108,224,372150,1,2,0:2:0:0:
136,163,372220,1,8,1:2:0:0:
189,123,372290,5,2,0:2:0:0:
198,111,372360,1,8,1:2:0:0:
197,95,372429,1,2,0:2:0:0:
185,83,372499,1,8,1:2:0:0:
169,83,372569,1,2,0:2:0:0:
158,92,372639,1,8,1:2:0:0:
154,108,372708,1,2,0:2:0:0:
160,120,372778,1,8,1:2:0:0:
171,129,372848,101,2,0:2:0:0:
201,94,372918,1,8,1:2:0:0:
245,82,372987,1,2,0:2:0:0:
290,91,373057,1,8,1:2:0:0:
326,119,373127,5,2,0:2:0:0:
321,154,373197,1,8,1:2:0:0:
336,185,373266,1,2,0:2:0:0:
364,207,373336,1,8,1:2:0:0:
399,213,373406,101,2,0:2:0:0:
417,195,373476,1,8,1:2:0:0:
442,190,373546,1,2,0:2:0:0:
466,197,373615,1,8,1:2:0:0:
481,217,373685,5,2,0:2:0:0:
420,244,373755,1,8,1:2:0:0:
353,233,373825,1,2,0:2:0:0:
301,191,373894,1,8,1:2:0:0:
281,127,373964,1,2,0:2:0:0:
307,65,374034,1,8,1:2:0:0:
368,37,374104,1,2,0:2:0:0:
429,61,374173,1,8,1:2:0:0:
446,125,374243,101,2,0:2:0:0:
416,153,374313,1,8,1:2:0:0:
375,149,374383,1,2,0:2:0:0:
348,117,374453,1,8,1:2:0:0:
357,77,374522,5,2,0:2:0:0:
362,91,374592,1,8,1:2:0:0:
375,97,374662,1,2,0:2:0:0:
390,97,374732,1,8,1:2:0:0:
403,90,374801,1,2,0:2:0:0:
409,75,374871,1,8,1:2:0:0:
408,59,374941,1,2,0:2:0:0:
398,46,375011,1,8,1:2:0:0:
383,42,375080,101,2,0:2:0:0:
343,66,375150,1,8,1:2:0:0:
327,109,375220,1,2,0:2:0:0:
340,153,375290,1,8,1:2:0:0:
378,179,375360,5,2,0:2:0:0:
378,214,375429,1,8,1:2:0:0:
361,245,375499,1,2,0:2:0:0:
326,256,375569,1,8,1:2:0:0:
291,244,375639,101,2,0:2:0:0:
295,219,375708,1,8,1:2:0:0:
314,202,375778,1,2,0:2:0:0:
339,198,375848,1,8,1:2:0:0:
363,204,375918,5,2,0:2:0:0:
357,254,375987,1,8,1:2:0:0:
311,276,376057,1,2,0:2:0:0:
259,272,376127,1,8,1:2:0:0:
229,229,376197,101,2,0:2:0:0:
161,208,376266,1,8,1:2:0:0:
92,231,376336,1,2,0:2:0:0:
55,292,376406,1,8,1:2:0:0:
68,362,376476,5,2,0:2:0:0:
98,379,376546,1,8,1:2:0:0:
128,376,376615,1,2,0:2:0:0:
154,359,376685,1,8,1:2:0:0:
160,328,376755,101,2,0:2:0:0:
149,339,376825,1,8,1:2:0:0:
133,340,376894,1,2,0:2:0:0:
119,332,376964,1,8,1:2:0:0:
112,317,377034,1,2,0:2:0:0:
114,301,377104,1,8,1:2:0:0:
125,290,377173,1,2,0:2:0:0:
140,286,377243,1,8,1:2:0:0:
154,291,377313,5,2,0:2:0:0:
172,272,377383,1,8,1:2:0:0:
177,246,377453,1,2,0:2:0:0:
170,221,377522,1,8,1:2:0:0:
149,205,377592,102,0,P|132:201|97:209,3,46.1249985923767,2|8|2|8,0:2|1:2|0:2|1:2,0:0:0:0:
30,287,377871,2,0,P|50:265|55:237,3,41,2|8|2|8,0:2|1:2|0:2|1:2,0:0:0:0:
30,150,378150,5,2,0:2:0:0:
33,170,378220,1,8,1:2:0:0:
42,188,378290,1,2,0:2:0:0:
57,201,378360,1,8,1:2:0:0:
75,210,378429,101,2,0:2:0:0:
126,186,378499,1,8,1:2:0:0:
139,131,378569,1,2,0:2:0:0:
123,76,378639,1,8,1:2:0:0:
72,52,378708,5,2,0:2:0:0:
49,86,378778,1,8,1:2:0:0:
48,127,378848,1,2,0:2:0:0:
72,159,378918,1,8,1:2:0:0:
111,170,378987,101,2,0:2:0:0:
122,159,379057,1,8,1:2:0:0:
126,144,379127,1,2,0:2:0:0:
121,129,379197,1,8,1:2:0:0:
109,119,379266,1,2,0:2:0:0:
93,117,379336,1,8,1:2:0:0:
79,124,379406,1,2,0:2:0:0:
70,136,379476,1,8,1:2:0:0:
69,151,379546,5,2,0:2:0:0:
94,146,379615,1,8,1:2:0:0:
118,154,379685,1,2,0:2:0:0:
135,172,379755,1,8,1:2:0:0:
145,196,379825,102,0,P|143:210|120:245,3,46.1249985923767,2|8|2|8,0:2|1:2|0:2|1:2,0:0:0:0:
12,222,380104,2,0,P|39:214|69:221,3,41,2|8|2|8,0:2|1:2|0:2|1:2,0:0:0:0:
91,317,380383,5,2,0:2:0:0:
83,301,380453,1,8,1:2:0:0:
82,284,380522,1,2,0:2:0:0:
88,269,380592,1,8,1:2:0:0:
101,258,380662,101,2,0:2:0:0:
155,297,380732,1,8,1:2:0:0:
220,305,380801,1,2,0:2:0:0:
282,281,380871,1,8,1:2:0:0:
320,226,380941,1,2,0:2:0:0:
321,159,381011,1,8,1:2:0:0:
279,107,381080,1,2,0:2:0:0:
212,98,381150,1,8,1:2:0:0:
163,143,381220,86,0,P|123:126|114:89,3,53.8124983577729,2|8|2|8,0:3|1:2|0:3|1:2,0:0:0:0:
42,89,381499,2,0,P|53:55|95:34,3,48.6874986999035,2|8|2|8,0:3|1:2|0:3|1:2,0:0:0:0:
242,17,381778,101,2,0:3:0:0:
295,32,381848,1,8,1:2:0:0:
317,82,381918,1,2,0:3:0:0:
309,136,381987,1,8,1:2:0:0:
277,181,382057,5,2,0:3:0:0:
248,198,382127,1,8,1:2:0:0:
232,227,382197,1,2,0:3:0:0:
231,259,382266,1,8,1:2:0:0:
249,286,382336,102,0,P|269:291|301:306,3,38.4375014662743,2|8|2|8,0:3|1:2|0:3|1:2,0:0:0:0:
74,360,382615,5,2,0:3:0:0:
19,321,382685,1,8,1:2:0:0:
0,258,382755,1,2,0:3:0:0:
18,195,382825,1,8,1:2:0:0:
66,151,382894,1,2,0:3:0:0:
129,140,382964,1,8,1:2:0:0:
182,171,383034,1,2,0:3:0:0:
198,227,383104,1,8,1:2:0:0:
175,276,383173,101,2,0:3:0:0:
134,295,383243,1,8,1:2:0:0:
103,284,383313,1,2,0:3:0:0:
90,266,383383,1,8,1:2:0:0:
91,255,383453,6,0,B|122:251|122:251|145:273,3,53.8124983577729,2|8|2|8,0:3|1:2|0:3|1:2,0:0:0:0:
207,290,383732,2,0,B|214:319|214:319|194:357,3,48.6874986999035,2|8|2|8,0:3|1:2|0:3|1:2,0:0:0:0:
378,334,384011,101,2,0:3:0:0:
424,349,384080,1,8,1:2:0:0:
470,329,384150,1,2,0:3:0:0:
497,287,384220,1,8,1:2:0:0:
493,237,384290,5,2,0:3:0:0:
474,217,384359,1,8,1:2:0:0:
447,209,384429,1,2,0:3:0:0:
421,219,384499,1,8,1:2:0:0:
404,241,384569,102,0,B|399:224|399:224|399:214|399:214|393:193,3,38.4375014662743,2|8|2|8,0:3|1:2|0:3|1:2,0:0:0:0:
292,41,384848,5,2,0:3:0:0:
308,93,384918,1,8,1:2:0:0:
285,142,384987,1,2,0:3:0:0:
236,167,385057,1,8,1:2:0:0:
181,154,385127,101,2,0:3:0:0:
173,110,385197,1,8,1:2:0:0:
145,74,385266,1,2,0:3:0:0:
103,62,385336,1,8,1:2:0:0:
62,77,385406,5,2,0:3:0:0:
90,96,385476,1,8,1:2:0:0:
123,89,385546,1,2,0:3:0:0:
147,66,385615,1,8,1:2:0:0:
152,33,385685,102,0,P|180:33|217:60,3,53.8124983577729,2|8|2|8,0:3|1:2|0:3|1:2,0:0:0:0:
278,34,385964,2,0,P|291:65|291:99,3,48.6874986999035,2|8|2|8,0:3|1:2|0:3|1:2,0:0:0:0:
356,240,386243,5,2,0:3:0:0:
417,236,386313,1,8,1:2:0:0:
460,192,386383,1,2,0:3:0:0:
459,130,386453,1,8,1:2:0:0:
419,84,386522,101,2,0:3:0:0:
391,111,386592,1,8,1:2:0:0:
383,149,386662,1,2,0:3:0:0:
400,183,386732,1,8,1:2:0:0:
433,200,386801,1,2,0:3:0:0:
467,217,386871,1,8,1:2:0:0:
488,249,386941,1,2,0:3:0:0:
490,287,387011,1,8,1:2:0:0:
471,320,387080,6,0,L|414:309,3,38.4375014662743,2|8|2|8,0:3|1:2|0:3|1:2,0:0:0:0:
298,201,387359,101,2,0:3:0:0:
275,203,387429,1,8,1:2:0:0:
257,216,387499,2,0,P|237:245|228:274,1,51.25,2|8,0:3|1:2,0:0:0:0:
160,374,387639,5,2,0:3:0:0:
145,367,387708,1,8,1:2:0:0:
134,354,387778,2,0,P|118:322|124:294,1,46.1249985923767,2|8,0:3|1:2,0:0:0:0:
70,157,387918,102,0,B|50:163|43:174|43:174|25:210,3,53.8124983577729,2|8|2|8,0:3|1:2|0:3|1:2,0:0:0:0:
137,106,388197,2,0,B|124:89|111:86|111:86|71:82,3,53.8124983577729,2|8|2|8,0:3|1:2|0:3|1:2,0:0:0:0:
237,28,388476,5,2,0:3:0:0:
289,45,388546,1,8,1:2:0:0:
311,94,388615,1,2,0:3:0:0:
296,147,388685,1,8,1:2:0:0:
248,176,388755,101,2,0:3:0:0:
239,138,388825,1,8,1:2:0:0:
208,114,388894,1,2,0:3:0:0:
169,106,388964,1,8,1:2:0:0:
130,112,389034,1,2,0:3:0:0:
97,132,389104,1,8,1:2:0:0:
58,134,389173,1,2,0:3:0:0:
26,110,389243,1,8,1:2:0:0:
17,72,389313,6,0,B|13:58|22:41|22:41|37:34|43:17,3,38.4375014662743,2|8|2|8,0:3|1:2|0:3|1:2,0:0:0:0:
164,184,389592,101,2,0:3:0:0:
202,241,389662,1,8,1:2:0:0:
270,254,389732,1,2,0:3:0:0:
329,220,389801,1,8,1:2:0:0:
371,165,389871,1,2,0:3:0:0:
432,146,389941,1,8,1:2:0:0:
483,172,390011,1,2,0:3:0:0:
500,221,390080,1,8,1:2:0:0:
471,258,390150,6,0,P|435:246|415:230,3,53.8124983577729,2|8|2|8,0:3|1:2|0:3|1:2,0:0:0:0:
344,233,390429,2,0,P|337:193|356:153,3,48.6874986999035,2|8|2|8,0:3|1:2|0:3|1:2,0:0:0:0:
483,18,390708,101,2,0:3:0:0:
453,65,390778,1,8,1:2:0:0:
400,81,390848,1,2,0:3:0:0:
345,71,390918,1,8,1:2:0:0:
302,36,390987,5,2,0:3:0:0:
276,15,391057,1,8,1:2:0:0:
243,7,391127,1,2,0:3:0:0:
210,14,391197,1,8,1:2:0:0:
188,39,391266,102,0,B|180:42|177:50|177:50|189:79,3,38.4375014662743,2|8|2|8,0:3|1:2|0:3|1:2,0:0:0:0:
86,292,391546,5,2,0:3:0:0:
57,229,391615,1,8,1:2:0:0:
83,164,391685,1,2,0:3:0:0:
148,142,391755,1,8,1:2:0:0:
215,157,391825,1,2,0:3:0:0:
253,209,391894,1,8,1:2:0:0:
313,228,391964,1,2,0:3:0:0:
372,215,392034,1,8,1:2:0:0:
403,166,392104,101,2,0:3:0:0:
402,119,392173,1,8,1:2:0:0:
374,95,392243,1,2,0:3:0:0:
349,91,392313,1,8,1:2:0:0:
335,98,392383,6,0,P|354:136|379:143,3,53.8124983577729,2|8|2|8,0:3|1:2|0:3|1:2,0:0:0:0:
409,204,392662,2,0,P|453:194|474:169,3,48.6874986999035,2|8|2|8,0:3|1:2|0:3|1:2,0:0:0:0:
319,282,392941,101,2,0:3:0:0:
311,331,393011,1,8,1:2:0:0:
268,354,393080,1,2,0:3:0:0:
219,348,393150,1,8,1:2:0:0:
196,304,393220,5,2,0:3:0:0:
192,276,393290,1,8,1:2:0:0:
207,252,393359,1,2,0:3:0:0:
231,237,393429,1,8,1:2:0:0:
259,241,393499,102,0,B|266:264|266:264|265:271|265:271|276:298,3,38.4375014662743,2|8|2|8,0:3|1:2|0:3|1:2,0:0:0:0:
56,97,393778,5,2,0:3:0:0:
11,138,393848,1,8,1:2:0:0:
22,197,393918,1,2,0:3:0:0:
69,234,393987,1,8,1:2:0:0:
129,226,394057,101,2,0:3:0:0:
138,157,394127,1,8,1:2:0:0:
194,116,394197,1,2,0:3:0:0:
261,126,394266,1,8,1:2:0:0:
299,184,394336,5,2,0:3:0:0:
260,184,394406,1,8,1:2:0:0:
238,151,394476,1,2,0:3:0:0:
230,112,394546,1,8,1:2:0:0:
246,77,394615,102,0,P|221:75|191:95,3,53.8124983577729,2|8|2|8,0:3|1:2|0:3|1:2,0:0:0:0:
107,96,394894,2,0,P|114:126|135:150,3,48.6874986999035,2|8|2|8,0:3|1:2|0:3|1:2,0:0:0:0:
99,320,395173,5,2,0:3:0:0:
144,279,395243,1,8,1:2:0:0:
204,273,395313,1,2,0:3:0:0:
258,301,395383,1,8,1:2:0:0:
287,354,395453,101,2,0:3:0:0:
322,340,395522,1,8,1:2:0:0:
346,309,395592,1,2,0:3:0:0:
350,270,395662,1,8,1:2:0:0:
330,236,395732,1,2,0:3:0:0:
297,216,395801,1,8,1:2:0:0:
262,197,395871,1,2,0:3:0:0:
244,162,395941,1,8,1:2:0:0:
249,123,396011,6,0,B|261:118|269:109|269:109|279:115|307:119,3,38.4375014662743,2|8|2|8,0:3|1:2|0:3|1:2,0:0:0:0:
459,69,396290,101,2,0:3:0:0:
472,51,396359,1,8,1:2:0:0:
479,29,396429,2,0,P|460:8|428:-4,1,51.25,2|8,0:3|1:2,0:0:0:0:
360,162,396569,5,2,0:3:0:0:
370,175,396639,1,8,1:2:0:0:
384,182,396708,2,0,P|434:168|456:148,1,46.1249985923767,2|8,0:3|1:2,0:0:0:0:
178,103,396848,102,0,B|146:112|146:112|128:137,3,53.8124983577729,2|8|2|8,0:3|1:2|0:3|1:2,0:0:0:0:
252,48,397127,2,0,B|239:23|239:23|210:18,3,53.8124983577729,2|8|2|8,0:3|1:2|0:3|1:2,0:0:0:0:
17,77,397406,5,2,0:3:0:0:
50,114,397476,1,8,1:2:0:0:
65,161,397546,1,2,0:3:0:0:
59,209,397615,1,8,1:2:0:0:
29,249,397685,101,2,0:3:0:0:
60,225,397755,1,8,1:2:0:0:
98,220,397825,1,2,0:3:0:0:
134,230,397894,1,8,1:2:0:0:
160,258,397964,1,2,0:3:0:0:
177,292,398034,1,8,1:2:0:0:
206,317,398104,1,2,0:3:0:0:
244,318,398173,1,8,1:2:0:0:
277,298,398243,6,0,P|247:274|215:266,3,38.4375014662743,2|8|2|8,0:3|1:2|0:3|1:2,0:0:0:0:
439,357,398522,101,2,0:3:0:0:
494,310,398592,1,8,1:2:0:0:
504,238,398662,1,2,0:3:0:0:
463,178,398732,1,8,1:2:0:0:
394,160,398801,1,2,0:3:0:0:
344,124,398871,1,8,1:2:0:0:
331,75,398941,1,2,0:3:0:0:
351,41,399011,1,8,1:2:0:0:
381,38,399080,6,0,B|413:42|426:55|429:75|429:75|405:63|381:57,1,114.8,4|0,0:2|0:0,0:0:0:0:
319,77,399639,37,8,0:2:0:0:
292,92,399708,1,0,0:0:0:0:
278,119,399778,1,0,0:0:0:0:
277,149,399848,1,0,0:0:0:0:
291,176,399918,101,0,0:0:0:0:
289,165,399987,1,0,0:0:0:0:
292,155,400057,1,0,0:0:0:0:
299,148,400127,1,0,0:0:0:0:
310,145,400197,6,0,P|323:136|336:104,1,35.8749989051819,2|0,0:2|0:0,0:0:0:0:
265,56,400336,2,0,P|264:83|273:113,1,41
239,223,400476,102,0,P|223:234|176:233,1,46.1249985923767
135,131,400615,2,0,P|187:144|197:155,1,51.25
361,258,400755,6,0,B|378:284|378:284|366:321,1,56.3750017204285,10|0,0:2|0:0,0:0:0:0:
251,365,400894,2,0,B|250:338|250:338|272:306,1,51.25
315,154,401034,102,0,B|323:177|323:177|314:202,1,46.1249985923767
237,217,401173,2,0,B|231:199|231:199|239:173,1,41
269,35,401313,6,0,P|302:33|347:57,3,61.499998123169,2|0|0|0,0:2|0:0|0:0|0:0,0:0:0:0:
449,96,401592,2,0,P|416:94|371:118,3,61.499998123169
312,165,401871,101,10,0:2:0:0:
320,189,401941,1,0,0:0:0:0:
341,203,402011,1,0,0:0:0:0:
365,207,402080,1,0,0:0:0:0:
389,199,402150,5,0,0:0:0:0:
373,199,402220,1,0,0:0:0:0:
359,192,402290,1,0,0:0:0:0:
353,177,402359,1,0,0:0:0:0:
357,160,402429,102,0,P|358:167|374:192,1,30.7499990615845,2|0,0:2|0:0,0:0:0:0:
354,226,402569,2,0,P|370:237|398:242,1,35.8749989051819
494,263,402708,6,0,P|486:287|459:309,1,41
489,371,402848,2,0,P|469:372|429:359,1,46.1249985923767
243,254,402987,102,0,P|257:273|263:303,1,51.25,10|0,0:2|0:0,0:0:0:0:
324,381,403127,2,0,P|324:356|340:328,1,51.25
400,159,403266,5,4,0:1:0:0:
381,111,403336,1,0,0:0:0:0:
335,87,403406,1,4,0:2:0:0:
283,91,403476,1,0,0:0:0:0:
247,128,403546,102,0,P|275:148|306:152,3,51.25,4|0|0|0,0:2|0:0|0:0|0:0,0:0:0:0:
373,113,403825,2,0,P|351:96|316:91,3,51.25,2|0|0|0,0:2|0:0|0:0|0:0,0:0:0:0:
182,59,404104,5,10,0:2:0:0:
155,74,404173,1,0,0:0:0:0:
143,102,404243,1,0,0:0:0:0:
140,132,404313,1,0,0:0:0:0:
152,160,404383,101,2,0:2:0:0:
142,162,404453,1,0,0:0:0:0:
132,159,404522,1,0,0:0:0:0:
124,151,404592,1,0,0:0:0:0:
120,140,404662,6,0,P|127:106|144:87,1,46.1249985923767,2|0,0:2|0:0,0:0:0:0:
217,153,404801,2,0,P|226:173|224:211,1,51.25
52,249,404941,102,0,P|32:249|-5:229,1,56.3750017204285,2|0,0:2|0:0,0:0:0:0:
176,306,405080,2,0,P|222:302|241:287,1,61.499998123169
236,60,405220,6,0,B|203:65|203:65|234:77,1,66.6249969501497,10|0,0:2|0:0,0:0:0:0:
387,165,405359,2,0,B|416:159|416:159|388:148,1,61.499998123169
241,213,405499,102,0,B|268:208|268:208|242:198,1,56.3750017204285,2|0,0:2|0:0,0:0:0:0:
345,272,405639,2,0,B|320:276|320:276|343:285,1,51.25
393,58,405778,6,0,P|355:62|324:84,3,66.6249969501497,2|0|0|0,0:2|0:0|0:0|0:0,0:0:0:0:
268,0,406057,2,0,P|254:9|232:57,3,66.6249969501497,2|0|0|0,0:2|0:0|0:0|0:0,0:0:0:0:
130,97,406336,101,10,0:2:0:0:
132,122,406406,1,0,0:0:0:0:
147,143,406476,1,0,0:0:0:0:
170,154,406546,1,0,0:0:0:0:
196,154,406615,5,2,0:2:0:0:
188,166,406685,1,0,0:0:0:0:
175,173,406755,1,0,0:0:0:0:
161,176,406825,1,0,0:0:0:0:
150,173,406894,102,0,P|136:160|128:127,1,41,2|0,0:2|0:0,0:0:0:0:
96,139,407034,2,0,P|107:101|123:90,1,46.1249985923767
178,7,407173,6,0,P|194:22|209:52,1,51.25,2|0,0:2|0:0,0:0:0:0:
277,18,407313,2,0,P|282:43|274:79,1,56.3750017204285
302,264,407453,102,0,B|274:266|274:266|272:270|272:270|243:271,1,61.499998123169,10|0,0:2|0:0,0:0:0:0:
153,130,407592,2,0,B|178:132|178:132|180:135|180:135|207:137,1,56.3750017204285
409,58,407732,5,4,0:2:0:0:
444,94,407801,1,0,0:0:0:0:
444,145,407871,1,0,0:0:0:0:
418,189,407941,1,0,0:0:0:0:
367,198,408011,102,0,P|352:179|347:133,3,61.499998123169,4|0|0|0,0:2|0:0|0:0|0:0,0:0:0:0:
295,12,408290,2,0,P|292:46|270:77,3,61.499998123169,2|0|0|0,0:2|0:0|0:0|0:0,0:0:0:0:
214,177,408569,5,10,0:2:0:0:
188,171,408639,1,0,0:0:0:0:
170,153,408708,1,0,0:0:0:0:
165,127,408778,1,0,0:0:0:0:
176,104,408848,101,2,0:2:0:0:
155,105,408918,1,0,0:0:0:0:
137,115,408987,1,0,0:0:0:0:
126,132,409057,1,0,0:0:0:0:
122,152,409127,6,0,P|130:168|156:183,1,35.8749989051819,2|0,0:2|0:0,0:0:0:0:
225,136,409266,2,0,P|208:127|178:124,1,41
93,8,409406,102,0,P|108:33|114:74,1,46.1249985923767,2|0,0:2|0:0,0:0:0:0:
39,130,409546,2,0,P|34:164|52:203,1,51.25
256,229,409685,6,0,B|228:223|228:223|203:237,1,56.3750017204285,10|0,0:2|0:0,0:0:0:0:
89,310,409825,2,0,B|111:323|111:323|137:317,1,51.25
283,302,409964,102,0,B|261:313|261:313|238:308,1,46.1249985923767,2|0,0:2|0:0,0:0:0:0:
178,382,410104,2,0,B|195:372|195:372|215:376,1,41
149,103,410243,6,0,P|147:135|162:168,3,56.3750017204285,2|0|0|0,0:2|0:0|0:0|0:0,0:0:0:0:
87,219,410522,2,0,P|110:241|145:250,3,56.3750017204285,2|0|0|0,0:2|0:0|0:0|0:0,0:0:0:0:
182,352,410801,101,10,0:2:0:0:
208,360,410871,1,0,0:0:0:0:
235,354,410941,1,0,0:0:0:0:
257,337,411011,1,0,0:0:0:0:
267,311,411080,5,2,0:2:0:0:
252,320,411150,1,0,0:0:0:0:
234,320,411220,1,0,0:0:0:0:
218,314,411290,1,0,0:0:0:0:
204,302,411359,102,0,P|220:290|237:288,1,30.7499990615845,2|0,0:2|0:0,0:0:0:0:
259,220,411499,2,0,P|279:228|298:244,1,35.8749989051819
356,368,411639,6,0,P|385:360|406:333,1,41,2|0,0:2|0:0,0:0:0:0:
489,348,411778,2,0,P|497:325|495:294,1,46.1249985923767
346,101,411918,102,0,B|341:126|341:126|342:127|342:127|337:152,1,51.25,10|0,0:2|0:0,0:0:0:0:
420,270,412057,2,0,B|415:245|415:245|416:244|416:244|411:219,1,51.25
495,47,412197,5,4,0:1:0:0:
455,13,412266,1,0,0:0:0:0:
404,13,412336,1,4,0:2:0:0:
363,45,412406,1,0,0:0:0:0:
348,91,412476,102,0,P|367:94|399:79,3,46.1249985923767,4|0|0|0,0:2|0:0|0:0|0:0,0:0:0:0:
454,149,412755,2,0,P|470:135|480:113,3,46.1249985923767,2|0|0|0,0:2|0:0|0:0|0:0,0:0:0:0:
401,254,413034,5,10,0:2:0:0:
379,239,413104,1,0,0:0:0:0:
368,215,413173,1,0,0:0:0:0:
366,191,413243,1,0,0:0:0:0:
376,168,413313,101,2,0:2:0:0:
377,188,413383,1,0,0:0:0:0:
386,206,413453,1,0,0:0:0:0:
400,220,413522,1,0,0:0:0:0:
413,225,413592,6,0,P|396:236|376:242,1,35.8749989051819,2|0,0:2|0:0,0:0:0:0:
310,178,413732,2,0,P|330:177|355:185,1,41
450,316,413871,102,0,P|429:331|396:335,1,46.1249985923767,2|0,0:2|0:0,0:0:0:0:
250,307,414011,2,0,P|283:300|312:307,1,51.25
476,107,414150,6,0,B|489:132|489:132|466:148,1,56.3750017204285,10|0,0:2|0:0,0:0:0:0:
379,267,414290,2,0,B|366:242|366:242|389:226,1,51.25
354,125,414429,102,0,B|343:104|343:104|362:91,1,46.1249985923767,2|0,0:2|0:0,0:0:0:0:
297,175,414569,2,0,B|307:195|307:195|288:208,1,41
156,21,414708,6,0,P|176:45|188:81,3,56.3750017204285,2|0|0|0,0:2|0:0|0:0|0:0,0:0:0:0:
97,142,414987,2,0,P|92:111|107:72,3,56.3750017204285,2|0|0|0,0:2|0:0|0:0|0:0,0:0:0:0:
230,130,415266,101,10,0:2:0:0:
208,158,415336,1,0,0:0:0:0:
176,168,415406,1,0,0:0:0:0:
141,168,415476,1,0,0:0:0:0:
112,151,415546,5,2,0:2:0:0:
134,150,415615,1,0,0:0:0:0:
154,139,415685,1,0,0:0:0:0:
165,121,415755,1,0,0:0:0:0:
169,98,415825,102,0,P|146:92|126:99,1,30.7499990615845,2|0,0:2|0:0,0:0:0:0:
83,45,415964,2,0,P|66:58|56:76,1,35.8749989051819
204,168,416104,6,0,P|179:173|160:183,1,41,2|0,0:2|0:0,0:0:0:0:
61,178,416243,2,0,P|50:202|51:233,1,46.1249985923767
281,272,416383,102,0,B|277:247|277:247|275:245|275:245|271:219,1,51.25,10|0,0:2|0:0,0:0:0:0:
258,51,416522,2,0,B|254:75|254:75|252:77|252:77|248:103,1,51.25
164,333,416662,5,2,0:2:0:0:
129,371,416732,1,0,0:0:0:0:
78,379,416801,1,0,0:0:0:0:
28,365,416871,1,0,0:0:0:0:
4,318,416941,70,0,B|24:297|62:291|83:314|80:316|78:318|108:356|144:354|182:310,1,169.125005161286,4|0,0:2|0:0,0:0:0:0:
274,283,417220,2,0,B|273:326|234:341|234:341|238:306|220:269|170:251,1,169.125005161286,4|0,0:2|0:0,0:0:0:0:
380,219,417499,101,10,0:2:0:0:
384,219,417569,1,0,0:0:0:0:
389,223,417639,1,0,0:0:0:0:
394,230,417708,1,0,0:0:0:0:
397,241,417778,1,2,0:2:0:0:
396,255,417848,1,0,0:0:0:0:
388,268,417918,1,0,0:0:0:0:
371,277,417987,1,0,0:0:0:0:
350,278,418057,1,2,0:2:0:0:
330,266,418127,1,0,0:0:0:0:
315,246,418197,1,0,0:0:0:0:
290,234,418266,1,0,0:0:0:0:
260,237,418336,6,0,P|245:251|232:275,1,41,2|0,0:2|0:0,0:0:0:0:
168,308,418476,2,0,P|174:329|194:354,1,48.6874986999035
266,93,418615,101,10,0:2:0:0:
251,81,418685,1,0,0:0:0:0:
227,71,418755,1,0,0:0:0:0:
189,67,418825,1,0,0:0:0:0:
145,91,418894,1,2,0:2:0:0:
123,121,418964,1,0,0:0:0:0:
92,130,419034,1,0,0:0:0:0:
68,121,419104,1,0,0:0:0:0:
63,103,419173,5,2,0:2:0:0:
133,88,419243,1,0,0:0:0:0:
180,129,419313,1,0,0:0:0:0:
180,182,419383,1,0,0:0:0:0:
148,213,419453,1,2,0:2:0:0:
114,215,419522,1,0,0:0:0:0:
91,203,419592,2,0,B|111:174|111:174|148:166,1,62.5249974240495
358,117,419732,101,10,0:2:0:0:
420,155,419801,1,0,0:3:0:0:
427,220,419871,1,0,0:3:0:0:
390,263,419941,1,0,0:3:0:0:
351,290,420011,1,2,0:2:0:0:
343,326,420080,1,0,0:3:0:0:
356,350,420150,2,0,B|388:364|388:364|430:349,1,62.5249974240495,0|0,0:3|0:3,0:3:0:0:
336,194,420290,6,0,L|282:211,1,56.3750017204285,2|0,0:2|0:0,0:0:0:0:
132,347,420429,2,0,L|185:364,1,56.3750017204285
206,208,420569,102,0,P|212:183|225:161,1,51.25,2|0,0:2|0:0,0:0:0:0:
240,317,420708,2,0,P|253:338|259:363,1,51.25
194,46,420848,5,10,0:2:0:0:
147,26,420918,1,0,0:0:0:0:
97,32,420987,1,0,0:0:0:0:
61,67,421057,1,0,0:0:0:0:
52,116,421127,1,2,0:2:0:0:
73,154,421197,1,0,0:0:0:0:
109,157,421266,1,0,0:0:0:0:
130,134,421336,1,0,0:0:0:0:
122,110,421406,101,4,0:2:0:0:
69,159,421476,1,0,0:0:0:0:
71,231,421546,1,0,0:0:0:0:
123,278,421615,1,0,0:0:0:0:
195,275,421685,5,2,0:2:0:0:
185,266,421755,1,0,0:0:0:0:
172,262,421825,1,0,0:0:0:0:
159,262,421894,1,0,0:0:0:0:
146,269,421964,102,0,B|173:261|173:261|183:251|183:251|220:241,1,62.5249974240495,10|0,0:2|0:0,0:0:0:0:
339,145,422104,2,0,B|320:140|320:140|310:130|310:130|283:122,1,62.5249974240495
259,331,422243,5,2,0:2:0:0:
291,350,422313,1,0,0:0:0:0:
328,347,422383,2,0,B|346:349|364:342|364:342|370:325|389:310,1,62.5249974240495
463,151,422522,101,4,0:2:0:0:
458,159,422592,1,0,0:0:0:0:
457,168,422662,2,0,P|468:191|479:208,1,29.2124996434021
506,268,422801,5,2,0:2:0:0:
511,276,422871,1,0,0:0:0:0:
512,285,422941,2,0,P|501:308|490:325,1,29.2124996434021
377,87,423080,102,0,B|360:102|360:102|316:89,1,62.5249974240495,10|0,0:2|0:0,0:0:0:0:
272,32,423220,2,0,B|255:17|255:17|211:30,1,62.5249974240495
132,119,423359,5,2,0:2:0:0:
158,145,423429,1,0,0:0:0:0:
195,148,423499,2,0,P|216:141|238:104,1,62.5249974240495
418,204,423639,101,4,0:2:0:0:
437,272,423708,1,0,0:0:0:0:
403,336,423778,1,0,0:0:0:0:
332,349,423848,1,0,0:0:0:0:
265,320,423918,5,2,0:2:0:0:
272,310,423987,1,0,0:0:0:0:
283,304,424057,1,0,0:0:0:0:
295,302,424127,1,0,0:0:0:0:
305,304,424197,102,0,B|288:337|288:337|244:331,1,62.5249974240495,10|0,0:2|0:0,0:0:0:0:
117,205,424336,2,0,B|142:201|142:201|159:234,1,62.5249974240495
39,360,424476,5,2,0:2:0:0:
27,325,424546,1,0,0:0:0:0:
29,288,424615,2,0,B|35:260|35:260|42:255|42:255|51:223,1,62.5249974240495
240,225,424755,101,4,0:2:0:0:
243,217,424825,1,0,0:0:0:0:
246,210,424894,2,0,L|254:167,1,25.625
179,149,425034,5,2,0:2:0:0:
176,141,425104,1,0,0:0:0:0:
173,134,425173,2,0,L|165:91,1,35.8749989051819
331,33,425313,101,10,0:2:0:0:
370,36,425383,1,0,0:0:0:0:
403,56,425453,2,0,P|424:83|429:111,1,56.3750017204285
315,288,425592,5,4,0:2:0:0:
298,254,425662,1,0,0:0:0:0:
308,218,425732,2,0,P|320:194|348:171,1,46.1249985923767,4|0,0:2|0:0,0:0:0:0:
494,352,425871,101,4,0:2:0:0:
491,346,425941,1,0,0:0:0:0:
485,342,426011,1,0,0:0:0:0:
479,339,426080,1,0,0:0:0:0:
472,337,426150,1,2,0:2:0:0:
465,336,426220,1,0,0:0:0:0:
458,336,426290,1,0,0:0:0:0:
451,336,426359,1,0,0:0:0:0:
436,365,426429,5,10,0:2:0:0:
462,366,426499,1,0,0:0:0:0:
482,349,426569,1,0,0:0:0:0:
489,324,426639,1,0,0:0:0:0:
485,299,426708,1,2,0:2:0:0:
470,278,426778,1,0,0:0:0:0:
448,266,426848,1,0,0:0:0:0:
423,264,426918,1,0,0:0:0:0:
400,273,426987,101,2,0:2:0:0:
368,273,427057,1,0,0:0:0:0:
339,258,427127,1,0,0:0:0:0:
324,229,427197,1,0,0:0:0:0:
326,197,427266,1,2,0:2:0:0:
344,170,427336,1,0,0:0:0:0:
373,156,427406,1,0,0:0:0:0:
405,157,427476,1,0,0:0:0:0:
427,174,427546,5,10,0:2:0:0:
389,207,427615,1,0,0:0:0:0:
337,210,427685,1,0,0:0:0:0:
296,177,427755,1,0,0:0:0:0:
259,140,427825,1,2,0:2:0:0:
209,131,427894,1,0,0:3:0:0:
163,154,427964,1,0,0:3:0:0:
139,199,428034,1,0,0:3:0:0:
142,250,428104,101,2,0:2:0:0:
175,296,428173,1,0,0:3:0:0:
232,300,428243,1,0,0:3:0:0:
284,276,428313,1,0,0:3:0:0:
312,225,428383,1,2,0:2:0:0:
313,167,428453,1,0,0:3:0:0:
279,121,428522,1,0,0:3:0:0:
272,63,428592,1,0,0:3:0:0:
299,20,428662,5,10,0:2:0:0:
332,50,428732,1,0,0:0:0:0:
333,88,428801,1,0,0:0:0:0:
313,115,428871,1,0,0:0:0:0:
288,128,428941,1,2,0:2:0:0:
265,132,429011,1,0,0:0:0:0:
248,128,429080,1,0,0:0:0:0:
238,121,429150,1,0,0:0:0:0:
235,116,429220,101,2,0:2:0:0:
209,86,429290,1,0,0:0:0:0:
171,76,429359,1,0,0:0:0:0:
131,80,429429,1,0,0:0:0:0:
98,103,429499,1,2,0:2:0:0:
85,140,429569,1,0,0:0:0:0:
86,179,429639,1,0,0:0:0:0:
108,211,429708,1,0,0:0:0:0:
142,230,429778,6,0,P|173:219|190:195,3,47.1499984172059,10|0|0|0,0:2|0:0|0:0|0:0,0:0:0:0:
258,186,430057,2,0,P|254:160|236:131,3,42.0250006412506,4|0|0|0,0:2|0:0|0:0|0:0,0:0:0:0:
266,339,430336,101,4,0:2:0:0:
258,331,430406,1,0,0:0:0:0:
252,322,430476,1,0,0:0:0:0:
248,312,430546,1,0,0:0:0:0:
247,302,430615,1,2,0:2:0:0:
248,292,430685,1,0,0:0:0:0:
251,282,430755,1,0,0:0:0:0:
255,273,430825,1,0,0:0:0:0:
289,252,430894,5,10,0:2:0:0:
253,239,430964,1,0,0:0:0:0:
218,254,431034,1,0,0:0:0:0:
194,283,431104,1,0,0:0:0:0:
161,300,431173,1,2,0:2:0:0:
123,305,431243,1,0,0:0:0:0:
90,286,431313,1,0,0:0:0:0:
74,251,431383,1,0,0:0:0:0:
77,213,431453,1,2,0:2:0:0:
100,184,431522,1,0,0:0:0:0:
135,171,431592,1,0,0:0:0:0:
172,175,431662,1,0,0:0:0:0:
197,202,431732,1,2,0:2:0:0:
205,238,431801,1,0,0:0:0:0:
195,274,431871,1,0,0:0:0:0:
164,296,431941,1,0,0:0:0:0:
126,296,432011,101,10,0:2:0:0:
151,281,432080,1,0,0:0:0:0:
167,255,432150,1,0,0:0:0:0:
170,224,432220,1,0,0:0:0:0:
158,196,432290,1,2,0:2:0:0:
134,177,432359,1,0,0:0:0:0:
104,169,432429,1,0,0:0:0:0:
78,153,432499,1,0,0:0:0:0:
64,125,432569,1,2,0:2:0:0:
66,94,432639,1,0,0:0:0:0:
83,69,432708,1,0,0:0:0:0:
111,58,432778,1,0,0:0:0:0:
140,63,432848,1,2,0:2:0:0:
161,84,432918,1,0,0:0:0:0:
161,113,432987,1,0,0:0:0:0:
144,138,433057,1,0,0:0:0:0:
115,147,433127,5,10,0:2:0:0:
133,132,433197,1,0,0:0:0:0:
156,128,433266,1,0,0:0:0:0:
179,131,433336,1,0,0:0:0:0:
199,141,433406,1,2,0:2:0:0:
212,159,433476,1,0,0:0:0:0:
219,180,433546,1,0,0:0:0:0:
217,202,433615,1,0,0:0:0:0:
207,223,433685,102,0,B|210:254|210:254|215:265|215:265|220:306,3,53.8124983577729,2|0|0|0,0:2|0:0|0:0|0:0,0:0:0:0:
75,242,433964,6,0,P|39:256|14:274,1,56.3750017204285,2|0,0:2|0:0,0:0:0:0:
74,335,434104,2,0,P|110:349|135:367,1,56.3750017204285
280,376,434243,102,0,L|305:291,1,61.499998123169,10|0,0:2|0:0,0:0:0:0:
344,222,434383,2,0,L|362:283,1,56.3750017204285
410,353,434522,2,0,L|428:291,1,51.25,2|0,0:2|0:0,0:0:0:0:
453,240,434662,2,0,L|471:301,1,46.1249985923767
209,303,434801,54,0,B|176:247|202:173|259:163|260:173|261:183|323:172|349:98|311:43,1,322.874990146637,4|0,0:2|0:0,0:0:0:0:
222,26,435359,102,0,P|222:63|251:102,1,61.499998123169,12|0,0:2|0:0,0:0:0:0:
208,169,435499,5,0,0:0:0:0:
235,192,435569,1,0,0:0:0:0:
264,199,435639,1,2,0:2:0:0:
289,195,435708,1,0,0:0:0:0:
307,186,435778,102,0,P|325:166|338:127,1,51.25
421,122,435918,5,2,0:2:0:0:
423,91,435987,1,0,0:0:0:0:
416,65,436057,1,0,0:0:0:0:
402,46,436127,1,0,0:0:0:0:
388,33,436197,1,2,0:2:0:0:
374,27,436266,1,0,0:0:0:0:
363,25,436336,102,0,P|350:25|310:46,1,51.25
504,147,436476,5,10,0:2:0:0:
506,188,436546,1,0,0:0:0:0:
491,222,436615,1,0,0:0:0:0:
461,240,436685,1,0,0:0:0:0:
429,236,436755,1,2,0:2:0:0:
407,216,436825,1,0,0:0:0:0:
404,190,436894,1,0,0:0:0:0:
415,170,436964,1,0,0:0:0:0:
433,165,437034,101,2,0:2:0:0:
442,168,437104,1,0,0:0:0:0:
448,175,437173,1,0,0:0:0:0:
451,184,437243,1,0,0:0:0:0:
451,194,437313,2,0,P|440:215|401:232,3,51.25,2|0|0|0,0:2|0:0|0:0|0:0,0:0:0:0:
487,321,437592,6,0,P|456:320|424:337,1,56.3750017204285,10|0,0:2|0:0,0:0:0:0:
340,275,437732,1,0,0:0:0:0:
305,297,437801,1,0,0:0:0:0:
292,337,437871,2,0,P|290:357|310:389,1,51.25,2|0,0:2|0:0,0:0:0:0:
177,219,438011,101,0,0:0:0:0:
174,207,438080,1,0,0:0:0:0:
180,198,438150,1,2,0:2:0:0:
191,195,438220,1,0,0:0:0:0:
200,199,438290,1,0,0:0:0:0:
204,208,438359,1,0,0:0:0:0:
200,217,438429,5,2,0:2:0:0:
147,257,438499,1,0,0:0:0:0:
86,244,438569,1,0,0:0:0:0:
53,197,438639,1,0,0:0:0:0:
59,146,438708,101,10,0:2:0:0:
120,151,438778,1,0,0:0:0:0:
149,199,438848,1,0,0:0:0:0:
143,250,438918,1,0,0:0:0:0:
111,282,438987,1,2,0:2:0:0:
114,338,439057,1,0,0:0:0:0:
157,361,439127,1,0,0:0:0:0:
196,348,439197,1,0,0:0:0:0:
207,317,439266,5,2,0:2:0:0:
170,273,439336,1,0,0:0:0:0:
118,274,439406,1,0,0:0:0:0:
78,297,439476,1,0,0:0:0:0:
62,330,439546,2,0,P|56:349|56:377,3,46.1249985923767,2|0|0|0,0:2|0:0|0:0|0:0,0:0:0:0:
53,197,439825,102,0,P|88:204|111:238,1,61.499998123169,10|0,0:2|0:0,0:0:0:0:
183,194,439964,2,0,P|191:225|181:260,1,51.25
252,370,440104,5,2,0:2:0:0:
300,383,440173,1,0,0:0:0:0:
351,378,440243,1,0,0:0:0:0:
393,349,440313,1,0,0:0:0:0:
416,303,440383,1,2,0:2:0:0:
421,251,440453,1,0,0:0:0:0:
403,203,440522,1,0,0:0:0:0:
366,166,440592,1,0,0:0:0:0:
315,157,440662,1,2,0:2:0:0:
269,181,440732,1,0,0:0:0:0:
254,229,440801,1,0,0:0:0:0:
277,274,440871,1,0,0:0:0:0:
327,285,440941,101,10,0:2:0:0:
326,233,441011,1,0,0:0:0:0:
343,189,441080,1,0,0:0:0:0:
375,160,441150,1,0,0:0:0:0:
414,157,441220,1,2,0:2:0:0:
444,174,441290,1,0,0:0:0:0:
452,203,441359,1,0,0:0:0:0:
445,228,441429,1,0,0:0:0:0:
430,245,441499,5,2,0:2:0:0:
400,235,441569,1,0,0:0:0:0:
381,205,441639,1,0,0:0:0:0:
383,166,441708,1,0,0:0:0:0:
411,133,441778,1,2,0:2:0:0:
427,88,441848,1,0,0:0:0:0:
416,37,441918,1,0,0:0:0:0:
369,8,441987,1,0,0:0:0:0:
310,16,442057,102,0,P|334:36|351:82,3,66.6249969501497,10|0|0|0,0:2|0:0|0:0|0:0,0:0:0:0:
207,80,442336,2,0,P|226:77|269:92,3,61.499998123169,2|0|0|0,0:2|0:0|0:0|0:0,0:0:0:0:
260,267,442615,5,2,0:2:0:0:
300,261,442685,1,0,0:0:0:0:
323,233,442755,1,0,0:0:0:0:
324,202,442825,1,0,0:0:0:0:
311,179,442894,102,0,P|287:190|244:188,1,56.3750017204285,2|0,0:2|0:0,0:0:0:0:
185,233,443034,2,0,P|160:221|133:188,1,61.499998123169
148,14,443173,5,12,0:2:0:0:
193,55,443243,1,0,0:0:0:0:
193,111,443313,1,0,0:0:0:0:
166,154,443383,1,0,0:0:0:0:
120,162,443453,1,2,0:2:0:0:
91,190,443522,1,0,0:0:0:0:
79,224,443592,1,0,0:0:0:0:
87,253,443662,1,0,0:0:0:0:
106,269,443732,101,4,0:2:0:0:
120,271,443801,1,0,0:0:0:0:
133,263,443871,1,0,0:0:0:0:
141,250,443941,1,0,0:0:0:0:
138,234,444011,1,2,0:2:0:0:
127,222,444080,1,0,0:0:0:0:
116,220,444150,1,0,0:0:0:0:
105,222,444220,1,0,0:0:0:0:
96,228,444290,5,10,0:2:0:0:
136,182,444359,1,0,0:0:0:0:
196,173,444429,1,0,0:0:0:0:
252,191,444499,1,0,0:0:0:0:
282,241,444569,1,2,0:2:0:0:
290,298,444639,1,0,0:0:0:0:
323,341,444708,1,0,0:0:0:0:
374,358,444778,1,0,0:0:0:0:
427,351,444848,1,2,0:2:0:0:
456,307,444918,1,0,0:0:0:0:
450,256,444987,1,0,0:0:0:0:
407,228,445057,1,0,0:0:0:0:
359,240,445127,102,0,P|347:259|348:295,3,46.1249985923767,2|0|0|0,0:2|0:0|0:0|0:0,0:0:0:0:
446,353,445406,1,10,0:2:0:0:
472,314,445476,1,0,0:0:0:0:
468,270,445546,1,0,0:0:0:0:
443,237,445615,1,0,0:0:0:0:
407,222,445685,1,2,0:2:0:0:
383,194,445755,1,0,0:0:0:0:
376,161,445825,1,0,0:0:0:0:
389,133,445894,1,0,0:0:0:0:
413,118,445964,6,0,P|439:138|444:172,1,61.499998123169,2|0,0:2|0:0,0:0:0:0:
510,222,446104,2,0,P|492:241|442:263,1,58.9375011241436
388,362,446243,102,0,P|384:338|353:311,1,56.3750017204285,2|0,0:2|0:0,0:0:0:0:
369,231,446383,2,0,P|336:228|300:243,1,53.8124983577729
174,181,446522,6,0,P|158:202|147:242,1,51.25,10|0,0:2|0:0,0:0:0:0:
245,322,446662,2,0,P|245:293|233:266,1,48.6874986999035
176,192,446801,102,0,P|164:213|158:247,1,46.1249985923767,2|0,0:2|0:0,0:0:0:0:
236,313,446941,2,0,P|233:288|219:263,1,43.5625008308888
54,318,447080,5,2,0:2:0:0:
28,349,447150,1,0,0:0:0:0:
45,383,447220,1,0,0:0:0:0:
80,384,447290,1,0,0:0:0:0:
97,356,447359,1,2,0:2:0:0:
83,327,447429,1,0,0:0:0:0:
54,326,447499,1,0,0:0:0:0:
38,348,447569,1,0,0:0:0:0:
44,371,447639,101,10,0:2:0:0:
87,370,447708,1,0,0:0:0:0:
116,338,447778,1,0,0:0:0:0:
123,299,447848,1,0,0:0:0:0:
115,264,447918,1,4,0:2:0:0:
89,244,447987,1,0,0:0:0:0:
58,244,448057,1,4,0:2:0:0:
39,263,448127,1,0,0:0:0:0:
37,287,448197,5,4,0:2:0:0:
86,312,448266,1,0,0:0:0:0:
143,302,448336,1,0,0:0:0:0:
180,254,448406,1,0,0:0:0:0:
167,192,448476,1,2,0:2:0:0:
187,130,448546,1,0,0:0:0:0:
244,98,448615,1,0,0:0:0:0:
312,108,448685,1,0,0:0:0:0:
350,167,448755,101,10,0:2:0:0:
300,212,448825,1,0,0:0:0:0:
239,211,448894,1,0,0:0:0:0:
187,188,448964,1,0,0:0:0:0:
165,141,449034,1,2,0:2:0:0:
174,95,449104,1,0,0:0:0:0:
207,72,449173,1,0,0:0:0:0:
242,74,449243,1,0,0:0:0:0:
261,97,449313,5,2,0:2:0:0:
255,116,449383,1,0,0:0:0:0:
241,133,449453,1,0,0:0:0:0:
218,143,449522,1,0,0:0:0:0:
191,141,449592,1,2,0:2:0:0:
164,129,449662,1,0,0:0:0:0:
144,105,449732,1,0,0:0:0:0:
136,73,449801,1,0,0:0:0:0:
142,39,449871,101,10,0:2:0:0:
112,18,449941,1,0,0:0:0:0:
78,20,450011,1,0,0:0:0:0:
55,40,450080,1,0,0:0:0:0:
51,68,450150,1,2,0:2:0:0:
65,89,450220,1,0,0:0:0:0:
86,98,450290,1,0,0:0:0:0:
105,92,450359,1,0,0:0:0:0:
113,76,450429,6,0,P|80:73|46:93,3,56.3750017204285,2|0|0|0,0:2|0:0|0:0|0:0,0:0:0:0:
0,3,450708,2,0,P|35:7|60:22,3,46.1249985923767,2|0|0|0,0:2|0:0|0:0|0:0,0:0:0:0:
209,52,450987,102,0,P|187:64|158:103,1,51.25,10|0,0:2|0:0,0:0:0:0:
16,156,451127,5,0,0:0:0:0:
51,135,451197,1,0,0:0:0:0:
90,142,451266,2,0,P|127:157|144:192,1,51.25,2|0,0:2|0:0,0:0:0:0:
257,229,451406,101,0,0:0:0:0:
222,217,451476,1,0,0:0:0:0:
189,232,451546,2,0,P|167:253|162:280,1,51.25,2|0,0:2|0:0,0:0:0:0:
408,105,451685,6,0,L|350:118,1,51.25
268,199,451825,2,0,L|319:211,1,51.25,2|0,0:2|0:0,0:0:0:0:
436,282,451964,2,0,L|378:295,1,51.25
160,338,452104,101,10,0:2:0:0:
126,285,452173,1,0,0:0:0:0:
143,229,452243,1,0,0:0:0:0:
193,202,452313,1,0,0:0:0:0:
248,206,452383,1,2,0:2:0:0:
289,238,452453,1,0,0:0:0:0:
314,281,452522,1,0,0:0:0:0:
320,328,452592,1,0,0:0:0:0:
315,371,452662,38,0,B|349:368|387:350|402:332|420:282|408:225|390:183|344:158|338:165|336:162|306:140|305:83|340:64|340:64|342:83|357:90|372:83|408:106|408:106|375:81|369:64|384:46|384:29|336:18|294:26|271:57|262:88|269:97|269:128|291:153|297:160|316:180|316:180|334:202|342:216|336:236|336:236|321:201|299:181|256:173|245:193|205:196|170:167|146:135|128:100|118:59|118:59|100:72|96:88|97:118|97:118|99:175|127:220|192:256|231:258|267:257|267:257|185:285|114:269|78:240|58:208|58:208|53:224|51:245|63:264|63:264|91:309|129:323|191:325|191:325|216:317|248:299|315:301|315:301|277:306|260:320|247:344|244:374,1,2099.2,4|0,0:2|2:0,0:0:0:0:
