osu file format v14

[General]
AudioFilename: audio.mp3
AudioLeadIn: 0
PreviewTime: 67220
Countdown: 0
SampleSet: Soft
StackLeniency: 0.4
Mode: 0
LetterboxInBreaks: 0
WidescreenStoryboard: 0

[Editor]
Bookmarks: 1100,41267,68057,121639,148429,166460,176838,197595,215447,233299,260105,281873,286896,313687,338887,344287,351937,356887,385687,396487,410869,437659,491241,518031,544822,562682,582775,595346,611464,655970,668749,674001,678923,683990,703588,704375,714569,737234
DistanceSpacing: 0.1
BeatDivisor: 4
GridSize: 4
TimelineZoom: 1.999999

[Metadata]
Title:Libera
TitleUnicode:Libera
Artist:Ne Obliviscaris
ArtistUnicode:Ne Obliviscaris
Creator:TheKingHenry
Version:Lachesismic Armageddon
Source:
Tags:part 1 2 i ii saturnine spheres ascent of burning moths progressive extreme metal melodic classical violin marathon forget not australia urn
BeatmapID:1589931
BeatmapSetID:755311

[Difficulty]
HPDrainRate:5
CircleSize:5
OverallDifficulty:9.4
ApproachRate:9.7
SliderMultiplier:1.20199991989136
SliderTickRate:1

[Events]
//Background and Video events
0,0,"neobliviscarisurn_cropped.jpg",0,0
//Break Periods
//Storyboard Layer 0 (Background)
//Storyboard Layer 1 (Fail)
//Storyboard Layer 2 (Pass)
//Storyboard Layer 3 (Foreground)
//Storyboard Sound Samples

[TimingPoints]
1090,279.06976744186,6,2,2,40,1,0
1090,-200,6,2,2,40,0,0
3880,275.229357798165,6,2,2,40,1,0
3880,-200,6,2,2,40,0,0
4430,275.229357798165,6,2,2,40,1,0
4430,-200,6,2,2,40,0,0
6084,279.06976744186,6,2,2,25,1,0
6084,-333.333333333333,6,2,2,25,0,0
7200,291.26213592233,6,2,2,25,1,0
7200,-333.333333333333,6,2,2,25,0,0
7767,285.714285714286,6,2,2,40,1,0
7767,-200,6,2,2,40,0,0
9472,275.229357798165,6,2,2,40,1,0
9472,-200,6,2,2,40,0,0
11138,277.777777777778,6,2,2,40,1,0
11138,-200,6,2,2,40,0,0
12249,275.229357798165,6,2,2,40,1,0
12249,-200,6,2,2,40,0,0
12799,273.972602739726,6,2,2,40,1,0
12799,-200,6,2,2,40,0,0
14472,279.06976744186,3,2,2,80,1,0
14472,-133.333333333333,3,2,2,80,0,0
14751,-133.333333333333,3,2,2,50,0,0
15309,-133.333333333333,3,2,2,80,0,0
15588,-133.333333333333,3,2,2,50,0,0
16146,-133.333333333333,3,2,2,80,0,0
16425,-133.333333333333,3,2,2,50,0,0
16983,-133.333333333333,3,2,2,80,0,0
17123,-133.333333333333,3,2,2,50,0,0
17820,-200,3,2,2,90,0,0
18099,-200,3,2,2,30,0,0
18239,-200,3,2,2,90,0,0
18518,-200,3,2,2,30,0,0
18658,-200,3,2,2,90,0,0
18937,-200,3,2,2,30,0,0
19076,-200,3,2,2,90,0,0
19355,-200,3,2,2,30,0,0
19495,-200,3,2,2,90,0,0
19774,-200,3,2,2,30,0,0
19913,-200,3,2,2,90,0,0
20192,-200,3,2,2,30,0,0
20332,-200,3,2,2,90,0,0
20611,-200,3,2,2,30,0,0
20751,-200,3,2,2,90,0,0
20890,300,3,2,2,50,1,0
20890,-133.333333333333,3,2,2,50,0,0
21190,277.777777777778,3,2,2,80,1,0
21190,-133.333333333333,3,2,2,80,0,0
21467,-133.333333333333,3,2,2,50,0,0
22023,-133.333333333333,3,2,2,80,0,0
22301,-133.333333333333,3,2,2,50,0,0
22856,-133.333333333333,3,2,2,80,0,0
23134,-133.333333333333,3,2,2,50,0,0
23690,-133.333333333333,3,2,2,80,0,0
23828,-133.333333333333,3,2,2,50,0,0
24523,279.06976744186,3,2,2,70,1,0
24523,-200,3,2,2,90,0,0
24802,-200,3,2,2,30,0,0
24941,-200,3,2,2,90,0,0
25220,-200,3,2,2,30,0,0
25360,-200,3,2,2,90,0,0
25639,-200,3,2,2,30,0,0
25778,-200,3,2,2,90,0,0
26057,-200,3,2,2,30,0,0
26197,-200,3,2,2,90,0,0
26476,-200,3,2,2,30,0,0
26616,-200,3,2,2,90,0,0
26895,-200,3,2,2,30,0,0
27034,-200,3,2,2,90,0,0
27313,-200,3,2,2,30,0,0
27453,-200,3,2,2,90,0,0
27732,-200,3,2,2,50,0,0
27871,-133.333333333333,3,2,2,80,0,0
28150,-133.333333333333,3,2,2,50,0,0
28709,-133.333333333333,3,2,2,80,0,0
28988,-133.333333333333,3,2,2,50,0,0
29546,-133.333333333333,3,2,2,80,0,0
29825,-133.333333333333,3,2,2,50,0,0
30383,-133.333333333333,3,2,2,80,0,0
30522,-133.333333333333,3,2,2,50,0,0
31220,-200,3,2,2,90,0,0
31499,-200,3,2,2,30,0,0
31639,-200,3,2,2,90,0,0
31918,-200,3,2,2,30,0,0
32057,-200,3,2,2,90,0,0
32336,-200,3,2,2,30,0,0
32476,-200,3,2,2,90,0,0
32755,-200,3,2,2,30,0,0
32895,-200,3,2,2,90,0,0
33174,-200,3,2,2,30,0,0
33313,-200,3,2,2,90,0,0
33592,-200,3,2,2,30,0,0
33732,-200,3,2,2,90,0,0
34011,-200,3,2,2,30,0,0
34150,-200,3,2,2,90,0,0
34290,-133.333333333333,3,2,2,50,0,0
34569,-133.333333333333,3,2,2,80,0,0
34848,-133.333333333333,3,2,2,50,0,0
35406,-133.333333333333,3,2,2,80,0,0
35685,-133.333333333333,3,2,2,50,0,0
36243,-133.333333333333,3,2,2,80,0,0
36522,-133.333333333333,3,2,2,50,0,0
37081,-133.333333333333,3,2,2,80,0,0
37220,-133.333333333333,3,2,2,50,0,0
37918,-200,3,2,2,90,0,0
38197,-200,3,2,2,40,0,0
38336,-200,3,2,2,90,0,0
38616,-200,3,2,2,40,0,0
38755,-200,3,2,2,90,0,0
39034,-200,3,2,2,40,0,0
39174,-200,3,2,2,90,0,0
39453,-200,3,2,2,40,0,0
39592,-200,3,2,2,90,0,0
39871,-200,3,2,2,40,0,0
40011,-200,3,2,2,90,0,0
40220,-200,3,2,99,5,0,0
40290,-100,3,2,2,60,0,0
40429,-100,3,2,2,70,0,0
41197,-100,3,2,99,5,0,0
41267,-83.3333333333333,3,2,1,60,0,0
44057,-83.3333333333333,3,2,1,65,0,0
44197,-83.3333333333333,3,2,1,70,0,0
44336,-83.3333333333333,3,2,1,75,0,0
44476,-83.3333333333333,3,2,1,80,0,0
44616,-83.3333333333333,3,2,1,70,0,0
44685,-83.3333333333333,3,2,1,60,0,0
50755,-83.3333333333333,3,2,1,65,0,0
50895,-83.3333333333333,3,2,1,70,0,0
51034,-83.3333333333333,3,2,1,75,0,0
51174,-83.3333333333333,3,2,1,80,0,0
51313,-83.3333333333333,3,2,1,70,0,0
51383,-83.3333333333333,3,2,1,60,0,0
57453,-83.3333333333333,3,2,1,65,0,0
57592,-83.3333333333333,3,2,1,70,0,0
57732,-83.3333333333333,3,2,1,75,0,0
57871,-83.3333333333333,3,2,1,80,0,0
58011,-83.3333333333333,3,2,1,70,0,0
58081,-83.3333333333333,3,2,1,60,0,0
64150,-83.3333333333333,3,2,1,65,0,0
64290,-83.3333333333333,3,2,1,70,0,0
64429,-83.3333333333333,3,2,1,75,0,0
64569,-83.3333333333333,3,2,1,80,0,0
64709,-83.3333333333333,3,2,1,70,0,0
64778,-83.3333333333333,3,2,1,60,0,0
67778,-133.333333333333,3,2,1,60,0,0
68057,-83.3333333333333,3,2,1,60,0,1
68127,-83.3333333333333,3,2,1,60,0,0
68476,-83.3333333333333,3,2,1,60,0,1
78383,-83.3333333333333,3,2,1,80,0,1
78453,-83.3333333333333,3,2,1,60,0,1
78941,-83.3333333333333,3,2,1,80,0,1
79011,-83.3333333333333,3,2,1,60,0,1
79499,-83.3333333333333,3,2,1,80,0,1
79569,-83.3333333333333,3,2,1,60,0,1
80057,-83.3333333333333,3,2,1,80,0,1
80127,-83.3333333333333,3,2,1,60,0,1
80616,-83.3333333333333,3,2,1,80,0,1
80685,-83.3333333333333,3,2,1,60,0,1
81174,-83.3333333333333,3,2,1,80,0,1
81243,-83.3333333333333,3,2,1,60,0,1
81453,-83.3333333333333,3,2,1,80,0,1
81522,-83.3333333333333,3,2,1,60,0,1
88150,-83.3333333333333,3,2,1,80,0,1
88220,-83.3333333333333,3,2,1,60,0,1
90662,-66.6666666666667,3,2,1,60,0,1
91499,-83.3333333333333,3,2,1,80,0,1
91569,-83.3333333333333,3,2,1,60,0,1
93243,-83.3333333333333,3,2,1,50,0,1
93592,-83.3333333333333,3,2,1,60,0,1
94011,-83.3333333333333,3,2,1,50,0,1
94429,-83.3333333333333,3,2,4,60,0,1
94499,-83.3333333333333,3,2,4,55,0,1
94569,-83.3333333333333,3,2,4,50,0,1
94639,-83.3333333333333,3,2,4,45,0,1
94709,-83.3333333333333,3,2,4,40,0,1
94778,-83.3333333333333,3,2,4,35,0,1
94848,-83.3333333333333,3,2,1,70,0,1
94918,-83.3333333333333,3,2,1,60,0,0
95267,-83.3333333333333,3,2,1,60,0,1
101546,-83.3333333333333,3,2,1,80,0,1
101616,-83.3333333333333,3,2,1,60,0,1
114941,-83.3333333333333,3,2,1,80,0,1
115011,-83.3333333333333,3,2,1,60,0,1
117453,-66.6666666666667,3,2,1,60,0,1
118290,-83.3333333333333,3,2,1,80,0,1
118360,-83.3333333333333,3,2,1,60,0,1
120034,-83.3333333333333,3,2,1,50,0,1
120383,-83.3333333333333,3,2,1,60,0,1
120802,-83.3333333333333,3,2,1,50,0,1
121220,-83.3333333333333,3,2,4,60,0,1
121290,-83.3333333333333,3,2,4,55,0,1
121360,-83.3333333333333,3,2,4,50,0,1
121429,-83.3333333333333,3,2,4,45,0,1
121499,-83.3333333333333,3,2,4,40,0,1
121569,-83.3333333333333,3,2,4,35,0,1
121639,-83.3333333333333,3,2,1,90,0,1
121709,-83.3333333333333,3,2,1,60,0,0
124429,-83.3333333333333,3,2,1,65,0,0
124569,-83.3333333333333,3,2,1,70,0,0
124709,-83.3333333333333,3,2,1,75,0,0
124848,-83.3333333333333,3,2,1,80,0,0
124988,-83.3333333333333,3,2,1,70,0,0
125057,-83.3333333333333,3,2,1,60,0,0
131127,-83.3333333333333,3,2,1,65,0,0
131267,-83.3333333333333,3,2,1,70,0,0
131406,-83.3333333333333,3,2,1,75,0,0
131546,-83.3333333333333,3,2,1,80,0,0
131685,-83.3333333333333,3,2,1,70,0,0
131755,-83.3333333333333,3,2,1,60,0,0
137825,-83.3333333333333,3,2,1,65,0,0
137964,-83.3333333333333,3,2,1,70,0,0
138104,-83.3333333333333,3,2,1,75,0,0
138243,-83.3333333333333,3,2,1,80,0,0
138383,-83.3333333333333,3,2,1,70,0,0
138453,-83.3333333333333,3,2,1,60,0,0
144522,-83.3333333333333,3,2,1,65,0,0
144662,-83.3333333333333,3,2,1,70,0,0
144802,-83.3333333333333,3,2,1,75,0,0
144941,-83.3333333333333,3,2,1,80,0,0
145150,-83.3333333333333,3,2,1,60,0,0
148150,-133.333333333333,3,2,1,60,0,0
148359,-133.333333333333,3,2,99,5,0,0
148429,279.06976744186,4,2,1,70,1,0
148429,-83.3333333333333,4,2,1,70,0,0
149266,-83.3333333333333,4,2,1,70,0,1
149335,-83.3333333333333,4,2,1,60,0,0
152615,-83.3333333333333,4,2,4,70,0,0
152894,-83.3333333333333,4,2,1,60,0,0
157080,-83.3333333333333,4,2,4,70,0,0
157359,-83.3333333333333,4,2,1,60,0,0
161545,-83.3333333333333,4,2,4,70,0,0
161824,-83.3333333333333,4,2,1,60,0,0
165173,285.714285714286,4,2,1,60,1,0
165173,-83.3333333333333,4,2,1,60,0,0
165458,303.030303030303,4,2,1,60,1,0
165458,-83.3333333333333,4,2,1,60,0,0
165761,252.100840336134,3,2,1,60,1,0
165761,-66.6666666666667,3,2,1,60,0,0
165950,-66.6666666666667,3,2,99,5,0,0
166013,247.933884297521,3,2,1,60,1,0
166013,-76.9230769230769,3,2,1,60,0,0
166198,-76.9230769230769,3,2,99,5,0,0
166260,200,3,2,1,60,1,0
166260,-83.3333333333333,3,2,1,60,0,0
166410,-83.3333333333333,3,2,99,5,0,0
166460,323.79924446843,4,2,1,60,1,1
166540,-100,4,2,1,60,0,0
173961,-100,4,2,2,50,0,0
174015,-100,4,2,2,53,0,0
174069,-100,4,2,2,56,0,0
174123,-100,4,2,2,60,0,0
174231,324.324324324324,4,2,1,60,1,1
174231,-100,4,2,1,70,0,0
174312,-100,4,2,1,60,0,0
175528,-66.6666666666667,4,2,1,60,0,0
175691,-100,4,2,1,60,0,0
176014,-66.6666666666667,4,2,1,60,0,0
176177,-133.333333333333,4,2,5,60,0,0
177069,-133.333333333333,4,2,99,5,0,0
177150,-133.333333333333,4,2,5,60,0,0
177312,-133.333333333333,4,2,5,80,0,0
177799,-133.333333333333,4,2,5,50,0,0
178285,-133.333333333333,4,2,2,60,0,0
178610,-133.333333333333,4,2,5,50,0,0
178772,-133.333333333333,4,2,2,60,0,0
179339,-133.333333333333,4,2,99,5,0,0
179420,-133.333333333333,4,2,5,70,0,0
179906,-200,4,2,5,100,0,0
180637,-200,4,2,99,5,0,0
180718,-100,4,2,2,60,0,0
180880,-100,4,2,1,60,0,0
181204,-100,4,2,2,60,0,0
181366,-100,4,2,1,60,0,0
181691,-100,4,2,4,50,0,0
182014,-133.333333333333,4,2,5,60,0,0
182258,-133.333333333333,4,2,99,5,0,0
182339,-133.333333333333,4,2,5,60,0,0
182502,-133.333333333333,4,2,5,80,0,0
182988,-133.333333333333,4,2,5,50,0,0
183475,-133.333333333333,4,2,2,60,0,0
183799,-133.333333333333,4,2,5,50,0,0
183961,-133.333333333333,4,2,2,60,0,0
184529,-133.333333333333,4,2,99,5,0,0
184610,-133.333333333333,4,2,5,70,0,0
185095,-200,4,2,5,100,0,0
185826,-200,4,2,99,5,0,0
185907,-100,4,2,2,60,0,0
186069,-100,4,2,1,60,0,0
186393,-100,4,2,2,60,0,0
186556,-100,4,2,1,60,0,0
186880,-100,4,2,4,50,0,0
187204,-100,4,2,1,60,0,0
197582,-100,4,2,1,70,0,0
197595,278.940027894003,4,2,1,70,1,0
197595,-83.3333333333333,4,2,1,70,0,0
198431,-83.3333333333333,4,2,1,70,0,1
198501,-83.3333333333333,4,2,1,60,0,0
201779,-83.3333333333333,4,2,4,70,0,0
202058,-83.3333333333333,4,2,1,60,0,0
206242,-83.3333333333333,4,2,4,70,0,0
206521,-83.3333333333333,4,2,1,60,0,0
210705,-83.3333333333333,4,2,4,70,0,0
210984,-83.3333333333333,4,2,1,60,0,0
215447,-83.3333333333333,4,2,1,80,0,1
215516,-83.3333333333333,4,2,1,60,0,1
219073,-76.9230769230769,4,2,1,60,0,1
219352,-71.4285714285714,4,2,1,60,0,1
219631,-66.6666666666667,4,2,1,60,0,1
219910,-83.3333333333333,4,2,1,60,0,1
227999,-76.9230769230769,4,2,1,60,0,1
228278,-71.4285714285714,4,2,1,60,0,1
228557,-66.6666666666667,4,2,1,60,0,1
228836,-83.3333333333333,4,2,1,60,0,1
231067,-66.6666666666667,4,2,1,60,0,1
233299,279.06976744186,3,2,1,80,1,1
233368,-83.3333333333333,3,2,1,60,0,0
241531,-83.3333333333333,3,2,1,40,0,0
241671,-83.3333333333333,3,2,1,60,0,0
245857,-83.3333333333333,3,2,4,60,0,0
246694,-62.5,3,2,5,60,0,1
246833,-83.3333333333333,3,2,1,60,0,0
251508,-83.3333333333333,3,2,1,40,0,0
251717,-83.3333333333333,3,2,1,60,0,0
254578,-83.3333333333333,3,2,1,40,0,0
254647,-83.3333333333333,3,2,1,60,0,0
256554,-66.6666666666667,3,2,1,50,0,0
256740,-83.3333333333333,3,2,1,60,0,0
258973,-83.3333333333333,3,2,4,60,0,0
259531,-83.3333333333333,3,2,4,40,0,0
260089,-83.3333333333333,3,2,2,70,0,1
260229,-66.6666666666667,3,2,2,60,0,1
260368,-100,3,2,2,60,0,1
262182,-66.6666666666667,3,2,2,60,0,1
262508,-66.6666666666667,3,2,99,5,0,1
262601,-100,3,2,2,60,0,1
263066,-100,3,2,99,5,0,1
263159,-100,3,2,2,60,0,1
263857,-66.6666666666667,3,2,2,60,0,1
264182,-66.6666666666667,3,2,99,5,0,1
264275,-100,3,2,2,60,0,1
265112,-55.5555555555556,3,2,2,60,0,1
265392,-55.5555555555556,3,2,99,5,0,1
265485,-55.5555555555556,3,2,2,60,0,1
265687,272.727272727273,4,2,2,60,1,1
265687,-100,3,2,2,60,0,1
266783,279.589934762349,3,2,2,60,1,0
266783,-55.5555555555556,3,2,2,60,0,1
267528,-55.5555555555556,3,2,99,5,0,1
267621,-100,3,2,2,60,0,1
270138,-55.5555555555556,3,2,2,60,0,1
270324,-55.5555555555556,3,2,99,5,0,1
270417,-55.5555555555556,3,2,2,60,0,1
270883,-55.5555555555556,3,2,99,5,0,1
270976,-66.6666666666667,3,2,2,60,0,1
271163,-66.6666666666667,3,2,99,5,0,1
271256,-100,3,2,2,60,0,1
271536,-66.6666666666667,3,2,2,60,0,1
271722,-66.6666666666667,3,2,99,5,0,1
271815,-100,3,2,2,60,0,1
272235,-66.6666666666667,3,2,2,60,0,1
272374,-100,3,2,2,60,0,1
272654,-100,3,2,5,40,0,1
272794,-100,3,2,5,40,0,0
273283,-100,3,2,2,70,0,0
273353,-100,3,2,5,40,0,0
273423,-100,3,2,2,70,0,0
273500,279.06976744186,3,2,2,80,1,1
273500,-50,3,2,2,80,0,1
273687,-50,3,2,99,5,0,1
273780,-50,3,2,2,60,0,1
273919,-66.6666666666667,3,2,2,60,0,1
275082,-66.6666666666667,3,2,99,5,0,1
275175,-33.3333333333333,3,2,2,60,0,1
276012,-100,3,2,2,60,0,1
279361,-50,3,2,2,60,0,1
279547,-50,3,2,99,5,0,1
279640,-40,3,2,2,60,0,1
279826,-40,3,2,99,5,0,1
279919,-33.3333333333333,3,2,2,60,0,1
280105,-33.3333333333333,3,2,99,5,0,1
280198,-50,3,2,2,60,0,1
281501,-50,3,2,99,5,0,1
281594,-66.6666666666667,3,2,2,60,0,1
282709,277.777777777778,3,2,2,60,1,1
282709,-66.6666666666667,3,2,2,60,0,1
285209,281.030444964871,3,2,2,60,1,1
285209,-66.6666666666667,3,2,2,60,0,1
286824,-66.6666666666667,3,2,2,60,0,0
286895,279.06976744186,3,2,1,100,1,1
286895,-83.3333333333333,3,2,1,100,0,1
286966,-83.3333333333333,3,2,1,60,0,1
299454,-83.3333333333333,3,2,5,50,0,1
299522,-83.3333333333333,3,2,5,40,0,0
300290,-83.3333333333333,3,2,1,100,0,1
300361,-83.3333333333333,3,2,1,60,0,1
313687,300,3,2,1,80,1,1
313762,-100,3,2,2,50,0,0
315487,-100,3,2,2,80,0,0
315637,-100,3,2,2,50,0,0
315787,-100,3,2,4,50,0,0
316237,-100,3,2,2,50,0,0
316687,-100,3,2,4,50,0,0
316987,-100,3,2,4,35,0,0
317287,-100,3,2,2,50,0,0
319087,-76.9230769230769,3,2,2,50,0,0
319462,-76.9230769230769,3,2,99,5,0,0
319537,-100,3,2,2,50,0,0
319987,-133.333333333333,3,2,2,50,0,0
320887,-100,3,2,2,50,0,0
320962,-100,3,2,2,40,0,0
321862,-100,3,2,2,30,0,0
322687,-76.9230769230769,3,2,2,50,0,0
323287,-133.333333333333,3,2,2,50,0,0
323512,-133.333333333333,3,2,99,5,0,0
323587,-100,3,2,2,50,0,0
324112,-100,3,2,99,5,0,0
324187,-100,3,2,2,50,0,0
324862,-100,3,2,99,5,0,0
324937,-100,3,2,2,40,0,0
325387,-100,3,2,2,50,0,0
325987,-133.333333333333,3,2,2,40,0,0
326212,-133.333333333333,3,2,99,5,0,0
326287,-100,3,2,2,40,0,0
326587,-100,3,2,2,50,0,0
329212,-100,3,2,99,5,0,0
329287,-100,3,2,2,50,0,0
330712,-100,3,2,2,25,0,0
330787,-33.3333333333333,3,2,2,50,0,0
330862,-33.3333333333333,3,2,99,5,0,0
331087,-40,3,2,2,50,0,0
331162,-40,3,2,99,5,0,0
331387,-50,3,2,2,50,0,0
331462,-50,3,2,99,5,0,0
331687,-66.6666666666667,3,2,2,50,0,0
331787,-100,3,2,99,5,0,0
331837,-66.6666666666667,3,2,2,50,0,0
331937,-66.6666666666667,3,2,99,5,0,0
331987,-66.6666666666667,3,2,2,50,0,0
332537,-66.6666666666667,3,2,99,5,0,0
332587,-100,3,2,2,50,0,0
333287,-66.6666666666667,3,2,2,50,0,0
333337,-66.6666666666667,3,2,99,5,0,0
333387,-66.6666666666667,3,2,2,50,0,0
333437,-66.6666666666667,3,2,99,5,0,0
333487,-76.9230769230769,3,2,2,50,0,0
333862,-76.9230769230769,3,2,99,5,0,0
333937,-100,3,2,2,50,0,0
335087,-76.9230769230769,3,2,2,50,0,0
335237,-76.9230769230769,3,2,99,5,0,0
335287,-100,3,2,2,50,0,0
335422,300,3,2,2,50,1,0
336172,300,3,2,2,50,1,0
336172,-66.6666666666667,3,2,2,50,0,0
336272,-66.6666666666667,3,2,99,5,0,0
336322,-66.6666666666667,3,2,2,50,0,0
336422,-66.6666666666667,3,2,99,5,0,0
336472,-66.6666666666667,3,2,2,50,0,0
336572,-66.6666666666667,3,2,99,5,0,0
336622,-66.6666666666667,3,2,2,50,0,0
336722,-66.6666666666667,3,2,99,5,0,0
336772,-100,3,2,2,50,0,0
337972,-40,3,2,2,50,0,0
338072,-40,3,2,99,5,0,0
338122,-40,3,2,2,50,0,0
338222,-40,3,2,99,5,0,0
338272,-40,3,2,2,50,0,0
338372,-40,3,2,99,5,0,0
338422,-40,3,2,2,50,0,0
338522,-40,3,2,99,5,0,0
338572,-40,3,2,2,50,0,0
338672,-40,3,2,99,5,0,0
338722,-40,3,2,2,50,0,0
338822,-40,3,2,99,5,0,0
338887,300,3,2,2,50,1,0
338887,-50,3,2,2,50,0,0
338987,-50,3,2,99,5,0,0
339037,-55.5555555555556,3,2,2,50,0,0
339137,-55.5555555555556,3,2,99,5,0,0
339187,-62.5,3,2,2,50,0,0
339287,-62.5,3,2,99,5,0,0
339337,-71.4285714285714,3,2,2,50,0,0
339437,-71.4285714285714,3,2,99,5,0,0
339487,-66.6666666666667,3,2,2,50,0,0
339587,-66.6666666666667,3,2,99,5,0,0
339637,-71.4285714285714,3,2,2,50,0,0
339737,-71.4285714285714,3,2,99,5,0,0
339787,-83.3333333333333,3,2,2,50,0,0
339887,-83.3333333333333,3,2,99,5,0,0
339937,-100,3,2,2,50,0,0
340037,-100,3,2,99,5,0,0
340087,-83.3333333333333,3,2,2,50,0,0
340187,-83.3333333333333,3,2,99,5,0,0
340237,-100,3,2,2,50,0,0
340337,-100,3,2,99,5,0,0
340387,-111.111111111111,3,2,2,50,0,0
340487,-111.111111111111,3,2,99,5,0,0
340537,-125,3,2,2,50,0,0
340637,-125,3,2,99,5,0,0
340677,300,3,2,2,50,1,0
340677,-125,3,2,2,50,0,0
340777,-125,3,2,99,5,0,0
340827,-111.111111111111,3,2,2,50,0,0
340927,-100,3,2,99,5,0,0
340977,-100,3,2,2,50,0,0
341077,-100,3,2,99,5,0,0
341127,-90.9090909090909,3,2,2,50,0,0
341227,-90.9090909090909,3,2,99,5,0,0
341267,300,3,2,2,50,1,0
341267,-83.3333333333333,3,2,2,50,0,0
341367,-83.3333333333333,3,2,99,5,0,0
341417,-76.9230769230769,3,2,2,50,0,0
341517,-76.9230769230769,3,2,99,5,0,0
341567,-71.4285714285714,3,2,2,50,0,0
341667,-71.4285714285714,3,2,99,5,0,0
341717,-62.5,3,2,2,50,0,0
341817,-62.5,3,2,99,5,0,0
341867,-55.5555555555556,3,2,2,50,0,0
341967,-55.5555555555556,3,2,99,5,0,0
342017,-71.4285714285714,3,2,2,50,0,0
342117,-100,3,2,99,5,0,0
342167,-47.6190476190476,3,2,2,50,0,0
342267,-47.6190476190476,3,2,99,5,0,0
342317,-71.4285714285714,3,2,2,50,0,0
342417,-71.4285714285714,3,2,99,5,0,0
342467,-40,3,2,2,50,0,0
342567,-40,3,2,99,5,0,0
342620,300,3,2,2,50,1,0
342620,-55.5555555555556,3,2,2,50,0,0
342720,-55.5555555555556,3,2,99,5,0,0
342770,-71.4285714285714,3,2,2,50,0,0
342870,-71.4285714285714,3,2,99,5,0,0
342920,-55.5555555555556,3,2,2,50,0,0
343020,-55.5555555555556,3,2,99,5,0,0
343070,-71.4285714285714,3,2,2,50,0,0
343170,-71.4285714285714,3,2,99,5,0,0
343220,-76.9230769230769,3,2,2,50,0,0
343320,-76.9230769230769,3,2,99,5,0,0
343370,-83.3333333333333,3,2,2,50,0,0
343470,-83.3333333333333,3,2,99,5,0,0
343520,-100,3,2,2,50,0,0
343620,-100,3,2,99,5,0,0
343670,-83.3333333333333,3,2,2,50,0,0
343770,-83.3333333333333,3,2,99,5,0,0
343820,306.122448979592,3,2,2,50,1,0
343820,-100,3,2,2,50,0,0
344287,297.029702970297,3,2,2,50,1,0
345178,300,3,2,2,50,1,0
345178,-50,3,2,2,50,0,0
345278,-50,3,2,99,5,0,0
345328,-66.6666666666667,3,2,2,50,0,0
345428,-66.6666666666667,3,2,99,5,0,0
345478,-40,3,2,2,50,0,0
345578,-40,3,2,99,5,0,0
345628,-66.6666666666667,3,2,2,50,0,0
345728,-66.6666666666667,3,2,99,5,0,0
345778,-33.3333333333333,3,2,2,50,0,0
345878,-33.3333333333333,3,2,99,5,0,0
345928,-66.6666666666667,3,2,2,50,0,0
346028,-66.6666666666667,3,2,99,5,0,0
346078,-35.7142857142857,3,2,2,50,0,0
346178,-35.7142857142857,3,2,99,5,0,0
346228,-45.4545454545455,3,2,2,50,0,0
346328,-45.4545454545455,3,2,99,5,0,0
346378,-62.5,3,2,2,50,0,0
346478,-62.5,3,2,99,5,0,0
346528,-41.6666666666667,3,2,2,50,0,0
346628,-41.6666666666667,3,2,99,5,0,0
346678,-55.5555555555556,3,2,2,50,0,0
346778,-55.5555555555556,3,2,99,5,0,0
346828,-83.3333333333333,3,2,2,50,0,0
346928,-83.3333333333333,3,2,99,5,0,0
346987,300,3,2,2,50,1,0
346987,-50,3,2,2,50,0,0
347087,-50,3,2,99,5,0,0
347122,300,3,2,2,50,1,0
347122,-66.6666666666667,3,2,2,50,0,0
347222,-66.6666666666667,3,2,99,5,0,0
347272,-100,3,2,2,50,0,0
347372,-100,3,2,99,5,0,0
347422,300,3,2,2,50,1,0
347422,-62.5,3,2,2,50,0,0
347522,-62.5,3,2,99,5,0,0
347572,-83.3333333333333,3,2,2,50,0,0
347672,-83.3333333333333,3,2,99,5,0,0
347722,-125,3,2,2,50,0,0
347822,-125,3,2,99,5,0,0
347872,300,3,2,2,50,1,0
347972,-100,3,2,99,5,0,0
348022,-83.3333333333333,3,2,2,50,0,0
348122,-83.3333333333333,3,2,99,5,0,0
348172,-62.5,3,2,2,50,0,0
348272,-62.5,3,2,99,5,0,0
348322,-55.5555555555556,3,2,2,50,0,0
348422,-55.5555555555556,3,2,99,5,0,0
348472,-45.4545454545455,3,2,2,50,0,0
348572,-45.4545454545455,3,2,99,5,0,0
348622,-41.6666666666667,3,2,2,50,0,0
348722,-100,3,2,99,5,0,0
348772,-33.3333333333333,3,2,2,50,0,0
348872,-33.3333333333333,3,2,99,5,0,0
348922,-66.6666666666667,3,2,2,50,0,0
349022,-66.6666666666667,3,2,99,5,0,0
349072,-40,3,2,2,50,0,0
349172,-40,3,2,99,5,0,0
349222,-66.6666666666667,3,2,2,50,0,0
349322,-66.6666666666667,3,2,99,5,0,0
349372,-33.3333333333333,3,2,2,50,0,0
349472,-33.3333333333333,3,2,99,5,0,0
349522,-66.6666666666667,3,2,2,50,0,0
349677,300,3,2,2,50,1,0
349677,-33.3333333333333,3,2,2,50,0,0
349777,-33.3333333333333,3,2,99,5,0,0
349827,-40,3,2,2,50,0,0
349927,-40,3,2,99,5,0,0
349977,-50,3,2,2,50,0,0
350077,-50,3,2,99,5,0,0
350127,279.06976744186,3,2,2,50,1,0
350127,-33.3333333333333,3,2,2,50,0,0
350220,-33.3333333333333,3,2,99,5,0,0
350266,-40,3,2,2,50,0,0
350359,-40,3,2,99,5,0,0
350406,-66.6666666666667,3,2,2,50,0,0
350545,-66.6666666666667,3,2,99,5,0,0
350587,300,3,2,2,50,1,0
350587,-33.3333333333333,3,2,2,50,0,0
350687,-33.3333333333333,3,2,99,5,0,0
350737,-40,3,2,2,50,0,0
350837,-40,3,2,99,5,0,0
350887,-50,3,2,2,50,0,0
350987,-50,3,2,99,5,0,0
351037,-33.3333333333333,3,2,2,50,0,0
351137,-33.3333333333333,3,2,99,5,0,0
351187,-40,3,2,2,50,0,0
351287,-40,3,2,99,5,0,0
351337,-100,3,2,2,50,0,0
351467,300,3,2,2,50,1,0
351467,-40,3,2,2,50,0,0
351567,-40,3,2,99,5,0,0
351637,300,3,2,2,50,1,0
351637,-50,3,2,2,50,0,0
351737,-50,3,2,99,5,0,0
351787,-66.6666666666667,3,2,2,50,0,0
351887,-66.6666666666667,3,2,99,5,0,0
351937,300,3,2,2,50,1,0
351937,-40,3,2,2,50,0,0
352037,-40,3,2,99,5,0,0
352087,-50,3,2,2,50,0,0
352187,-50,3,2,99,5,0,0
352237,-66.6666666666667,3,2,2,50,0,0
352337,-66.6666666666667,3,2,99,5,0,0
352387,-40,3,2,2,50,0,0
352487,-40,3,2,99,5,0,0
352537,-50,3,2,2,50,0,0
352637,-50,3,2,99,5,0,0
352687,-66.6666666666667,3,2,2,50,0,0
352787,-66.6666666666667,3,2,99,5,0,0
352837,-40,3,2,2,50,0,0
352937,-40,3,2,99,5,0,0
352987,-50,3,2,2,50,0,0
353087,-50,3,2,99,5,0,0
353137,-100,3,2,2,50,0,0
353277,300,3,2,2,50,1,0
353277,-50,3,2,2,50,0,0
353377,-50,3,2,99,5,0,0
353437,300,3,2,2,50,1,0
353437,-62.5,3,2,2,50,0,0
353537,-62.5,3,2,99,5,0,0
353587,-76.9230769230769,3,2,2,50,0,0
353687,-100,3,2,99,5,0,0
353737,-100,3,2,2,50,0,0
353837,-100,3,2,99,5,0,0
353887,-83.3333333333333,3,2,2,50,0,0
353987,-83.3333333333333,3,2,99,5,0,0
354037,-100,3,2,2,50,0,0
354137,-100,3,2,99,5,0,0
354187,300,3,2,2,50,1,0
354187,-100,3,2,2,50,0,0
354287,-100,3,2,99,5,0,0
354322,300,3,2,2,50,1,0
354322,-100,3,2,2,50,0,0
354422,-100,3,2,99,5,0,0
354472,-100,3,2,2,50,0,0
354572,-100,3,2,99,5,0,0
354622,-100,3,2,2,50,0,0
354722,-100,3,2,99,5,0,0
354772,-100,3,2,2,50,0,0
355077,300,3,2,2,50,1,0
355077,-66.6666666666667,3,2,2,50,0,0
355302,-66.6666666666667,3,2,99,5,0,0
355377,-100,3,2,2,30,0,0
355527,-100,3,2,2,50,0,0
355980,300,3,2,2,50,1,0
355980,-50,3,2,2,50,0,0
356080,-50,3,2,99,5,0,0
356130,-45.4545454545455,3,2,2,20,0,0
356230,-45.4545454545455,3,2,99,5,0,0
356280,-41.6666666666667,3,2,2,20,0,0
356380,-41.6666666666667,3,2,99,5,0,0
356430,-45.4545454545455,3,2,2,20,0,0
356530,-45.4545454545455,3,2,99,5,0,0
356580,-38.4615384615385,3,2,2,20,0,0
356680,-38.4615384615385,3,2,99,5,0,0
356730,-45.4545454545455,3,2,2,20,0,0
356830,-45.4545454545455,3,2,99,5,0,0
356887,300,3,2,2,50,1,1
356887,-33.3333333333333,3,2,2,50,0,1
357187,-33.3333333333333,3,2,2,50,0,0
357487,-100,3,2,2,50,0,0
357787,-76.9230769230769,3,2,2,50,0,0
358677,300,3,2,2,50,1,0
358677,-76.9230769230769,3,2,2,50,0,0
359577,289.855072463768,3,2,2,50,1,0
359577,-76.9230769230769,3,2,2,50,0,0
360477,300,3,2,2,50,1,0
360477,-76.9230769230769,3,2,2,50,0,0
361302,-76.9230769230769,3,2,99,5,0,0
361387,300,3,2,2,50,1,0
361387,-76.9230769230769,3,2,2,50,0,0
362662,-76.9230769230769,3,2,99,5,0,0
362737,-100,3,2,2,50,0,0
364087,-55.5555555555556,3,2,2,50,0,0
364312,-55.5555555555556,3,2,99,5,0,0
364387,-40,3,2,2,50,0,0
364912,-40,3,2,99,5,0,0
364987,-76.9230769230769,3,2,2,50,0,0
366712,-76.9230769230769,3,2,99,5,0,0
366787,-76.9230769230769,3,2,2,50,0,0
367012,-76.9230769230769,3,2,99,5,0,0
367087,-76.9230769230769,3,2,2,50,0,0
367387,-55.5555555555556,3,2,2,50,0,0
367687,-50,3,2,2,50,0,0
367787,-50,3,2,99,5,0,0
367837,-62.5,3,2,2,50,0,0
367937,-62.5,3,2,99,5,0,0
367987,-76.9230769230769,3,2,2,50,0,0
368087,-76.9230769230769,3,2,99,5,0,0
368137,-100,3,2,2,50,0,0
368237,-100,3,2,99,5,0,0
368287,-83.3333333333333,3,2,2,50,0,0
368387,-83.3333333333333,3,2,99,5,0,0
368437,-100,3,2,2,50,0,0
368537,-100,3,2,99,5,0,0
368587,-100,3,2,2,50,0,0
368687,-100,3,2,99,5,0,0
368737,-111.111111111111,3,2,2,50,0,0
368837,-111.111111111111,3,2,99,5,0,0
368887,-125,3,2,2,50,0,0
368987,-125,3,2,99,5,0,0
369037,-100,3,2,2,50,0,0
369137,-100,3,2,99,5,0,0
369187,-83.3333333333333,3,2,2,50,0,0
369287,-100,3,2,99,5,0,0
369337,-100,3,2,2,50,0,0
369437,-100,3,2,99,5,0,0
369487,-76.9230769230769,3,2,2,50,0,0
370517,300,3,2,2,50,1,0
370517,-76.9230769230769,3,2,2,50,0,0
371267,300,3,2,2,50,1,0
371267,-76.9230769230769,3,2,2,50,0,0
372187,300,3,2,2,50,1,0
372187,-76.9230769230769,3,2,2,50,0,0
372412,-76.9230769230769,3,2,99,5,0,0
372487,-76.9230769230769,3,2,2,50,0,0
374737,-76.9230769230769,3,2,2,25,0,0
374887,-76.9230769230769,3,2,2,50,0,0
375187,-71.4285714285714,3,2,2,50,0,0
375712,-71.4285714285714,3,2,99,5,0,0
375787,-76.9230769230769,3,2,2,50,0,0
376537,-76.9230769230769,3,2,2,25,0,0
376687,-76.9230769230769,3,2,2,50,0,0
376912,-76.9230769230769,3,2,99,5,0,0
376987,-76.9230769230769,3,2,2,50,0,0
378187,-100,3,2,2,50,0,0
378487,-76.9230769230769,3,2,2,50,0,0
378712,-76.9230769230769,3,2,99,5,0,0
378787,-50,3,2,2,50,0,0
379312,-50,3,2,99,5,0,0
379387,-76.9230769230769,3,2,2,50,0,0
380137,-76.9230769230769,3,2,2,30,0,0
380287,-76.9230769230769,3,2,2,50,0,0
381187,-58.8235294117647,3,2,2,50,0,0
381287,-58.8235294117647,3,2,99,5,0,0
381337,-55.5555555555556,3,2,2,50,0,0
381437,-55.5555555555556,3,2,99,5,0,0
381487,-52.6315789473684,3,2,2,50,0,0
381587,-52.6315789473684,3,2,99,5,0,0
381637,-50,3,2,2,50,0,0
381737,-100,3,2,99,5,0,0
381787,-100,3,2,2,20,0,0
382087,-66.6666666666667,3,2,2,50,0,0
383812,-66.6666666666667,3,2,99,5,0,0
383887,-55.5555555555556,3,2,2,50,0,0
385612,-55.5555555555556,3,2,99,5,0,0
385687,-50,3,2,2,50,0,0
385987,-76.9230769230769,3,2,2,50,0,0
386587,-50,3,2,2,50,0,0
386887,-76.9230769230769,3,2,2,50,0,0
387487,-50,3,2,2,50,0,0
387787,-76.9230769230769,3,2,2,50,0,0
388387,-50,3,2,2,50,0,0
388687,-76.9230769230769,3,2,2,50,0,0
389287,-50,3,2,2,50,0,0
389587,-76.9230769230769,3,2,2,50,0,0
390187,-50,3,2,2,50,0,0
390487,-76.9230769230769,3,2,2,50,0,0
391087,-40,3,2,2,50,0,0
391387,-76.9230769230769,3,2,2,50,0,0
391987,-40,3,2,2,50,0,0
392287,-76.9230769230769,3,2,2,50,0,0
392887,-33.3333333333333,3,2,2,50,0,0
392987,-33.3333333333333,3,2,99,5,0,0
393037,-37.037037037037,3,2,2,50,0,0
393137,-37.037037037037,3,2,99,5,0,0
393187,-41.6666666666667,3,2,2,50,0,0
393287,-41.6666666666667,3,2,99,5,0,0
393337,-35.7142857142857,3,2,2,50,0,0
393437,-35.7142857142857,3,2,99,5,0,0
393487,-40,3,2,2,50,0,0
393587,-40,3,2,99,5,0,0
393637,-45.4545454545455,3,2,2,50,0,0
393737,-45.4545454545455,3,2,99,5,0,0
393787,-38.4615384615385,3,2,2,50,0,0
393887,-38.4615384615385,3,2,99,5,0,0
393937,-43.4782608695652,3,2,2,50,0,0
394037,-43.4782608695652,3,2,99,5,0,0
394087,-50,3,2,2,50,0,0
394187,-50,3,2,99,5,0,0
394237,-41.6666666666667,3,2,2,50,0,0
394337,-41.6666666666667,3,2,99,5,0,0
394387,-47.6190476190476,3,2,2,50,0,0
394487,-47.6190476190476,3,2,99,5,0,0
394537,-55.5555555555556,3,2,2,50,0,0
394637,-55.5555555555556,3,2,99,5,0,0
394672,300,3,2,2,50,1,0
394672,-45.4545454545455,3,2,2,50,0,0
394772,-45.4545454545455,3,2,99,5,0,0
394822,-52.6315789473684,3,2,2,50,0,0
394922,-52.6315789473684,3,2,99,5,0,0
394972,-62.5,3,2,2,50,0,0
395072,-62.5,3,2,99,5,0,0
395122,-50,3,2,2,50,0,0
395222,-50,3,2,99,5,0,0
395272,-58.8235294117647,3,2,2,50,0,0
395372,-58.8235294117647,3,2,99,5,0,0
395422,-71.4285714285714,3,2,2,50,0,0
395522,-71.4285714285714,3,2,99,5,0,0
395572,-55.5555555555556,3,2,2,50,0,0
395672,-55.5555555555556,3,2,99,5,0,0
395722,-66.6666666666667,3,2,2,50,0,0
395822,-66.6666666666667,3,2,99,5,0,0
395872,-83.3333333333333,3,2,2,50,0,0
395972,-83.3333333333333,3,2,99,5,0,0
396022,-62.5,3,2,2,50,0,0
396122,-62.5,3,2,99,5,0,0
396172,-76.9230769230769,3,2,2,50,0,0
396272,-76.9230769230769,3,2,99,5,0,0
396322,-100,3,2,2,50,0,0
396422,-100,3,2,99,5,0,0
396487,300,3,2,2,50,1,0
396487,-100,3,2,2,50,0,0
398187,-76.9230769230769,3,2,2,50,0,0
398662,-76.9230769230769,3,2,99,5,0,0
398737,-50,3,2,2,50,0,0
399112,-50,3,2,99,5,0,0
399177,300,3,2,2,50,1,0
399177,-100,3,2,2,50,0,0
400067,300,3,2,2,50,1,0
400442,-100,3,2,99,5,0,0
400517,-50,3,2,2,50,0,0
400892,-50,3,2,99,5,0,0
400977,300,3,2,2,50,1,0
400977,-66.6666666666667,3,2,2,50,0,0
401802,-66.6666666666667,3,2,99,5,0,0
401877,-100,3,2,2,50,0,0
403677,-76.9230769230769,3,2,2,50,0,0
407277,-100,3,2,2,50,0,0
408177,294.550810014728,3,2,2,50,1,0
408177,-133.333333333333,3,2,2,50,0,0
408766,-133.333333333333,3,2,2,20,0,0
409060,301.507537688442,3,2,2,50,1,0
409060,-200,3,2,2,50,0,0
409964,-500,3,2,2,60,0,0
410266,-500,3,2,2,70,0,0
410567,-500,3,2,2,80,0,0
410869,279.06976744186,3,2,1,100,1,1
410869,-83.3333333333333,3,2,1,100,0,1
410938,-83.3333333333333,3,2,1,60,0,0
415334,-83.3333333333333,3,2,5,40,0,0
415892,-83.3333333333333,3,2,1,60,0,0
417008,-83.3333333333333,3,2,5,40,0,0
417566,-83.3333333333333,3,2,1,60,0,0
422031,-83.3333333333333,3,2,5,40,0,0
422589,-83.3333333333333,3,2,1,60,0,0
423706,-83.3333333333333,3,2,5,40,0,0
424264,-83.3333333333333,3,2,1,60,0,0
428729,-83.3333333333333,3,2,5,40,0,0
429287,-83.3333333333333,3,2,1,60,0,0
430403,-83.3333333333333,3,2,5,40,0,0
430962,-83.3333333333333,3,2,1,60,0,0
435427,-83.3333333333333,3,2,5,40,0,0
435985,-83.3333333333333,3,2,1,60,0,0
437101,-83.3333333333333,3,2,5,40,0,0
437659,-83.3333333333333,3,2,1,60,0,1
437729,-83.3333333333333,3,2,1,60,0,0
438078,-83.3333333333333,3,2,1,60,0,1
447985,-83.3333333333333,3,2,1,80,0,1
448055,-83.3333333333333,3,2,1,60,0,1
448543,-83.3333333333333,3,2,1,80,0,1
448613,-83.3333333333333,3,2,1,60,0,1
449101,-83.3333333333333,3,2,1,80,0,1
449171,-83.3333333333333,3,2,1,60,0,1
449659,-83.3333333333333,3,2,1,80,0,1
449729,-83.3333333333333,3,2,1,60,0,1
450217,-83.3333333333333,3,2,1,80,0,1
450287,-83.3333333333333,3,2,1,60,0,1
450775,-83.3333333333333,3,2,1,80,0,1
450845,-83.3333333333333,3,2,1,60,0,1
451055,-83.3333333333333,3,2,1,80,0,1
451124,-83.3333333333333,3,2,1,60,0,1
457752,-83.3333333333333,3,2,1,80,0,1
457822,-83.3333333333333,3,2,1,60,0,1
460264,-66.6666666666667,3,2,1,60,0,1
461101,-83.3333333333333,3,2,1,80,0,1
461171,-83.3333333333333,3,2,1,60,0,1
462845,-83.3333333333333,3,2,1,50,0,1
463194,-83.3333333333333,3,2,1,60,0,1
463613,-83.3333333333333,3,2,1,50,0,1
464031,-83.3333333333333,3,2,4,60,0,1
464101,-83.3333333333333,3,2,4,55,0,1
464171,-83.3333333333333,3,2,4,50,0,1
464241,-83.3333333333333,3,2,4,45,0,1
464310,-83.3333333333333,3,2,4,40,0,1
464380,-83.3333333333333,3,2,4,35,0,1
464450,-83.3333333333333,3,2,1,70,0,1
464520,-83.3333333333333,3,2,1,60,0,0
464868,-83.3333333333333,3,2,1,60,0,1
484543,-83.3333333333333,3,2,1,80,0,1
484613,-83.3333333333333,3,2,1,60,0,1
487055,-66.6666666666667,3,2,1,60,0,1
487892,-83.3333333333333,3,2,1,80,0,1
487962,-83.3333333333333,3,2,1,60,0,1
489636,-83.3333333333333,3,2,1,50,0,1
489985,-83.3333333333333,3,2,1,60,0,1
490403,-83.3333333333333,3,2,1,50,0,1
490822,-83.3333333333333,3,2,4,60,0,1
490892,-83.3333333333333,3,2,4,55,0,1
490962,-83.3333333333333,3,2,4,50,0,1
491031,-83.3333333333333,3,2,4,45,0,1
491101,-83.3333333333333,3,2,4,40,0,1
491171,-83.3333333333333,3,2,4,35,0,1
491241,-83.3333333333333,3,2,1,100,0,1
491310,-83.3333333333333,3,2,1,60,0,0
494031,-83.3333333333333,3,2,1,65,0,0
494171,-83.3333333333333,3,2,1,70,0,0
494310,-83.3333333333333,3,2,1,75,0,0
494450,-83.3333333333333,3,2,1,80,0,0
494589,-83.3333333333333,3,2,1,70,0,0
494659,-83.3333333333333,3,2,1,60,0,0
500729,-83.3333333333333,3,2,1,65,0,0
500868,-83.3333333333333,3,2,1,70,0,0
501008,-83.3333333333333,3,2,1,75,0,0
501148,-83.3333333333333,3,2,1,80,0,0
501287,-83.3333333333333,3,2,1,70,0,0
501357,-83.3333333333333,3,2,1,60,0,0
507427,-83.3333333333333,3,2,1,65,0,0
507566,-83.3333333333333,3,2,1,70,0,0
507706,-83.3333333333333,3,2,1,75,0,0
507845,-83.3333333333333,3,2,1,80,0,0
507985,-83.3333333333333,3,2,1,70,0,0
508055,-83.3333333333333,3,2,1,60,0,0
514124,-83.3333333333333,3,2,1,65,0,0
514264,-83.3333333333333,3,2,1,70,0,0
514403,-83.3333333333333,3,2,1,75,0,0
514543,-83.3333333333333,3,2,1,80,0,0
514682,-83.3333333333333,3,2,1,70,0,0
514752,-83.3333333333333,3,2,1,60,0,0
517752,-133.333333333333,3,2,1,60,0,0
517962,-133.333333333333,3,2,99,5,0,0
518031,-100,3,2,1,60,0,0
520822,-100,3,2,1,65,0,0
520962,-100,3,2,1,70,0,0
521101,-100,3,2,1,75,0,0
521241,-100,3,2,1,80,0,0
521380,-100,3,2,1,70,0,0
521450,-100,3,2,1,60,0,0
527520,-100,3,2,1,65,0,0
527659,-100,3,2,1,70,0,0
527799,-100,3,2,1,75,0,0
527938,-100,3,2,1,80,0,0
528078,-100,3,2,1,70,0,0
528148,-100,3,2,1,60,0,0
534217,-100,3,2,1,65,0,0
534357,-100,3,2,1,70,0,0
534496,-100,3,2,1,75,0,0
534636,-100,3,2,1,80,0,0
534775,-100,3,2,1,70,0,0
534845,-100,3,2,1,60,0,0
540915,-100,3,2,1,65,0,0
541055,-100,3,2,1,70,0,0
541194,-100,3,2,1,75,0,0
541334,-100,3,2,1,80,0,0
541473,-100,3,2,1,70,0,0
541543,-100,3,2,1,60,0,0
544822,279.06976744186,4,2,1,70,1,0
544822,-83.3333333333333,4,2,1,70,0,0
545659,-83.3333333333333,4,2,1,70,0,1
545728,-83.3333333333333,4,2,1,60,0,0
549008,-83.3333333333333,4,2,4,70,0,0
549287,-83.3333333333333,4,2,1,60,0,0
553473,-83.3333333333333,4,2,4,70,0,0
553752,-83.3333333333333,4,2,1,60,0,0
557938,-83.3333333333333,4,2,4,70,0,0
558217,-83.3333333333333,4,2,1,60,0,0
562682,-83.3333333333333,4,2,1,80,0,1
562752,-83.3333333333333,4,2,1,60,0,1
566310,-76.9230769230769,4,2,1,60,0,1
566589,-71.4285714285714,4,2,1,60,0,1
566868,-66.6666666666667,4,2,1,60,0,1
567147,-83.3333333333333,4,2,1,60,0,1
570775,-76.9230769230769,4,2,1,60,0,1
571054,-71.4285714285714,4,2,1,60,0,1
571333,-66.6666666666667,4,2,1,60,0,1
571612,-83.3333333333333,4,2,1,60,0,1
575240,-76.9230769230769,4,2,1,60,0,1
575519,-71.4285714285714,4,2,1,60,0,1
575798,-66.6666666666667,4,2,1,60,0,1
576077,-83.3333333333333,4,2,1,60,0,1
582775,285.714285714286,4,2,1,100,1,1
582846,-100,4,2,1,5,0,0
595060,-100,4,2,1,5,0,0
595346,331.491712707182,4,2,2,40,1,0
595346,-200,4,2,2,40,0,0
600649,333.333333333333,4,2,2,40,1,0
600649,-200,4,2,2,40,0,0
604649,327.868852459016,4,2,2,40,1,0
604649,-200,4,2,2,40,0,0
607271,324.324324324324,4,2,2,40,1,0
607271,-200,4,2,2,40,0,0
608568,337.078651685393,4,2,2,40,1,0
608568,-200,4,2,2,40,0,0
609916,346.820809248555,4,2,2,40,1,0
610609,363.636363636364,4,2,2,40,1,0
610609,-133.333333333333,4,2,2,40,0,0
610790,461.538461538462,4,2,2,40,1,0
610790,-133.333333333333,4,2,2,40,0,0
611020,444.444444444444,4,2,2,40,1,0
611020,-200,4,2,2,40,0,0
611353,-200,4,2,99,5,0,0
611464,352.941176470588,4,2,2,50,1,0
611464,-200,4,2,2,50,0,0
614287,342.857142857143,4,2,2,50,1,0
614287,-133.333333333333,4,2,2,50,0,0
616601,-133.333333333333,4,2,99,5,0,0
616687,315.789473684211,4,2,2,50,1,0
616687,-133.333333333333,4,2,2,50,0,0
617002,315.789473684211,4,2,2,50,1,0
617002,-133.333333333333,4,2,2,50,0,0
618186,-133.333333333333,4,2,99,5,0,0
618265,-100,4,2,2,50,0,0
619133,-100,4,2,99,5,0,0
619212,-100,4,2,2,50,0,0
619528,324.324324324324,4,2,2,50,1,0
619933,-100,4,2,99,5,0,0
620014,461.538461538462,4,2,2,50,1,0
620014,-66.6666666666667,4,2,2,50,0,0
620129,-66.6666666666667,4,2,99,5,0,0
620244,337.078651685393,4,2,2,50,1,0
620244,-200,4,2,2,50,0,0
621676,-200,4,2,99,5,0,0
621760,-100,4,2,2,50,0,0
621929,352.941176470588,4,2,2,50,1,0
622105,340.909090909091,4,2,2,50,1,0
623468,-100,4,2,99,5,0,0
623639,387.096774193548,4,2,2,50,1,0
623832,444.444444444444,4,2,2,50,1,0
624054,315.789473684211,4,2,2,50,1,0
624054,-76.9230769230769,4,2,2,50,0,0
624290,-76.9230769230769,4,2,99,5,0,0
624369,240,4,2,2,50,1,0
624609,244.897959183673,4,2,2,50,1,0
624853,346.820809248555,4,2,2,50,1,0
624853,-133.333333333333,4,2,2,50,0,0
626849,-133.333333333333,4,2,99,5,0,0
626933,333.333333333333,4,2,2,50,1,0
627266,319.148936170213,4,2,2,50,1,0
628781,-100,4,2,99,5,0,0
628861,-100,4,2,2,50,0,0
629021,422.535211267606,4,2,2,50,1,0
629232,277.777777777778,4,2,2,50,1,0
629232,-76.9230769230769,4,2,2,50,0,0
629509,315.789473684211,4,2,2,50,1,0
629666,260.869565217391,4,2,2,50,1,0
629926,444.444444444444,4,2,2,50,1,0
630370,352.941176470588,4,2,2,50,1,0
630546,387.096774193548,4,2,2,50,1,0
630546,-200,4,2,2,50,0,0
632384,-200,4,2,99,5,0,0
632481,333.333333333333,4,2,2,50,1,0
632481,-200,4,2,2,50,0,0
635092,-200,4,2,99,5,0,0
635147,327.868852459016,4,2,2,50,1,0
635147,-133.333333333333,4,2,2,50,0,0
637360,-133.333333333333,4,2,99,5,0,0
637442,-133.333333333333,4,2,2,50,0,0
637769,324.324324324324,4,2,2,50,1,0
637769,-133.333333333333,4,2,2,50,0,0
638985,-133.333333333333,4,2,99,5,0,0
639066,-100,4,2,2,50,0,0
639958,-100,4,2,99,5,0,0
640039,-100,4,2,2,50,0,0
640363,342.857142857143,4,2,2,50,1,0
640705,-100,4,2,99,5,0,0
640791,-83.3333333333333,4,2,2,50,0,0
640963,-83.3333333333333,4,2,99,5,0,0
641048,389.61038961039,4,2,2,50,1,0
641048,-200,4,2,2,50,0,0
642509,-200,4,2,99,5,0,0
642606,-100,4,2,2,50,0,0
642996,375,4,2,2,50,1,0
644402,-100,4,2,99,5,0,0
644496,392.156862745098,4,2,2,50,1,0
644692,500,4,2,2,50,1,0
644942,315.789473684211,4,2,2,50,1,0
644942,-66.6666666666667,4,2,2,50,0,0
645178,-66.6666666666667,4,2,99,5,0,0
645257,333.333333333333,4,2,2,50,1,0
645590,352.941176470588,4,2,2,50,1,0
645590,-66.6666666666667,4,2,2,50,0,0
645678,-66.6666666666667,4,2,99,5,0,0
645766,350.877192982456,7,2,2,50,1,0
645766,-133.333333333333,7,2,2,50,0,0
647783,-133.333333333333,7,2,99,5,0,0
647871,-100,7,2,2,50,0,0
648222,379.746835443038,4,2,2,50,1,0
649646,-100,4,2,99,5,0,0
649740,392.156862745098,4,2,2,50,1,0
650132,285.714285714286,3,2,2,50,1,0
650132,-66.6666666666667,3,2,2,50,0,0
650346,-66.6666666666667,3,2,99,5,0,0
650417,200,3,2,2,50,1,0
650417,-76.9230769230769,3,2,2,50,0,0
650567,-76.9230769230769,3,2,99,5,0,0
650617,214.285714285714,3,2,2,50,1,0
650777,-100,3,2,99,5,0,0
650831,222.222222222222,3,2,2,50,1,0
650997,-100,3,2,99,5,0,0
651053,200,3,2,2,50,1,0
651053,-90.9090909090909,3,2,2,50,0,0
651203,-90.9090909090909,3,2,99,5,0,0
651253,-83.3333333333333,3,2,2,50,0,0
651403,-83.3333333333333,3,2,99,5,0,0
651453,333.333333333333,3,2,2,50,1,0
651453,-50,3,2,2,50,0,0
651564,-50,3,2,99,5,0,0
651619,-45.4545454545455,4,2,2,50,0,0
651730,-45.4545454545455,4,2,99,5,0,0
651786,260.869565217391,3,2,2,50,1,0
651786,-66.6666666666667,3,2,2,50,0,0
651981,-66.6666666666667,3,2,99,5,0,0
652046,206.896551724138,3,2,2,50,1,0
652046,-76.9230769230769,3,2,2,50,0,0
652201,-76.9230769230769,3,2,99,5,0,0
652252,375,3,2,2,50,1,0
652252,-40,4,2,2,50,0,0
652377,-40,4,2,99,5,0,0
652439,400,3,2,2,50,1,0
652439,-35.7142857142857,4,2,2,50,0,0
652572,-35.7142857142857,4,2,99,5,0,0
652639,285.714285714286,3,2,2,50,1,0
652639,-58.8235294117647,3,2,2,50,0,0
652853,-58.8235294117647,3,2,99,5,0,0
652914,230.769230769231,3,2,2,50,1,0
652914,-55.5555555555556,3,2,2,50,0,0
653087,-55.5555555555556,3,2,99,5,0,0
653144,-52.6315789473684,3,2,2,50,0,0
653337,-50,3,2,99,5,0,0
653404,337.078651685393,4,2,2,50,1,0
653404,-40,4,2,2,50,0,0
653741,-40,4,2,99,5,0,0
653853,-40,4,2,2,50,0,0
654078,331.491712707182,4,2,2,50,1,0
654078,-133.333333333333,4,2,2,50,0,0
654989,-133.333333333333,4,2,99,5,0,0
655072,272.727272727273,4,2,2,50,1,0
655072,-50,4,2,2,50,0,0
655276,-50,4,2,99,5,0,0
655344,226.415094339623,4,2,2,50,1,0
655344,-50,4,2,2,50,0,0
655513,-50,4,2,99,5,0,0
655570,200,4,2,2,50,1,0
655570,-66.6666666666667,4,2,2,50,0,0
655720,-66.6666666666667,4,2,99,5,0,0
655770,-100,4,2,2,50,0,0
655920,-100,4,2,99,5,0,0
655970,315.126050420168,4,2,2,50,1,0
655970,-266.666666666667,4,2,2,50,0,0
657151,-266.666666666667,4,2,99,5,0,0
657230,333.333333333333,4,2,2,50,1,0
657230,-200,4,2,2,50,0,0
657813,-200,4,2,99,5,0,0
657896,326.086956521739,4,2,2,50,1,0
657896,-153.846153846154,4,2,2,50,0,0
658466,-153.846153846154,4,2,99,5,0,0
658548,372.208436724566,4,2,2,50,1,0
658548,-266.666666666667,4,2,2,50,0,0
659943,-266.666666666667,4,2,99,5,0,0
660036,315.789473684211,4,2,2,50,1,0
660193,272.727272727273,4,2,2,50,1,0
660193,-200,4,2,2,50,0,0
660397,-200,4,2,99,5,0,0
660465,375,3,2,2,50,1,0
660465,-50,3,2,2,50,0,0
660590,-50,3,2,99,5,0,0
660652,240,3,2,2,50,1,0
660652,-66.6666666666667,3,2,2,50,0,0
660832,-66.6666666666667,3,2,99,5,0,0
660892,214.285714285714,3,2,2,50,1,0
661052,-100,3,2,99,5,0,0
661106,461.538461538462,3,2,2,50,1,0
661106,-133.333333333333,3,2,2,50,0,0
661509,-100,3,2,99,5,0,0
661567,333.333333333333,3,2,2,50,1,0
661733,315.789473684211,4,2,2,50,1,0
661733,-66.6666666666667,4,2,2,50,0,0
661969,-66.6666666666667,4,2,99,5,0,0
662048,324.324324324324,4,2,2,50,1,0
662048,-83.3333333333333,4,2,2,50,0,0
662615,-83.3333333333333,4,2,99,5,0,0
662696,-83.3333333333333,4,2,2,50,0,0
663020,428.571428571429,4,2,2,50,1,0
663020,-50,4,2,2,50,0,0
663341,-50,4,2,99,5,0,0
663448,250,4,2,2,50,1,0
663698,376.884422110553,4,2,2,50,1,0
663698,-263.157894736842,4,2,2,50,0,0
665017,-266.666666666667,4,2,99,5,0,0
665111,-266.666666666667,4,2,2,50,0,0
665205,309.278350515464,4,2,2,50,1,0
665205,-200,4,2,2,50,0,0
665436,-200,4,2,99,5,0,0
665514,250,3,2,2,50,1,0
665514,-66.6666666666667,3,2,2,50,0,0
665701,-66.6666666666667,3,2,99,5,0,0
665764,200,3,2,2,50,1,0
665764,-83.3333333333333,3,2,2,50,0,0
665914,-83.3333333333333,3,2,99,5,0,0
665964,214.285714285714,3,2,2,50,1,0
666124,-100,3,2,99,5,0,0
666178,306.122448979592,4,2,2,50,1,0
666178,-333.333333333333,4,2,2,50,0,0
667325,-333.333333333333,4,2,99,5,0,0
667402,352.941176470588,4,2,2,50,1,0
667402,-200,4,2,2,50,0,0
668019,-200,4,2,99,5,0,0
668107,642.398286937902,4,2,2,50,1,0
668107,-76.9230769230769,4,2,2,50,0,0
668669,-76.9230769230769,4,2,99,5,0,0
668749,625,4,2,2,50,1,0
668749,-66.6666666666667,4,2,2,50,0,0
669374,-55.5555555555556,4,2,2,50,0,0
669999,-50,4,2,2,50,0,0
670155,-50,4,2,99,5,0,0
670207,-40,4,2,2,50,0,0
670363,-40,4,2,99,5,0,0
670415,-33.3333333333333,4,2,2,50,0,0
670571,-33.3333333333333,4,2,99,5,0,0
670624,-40,4,2,2,50,0,0
670780,-40,4,2,99,5,0,0
670832,-50,4,2,2,50,0,0
670988,-50,4,2,99,5,0,0
671040,-55.5555555555556,4,2,2,50,0,0
671196,-55.5555555555556,4,2,99,5,0,0
671249,631.578947368421,4,2,2,50,1,0
671249,-66.6666666666667,4,2,2,50,0,0
671880,645.161290322581,4,2,2,50,1,0
671880,-76.9230769230769,4,2,2,50,0,0
672525,-100,4,2,2,50,0,0
673170,722.89156626506,4,2,2,50,1,0
673651,1052.63157894737,4,2,2,50,1,0
673651,-133.333333333333,4,2,2,50,0,0
673914,-133.333333333333,4,2,99,5,0,0
674001,294.117647058824,4,2,2,50,1,0
674001,-200,4,2,2,50,0,0
675618,-200,4,2,99,5,0,0
675692,-200,4,2,2,50,0,0
675765,315.789473684211,4,2,2,50,1,0
675765,-133.333333333333,4,2,2,50,0,0
676238,-133.333333333333,4,2,99,5,0,0
676317,-133.333333333333,4,2,2,50,0,0
676396,319.148936170213,4,2,2,50,1,0
676396,-100,4,2,2,50,0,0
676794,-100,4,2,99,5,0,0
676874,-100,4,2,2,50,0,0
677672,281.69014084507,4,2,2,10,1,0
677953,352.941176470588,4,2,2,50,1,0
678305,618.556701030928,4,2,2,50,1,0
678305,-66.6666666666667,4,2,2,50,0,0
678923,645.161290322581,4,2,2,50,1,1
678923,-66.6666666666667,4,2,2,50,0,1
679030,-66.6666666666667,4,2,2,50,0,0
679568,625,4,2,2,50,1,0
679568,-55.5555555555556,4,2,2,50,0,0
680193,-50,4,2,2,50,0,0
680818,582.52427184466,4,2,2,50,1,0
680818,-40,4,2,2,50,0,0
681206,857.142857142857,4,2,2,50,1,0
681420,-100,4,2,99,5,0,0
681491,618.556701030928,4,2,2,50,1,1
681491,-50,4,2,2,50,0,1
681594,-50,4,2,2,50,0,0
682109,582.52427184466,4,2,2,50,1,0
682109,-43.4782608695652,4,2,2,50,0,0
682691,618.556701030928,4,2,2,50,1,0
682691,-37.037037037037,4,2,2,50,0,0
683309,681.818181818182,4,2,2,50,1,0
683309,-33.3333333333333,4,2,2,50,0,0
683990,666.666666666667,4,2,2,50,1,1
683990,-30.3030303030303,4,2,2,50,0,1
684156,-30.3030303030303,4,2,99,5,0,1
684212,-33.3333333333333,4,2,2,50,0,1
684378,-33.3333333333333,4,2,99,5,0,1
684434,-25,4,2,2,50,0,1
684601,-25,4,2,99,5,0,1
684656,645.161290322581,4,2,2,50,1,1
684656,-25,4,2,2,50,0,1
684817,-25,4,2,99,5,0,1
684871,-28.5714285714286,4,2,2,50,0,1
685032,-28.5714285714286,4,2,99,5,0,1
685086,-33.3333333333333,4,2,2,50,0,1
685247,-33.3333333333333,4,2,99,5,0,1
685301,-28.5714285714286,4,2,2,50,0,1
685462,-28.5714285714286,4,2,99,5,0,1
685516,-31.25,4,2,2,50,0,1
685677,-31.25,4,2,99,5,0,1
685731,-34.4827586206897,4,2,2,50,0,1
685892,-34.4827586206897,4,2,99,5,0,1
685946,571.428571428571,4,2,2,50,1,1
685946,-31.25,4,2,2,50,0,1
686088,-31.25,4,2,99,5,0,1
686136,-34.4827586206897,4,2,2,50,0,1
686279,-34.4827586206897,4,2,99,5,0,1
686326,-38.4615384615385,4,2,2,50,0,1
686469,-38.4615384615385,4,2,99,5,0,1
686517,638.297872340426,4,2,2,50,1,1
686517,-50,4,2,2,50,0,1
686676,-50,4,2,99,5,0,1
686729,-28.5714285714286,4,2,2,50,0,1
686889,-28.5714285714286,4,2,99,5,0,1
686942,-28.5714285714286,4,2,2,50,0,1
687102,-28.5714285714286,4,2,99,5,0,1
687155,526.315789473684,4,2,2,50,1,1
687155,-28.5714285714286,4,2,2,50,0,1
687286,-28.5714285714286,4,2,99,5,0,1
687330,-31.25,4,2,2,50,0,1
687462,-31.25,4,2,99,5,0,1
687505,681.818181818182,4,2,2,50,1,1
687505,-33.3333333333333,4,2,2,50,0,1
687675,-33.3333333333333,4,2,99,5,0,1
687732,697.674418604652,4,2,2,50,1,1
687732,-31.25,4,2,2,50,0,1
687906,-31.25,4,2,99,5,0,1
687964,-34.4827586206897,4,2,2,50,0,1
688138,-34.4827586206897,4,2,99,5,0,1
688197,-38.4615384615385,4,2,2,50,0,1
688371,-38.4615384615385,4,2,99,5,0,1
688429,645.161290322581,4,2,2,50,1,1
688429,-33.3333333333333,4,2,2,50,0,1
688590,-33.3333333333333,4,2,99,5,0,1
688644,-37.037037037037,4,2,2,50,0,1
688805,-37.037037037037,4,2,99,5,0,1
688859,-41.6666666666667,4,2,2,50,0,1
689020,-41.6666666666667,4,2,99,5,0,1
689074,-50,4,2,2,50,0,1
689289,-33.3333333333333,4,2,2,50,0,1
689450,-33.3333333333333,4,2,99,5,0,1
689504,-33.3333333333333,4,2,2,50,0,1
689665,-33.3333333333333,4,2,99,5,0,1
689719,-33.3333333333333,4,2,2,50,0,1
689880,-33.3333333333333,4,2,99,5,0,1
689934,-35.7142857142857,4,2,2,50,0,1
690095,-35.7142857142857,4,2,99,5,0,1
690149,-40,4,2,2,50,0,1
690310,-40,4,2,99,5,0,1
690364,666.666666666667,4,2,2,50,1,1
690586,-25,4,2,2,50,0,1
690752,-25,4,2,99,5,0,1
690808,-25,4,2,2,50,0,1
690975,-25,4,2,99,5,0,1
691030,618.556701030928,4,2,2,50,1,1
691030,-25,4,2,2,50,0,1
691184,-25,4,2,99,5,0,1
691236,-27.027027027027,4,2,2,50,0,1
691390,-27.027027027027,4,2,99,5,0,1
691442,-29.4117647058824,4,2,2,50,0,1
691597,-29.4117647058824,4,2,99,5,0,1
691648,-40,4,2,2,50,0,1
692267,-50,4,2,2,50,0,1
692885,631.578947368421,4,2,2,50,1,1
692885,-66.6666666666667,4,2,2,50,0,1
693516,759.493670886076,4,2,2,50,1,1
694275,555.555555555556,4,2,2,50,1,1
694275,-133.333333333333,4,2,2,50,0,1
694830,722.89156626506,4,2,2,50,1,1
694830,-83.3333333333333,4,2,2,50,0,1
695552,594.059405940594,4,2,2,50,1,1
696146,555.555555555556,4,2,2,50,1,1
696146,-66.6666666666667,4,2,2,50,0,1
696516,789.473684210526,4,2,2,50,1,1
696713,-100,4,2,99,5,0,1
696779,600,4,2,2,50,1,1
696779,-25,4,2,2,50,0,1
696929,-25,4,2,99,5,0,1
696979,-27.027027027027,4,2,2,50,0,1
697129,-27.027027027027,4,2,99,5,0,1
697179,-29.4117647058824,4,2,2,50,0,1
697329,-29.4117647058824,4,2,99,5,0,1
697379,555.555555555556,4,2,2,50,1,1
697379,-33.3333333333333,4,2,2,50,0,1
697587,-33.3333333333333,4,2,99,5,0,1
697654,-33.3333333333333,4,2,2,50,0,1
697749,759.493670886076,4,2,2,50,1,1
697938,-100,4,2,99,5,0,1
698002,666.666666666667,4,2,2,50,1,1
698002,-25,4,2,2,50,0,1
698168,-25,4,2,99,5,0,1
698224,-27.027027027027,4,2,2,50,0,1
698390,-27.027027027027,4,2,99,5,0,1
698446,-29.4117647058824,4,2,2,50,0,1
698613,-29.4117647058824,4,2,99,5,0,1
698668,571.428571428571,4,2,2,50,1,1
698668,-33.3333333333333,4,2,2,50,0,1
698882,-33.3333333333333,4,2,99,5,0,1
698953,-33.3333333333333,4,2,2,50,0,1
699048,821.917808219178,4,2,2,50,1,1
699253,-100,4,2,99,5,0,1
699321,666.666666666667,4,2,2,50,1,1
699321,-66.6666666666667,4,2,2,50,0,1
699987,600,4,2,2,50,1,1
699987,-28.5714285714286,4,2,2,50,0,1
700137,-28.5714285714286,4,2,99,5,0,1
700187,-31.25,4,2,2,50,0,1
700337,-31.25,4,2,99,5,0,1
700387,-33.3333333333333,4,2,2,50,0,1
700537,-33.3333333333333,4,2,99,5,0,1
700587,521.739130434783,4,2,2,50,1,1
700587,-66.6666666666667,4,2,2,50,0,1
700978,750,4,2,2,50,1,1
701165,-100,4,2,99,5,0,1
701228,600,4,2,2,50,1,1
701228,-28.5714285714286,4,2,2,50,0,1
701378,-28.5714285714286,4,2,99,5,0,1
701428,-31.25,4,2,2,50,0,1
701578,-31.25,4,2,99,5,0,1
701628,-33.3333333333333,4,2,2,50,0,1
701778,-33.3333333333333,4,2,99,5,0,1
701828,618.556701030928,4,2,2,50,1,1
701828,-66.6666666666667,4,2,2,50,0,1
702034,-25,4,2,2,50,0,1
702188,-25,4,2,99,5,0,1
702240,-28.5714285714286,4,2,2,50,0,1
702395,-28.5714285714286,4,2,99,5,0,1
702446,571.428571428571,4,2,2,50,1,1
702446,-33.3333333333333,4,2,2,50,0,1
703588,545.454545454546,4,2,2,50,1,1
703860,631.578947368421,4,2,2,50,1,1
704175,400,4,2,2,50,1,1
704175,-50,4,2,2,50,0,1
704375,638.297872340426,4,2,2,50,1,1
704375,-133.333333333333,4,2,2,50,0,1
704481,-133.333333333333,4,2,2,50,0,0
706130,-133.333333333333,4,2,99,5,0,0
706289,-50,4,2,2,50,0,0
706928,623.700623700624,4,2,2,50,1,0
707135,-133.333333333333,4,2,2,50,0,0
709265,-133.333333333333,4,2,99,5,0,0
709422,625,4,2,2,50,1,0
709422,-66.6666666666667,4,2,2,50,0,0
710672,652.173913043478,4,2,2,50,1,0
710672,-50,4,2,2,50,0,0
711324,681.818181818182,4,2,2,50,1,0
711324,-33.3333333333333,4,2,2,50,0,0
712005,641.025641025641,4,2,2,50,1,0
712005,-33.3333333333333,4,2,2,50,0,0
713206,-33.3333333333333,4,2,99,5,0,0
713264,641.025641025641,4,2,2,50,1,0
713264,-66.6666666666667,4,2,2,50,0,0
713905,-66.6666666666667,4,2,2,45,0,0
714065,-66.6666666666667,4,2,2,30,0,0
714569,625,4,2,2,50,1,0
714569,-133.333333333333,4,2,2,50,0,0
718787,-133.333333333333,4,2,99,5,0,0
718944,666.666666666667,4,2,2,50,1,0
719444,-100,4,2,99,5,0,0
719610,638.297872340426,4,2,2,50,1,0
720088,-100,4,2,99,5,0,0
720248,612.244897959184,4,2,2,50,1,0
720248,-50,4,2,2,50,0,0
721319,-50,4,2,99,5,0,0
721472,638.297872340426,4,2,2,50,1,0
721472,-105.263157894737,4,2,2,50,0,0
721950,-105.263157894737,4,2,99,5,0,0
722110,666.666666666667,4,2,2,50,1,0
722110,-66.6666666666667,4,2,2,50,0,0
722610,-66.6666666666667,4,2,99,5,0,0
722776,612.244897959184,4,2,2,50,1,0
722776,-40,4,2,2,50,0,0
724459,-40,4,2,2,30,0,0
724612,625,4,2,2,50,1,0
728830,-100,4,2,99,5,0,0
728987,612.244897959184,4,2,2,50,1,0
729446,-100,4,2,99,5,0,0
729599,638.297872340426,4,2,2,50,1,0
730077,-100,4,2,99,5,0,0
730237,625,4,2,2,50,1,0
730237,-50,4,2,2,50,0,0
731330,-50,4,2,99,5,0,0
731487,-100,4,2,2,50,0,0
731955,-100,4,2,99,5,0,0
732112,800,4,2,2,50,1,0
732112,-100,4,2,2,50,0,0
732812,-100,4,2,99,5,0,0
732912,576.923076923077,4,2,2,50,1,0
732912,-33.3333333333333,4,2,2,50,0,0
733488,400,4,2,2,50,1,0
733488,-55.5555555555556,4,2,2,50,0,0
733688,521.739130434783,4,2,2,50,1,0
733948,461.538461538462,4,2,2,50,1,0
733948,-66.6666666666667,4,2,2,50,0,0
734178,521.739130434783,4,2,2,50,1,0
734438,428.571428571429,4,2,2,50,1,0
734759,-100,4,2,99,5,0,0
734866,1052.63157894737,4,2,2,50,1,0
736839,-100,4,2,99,5,0,0
736971,315.789473684211,4,2,2,50,1,0
737234,1200,4,2,2,50,1,0
737234,-200,4,2,2,50,0,0
742034,-200,4,2,2,20,0,0

[Colours]
Combo1 : 128,0,255
Combo2 : 192,192,192
Combo3 : 128,128,128
Combo4 : 232,232,232
Combo5 : 255,0,0
Combo6 : 166,0,0
Combo7 : 255,128,0
Combo8 : 255,255,0

[HitObjects]
139,258,1090,6,0,P|106:269|73:268,1,60,0|0,1:0|0:0,0:0:0:0:
46,203,1508,1,0,0:0:0:0:
41,192,1787,1,0,0:0:0:0:
131,195,1927,1,0,0:0:0:0:
48,70,2206,5,0,1:0:0:0:
183,96,2485,1,0,0:0:0:0:
194,101,2764,6,0,P|200:135|195:167,1,60,0|0,1:0|0:0,0:0:0:0:
131,195,3183,1,0,0:0:0:0:
121,188,3462,1,0,0:0:0:0:
200,231,3601,1,0,0:0:0:0:
68,301,3880,85,0,1:0:0:0:
200,342,4155,1,0,0:0:0:0:
207,332,4430,6,0,P|239:319|272:318,1,60,0|0,1:0|0:0,0:0:0:0:
333,347,4842,1,0,0:0:0:0:
338,358,5118,1,0,0:0:0:0:
360,271,5255,1,0,0:0:0:0:
466,377,5530,5,0,1:0:0:0:
463,384,5806,1,0,0:0:0:0:
453,228,6084,86,0,P|427:215|416:213,1,35.9999989013672,0|0,1:0|0:0,0:0:0:0:
360,210,6502,1,0,0:0:0:0:
354,214,6781,1,0,0:0:0:0:
378,142,6921,1,0,0:0:0:0:
295,165,7200,2,0,P|280:175|269:189,1,35.9999989013672,0|0,1:0|0:0,0:0:0:0:
269,189,7767,6,0,P|252:158|228:136,1,60,0|0,1:0|0:0,0:0:0:0:
160,148,8195,1,0,0:0:0:0:
155,159,8481,1,0,0:0:0:0:
192,77,8624,1,0,0:0:0:0:
57,141,8909,5,0,1:0:0:0:
167,225,9195,1,0,0:0:0:0:
170,237,9472,86,0,P|164:271|149:300,1,60,0|0,1:0|0:0,0:0:0:0:
83,318,9884,1,0,0:0:0:0:
71,320,10160,1,0,0:0:0:0:
106,237,10297,1,0,0:0:0:0:
160,377,10572,5,0,1:0:0:0:
234,261,10848,1,0,0:0:0:0:
239,250,11138,6,0,P|233:215|218:186,1,60,0|0,1:0|0:0,0:0:0:0:
156,158,11555,1,0,0:0:0:0:
144,156,11833,1,0,0:0:0:0:
227,121,11972,1,0,0:0:0:0:
170,259,12249,85,0,1:0:0:0:
301,215,12524,1,0,0:0:0:0:
313,217,12799,6,0,P|329:241|338:270,1,60,0|0,1:0|0:0,0:0:0:0:
314,342,13209,1,0,0:0:0:0:
304,349,13483,1,0,0:0:0:0:
389,319,13620,1,0,0:0:0:0:
254,253,13894,5,0,1:0:0:0:
388,219,14168,1,0,0:0:0:0:
242,151,14472,86,0,P|198:167|165:205,1,90.0000034332277
184,281,14890,1,0,0:0:0:0:
184,281,15030,2,0,L|226:323,1,45.0000017166138
320,213,15309,6,0,P|321:166|298:121,1,90.0000034332277
217,89,15727,1,0,0:0:0:0:
217,89,15867,2,0,L|157:114,1,45.0000017166138
108,191,16146,6,0,P|66:169|39:126,1,90.0000034332277
84,66,16565,1,0,0:0:0:0:
84,66,16704,2,0,L|139:53,1,45.0000017166138
190,176,16983,85,0,0:0:0:0:
167,250,17122,1,0,0:0:0:0:
93,274,17262,1,0,0:0:0:0:
32,225,17402,2,0,L|6:181,2,45.0000017166138
190,176,17820,6,0,P|187:146|176:118,1,60
202,189,18239,2,0,P|206:159|203:129,1,60
253,246,18658,6,0,P|250:275|239:303,1,60
265,232,19077,2,0,P|269:261|266:291,1,60
303,171,19495,86,0,P|300:141|289:113,1,60
315,184,19914,2,0,P|319:154|316:124,1,60
366,241,20332,6,0,P|363:270|352:298,1,60
378,227,20751,1,0,0:0:0:0:
434,277,20890,2,0,L|465:225,1,45.0000017166138
398,95,21190,6,0,P|351:100|310:130,1,90.0000034332277
310,208,21606,1,0,0:0:0:0:
310,208,21745,2,0,L|270:249,1,45.0000017166138
142,290,22023,86,0,P|128:247|135:203,1,90.0000034332277
200,153,22440,1,0,0:0:0:0:
200,153,22578,2,0,L|243:187,1,45.0000017166138
337,271,22856,6,0,P|374:247|397:209,1,90.0000034332277
379,134,23273,1,0,0:0:0:0:
379,134,23412,2,0,L|342:98,1,45.0000017166138
235,180,23690,5,0,0:0:0:0:
160,202,23828,1,0,0:0:0:0:
97,156,23967,1,0,0:0:0:0:
97,78,24106,2,0,L|123:28,2,45.0000017166138
235,180,24523,86,0,P|257:160|274:135,1,60
230,196,24942,2,0,P|256:182|279:162,1,60
214,270,25360,6,0,P|190:288|163:301,1,60
231,267,25779,2,0,P|212:290|189:309,1,60
314,251,26197,6,0,P|328:224|335:195,1,60
314,267,26616,2,0,P|334:244|349:218,1,60
303,339,27034,86,0,P|279:357|252:370,1,60
320,336,27453,2,0,P|301:359|278:378,1,60
427,241,27871,6,0,P|424:196|403:158,1,90.0000034332277
329,134,28290,1,0,0:0:0:0:
329,134,28429,2,0,L|264:148,1,45.0000017166138
176,240,28709,6,0,P|207:272|247:288,1,90.0000034332277
299,226,29127,1,0,0:0:0:0:
299,226,29267,2,0,L|346:202,1,45.0000017166138
445,290,29546,86,0,P|434:333|406:367,1,90.0000034332277
329,368,29964,1,0,0:0:0:0:
329,368,30104,2,0,L|289:332,1,45.0000017166138
237,206,30383,5,0,0:0:0:0:
169,170,30522,1,0,0:0:0:0:
110,219,30662,1,0,0:0:0:0:
131,292,30802,2,0,L|169:335,2,45.0000017166138
229,135,31220,6,0,P|259:138|287:149,1,60
216,123,31639,2,0,P|246:119|276:122,1,60
142,105,32057,86,0,P|114:118|92:137,1,60
150,89,32476,2,0,P|120:95|93:108,1,60
210,47,32895,6,0,P|240:50|268:61,1,60
197,35,33314,2,0,P|227:31|257:34,1,60
123,17,33732,6,0,P|93:22|66:36,1,60
134,3,34150,1,0,0:0:0:0:
115,88,34290,2,0,L|67:123,1,45.0000017166138
15,234,34569,86,0,P|56:251|100:248,1,90.0000034332277
153,187,34988,1,0,0:0:0:0:
153,187,35127,2,0,L|204:168,1,45.0000017166138
326,233,35406,6,0,P|327:278|310:318,1,90.0000034332277
233,331,35825,1,0,0:0:0:0:
233,331,35964,2,0,L|216:279,1,45.0000017166138
282,158,36243,6,0,P|326:148|368:158,1,90.0000034332277
397,239,36662,1,0,0:0:0:0:
397,239,36802,2,0,L|377:300,1,45.0000017166138
251,252,37081,85,0,0:0:0:0:
193,197,37220,1,0,0:0:0:0:
194,118,37360,1,0,0:0:0:0:
252,65,37499,2,0,L|304:49,2,45.0000017166138
251,252,37918,6,0,P|264:279|283:301,1,60
235,243,38337,2,0,P|241:272|254:299,1,60
196,178,38755,6,0,P|201:148|215:121,1,60
182,190,39174,2,0,P|180:159|186:130,1,60
142,261,39592,86,0,P|147:290|161:317,1,60
128,248,40011,2,0,P|126:278|131:305,1,45
131,307,40290,1,0,0:0:0:0:
55,215,40429,38,0,B|89:147|155:148|191:187|191:189|191:191|226:224|293:230|331:144,1,330.549977970124,0|0,1:0|0:0,0:0:0:0:
335,75,41267,5,6,0:0:0:0:
249,132,41406,1,2,0:0:0:0:
385,214,41546,1,2,0:0:0:0:
396,114,41685,1,2,0:0:0:0:
290,223,41825,2,0,L|283:295,1,71.9999978027344,2|2,0:0|0:0,0:0:0:0:
103,286,42104,5,14,0:0:0:0:
181,202,42243,1,2,0:0:0:0:
195,317,42383,1,6,0:0:0:0:
97,193,42522,2,0,P|111:153|144:124,1,71.9999978027344,10|6,0:0|0:0,0:0:0:0:
275,151,42802,1,10,0:0:0:0:
191,35,42941,85,2,0:0:0:0:
188,32,43011,1,2,0:0:0:0:
185,29,43081,1,10,0:0:0:0:
311,58,43220,1,6,0:0:0:0:
202,141,43360,1,10,0:0:0:0:
199,143,43429,1,2,0:0:0:0:
196,145,43499,1,6,0:0:0:0:
339,123,43639,1,10,0:0:0:0:
231,83,43778,5,6,0:0:0:0:
288,200,43918,1,8,0:0:0:0:
311,58,44057,1,8,0:0:0:0:
231,236,44197,1,8,0:0:0:0:
160,33,44336,1,8,0:0:0:0:
352,198,44476,1,8,0:0:0:0:
103,101,44616,5,6,0:0:0:0:
87,110,44685,1,2,0:0:0:0:
72,120,44755,1,2,0:0:0:0:
57,130,44825,1,2,0:0:0:0:
42,140,44895,85,2,0:0:0:0:
66,154,44964,1,2,0:0:0:0:
91,168,45034,1,2,0:0:0:0:
116,183,45104,1,2,0:0:0:0:
141,197,45174,6,0,L|191:226,1,35.9999989013672,6|0,0:0|0:0,0:0:0:0:
109,263,45313,2,0,L|74:243,1,35.9999989013672
180,125,45453,5,10,0:0:0:0:
223,121,45522,1,2,0:0:0:0:
266,117,45592,1,2,0:0:0:0:
309,113,45662,1,2,0:0:0:0:
352,109,45732,85,6,0:0:0:0:
337,133,45801,1,2,0:0:0:0:
323,158,45871,1,2,0:0:0:0:
308,183,45941,1,2,0:0:0:0:
294,208,46011,6,0,L|271:246,1,35.9999989013672,2|0,0:0|0:0,0:0:0:0:
348,320,46150,2,0,L|373:276,1,35.9999989013672
227,282,46290,5,6,0:0:0:0:
210,288,46359,1,2,0:0:0:0:
193,294,46429,1,2,0:0:0:0:
176,300,46499,1,2,0:0:0:0:
159,307,46569,85,2,0:0:0:0:
164,278,46638,1,2,0:0:0:0:
169,250,46708,1,2,0:0:0:0:
174,221,46778,1,2,0:0:0:0:
179,193,46848,6,0,L|186:148,1,35.9999989013672,6|0,0:0|0:0,0:0:0:0:
106,142,46988,2,0,L|97:191,1,35.9999989013672
250,217,47127,5,10,0:0:0:0:
280,186,47196,1,2,0:0:0:0:
311,156,47266,1,2,0:0:0:0:
342,126,47336,1,2,0:0:0:0:
373,95,47406,85,6,0:0:0:0:
344,97,47475,1,2,0:0:0:0:
315,100,47545,1,2,0:0:0:0:
286,102,47615,1,2,0:0:0:0:
258,105,47685,6,0,L|205:109,1,35.9999989013672,2|0,0:0|0:0,0:0:0:0:
295,26,47825,2,0,L|338:22,1,35.9999989013672
156,68,47964,5,14,0:0:0:0:
280,186,48104,1,10,0:0:0:0:
232,43,48243,1,6,0:0:0:0:
208,200,48383,2,0,P|223:233|267:260,1,71.9999978027344,10|6,0:0|0:0,0:0:0:0:
388,211,48662,1,2,0:0:0:0:
222,108,48802,85,14,0:0:0:0:
401,123,48941,1,10,0:0:0:0:
313,255,49081,1,6,0:0:0:0:
284,87,49220,2,0,P|264:58|232:43,1,71.9999978027344,10|6,0:0|0:0,0:0:0:0:
142,156,49499,1,8,0:0:0:0:
129,12,49639,5,6,0:0:0:0:
128,8,49709,1,2,0:0:0:0:
127,4,49778,1,10,0:0:0:0:
222,108,49918,1,6,0:0:0:0:
79,100,50057,1,10,0:0:0:0:
75,102,50127,1,2,0:0:0:0:
71,104,50197,1,6,0:0:0:0:
232,43,50336,1,10,0:0:0:0:
142,156,50476,5,6,0:0:0:0:
278,140,50616,1,8,0:0:0:0:
144,72,50755,1,8,0:0:0:0:
290,212,50895,1,8,0:0:0:0:
69,236,51034,1,8,0:0:0:0:
232,43,51174,1,8,0:0:0:0:
161,299,51313,85,6,0:0:0:0:
169,314,51382,1,2,0:0:0:0:
178,330,51452,1,2,0:0:0:0:
187,345,51522,1,2,0:0:0:0:
196,361,51592,5,2,0:0:0:0:
219,344,51661,1,2,0:0:0:0:
242,327,51731,1,2,0:0:0:0:
266,310,51801,1,2,0:0:0:0:
289,294,51871,6,0,L|329:265,1,35.9999989013672,6|0,0:0|0:0,0:0:0:0:
364,340,52011,2,0,L|325:366,1,35.9999989013672
223,258,52150,85,10,0:0:0:0:
216,215,52219,1,2,0:0:0:0:
210,172,52289,1,2,0:0:0:0:
204,129,52359,1,2,0:0:0:0:
197,87,52429,5,6,0:0:0:0:
223,99,52498,1,2,0:0:0:0:
249,111,52568,1,2,0:0:0:0:
275,123,52638,1,2,0:0:0:0:
301,135,52709,6,0,L|339:152,1,35.9999989013672,2|0,0:0|0:0,0:0:0:0:
318,273,52848,2,0,L|285:257,1,35.9999989013672
146,193,52988,85,6,0:0:0:0:
129,199,53057,1,2,0:0:0:0:
112,206,53127,1,2,0:0:0:0:
95,212,53197,1,2,0:0:0:0:
78,219,53267,5,2,0:0:0:0:
83,190,53336,1,2,0:0:0:0:
88,162,53406,1,2,0:0:0:0:
93,133,53476,1,2,0:0:0:0:
97,105,53546,6,0,L|104:70,1,35.9999989013672,6|0,0:0|0:0,0:0:0:0:
24,92,53685,2,0,L|17:127,1,35.9999989013672
171,115,53825,85,10,0:0:0:0:
205,89,53894,1,2,0:0:0:0:
240,63,53964,1,2,0:0:0:0:
274,37,54034,1,2,0:0:0:0:
309,11,54104,5,6,0:0:0:0:
306,39,54173,1,2,0:0:0:0:
303,68,54243,1,2,0:0:0:0:
301,97,54313,1,2,0:0:0:0:
299,126,54383,6,0,L|295:169,1,35.9999989013672,2|0,0:0|0:0,0:0:0:0:
397,123,54522,2,0,L|400:87,1,35.9999989013672,2|0,0:0|0:0,0:0:0:0:
229,152,54662,85,6,0:0:0:0:
391,188,54802,1,10,0:0:0:0:
252,223,54941,1,6,0:0:0:0:
397,123,55081,2,0,P|432:137|456:180,1,71.9999978027344,10|6,0:0|0:0,0:0:0:0:
413,303,55360,1,10,0:0:0:0:
324,131,55499,5,14,0:0:0:0:
291,294,55639,1,10,0:0:0:0:
443,229,55778,1,6,0:0:0:0:
252,223,55918,2,0,P|223:252|211:296,1,71.9999978027344,10|6,0:0|0:0,0:0:0:0:
319,378,56197,1,10,0:0:0:0:
162,361,56336,5,6,0:0:0:0:
158,362,56406,1,2,0:0:0:0:
154,363,56476,1,10,0:0:0:0:
291,294,56616,1,6,0:0:0:0:
145,257,56755,1,10,0:0:0:0:
141,256,56825,1,2,0:0:0:0:
137,255,56895,1,6,0:0:0:0:
239,345,57034,1,10,0:0:0:0:
191,197,57174,85,6,0:0:0:0:
291,294,57313,1,8,0:0:0:0:
293,128,57453,1,8,0:0:0:0:
212,280,57592,1,8,0:0:0:0:
180,73,57732,1,8,0:0:0:0:
359,249,57871,1,8,0:0:0:0:
112,147,58011,5,6,0:0:0:0:
96,155,58080,1,2,0:0:0:0:
80,164,58150,1,2,0:0:0:0:
65,173,58220,1,2,0:0:0:0:
48,182,58290,5,2,0:0:0:0:
73,196,58359,1,2,0:0:0:0:
98,210,58429,1,2,0:0:0:0:
123,225,58499,1,2,0:0:0:0:
148,239,58569,86,0,L|189:263,1,35.9999989013672,6|0,0:0|0:0,0:0:0:0:
98,307,58709,2,0,L|63:287,1,35.9999989013672
221,328,58848,5,10,0:0:0:0:
259,308,58917,1,2,0:0:0:0:
297,288,58987,1,2,0:0:0:0:
336,268,59057,1,2,0:0:0:0:
375,249,59127,5,6,0:0:0:0:
352,230,59196,1,2,0:0:0:0:
330,211,59266,1,2,0:0:0:0:
308,193,59336,1,2,0:0:0:0:
286,174,59406,86,0,L|236:132,1,35.9999989013672,2|0,0:0|0:0,0:0:0:0:
362,119,59546,2,0,L|401:151,1,35.9999989013672
218,206,59685,5,6,0:0:0:0:
202,197,59754,1,2,0:0:0:0:
186,189,59824,1,2,0:0:0:0:
170,181,59894,1,2,0:0:0:0:
154,172,59964,5,2,0:0:0:0:
156,200,60033,1,2,0:0:0:0:
159,229,60103,1,2,0:0:0:0:
161,258,60173,1,2,0:0:0:0:
164,286,60243,86,0,L|168:333,1,35.9999989013672,6|0,0:0|0:0,0:0:0:0:
245,306,60383,2,0,L|240:255,1,35.9999989013672
90,206,60522,5,10,0:0:0:0:
69,168,60591,1,2,0:0:0:0:
48,130,60661,1,2,0:0:0:0:
27,92,60731,1,2,0:0:0:0:
6,54,60802,5,6,0:0:0:0:
33,63,60871,1,2,0:0:0:0:
60,73,60941,1,2,0:0:0:0:
87,83,61011,1,2,0:0:0:0:
114,93,61081,86,0,L|165:111,1,35.9999989013672,2|0,0:0|0:0,0:0:0:0:
209,14,61221,2,0,L|175:1,1,35.9999989013672
155,181,61360,5,6,0:0:0:0:
290,86,61499,1,10,0:0:0:0:
147,105,61639,1,6,0:0:0:0:
301,182,61778,2,0,P|308:235|296:276,1,71.9999978027344,10|6,0:0|0:0,0:0:0:0:
181,327,62057,1,0,0:0:0:0:
246,151,62197,5,14,0:0:0:0:
252,316,62336,1,10,0:0:0:0:
155,181,62476,1,6,0:0:0:0:
304,252,62616,2,0,P|336:237|363:213,1,71.9999978027344,10|6,0:0|0:0,0:0:0:0:
368,69,62895,1,10,0:0:0:0:
446,206,63034,85,6,0:0:0:0:
449,209,63104,1,2,0:0:0:0:
452,212,63174,1,10,0:0:0:0:
326,144,63313,1,6,0:0:0:0:
361,299,63453,1,10,0:0:0:0:
362,302,63522,1,2,0:0:0:0:
363,305,63592,1,6,0:0:0:0:
398,149,63732,1,10,0:0:0:0:
269,193,63871,5,6,0:0:0:0:
288,50,64011,1,8,0:0:0:0:
363,213,64150,1,8,0:0:0:0:
170,153,64290,1,8,0:0:0:0:
368,69,64429,1,8,0:0:0:0:
296,319,64569,1,8,0:0:0:0:
209,59,64709,5,6,0:0:0:0:
194,47,64778,1,2,0:0:0:0:
180,36,64848,1,2,0:0:0:0:
166,25,64918,1,2,0:0:0:0:
152,14,64988,85,2,0:0:0:0:
142,41,65057,1,2,0:0:0:0:
132,68,65127,1,2,0:0:0:0:
122,95,65197,1,2,0:0:0:0:
112,122,65267,6,0,L|93:172,1,35.9999989013672,6|0,0:0|0:0,0:0:0:0:
26,115,65407,2,0,L|38:81,1,35.9999989013672
194,128,65546,5,10,0:0:0:0:
227,155,65615,1,2,0:0:0:0:
261,182,65685,1,2,0:0:0:0:
294,209,65755,1,2,0:0:0:0:
329,236,65825,85,6,0:0:0:0:
301,245,65894,1,2,0:0:0:0:
274,255,65964,1,2,0:0:0:0:
247,265,66034,1,2,0:0:0:0:
220,275,66104,6,0,L|160:296,1,35.9999989013672,2|0,0:0|0:0,0:0:0:0:
142,200,66243,2,0,L|175:187,1,35.9999989013672
302,313,66383,5,6,0:0:0:0:
312,327,66452,1,2,0:0:0:0:
323,342,66522,1,2,0:0:0:0:
333,356,66592,1,2,0:0:0:0:
344,371,66662,85,2,0:0:0:0:
357,345,66731,1,2,0:0:0:0:
370,319,66801,1,2,0:0:0:0:
383,294,66871,1,2,0:0:0:0:
396,268,66941,6,0,L|420:219,1,35.9999989013672,6|0,0:0|0:0,0:0:0:0:
478,287,67080,2,0,L|461:319,1,35.9999989013672
452,184,67220,5,2,0:0:0:0:
444,167,67289,1,2,0:0:0:0:
436,151,67359,1,2,0:0:0:0:
429,135,67429,1,2,0:0:0:0:
421,118,67499,85,6,0:0:0:0:
413,126,67568,1,2,0:0:0:0:
406,134,67638,1,2,0:0:0:0:
399,142,67708,1,2,0:0:0:0:
392,150,67778,6,0,P|366:157|337:155,1,45.0000017166138,2|0,0:0|0:0,0:0:0:0:
195,36,68057,85,6,0:0:0:0:
194,32,68126,1,2,0:0:0:0:
193,29,68196,1,2,0:0:0:0:
192,25,68266,1,2,0:0:0:0:
191,22,68336,1,2,0:0:0:0:
190,18,68405,1,2,0:0:0:0:
189,15,68476,37,14,0:0:0:0:
153,16,68545,1,2,0:0:0:0:
119,29,68615,1,10,0:0:0:0:
92,52,68685,1,2,0:0:0:0:
75,84,68755,1,10,0:0:0:0:
69,119,68824,1,2,0:0:0:0:
76,154,68894,85,14,0:0:0:0:
93,185,68964,1,2,0:0:0:0:
121,208,69034,1,10,0:0:0:0:
154,221,69103,1,2,0:0:0:0:
190,222,69173,1,10,0:0:0:0:
224,210,69243,1,2,0:0:0:0:
252,188,69313,1,14,0:0:0:0:
287,179,69383,1,2,0:0:0:0:
322,185,69453,1,10,0:0:0:0:
352,204,69523,1,2,0:0:0:0:
373,233,69592,1,10,0:0:0:0:
380,268,69662,1,2,0:0:0:0:
373,303,69732,5,14,0:0:0:0:
353,333,69802,1,2,0:0:0:0:
323,352,69871,1,10,0:0:0:0:
288,358,69941,1,2,0:0:0:0:
253,350,70011,1,10,0:0:0:0:
224,329,70081,1,2,0:0:0:0:
207,298,70150,1,14,0:0:0:0:
179,274,70220,1,2,0:0:0:0:
146,261,70290,1,10,0:0:0:0:
110,261,70360,1,2,0:0:0:0:
76,273,70429,1,10,0:0:0:0:
49,296,70499,1,2,0:0:0:0:
31,327,70569,5,14,0:0:0:0:
69,336,70638,1,2,0:0:0:0:
108,333,70708,1,10,0:0:0:0:
143,316,70778,1,2,0:0:0:0:
171,288,70848,1,14,0:0:0:0:
188,252,70917,1,2,0:0:0:0:
191,213,70987,1,10,0:0:0:0:
181,175,71057,1,2,0:0:0:0:
158,143,71127,1,14,0:0:0:0:
126,120,71196,1,2,0:0:0:0:
88,110,71266,1,10,0:0:0:0:
49,113,71336,1,2,0:0:0:0:
13,129,71406,85,14,0:0:0:0:
39,153,71475,1,2,0:0:0:0:
72,167,71545,1,10,0:0:0:0:
107,168,71615,1,2,0:0:0:0:
141,157,71685,1,10,0:0:0:0:
170,135,71754,1,2,0:0:0:0:
188,105,71824,1,14,0:0:0:0:
218,84,71895,1,2,0:0:0:0:
253,76,71965,1,10,0:0:0:0:
288,82,72035,1,2,0:0:0:0:
318,101,72104,1,10,0:0:0:0:
339,130,72174,1,2,0:0:0:0:
347,165,72244,5,14,0:0:0:0:
341,200,72314,1,2,0:0:0:0:
322,230,72384,1,10,0:0:0:0:
293,251,72452,1,2,0:0:0:0:
258,260,72523,1,10,0:0:0:0:
223,255,72592,1,2,0:0:0:0:
190,244,72662,1,14,0:0:0:0:
154,246,72732,1,2,0:0:0:0:
124,266,72803,1,10,0:0:0:0:
109,298,72872,1,2,0:0:0:0:
113,333,72942,1,10,0:0:0:0:
134,362,73011,1,2,0:0:0:0:
167,375,73082,5,14,0:0:0:0:
202,370,73151,1,2,0:0:0:0:
229,347,73221,1,10,0:0:0:0:
242,313,73289,1,2,0:0:0:0:
245,277,73361,1,10,0:0:0:0:
255,242,73429,1,2,0:0:0:0:
274,212,73500,1,14,0:0:0:0:
301,188,73569,1,2,0:0:0:0:
333,172,73639,1,10,0:0:0:0:
369,165,73708,1,2,0:0:0:0:
403,169,73779,1,10,0:0:0:0:
438,180,73848,1,2,0:0:0:0:
467,201,73918,86,0,L|514:243,3,35.9999989013672,14|2|10|2,0:0|0:0|0:0|0:0,0:0:0:0:
467,120,74197,2,0,L|523:148,3,35.9999989013672,14|2|10|2,0:0|0:0|0:0|0:0,0:0:0:0:
446,41,74476,2,0,L|507:53,3,35.9999989013672,14|2|10|2,0:0|0:0|0:0|0:0,0:0:0:0:
333,105,74755,5,14,0:0:0:0:
294,114,74824,1,2,0:0:0:0:
255,111,74894,1,10,0:0:0:0:
219,95,74964,1,2,0:0:0:0:
191,67,75034,1,10,0:0:0:0:
173,32,75103,1,2,0:0:0:0:
140,10,75173,1,14,0:0:0:0:
101,6,75243,1,2,0:0:0:0:
66,23,75313,1,10,0:0:0:0:
43,54,75382,1,2,0:0:0:0:
38,93,75452,1,10,0:0:0:0:
52,129,75522,1,2,0:0:0:0:
83,154,75592,5,14,0:0:0:0:
122,160,75661,1,2,0:0:0:0:
155,184,75732,1,10,0:0:0:0:
175,218,75802,1,2,0:0:0:0:
177,257,75872,1,10,0:0:0:0:
161,293,75941,1,2,0:0:0:0:
131,319,76011,1,14,0:0:0:0:
93,328,76081,1,2,0:0:0:0:
55,319,76151,1,10,0:0:0:0:
24,294,76220,1,2,0:0:0:0:
9,258,76290,1,10,0:0:0:0:
11,218,76360,1,2,0:0:0:0:
29,183,76430,85,14,0:0:0:0:
56,216,76498,1,2,0:0:0:0:
93,237,76569,1,10,0:0:0:0:
136,242,76638,1,2,0:0:0:0:
177,231,76708,1,10,0:0:0:0:
212,206,76777,1,2,0:0:0:0:
254,200,76847,1,14,0:0:0:0:
294,214,76918,1,2,0:0:0:0:
324,245,76987,1,10,0:0:0:0:
336,286,77057,1,2,0:0:0:0:
365,319,77127,1,10,0:0:0:0:
406,332,77198,1,2,0:0:0:0:
448,324,77267,5,14,0:0:0:0:
482,298,77337,1,2,0:0:0:0:
500,259,77406,1,10,0:0:0:0:
498,216,77477,1,2,0:0:0:0:
476,180,77546,1,14,0:0:0:0:
440,157,77616,1,2,0:0:0:0:
397,154,77685,1,10,0:0:0:0:
357,169,77755,1,2,0:0:0:0:
315,172,77825,1,14,0:0:0:0:
275,155,77895,1,2,0:0:0:0:
246,124,77965,1,10,0:0:0:0:
231,84,78034,1,2,0:0:0:0:
234,41,78104,6,0,L|245:-19,3,35.9999989013672,14|2|10|2,0:0|0:0|0:0|0:0,0:0:0:0:
364,46,78384,1,14,0:0:0:0:
404,68,78453,1,2,0:0:0:0:
426,108,78523,1,10,0:0:0:0:
423,154,78593,1,2,0:0:0:0:
395,191,78663,1,10,0:0:0:0:
352,207,78732,1,2,0:0:0:0:
307,197,78802,1,10,0:0:0:0:
274,164,78872,1,2,0:0:0:0:
265,119,78942,85,14,0:0:0:0:
305,141,79011,1,2,0:0:0:0:
327,181,79081,1,10,0:0:0:0:
324,227,79151,1,2,0:0:0:0:
296,264,79221,1,10,0:0:0:0:
253,280,79290,1,2,0:0:0:0:
208,270,79360,1,10,0:0:0:0:
175,237,79430,1,2,0:0:0:0:
166,192,79500,5,14,0:0:0:0:
206,214,79569,1,2,0:0:0:0:
228,254,79639,1,10,0:0:0:0:
225,300,79709,1,2,0:0:0:0:
197,337,79779,1,10,0:0:0:0:
154,353,79848,1,2,0:0:0:0:
109,343,79918,1,10,0:0:0:0:
76,310,79988,1,2,0:0:0:0:
67,265,80057,6,0,L|70:210,1,35.9999989013672,14|2,0:0|0:0,0:0:0:0:
214,315,80197,1,10,0:0:0:0:
259,325,80267,1,2,0:0:0:0:
302,309,80336,1,10,0:0:0:0:
330,272,80406,1,2,0:0:0:0:
333,226,80476,1,10,0:0:0:0:
311,186,80546,1,2,0:0:0:0:
271,164,80615,85,14,0:0:0:0:
280,209,80685,1,2,0:0:0:0:
313,242,80755,1,10,0:0:0:0:
358,252,80825,1,2,0:0:0:0:
401,236,80894,1,10,0:0:0:0:
429,199,80964,1,2,0:0:0:0:
432,153,81034,1,10,0:0:0:0:
410,113,81104,1,2,0:0:0:0:
370,91,81173,5,14,0:0:0:0:
379,136,81244,1,2,0:0:0:0:
412,169,81313,1,10,0:0:0:0:
457,179,81384,1,2,0:0:0:0:
500,163,81453,5,6,0:0:0:0:
494,127,81522,1,2,0:0:0:0:
480,94,81592,1,2,0:0:0:0:
458,66,81662,1,2,0:0:0:0:
430,44,81732,1,2,0:0:0:0:
397,30,81801,1,2,0:0:0:0:
361,25,81871,2,0,L|307:36,1,35.9999989013672,10|2,0:0|0:0,0:0:0:0:
327,190,82011,2,0,L|375:213,1,35.9999989013672,2|2,0:0|0:0,0:0:0:0:
273,72,82150,2,0,L|219:83,1,35.9999989013672,2|2,0:0|0:0,0:0:0:0:
169,237,82290,85,2,0:0:0:0:
144,262,82359,1,2,0:0:0:0:
111,275,82429,1,2,0:0:0:0:
75,272,82499,1,2,0:0:0:0:
44,255,82569,1,2,0:0:0:0:
24,225,82638,1,2,0:0:0:0:
19,190,82709,2,0,L|27:132,1,35.9999989013672,10|2,0:0|0:0,0:0:0:0:
50,333,82848,2,0,L|45:368,1,35.9999989013672,2|2,0:0|0:0,0:0:0:0:
101,194,82988,2,0,L|93:136,1,35.9999989013672,2|2,0:0|0:0,0:0:0:0:
194,331,83127,5,2,0:0:0:0:
226,315,83196,1,2,0:0:0:0:
250,289,83266,1,2,0:0:0:0:
263,255,83336,1,2,0:0:0:0:
263,220,83406,1,2,0:0:0:0:
250,186,83475,1,2,0:0:0:0:
226,160,83546,2,0,L|180:133,1,35.9999989013672,10|2,0:0|0:0,0:0:0:0:
335,200,83685,2,0,L|386:185,1,35.9999989013672,2|2,0:0|0:0,0:0:0:0:
169,237,83825,2,0,L|134:246,1,35.9999989013672,2|2,0:0|0:0,0:0:0:0:
343,305,83964,5,2,0:0:0:0:
385,305,84033,1,2,0:0:0:0:
426,291,84103,1,2,0:0:0:0:
458,263,84173,1,2,0:0:0:0:
478,225,84243,1,2,0:0:0:0:
483,182,84312,1,2,0:0:0:0:
473,140,84383,2,0,L|455:92,1,35.9999989013672,10|2,0:0|0:0,0:0:0:0:
330,271,84522,2,0,L|342:304,1,35.9999989013672,2|2,0:0|0:0,0:0:0:0:
387,127,84662,2,0,L|364:80,1,35.9999989013672,2|2,0:0|0:0,0:0:0:0:
246,238,84802,85,2,0:0:0:0:
218,247,84871,1,2,0:0:0:0:
190,249,84941,1,2,0:0:0:0:
162,242,85011,1,2,0:0:0:0:
137,228,85081,1,2,0:0:0:0:
117,208,85150,1,2,0:0:0:0:
103,182,85220,2,0,L|88:133,1,35.9999989013672,10|2,0:0|0:0,0:0:0:0:
276,143,85360,2,0,L|279:178,1,35.9999989013672,2|2,0:0|0:0,0:0:0:0:
235,354,85499,2,0,L|231:318,1,35.9999989013672,2|2,0:0|0:0,0:0:0:0:
196,151,85639,5,2,0:0:0:0:
199,122,85708,1,2,0:0:0:0:
212,97,85778,1,2,0:0:0:0:
233,77,85848,1,2,0:0:0:0:
260,66,85918,1,2,0:0:0:0:
288,65,85987,1,2,0:0:0:0:
315,74,86057,2,0,L|370:106,1,35.9999989013672,10|2,0:0|0:0,0:0:0:0:
441,219,86197,2,0,L|406:229,1,35.9999989013672,2|2,0:0|0:0,0:0:0:0:
276,143,86336,2,0,L|311:153,1,35.9999989013672,2|2,0:0|0:0,0:0:0:0:
373,298,86476,5,2,0:0:0:0:
361,324,86545,1,2,0:0:0:0:
342,345,86615,1,2,0:0:0:0:
318,360,86685,1,2,0:0:0:0:
290,367,86755,1,2,0:0:0:0:
261,365,86824,1,2,0:0:0:0:
235,354,86895,2,0,L|190:317,1,35.9999989013672,10|2,0:0|0:0,0:0:0:0:
302,222,87034,2,0,L|331:272,1,35.9999989013672,2|2,0:0|0:0,0:0:0:0:
167,268,87174,2,0,L|159:203,1,35.9999989013672,2|2,0:0|0:0,0:0:0:0:
276,143,87313,85,2,0:0:0:0:
287,116,87382,1,2,0:0:0:0:
288,87,87452,1,2,0:0:0:0:
278,60,87522,1,2,0:0:0:0:
260,38,87592,1,2,0:0:0:0:
235,25,87661,1,2,0:0:0:0:
207,20,87732,2,0,L|157:28,1,35.9999989013672,10|2,0:0|0:0,0:0:0:0:
186,162,87871,2,0,L|225:130,1,35.9999989013672,2|2,0:0|0:0,0:0:0:0:
103,55,88011,2,0,L|76:98,1,35.9999989013672,6|2,0:0|0:0,0:0:0:0:
127,224,88150,5,6,0:0:0:0:
151,239,88219,1,2,0:0:0:0:
179,245,88289,1,2,0:0:0:0:
207,242,88359,1,2,0:0:0:0:
280,244,88429,5,14,0:0:0:0:
303,261,88498,1,2,0:0:0:0:
321,283,88568,1,2,0:0:0:0:
333,309,88638,1,2,0:0:0:0:
390,356,88709,85,14,0:0:0:0:
417,349,88778,1,2,0:0:0:0:
441,332,88848,1,2,0:0:0:0:
455,308,88918,1,2,0:0:0:0:
432,240,88988,5,14,0:0:0:0:
421,213,89057,1,2,0:0:0:0:
419,184,89127,1,2,0:0:0:0:
426,157,89197,1,2,0:0:0:0:
421,85,89267,5,14,0:0:0:0:
398,67,89336,1,2,0:0:0:0:
371,57,89406,1,2,0:0:0:0:
343,56,89476,1,2,0:0:0:0:
292,107,89546,85,14,0:0:0:0:
268,124,89615,1,2,0:0:0:0:
241,133,89685,1,2,0:0:0:0:
213,133,89755,1,2,0:0:0:0:
156,178,89825,5,14,0:0:0:0:
159,206,89894,1,2,0:0:0:0:
169,233,89964,1,2,0:0:0:0:
187,255,90034,1,2,0:0:0:0:
260,254,90104,5,14,0:0:0:0:
288,251,90173,1,2,0:0:0:0:
316,256,90243,1,2,0:0:0:0:
342,269,90313,1,2,0:0:0:0:
410,245,90383,85,14,0:0:0:0:
417,217,90452,1,2,0:0:0:0:
414,188,90522,1,2,0:0:0:0:
402,162,90592,1,2,0:0:0:0:
336,113,90662,6,0,L|267:103,1,45.0000017166138,10|2,0:0|0:0,0:0:0:0:
290,323,90802,2,0,L|356:344,1,45.0000017166138,10|2,0:0|0:0,0:0:0:0:
321,89,90941,6,0,L|265:95,1,45.0000017166138,10|2,0:0|0:0,0:0:0:0:
300,349,91081,2,0,L|356:352,1,45.0000017166138,10|2,0:0|0:0,0:0:0:0:
294,72,91220,86,0,L|241:92,1,45.0000017166138,10|2,0:0|0:0,0:0:0:0:
323,370,91360,2,0,L|378:359,1,45.0000017166138,10|2,0:0|0:0,0:0:0:0:
185,92,91499,5,6,0:0:0:0:
142,94,91568,1,2,0:0:0:0:
103,113,91638,1,2,0:0:0:0:
75,146,91708,1,2,0:0:0:0:
62,187,91778,1,2,0:0:0:0:
66,229,91847,1,2,0:0:0:0:
86,267,91917,1,10,0:0:0:0:
119,295,91987,1,2,0:0:0:0:
160,307,92057,1,2,0:0:0:0:
203,302,92126,1,2,0:0:0:0:
240,281,92196,1,2,0:0:0:0:
267,248,92266,1,2,0:0:0:0:
278,206,92336,6,0,L|278:153,1,35.9999989013672,2|2,0:0|0:0,0:0:0:0:
367,116,92476,2,0,L|412:142,1,35.9999989013672,2|2,0:0|0:0,0:0:0:0:
399,238,92616,2,0,L|353:264,1,35.9999989013672,2|2,0:0|0:0,0:0:0:0:
326,168,92755,86,0,L|344:135,1,35.9999989013672,10|2,0:0|0:0,0:0:0:0:
411,144,92895,2,0,L|429:176,1,35.9999989013672,2|2,0:0|0:0,0:0:0:0:
387,229,93035,2,0,L|349:229,1,35.9999989013672,2|2,0:0|0:0,0:0:0:0:
286,100,93174,5,6,0:0:0:0:
252,87,93243,1,8,0:0:0:0:
218,75,93313,1,8,0:0:0:0:
184,63,93383,1,8,0:0:0:0:
150,50,93453,1,8,0:0:0:0:
116,38,93522,1,8,0:0:0:0:
83,26,93592,6,0,L|39:10,1,35.9999989013672,6|8,0:0|0:0,0:0:0:0:
144,157,93732,2,0,L|179:127,1,35.9999989013672,2|8,0:0|0:0,0:0:0:0:
2,145,93871,2,0,L|9:190,1,35.9999989013672,2|8,0:0|0:0,0:0:0:0:
145,296,94011,85,6,0:0:0:0:
179,284,94080,1,8,0:0:0:0:
213,273,94150,1,8,0:0:0:0:
247,262,94220,1,8,0:0:0:0:
281,250,94290,1,8,0:0:0:0:
315,239,94359,1,8,0:0:0:0:
350,228,94429,5,10,0:0:0:0:
324,215,94499,1,10,0:0:0:0:
316,191,94569,1,10,0:0:0:0:
321,170,94639,1,10,0:0:0:0:
332,155,94709,1,10,0:0:0:0:
344,148,94778,1,10,0:0:0:0:
355,148,94848,86,0,L|416:154,5,35.9999989013672,14|2|2|2|2|2,0:0|0:0|0:0|0:0|0:0|0:0,0:0:0:0:
243,194,95267,37,10,0:0:0:0:
208,184,95336,1,2,0:0:0:0:
182,160,95406,1,10,0:0:0:0:
169,127,95476,1,2,0:0:0:0:
173,91,95546,1,10,0:0:0:0:
193,62,95615,1,2,0:0:0:0:
224,44,95685,85,10,0:0:0:0:
236,69,95754,1,2,0:0:0:0:
241,97,95824,1,10,0:0:0:0:
236,126,95894,1,2,0:0:0:0:
222,151,95964,1,10,0:0:0:0:
201,171,96033,1,2,0:0:0:0:
176,183,96103,1,10,0:0:0:0:
147,187,96173,1,2,0:0:0:0:
123,201,96243,1,10,0:0:0:0:
106,224,96313,1,2,0:0:0:0:
101,253,96383,1,10,0:0:0:0:
108,280,96452,1,2,0:0:0:0:
125,303,96522,5,10,0:0:0:0:
140,288,96591,1,2,0:0:0:0:
159,278,96661,1,10,0:0:0:0:
180,272,96731,1,2,0:0:0:0:
202,273,96801,1,10,0:0:0:0:
222,278,96870,1,2,0:0:0:0:
241,289,96940,1,10,0:0:0:0:
256,305,97010,1,2,0:0:0:0:
274,315,97080,1,10,0:0:0:0:
295,320,97150,1,2,0:0:0:0:
316,318,97220,1,10,0:0:0:0:
336,310,97289,1,2,0:0:0:0:
353,297,97360,5,10,0:0:0:0:
330,279,97429,1,2,0:0:0:0:
314,256,97499,1,10,0:0:0:0:
307,228,97569,1,2,0:0:0:0:
310,199,97639,1,10,0:0:0:0:
322,173,97708,1,2,0:0:0:0:
342,153,97778,1,10,0:0:0:0:
368,141,97848,1,2,0:0:0:0:
397,138,97918,1,10,0:0:0:0:
425,146,97987,1,2,0:0:0:0:
448,162,98057,1,10,0:0:0:0:
465,185,98127,1,2,0:0:0:0:
473,212,98197,85,14,0:0:0:0:
430,219,98266,1,2,0:0:0:0:
390,206,98336,1,10,0:0:0:0:
359,176,98406,1,2,0:0:0:0:
346,135,98476,1,10,0:0:0:0:
354,93,98545,1,2,0:0:0:0:
341,52,98615,1,10,0:0:0:0:
309,24,98685,1,2,0:0:0:0:
267,16,98755,1,10,0:0:0:0:
226,30,98824,1,2,0:0:0:0:
199,62,98894,1,10,0:0:0:0:
191,104,98964,1,2,0:0:0:0:
206,144,99035,5,10,0:0:0:0:
235,130,99103,1,2,0:0:0:0:
267,129,99174,1,10,0:0:0:0:
298,139,99243,1,2,0:0:0:0:
322,160,99314,1,10,0:0:0:0:
337,189,99382,1,2,0:0:0:0:
341,221,99453,1,10,0:0:0:0:
333,252,99522,1,2,0:0:0:0:
314,278,99593,1,10,0:0:0:0:
287,295,99661,1,2,0:0:0:0:
255,301,99732,1,10,0:0:0:0:
224,295,99801,1,2,0:0:0:0:
196,278,99871,5,10,0:0:0:0:
197,256,99940,1,2,0:0:0:0:
192,235,100010,1,10,0:0:0:0:
183,216,100080,1,2,0:0:0:0:
168,200,100150,1,10,0:0:0:0:
150,188,100219,1,2,0:0:0:0:
130,182,100289,1,10,0:0:0:0:
108,181,100359,1,2,0:0:0:0:
87,185,100429,1,10,0:0:0:0:
68,196,100498,1,2,0:0:0:0:
52,210,100568,1,10,0:0:0:0:
41,229,100638,1,2,0:0:0:0:
35,249,100709,86,0,L|29:295,3,35.9999989013672,14|2|10|2,0:0|0:0|0:0|0:0,0:0:0:0:
101,300,100988,2,0,L|103:346,3,35.9999989013672,14|2|10|2,0:0|0:0|0:0|0:0,0:0:0:0:
174,338,101267,2,0,L|184:383,3,35.9999989013672,14|2|10|2,0:0|0:0|0:0|0:0,0:0:0:0:
108,181,101546,5,14,0:0:0:0:
119,132,101615,1,2,0:0:0:0:
152,95,101685,1,10,0:0:0:0:
199,77,101755,1,2,0:0:0:0:
248,84,101825,1,10,0:0:0:0:
289,113,101894,1,2,0:0:0:0:
311,157,101964,1,10,0:0:0:0:
310,207,102034,1,2,0:0:0:0:
293,255,102104,1,10,0:0:0:0:
297,305,102173,1,2,0:0:0:0:
324,347,102243,1,10,0:0:0:0:
368,370,102313,1,2,0:0:0:0:
418,367,102384,5,10,0:0:0:0:
416,324,102452,1,2,0:0:0:0:
398,284,102523,1,10,0:0:0:0:
367,255,102592,1,2,0:0:0:0:
328,238,102663,1,10,0:0:0:0:
285,238,102731,1,2,0:0:0:0:
245,253,102802,1,10,0:0:0:0:
213,282,102871,1,2,0:0:0:0:
173,295,102941,1,10,0:0:0:0:
130,288,103011,1,2,0:0:0:0:
96,263,103081,1,10,0:0:0:0:
75,226,103150,1,2,0:0:0:0:
74,183,103220,85,10,0:0:0:0:
104,202,103289,1,2,0:0:0:0:
139,209,103359,1,10,0:0:0:0:
174,203,103429,1,2,0:0:0:0:
205,184,103499,1,10,0:0:0:0:
227,156,103568,1,2,0:0:0:0:
237,122,103638,1,10,0:0:0:0:
260,93,103708,1,2,0:0:0:0:
290,75,103778,1,10,0:0:0:0:
326,70,103848,1,2,0:0:0:0:
361,78,103917,1,10,0:0:0:0:
391,97,103987,1,2,0:0:0:0:
411,127,104057,5,10,0:0:0:0:
368,129,104126,1,2,0:0:0:0:
330,150,104196,1,10,0:0:0:0:
305,184,104266,1,2,0:0:0:0:
296,226,104336,1,10,0:0:0:0:
306,268,104405,1,2,0:0:0:0:
333,301,104475,1,10,0:0:0:0:
372,320,104545,1,2,0:0:0:0:
415,321,104615,1,10,0:0:0:0:
454,303,104684,1,2,0:0:0:0:
482,271,104754,1,10,0:0:0:0:
493,230,104824,1,2,0:0:0:0:
487,187,104895,5,10,0:0:0:0:
448,218,104964,1,2,0:0:0:0:
399,230,105034,1,10,0:0:0:0:
351,219,105104,1,2,0:0:0:0:
311,188,105174,1,14,0:0:0:0:
290,143,105243,1,2,0:0:0:0:
290,93,105313,1,10,0:0:0:0:
267,48,105383,1,2,0:0:0:0:
226,21,105453,1,10,0:0:0:0:
176,16,105523,1,2,0:0:0:0:
130,36,105592,1,10,0:0:0:0:
99,75,105662,1,2,0:0:0:0:
91,124,105732,85,14,0:0:0:0:
133,117,105801,1,2,0:0:0:0:
175,126,105871,1,10,0:0:0:0:
211,149,105941,1,2,0:0:0:0:
236,184,106011,1,10,0:0:0:0:
246,226,106080,1,2,0:0:0:0:
241,268,106150,1,10,0:0:0:0:
221,306,106220,1,2,0:0:0:0:
188,334,106290,1,14,0:0:0:0:
148,348,106359,1,2,0:0:0:0:
105,347,106429,1,10,0:0:0:0:
65,330,106499,1,2,0:0:0:0:
35,300,106569,5,10,0:0:0:0:
62,254,106638,1,2,0:0:0:0:
106,222,106708,1,10,0:0:0:0:
158,209,106778,1,2,0:0:0:0:
211,217,106848,1,14,0:0:0:0:
257,245,106917,1,2,0:0:0:0:
289,288,106987,1,10,0:0:0:0:
335,314,107058,1,2,0:0:0:0:
389,319,107128,1,10,0:0:0:0:
440,303,107198,1,2,0:0:0:0:
480,267,107267,1,10,0:0:0:0:
502,218,107337,1,2,0:0:0:0:
502,165,107406,5,14,0:0:0:0:
455,159,107475,1,2,0:0:0:0:
411,174,107545,1,10,0:0:0:0:
376,205,107615,1,2,0:0:0:0:
357,247,107685,1,10,0:0:0:0:
323,278,107755,1,2,0:0:0:0:
278,289,107825,1,10,0:0:0:0:
233,279,107895,1,2,0:0:0:0:
197,249,107964,1,14,0:0:0:0:
178,207,108034,1,2,0:0:0:0:
180,161,108104,1,10,0:0:0:0:
203,120,108174,1,2,0:0:0:0:
242,95,108243,85,6,0:0:0:0:
252,129,108312,1,2,0:0:0:0:
249,164,108382,1,2,0:0:0:0:
234,197,108452,1,2,0:0:0:0:
209,222,108522,1,2,0:0:0:0:
176,236,108591,1,2,0:0:0:0:
140,238,108662,2,0,L|89:232,1,35.9999989013672,10|2,0:0|0:0,0:0:0:0:
278,250,108802,2,0,L|329:244,1,35.9999989013672,2|2,0:0|0:0,0:0:0:0:
164,145,108941,2,0,L|113:139,1,35.9999989013672,2|2,0:0|0:0,0:0:0:0:
332,166,109081,5,2,0:0:0:0:
363,181,109150,1,2,0:0:0:0:
386,209,109220,1,2,0:0:0:0:
394,244,109290,1,2,0:0:0:0:
387,279,109360,1,2,0:0:0:0:
365,308,109429,1,2,0:0:0:0:
334,325,109499,2,0,L|285:334,1,35.9999989013672,10|2,0:0|0:0,0:0:0:0:
234,180,109639,2,0,L|284:187,1,35.9999989013672,2|2,0:0|0:0,0:0:0:0:
218,347,109778,2,0,L|184:332,1,35.9999989013672,2|2,0:0|0:0,0:0:0:0:
164,145,109918,5,2,0:0:0:0:
155,110,109987,1,2,0:0:0:0:
131,83,110057,1,2,0:0:0:0:
98,71,110127,1,2,0:0:0:0:
62,75,110197,1,2,0:0:0:0:
33,96,110266,1,2,0:0:0:0:
17,128,110336,2,0,L|13:174,1,35.9999989013672,10|2,0:0|0:0,0:0:0:0:
65,7,110476,2,0,L|100:1,1,35.9999989013672,2|2,0:0|0:0,0:0:0:0:
91,148,110616,2,0,L|87:194,1,35.9999989013672,2|2,0:0|0:0,0:0:0:0:
196,39,110755,85,2,0:0:0:0:
230,30,110824,1,2,0:0:0:0:
266,35,110894,1,2,0:0:0:0:
297,52,110964,1,2,0:0:0:0:
319,80,111034,1,2,0:0:0:0:
330,114,111103,1,2,0:0:0:0:
327,150,111174,2,0,L|308:191,1,35.9999989013672,10|2,0:0|0:0,0:0:0:0:
451,92,111313,2,0,L|439:49,1,35.9999989013672,2|2,0:0|0:0,0:0:0:0:
243,119,111453,2,0,L|240:154,1,35.9999989013672,2|2,0:0|0:0,0:0:0:0:
401,300,111592,5,2,0:0:0:0:
436,302,111661,1,2,0:0:0:0:
468,288,111731,1,2,0:0:0:0:
489,259,111801,1,2,0:0:0:0:
494,224,111871,1,2,0:0:0:0:
480,191,111940,1,2,0:0:0:0:
452,169,112011,2,0,L|418:155,1,35.9999989013672,10|2,0:0|0:0,0:0:0:0:
366,291,112150,2,0,L|401:300,1,35.9999989013672,2|2,0:0|0:0,0:0:0:0:
354,123,112290,2,0,L|318:123,1,35.9999989013672,2|2,0:0|0:0,0:0:0:0:
275,299,112429,5,2,0:0:0:0:
249,333,112498,1,2,0:0:0:0:
211,354,112568,1,2,0:0:0:0:
169,358,112638,1,2,0:0:0:0:
128,345,112708,1,2,0:0:0:0:
96,316,112777,1,2,0:0:0:0:
78,276,112848,2,0,L|70:239,1,35.9999989013672,10|2,0:0|0:0,0:0:0:0:
106,80,112988,2,0,L|113:115,1,35.9999989013672,2|2,0:0|0:0,0:0:0:0:
179,262,113127,2,0,L|171:226,1,35.9999989013672,2|2,0:0|0:0,0:0:0:0:
35,126,113267,85,2,0:0:0:0:
25,84,113336,1,2,0:0:0:0:
37,43,113406,1,2,0:0:0:0:
68,13,113476,1,2,0:0:0:0:
109,3,113546,1,2,0:0:0:0:
150,15,113615,1,2,0:0:0:0:
180,46,113685,2,0,L|197:80,1,35.9999989013672,10|2,0:0|0:0,0:0:0:0:
260,230,113825,2,0,L|258:194,1,35.9999989013672,2|2,0:0|0:0,0:0:0:0:
287,23,113964,2,0,L|301:61,1,35.9999989013672,2|2,0:0|0:0,0:0:0:0:
354,262,114104,5,2,0:0:0:0:
329,297,114173,1,2,0:0:0:0:
293,319,114243,1,2,0:0:0:0:
250,324,114313,1,2,0:0:0:0:
209,310,114383,1,2,0:0:0:0:
178,281,114452,1,2,0:0:0:0:
162,241,114522,2,0,L|155:206,1,35.9999989013672,10|2,0:0|0:0,0:0:0:0:
322,169,114662,2,0,L|320:205,1,35.9999989013672,2|2,0:0|0:0,0:0:0:0:
184,112,114802,2,0,L|195:77,1,35.9999989013672,6|2,0:0|0:0,0:0:0:0:
355,87,114941,5,6,0:0:0:0:
388,116,115010,1,2,0:0:0:0:
405,159,115080,1,2,0:0:0:0:
400,206,115150,1,2,0:0:0:0:
320,204,115220,85,14,0:0:0:0:
274,214,115289,1,2,0:0:0:0:
239,244,115359,1,2,0:0:0:0:
222,287,115429,1,2,0:0:0:0:
181,355,115499,5,14,0:0:0:0:
135,346,115568,1,2,0:0:0:0:
102,314,115638,1,2,0:0:0:0:
91,269,115708,1,2,0:0:0:0:
151,217,115778,5,14,0:0:0:0:
183,183,115847,1,2,0:0:0:0:
199,140,115917,1,2,0:0:0:0:
194,94,115987,1,2,0:0:0:0:
155,25,116057,85,14,0:0:0:0:
196,5,116126,1,2,0:0:0:0:
243,7,116196,1,2,0:0:0:0:
282,31,116266,1,2,0:0:0:0:
284,111,116336,5,14,0:0:0:0:
313,146,116405,1,2,0:0:0:0:
356,163,116475,1,2,0:0:0:0:
402,156,116545,1,2,0:0:0:0:
463,210,116616,5,14,0:0:0:0:
453,255,116685,1,2,0:0:0:0:
423,290,116755,1,2,0:0:0:0:
379,306,116825,1,2,0:0:0:0:
316,259,116895,85,14,0:0:0:0:
276,234,116964,1,2,0:0:0:0:
230,233,117034,1,2,0:0:0:0:
190,256,117104,1,2,0:0:0:0:
120,293,117174,5,14,0:0:0:0:
85,261,117243,1,2,0:0:0:0:
65,220,117313,1,2,0:0:0:0:
61,173,117383,1,2,0:0:0:0:
96,90,117453,6,0,L|136:44,1,45.0000017166138,10|2,0:0|0:0,0:0:0:0:
251,315,117592,2,0,L|239:374,1,45.0000017166138,10|2,0:0|0:0,0:0:0:0:
102,56,117732,86,0,L|152:21,1,45.0000017166138,10|2,0:0|0:0,0:0:0:0:
228,334,117871,2,0,L|201:388,1,45.0000017166138,10|2,0:0|0:0,0:0:0:0:
117,24,118011,6,0,L|174:4,1,45.0000017166138,10|2,0:0|0:0,0:0:0:0:
200,346,118150,2,0,L|159:391,1,45.0000017166138,10|2,0:0|0:0,0:0:0:0:
228,33,118290,5,6,0:0:0:0:
273,11,118359,1,2,0:0:0:0:
323,8,118429,1,2,0:0:0:0:
370,25,118499,1,2,0:0:0:0:
408,57,118569,1,2,0:0:0:0:
430,102,118638,1,2,0:0:0:0:
435,152,118708,1,10,0:0:0:0:
419,200,118778,1,2,0:0:0:0:
388,238,118848,1,2,0:0:0:0:
343,262,118917,1,2,0:0:0:0:
294,267,118987,1,2,0:0:0:0:
245,254,119057,1,2,0:0:0:0:
206,223,119127,86,0,L|176:180,1,35.9999989013672,2|2,0:0|0:0,0:0:0:0:
68,260,119267,2,0,L|45:307,1,35.9999989013672,2|2,0:0|0:0,0:0:0:0:
170,362,119406,2,0,L|222:357,1,35.9999989013672,2|2,0:0|0:0,0:0:0:0:
172,224,119546,6,0,L|134:206,1,35.9999989013672,10|2,0:0|0:0,0:0:0:0:
90,304,119686,2,0,L|93:345,1,35.9999989013672,2|2,0:0|0:0,0:0:0:0:
202,334,119825,2,0,L|236:310,1,35.9999989013672,2|2,0:0|0:0,0:0:0:0:
304,109,119964,5,6,0:0:0:0:
262,97,120033,1,8,0:0:0:0:
220,86,120103,1,8,0:0:0:0:
178,75,120173,1,8,0:0:0:0:
137,64,120243,1,8,0:0:0:0:
95,53,120312,1,8,0:0:0:0:
53,41,120383,86,0,L|-3:25,1,35.9999989013672,2|8,0:0|0:0,0:0:0:0:
159,164,120522,2,0,L|200:122,1,35.9999989013672,2|8,0:0|0:0,0:0:0:0:
1,196,120662,2,0,L|16:252,1,35.9999989013672,2|8,0:0|0:0,0:0:0:0:
206,259,120802,5,6,0:0:0:0:
241,234,120871,1,8,0:0:0:0:
277,209,120941,1,8,0:0:0:0:
312,185,121011,1,8,0:0:0:0:
348,160,121081,1,8,0:0:0:0:
383,136,121150,1,8,0:0:0:0:
419,111,121220,5,10,0:0:0:0:
393,77,121290,1,10,0:0:0:0:
360,62,121360,1,10,0:0:0:0:
331,61,121429,1,10,0:0:0:0:
310,66,121499,1,10,0:0:0:0:
298,74,121569,1,10,0:0:0:0:
293,79,121639,85,6,0:0:0:0:
366,0,121778,1,2,0:0:0:0:
348,160,121918,1,2,0:0:0:0:
246,125,122057,1,2,0:0:0:0:
393,77,122197,2,0,L|426:167,1,71.9999978027344,2|2,0:0|0:0,0:0:0:0:
272,263,122476,5,14,0:0:0:0:
348,160,122616,1,2,0:0:0:0:
388,305,122755,1,6,0:0:0:0:
278,185,122895,2,0,P|236:195|203:225,1,71.9999978027344,10|6,0:0|0:0,0:0:0:0:
192,355,123174,1,10,0:0:0:0:
135,223,123313,5,6,0:0:0:0:
134,220,123383,1,2,0:0:0:0:
133,216,123453,1,10,0:0:0:0:
125,352,123592,1,6,0:0:0:0:
213,211,123732,1,10,0:0:0:0:
216,209,123802,1,2,0:0:0:0:
219,207,123871,1,6,0:0:0:0:
91,282,124011,1,2,0:0:0:0:
247,304,124150,85,6,0:0:0:0:
133,216,124290,1,8,0:0:0:0:
291,169,124429,1,8,0:0:0:0:
162,295,124569,1,8,0:0:0:0:
371,286,124709,1,8,0:0:0:0:
171,134,124848,1,8,0:0:0:0:
428,207,124988,5,6,0:0:0:0:
444,199,125057,1,2,0:0:0:0:
460,192,125127,1,2,0:0:0:0:
477,184,125197,1,2,0:0:0:0:
493,177,125267,5,2,0:0:0:0:
468,162,125336,1,2,0:0:0:0:
443,148,125406,1,2,0:0:0:0:
418,133,125476,1,2,0:0:0:0:
393,119,125546,86,0,L|352:95,1,35.9999989013672,6|0,0:0|0:0,0:0:0:0:
417,44,125685,2,0,L|448:62,1,35.9999989013672
359,192,125825,5,10,0:0:0:0:
316,198,125894,1,2,0:0:0:0:
273,205,125964,1,2,0:0:0:0:
230,212,126034,1,2,0:0:0:0:
188,218,126104,5,6,0:0:0:0:
212,232,126173,1,2,0:0:0:0:
237,246,126243,1,2,0:0:0:0:
262,261,126313,1,2,0:0:0:0:
287,275,126383,86,0,L|345:308,1,35.9999989013672,2|0,0:0|0:0,0:0:0:0:
229,357,126522,2,0,L|197:339,1,35.9999989013672
205,149,126662,5,6,0:0:0:0:
217,136,126731,1,2,0:0:0:0:
229,123,126801,1,2,0:0:0:0:
242,110,126871,1,2,0:0:0:0:
254,97,126941,5,2,0:0:0:0:
225,94,127010,1,2,0:0:0:0:
196,91,127080,1,2,0:0:0:0:
167,89,127150,1,2,0:0:0:0:
139,86,127221,86,0,L|92:81,1,35.9999989013672,6|0,0:0|0:0,0:0:0:0:
124,6,127360,2,0,L|159:9,1,35.9999989013672
136,170,127499,5,10,0:0:0:0:
144,212,127568,1,2,0:0:0:0:
152,254,127638,1,2,0:0:0:0:
161,297,127708,1,2,0:0:0:0:
169,339,127778,5,6,0:0:0:0:
145,322,127847,1,2,0:0:0:0:
121,305,127917,1,2,0:0:0:0:
98,289,127987,1,2,0:0:0:0:
74,272,128057,86,0,L|21:235,1,35.9999989013672,2|0,0:0|0:0,0:0:0:0:
78,356,128197,2,0,L|107:376,1,35.9999989013672
136,170,128336,5,6,0:0:0:0:
229,281,128476,1,10,0:0:0:0:
74,272,128616,1,2,0:0:0:0:
241,207,128755,2,0,P|284:232|305:276,1,71.9999978027344,10|6,0:0|0:0,0:0:0:0:
194,376,129034,1,10,0:0:0:0:
199,159,129174,5,14,0:0:0:0:
137,296,129313,1,2,0:0:0:0:
296,249,129453,1,6,0:0:0:0:
136,170,129592,2,0,P|142:130|170:101,1,71.9999978027344,10|6,0:0|0:0,0:0:0:0:
304,133,129871,1,10,0:0:0:0:
198,251,130011,85,6,0:0:0:0:
195,253,130081,1,2,0:0:0:0:
192,255,130150,1,2,0:0:0:0:
338,202,130290,1,6,0:0:0:0:
225,102,130429,1,10,0:0:0:0:
223,98,130499,1,2,0:0:0:0:
221,94,130569,1,6,0:0:0:0:
296,249,130709,1,10,0:0:0:0:
168,184,130848,5,6,0:0:0:0:
304,133,130988,1,8,0:0:0:0:
147,115,131127,1,8,0:0:0:0:
296,249,131267,1,8,0:0:0:0:
97,278,131406,1,8,0:0:0:0:
304,133,131546,1,8,0:0:0:0:
29,80,131685,5,6,0:0:0:0:
23,63,131754,1,2,0:0:0:0:
17,46,131824,1,2,0:0:0:0:
11,29,131894,1,2,0:0:0:0:
5,12,131964,85,2,0:0:0:0:
33,17,132033,1,2,0:0:0:0:
61,22,132103,1,2,0:0:0:0:
90,27,132173,1,2,0:0:0:0:
118,32,132243,6,0,L|156:38,1,35.9999989013672,6|0,0:0|0:0,0:0:0:0:
116,118,132383,2,0,L|80:111,1,35.9999989013672
227,112,132522,5,10,0:0:0:0:
265,93,132591,1,2,0:0:0:0:
304,74,132661,1,2,0:0:0:0:
343,55,132731,1,2,0:0:0:0:
383,36,132802,85,6,0:0:0:0:
380,64,132871,1,2,0:0:0:0:
377,93,132941,1,2,0:0:0:0:
375,122,133011,1,2,0:0:0:0:
372,150,133080,6,0,L|367:202,1,35.9999989013672,2|0,0:0|0:0,0:0:0:0:
474,218,133220,2,0,L|477:182,1,35.9999989013672
295,200,133360,5,6,0:0:0:0:
286,215,133429,1,2,0:0:0:0:
277,231,133499,1,2,0:0:0:0:
268,246,133569,1,2,0:0:0:0:
259,262,133639,85,2,0:0:0:0:
240,239,133708,1,2,0:0:0:0:
221,217,133778,1,2,0:0:0:0:
203,195,133848,1,2,0:0:0:0:
184,173,133918,6,0,L|156:140,1,35.9999989013672,6|0,0:0|0:0,0:0:0:0:
155,239,134057,2,0,L|178:266,1,35.9999989013672
245,116,134197,5,10,0:0:0:0:
207,94,134266,1,2,0:0:0:0:
170,72,134336,1,2,0:0:0:0:
133,50,134406,1,2,0:0:0:0:
95,28,134476,85,6,0:0:0:0:
93,56,134545,1,2,0:0:0:0:
91,85,134615,1,2,0:0:0:0:
90,114,134685,1,2,0:0:0:0:
88,143,134755,6,0,L|85:184,1,35.9999989013672,2|0,0:0|0:0,0:0:0:0:
221,217,134895,2,0,L|222:181,1,35.9999989013672
59,273,135034,5,6,0:0:0:0:
221,295,135174,1,2,0:0:0:0:
160,145,135313,1,6,0:0:0:0:
147,318,135453,2,0,P|176:360|218:375,1,71.9999978027344,10|6,0:0|0:0,0:0:0:0:
319,313,135732,1,10,0:0:0:0:
155,239,135871,85,14,0:0:0:0:
301,176,136011,1,10,0:0:0:0:
221,295,136150,1,6,0:0:0:0:
245,123,136290,2,0,P|273:105|328:104,1,71.9999978027344,10|6,0:0|0:0,0:0:0:0:
392,211,136569,1,10,0:0:0:0:
391,63,136709,5,6,0:0:0:0:
391,59,136778,1,2,0:0:0:0:
391,55,136848,1,10,0:0:0:0:
301,176,136988,1,6,0:0:0:0:
440,142,137127,1,10,0:0:0:0:
443,142,137197,1,2,0:0:0:0:
446,142,137267,1,6,0:0:0:0:
310,100,137406,1,10,0:0:0:0:
392,211,137546,5,6,0:0:0:0:
242,202,137685,1,8,0:0:0:0:
378,120,137825,1,8,0:0:0:0:
320,312,137964,1,8,0:0:0:0:
247,85,138104,1,8,0:0:0:0:
436,271,138243,1,8,0:0:0:0:
147,267,138383,85,6,0:0:0:0:
134,253,138452,1,2,0:0:0:0:
122,240,138522,1,2,0:0:0:0:
110,227,138592,1,2,0:0:0:0:
97,214,138662,5,2,0:0:0:0:
121,199,138731,1,2,0:0:0:0:
146,185,138801,1,2,0:0:0:0:
171,170,138871,1,2,0:0:0:0:
196,156,138941,6,0,L|238:131,1,35.9999989013672,6|0,0:0|0:0,0:0:0:0:
238,218,139081,2,0,L|206:236,1,35.9999989013672
113,125,139220,85,10,0:0:0:0:
144,96,139289,1,2,0:0:0:0:
175,66,139359,1,2,0:0:0:0:
207,36,139429,1,2,0:0:0:0:
238,7,139499,5,6,0:0:0:0:
250,33,139568,1,2,0:0:0:0:
262,59,139638,1,2,0:0:0:0:
274,85,139708,1,2,0:0:0:0:
286,111,139779,6,0,L|303:148,1,35.9999989013672,2|0,0:0|0:0,0:0:0:0:
343,32,139918,2,0,L|327:0,1,35.9999989013672
363,184,140057,85,6,0:0:0:0:
368,201,140126,1,2,0:0:0:0:
373,218,140196,1,2,0:0:0:0:
378,235,140266,1,2,0:0:0:0:
384,252,140336,5,2,0:0:0:0:
398,227,140405,1,2,0:0:0:0:
412,202,140475,1,2,0:0:0:0:
427,177,140545,1,2,0:0:0:0:
441,152,140616,6,0,L|459:119,1,35.9999989013672,6|0,0:0|0:0,0:0:0:0:
507,193,140755,2,0,L|489:224,1,35.9999989013672
376,117,140895,85,2,0:0:0:0:
332,113,140964,1,2,0:0:0:0:
289,110,141034,1,2,0:0:0:0:
246,107,141104,1,2,0:0:0:0:
203,104,141174,5,6,0:0:0:0:
221,126,141243,1,2,0:0:0:0:
240,148,141313,1,2,0:0:0:0:
258,170,141383,1,2,0:0:0:0:
277,192,141453,6,0,L|307:228,1,35.9999989013672,2|0,0:0|0:0,0:0:0:0:
166,166,141592,2,0,L|142:138,1,35.9999989013672
255,297,141732,85,6,0:0:0:0:
122,227,141871,1,10,0:0:0:0:
277,192,142011,1,6,0:0:0:0:
141,298,142150,2,0,P|100:296|68:276,1,71.9999978027344,10|6,0:0|0:0,0:0:0:0:
80,144,142429,1,10,0:0:0:0:
199,270,142569,5,14,0:0:0:0:
210,119,142709,1,10,0:0:0:0:
122,227,142848,1,0,0:0:0:0:
169,60,142988,2,0,P|215:48|265:69,1,71.9999978027344,10|6,0:0|0:0,0:0:0:0:
277,192,143267,1,10,0:0:0:0:
123,100,143406,5,6,0:0:0:0:
120,97,143476,1,2,0:0:0:0:
117,94,143546,1,10,0:0:0:0:
208,223,143685,1,6,0:0:0:0:
238,52,143825,1,10,0:0:0:0:
239,48,143895,1,2,0:0:0:0:
240,44,143964,1,6,0:0:0:0:
128,167,144104,1,10,0:0:0:0:
294,100,144243,85,6,0:0:0:0:
263,256,144383,1,8,0:0:0:0:
188,93,144522,1,8,0:0:0:0:
380,208,144662,1,8,0:0:0:0:
118,260,144802,1,8,0:0:0:0:
362,109,144941,1,8,0:0:0:0:
157,333,145081,5,6,0:0:0:0:
131,335,145150,1,2,0:0:0:0:
106,338,145220,1,2,0:0:0:0:
81,341,145290,1,2,0:0:0:0:
56,344,145360,5,2,0:0:0:0:
56,308,145429,1,2,0:0:0:0:
56,272,145499,1,2,0:0:0:0:
56,236,145569,1,2,0:0:0:0:
56,200,145639,86,0,L|56:141,3,35.9999989013672,6|0|0|0,0:0|0:0|0:0|0:0,0:0:0:0:
211,257,145918,5,10,0:0:0:0:
261,263,145987,1,2,0:0:0:0:
311,269,146057,1,2,0:0:0:0:
361,275,146127,1,2,0:0:0:0:
411,281,146197,5,6,0:0:0:0:
401,246,146266,1,2,0:0:0:0:
392,211,146336,1,2,0:0:0:0:
383,176,146406,1,2,0:0:0:0:
373,141,146476,86,0,L|360:92,3,35.9999989013672,2|0|0|0,0:0|0:0|0:0|0:0,0:0:0:0:
213,176,146755,5,6,0:0:0:0:
182,194,146824,1,2,0:0:0:0:
151,213,146894,1,2,0:0:0:0:
120,231,146964,1,2,0:0:0:0:
89,250,147034,5,2,0:0:0:0:
126,271,147103,1,2,0:0:0:0:
163,293,147173,1,2,0:0:0:0:
201,314,147243,1,2,0:0:0:0:
238,336,147313,86,0,L|279:360,3,35.9999989013672,6|0|0|0,0:0|0:0|0:0|0:0,0:0:0:0:
308,185,147592,5,10,0:0:0:0:
301,168,147661,1,2,0:0:0:0:
294,151,147731,1,2,0:0:0:0:
288,134,147801,1,2,0:0:0:0:
281,118,147871,5,6,0:0:0:0:
305,121,147940,1,2,0:0:0:0:
330,124,148010,1,2,0:0:0:0:
355,127,148080,1,2,0:0:0:0:
380,131,148150,70,0,P|423:112|441:85,1,67.6124980731011
439,22,148429,5,2,0:0:0:0:
439,22,148708,1,2,0:0:0:0:
439,22,148987,1,8,0:0:0:0:
509,171,149126,1,8,0:0:0:0:
375,61,149266,5,6,0:0:0:0:
350,57,149335,1,2,0:0:0:0:
325,59,149405,1,2,0:0:0:0:
301,67,149475,1,2,0:0:0:0:
279,80,149545,1,2,0:0:0:0:
261,98,149614,1,2,0:0:0:0:
248,119,149684,1,2,0:0:0:0:
239,143,149754,1,2,0:0:0:0:
237,168,149824,1,2,0:0:0:0:
240,193,149893,1,2,0:0:0:0:
248,216,149963,1,2,0:0:0:0:
262,237,150033,1,2,0:0:0:0:
280,255,150103,6,0,L|334:279,3,35.9999989013672,10|2|2|2,0:0|0:0|0:0|0:0,0:0:0:0:
293,339,150382,2,0,L|351:348,3,35.9999989013672,2|2|2|2,0:0|0:0|0:0|0:0,0:0:0:0:
174,238,150661,85,2,0:0:0:0:
153,222,150730,1,2,0:0:0:0:
130,214,150800,1,2,0:0:0:0:
105,213,150870,1,2,0:0:0:0:
81,221,150940,1,2,0:0:0:0:
60,235,151009,1,2,0:0:0:0:
45,254,151079,1,2,0:0:0:0:
36,278,151149,1,2,0:0:0:0:
35,303,151219,5,2,0:0:0:0:
60,303,151288,1,2,0:0:0:0:
84,298,151358,1,2,0:0:0:0:
107,288,151428,1,2,0:0:0:0:
127,273,151498,1,2,0:0:0:0:
143,254,151567,1,2,0:0:0:0:
155,231,151637,1,2,0:0:0:0:
161,207,151707,1,2,0:0:0:0:
161,182,151777,5,2,0:0:0:0:
160,178,151847,1,2,0:0:0:0:
159,174,151917,2,0,L|101:162,1,35.9999989013672,10|2,0:0|0:0,0:0:0:0:
164,324,152056,1,2,0:0:0:0:
188,327,152125,1,2,0:0:0:0:
213,323,152195,1,2,0:0:0:0:
236,312,152265,1,2,0:0:0:0:
254,295,152335,2,0,L|273:257,1,35.9999989013672,10|2,0:0|0:0,0:0:0:0:
256,80,152475,1,2,0:0:0:0:
255,76,152545,1,2,0:0:0:0:
254,72,152615,85,10,0:0:0:0:
298,58,152684,1,10,0:0:0:0:
342,72,152754,1,10,0:0:0:0:
370,108,152824,1,10,0:0:0:0:
373,154,152894,5,10,0:0:0:0:
373,154,153173,1,2,0:0:0:0:
373,154,153452,1,8,0:0:0:0:
421,4,153591,1,8,0:0:0:0:
294,142,153731,5,6,0:0:0:0:
294,167,153800,1,2,0:0:0:0:
302,190,153870,1,2,0:0:0:0:
317,211,153940,1,2,0:0:0:0:
337,226,154010,1,2,0:0:0:0:
360,234,154079,1,2,0:0:0:0:
386,235,154149,1,2,0:0:0:0:
410,229,154219,1,2,0:0:0:0:
435,231,154289,1,2,0:0:0:0:
457,241,154359,1,2,0:0:0:0:
475,259,154429,1,2,0:0:0:0:
485,282,154498,1,2,0:0:0:0:
487,307,154568,86,0,L|477:353,3,35.9999989013672,10|2|2|2,0:0|0:0|0:0|0:0,0:0:0:0:
417,303,154847,2,0,L|407:349,3,35.9999989013672,2|2|2|2,0:0|0:0|0:0|0:0,0:0:0:0:
373,154,155126,5,2,0:0:0:0:
372,150,155196,1,2,0:0:0:0:
371,146,155266,2,0,L|366:101,1,35.9999989013672,10|2,0:0|0:0,0:0:0:0:
289,269,155405,1,2,0:0:0:0:
268,282,155474,1,2,0:0:0:0:
244,291,155545,1,2,0:0:0:0:
219,293,155615,1,2,0:0:0:0:
194,289,155684,2,0,L|150:267,1,35.9999989013672,10|2,0:0|0:0,0:0:0:0:
223,139,155824,1,2,0:0:0:0:
217,114,155893,1,2,0:0:0:0:
203,93,155963,1,2,0:0:0:0:
182,79,156033,1,2,0:0:0:0:
158,72,156103,1,2,0:0:0:0:
133,75,156172,1,2,0:0:0:0:
111,86,156242,5,2,0:0:0:0:
109,89,156312,1,2,0:0:0:0:
107,92,156382,2,0,L|95:144,1,35.9999989013672,10|2,0:0|0:0,0:0:0:0:
254,52,156522,1,2,0:0:0:0:
279,54,156591,1,2,0:0:0:0:
302,63,156661,1,2,0:0:0:0:
321,80,156731,1,2,0:0:0:0:
334,101,156801,2,0,L|343:146,1,35.9999989013672,10|2,0:0|0:0,0:0:0:0:
316,315,156940,1,2,0:0:0:0:
315,318,157010,1,2,0:0:0:0:
314,321,157080,85,10,0:0:0:0:
359,316,157149,1,10,0:0:0:0:
393,285,157219,1,10,0:0:0:0:
402,240,157289,1,10,0:0:0:0:
381,199,157359,5,2,0:0:0:0:
381,199,157638,1,2,0:0:0:0:
381,199,157917,1,8,0:0:0:0:
502,332,158056,1,8,0:0:0:0:
338,253,158196,5,6,0:0:0:0:
314,243,158265,1,2,0:0:0:0:
289,240,158335,1,2,0:0:0:0:
264,244,158405,1,2,0:0:0:0:
242,255,158475,1,2,0:0:0:0:
222,271,158544,1,2,0:0:0:0:
208,291,158614,1,2,0:0:0:0:
199,315,158684,1,2,0:0:0:0:
185,337,158755,1,2,0:0:0:0:
166,352,158825,1,2,0:0:0:0:
142,361,158895,1,2,0:0:0:0:
117,363,158964,1,2,0:0:0:0:
93,359,159033,86,0,L|48:341,3,35.9999989013672,10|2|2|2,0:0|0:0|0:0|0:0,0:0:0:0:
124,276,159312,2,0,L|92:235,3,36.059996496277,2|2|2|2,0:0|0:0|0:0|0:0,0:0:0:0:
286,317,159591,5,2,0:0:0:0:
310,313,159660,1,2,0:0:0:0:
333,303,159730,1,2,0:0:0:0:
353,287,159800,1,2,0:0:0:0:
367,267,159870,1,2,0:0:0:0:
376,243,159939,1,2,0:0:0:0:
377,218,160009,1,2,0:0:0:0:
372,193,160079,1,2,0:0:0:0:
361,171,160149,5,10,0:0:0:0:
342,187,160218,1,2,0:0:0:0:
320,199,160288,1,2,0:0:0:0:
295,203,160358,1,2,0:0:0:0:
270,201,160428,1,2,0:0:0:0:
246,192,160497,1,2,0:0:0:0:
226,177,160567,1,2,0:0:0:0:
211,157,160637,1,2,0:0:0:0:
202,134,160707,85,2,0:0:0:0:
202,130,160777,1,2,0:0:0:0:
201,126,160847,2,0,L|171:75,1,35.9999989013672,10|2,0:0|0:0,0:0:0:0:
115,229,160987,1,2,0:0:0:0:
131,248,161056,1,2,0:0:0:0:
151,262,161126,1,2,0:0:0:0:
174,271,161196,1,2,0:0:0:0:
199,274,161266,2,0,L|256:258,1,35.9999989013672,10|2,0:0|0:0,0:0:0:0:
291,111,161405,1,2,0:0:0:0:
292,107,161475,1,2,0:0:0:0:
293,103,161545,5,10,0:0:0:0:
332,78,161614,1,10,0:0:0:0:
378,74,161684,1,10,0:0:0:0:
420,93,161754,1,10,0:0:0:0:
448,130,161824,5,2,0:0:0:0:
448,130,162103,1,2,0:0:0:0:
448,130,162382,1,8,0:0:0:0:
364,274,162522,1,8,0:0:0:0:
378,74,162661,85,6,0:0:0:0:
367,50,162730,1,2,0:0:0:0:
351,31,162800,1,2,0:0:0:0:
330,18,162870,1,2,0:0:0:0:
306,12,162940,1,2,0:0:0:0:
280,13,163009,1,2,0:0:0:0:
257,21,163079,1,2,0:0:0:0:
237,36,163149,1,2,0:0:0:0:
222,57,163219,1,2,0:0:0:0:
214,80,163288,1,2,0:0:0:0:
213,106,163358,1,2,0:0:0:0:
220,130,163428,1,2,0:0:0:0:
234,151,163498,5,10,0:0:0:0:
250,132,163567,1,2,0:0:0:0:
272,119,163637,1,2,0:0:0:0:
296,114,163707,1,2,0:0:0:0:
321,117,163777,1,2,0:0:0:0:
344,128,163846,1,2,0:0:0:0:
362,146,163916,1,2,0:0:0:0:
373,168,163986,1,2,0:0:0:0:
376,193,164056,5,2,0:0:0:0:
376,197,164126,1,2,0:0:0:0:
376,201,164196,2,0,L|415:231,1,35.9999989013672,10|2,0:0|0:0,0:0:0:0:
482,84,164335,1,0,0:0:0:0:
466,63,164404,1,0,0:0:0:0:
446,49,164474,1,0,0:0:0:0:
422,43,164544,1,0,0:0:0:0:
396,44,164615,2,0,L|344:61,1,35.9999989013672,10|2,0:0|0:0,0:0:0:0:
302,187,164754,1,0,0:0:0:0:
304,212,164823,1,0,0:0:0:0:
312,237,164894,2,0,L|338:276,1,36.059996496277,10|2,0:0|0:0,0:0:0:0:
195,248,165033,1,0,0:0:0:0:
185,225,165102,1,0,0:0:0:0:
175,201,165172,85,0,0:0:0:0:
174,198,165244,1,0,0:0:0:0:
173,195,165315,2,0,L|164:134,1,35.9999989013672,10|2,0:0|0:0,0:0:0:0:
116,308,165458,6,0,L|110:343,3,35.9999989013672,10|2|2|2,0:0|0:0|0:0|0:0,0:0:0:0:
101,127,165761,6,0,P|150:88|239:128,1,135.000005149841,12|0,0:0|0:0,0:0:0:0:
92,162,166013,86,0,P|104:100|180:68,1,116.999994644165,12|0,0:0|0:0,0:0:0:0:
107,194,166260,6,0,P|77:138|86:82,1,107.999996704102,12|0,0:0|0:0,0:0:0:0:
167,159,166459,5,6,0:0:0:0:
198,175,166540,1,2,0:0:0:0:
234,174,166621,1,2,0:0:0:0:
266,158,166702,1,2,0:0:0:0:
286,129,166783,1,10,0:0:0:0:
291,93,166864,1,2,0:0:0:0:
308,62,166945,1,2,0:0:0:0:
339,44,167026,1,2,0:0:0:0:
396,47,167107,85,2,0:0:0:0:
429,73,167188,1,2,0:0:0:0:
414,128,167269,1,2,0:0:0:0:
436,163,167350,1,2,0:0:0:0:
421,218,167431,5,10,0:0:0:0:
395,242,167512,1,2,0:0:0:0:
361,254,167593,1,2,0:0:0:0:
325,252,167674,1,2,0:0:0:0:
280,217,167755,5,2,0:0:0:0:
267,176,167836,1,2,0:0:0:0:
210,179,167917,1,2,0:0:0:0:
178,149,167998,1,2,0:0:0:0:
130,181,168078,86,0,L|113:222,1,30,10|2,0:0|0:0,0:0:0:0:
236,115,168240,2,0,L|247:87,1,30,2|2,0:0|0:0,0:0:0:0:
175,252,168402,5,2,0:0:0:0:
146,273,168483,1,2,0:0:0:0:
111,279,168564,1,2,0:0:0:0:
78,267,168645,1,2,0:0:0:0:
55,216,168726,5,10,0:0:0:0:
62,174,168808,1,2,0:0:0:0:
116,122,168888,85,2,0:0:0:0:
130,181,168969,1,2,0:0:0:0:
175,252,169050,5,2,0:0:0:0:
209,263,169131,1,2,0:0:0:0:
244,262,169212,1,2,0:0:0:0:
278,249,169293,1,2,0:0:0:0:
305,225,169374,1,2,0:0:0:0:
322,194,169455,1,2,0:0:0:0:
291,143,169536,5,2,0:0:0:0:
288,107,169617,1,2,0:0:0:0:
299,73,169697,1,10,0:0:0:0:
321,45,169778,1,2,0:0:0:0:
352,27,169859,1,2,0:0:0:0:
388,22,169940,1,2,0:0:0:0:
422,30,170021,1,2,0:0:0:0:
452,51,170102,1,2,0:0:0:0:
441,125,170183,85,2,0:0:0:0:
382,116,170264,1,2,0:0:0:0:
291,143,170345,5,2,0:0:0:0:
263,165,170426,1,0,0:0:0:0:
246,197,170507,1,0,0:0:0:0:
241,232,170588,1,0,0:0:0:0:
249,267,170669,1,0,0:0:0:0:
270,296,170750,1,0,0:0:0:0:
300,316,170831,1,0,0:0:0:0:
334,324,170912,1,0,0:0:0:0:
385,297,170993,5,10,0:0:0:0:
398,257,171074,1,2,0:0:0:0:
350,221,171155,85,2,0:0:0:0:
340,168,171236,1,2,0:0:0:0:
395,137,171316,5,2,0:0:0:0:
410,79,171397,1,2,0:0:0:0:
339,65,171478,5,2,0:0:0:0:
323,4,171559,1,2,0:0:0:0:
416,3,171640,85,6,0:0:0:0:
464,23,171721,1,2,0:0:0:0:
487,71,171802,1,2,0:0:0:0:
473,122,171883,1,2,0:0:0:0:
429,151,171964,1,10,0:0:0:0:
376,144,172045,1,2,0:0:0:0:
326,163,172126,1,2,0:0:0:0:
293,201,172207,1,2,0:0:0:0:
282,250,172287,1,2,0:0:0:0:
295,299,172368,1,2,0:0:0:0:
275,350,172450,1,2,0:0:0:0:
230,377,172531,1,2,0:0:0:0:
177,371,172612,5,10,0:0:0:0:
169,326,172693,1,2,0:0:0:0:
175,282,172774,1,2,0:0:0:0:
196,242,172855,1,2,0:0:0:0:
228,211,172935,1,2,0:0:0:0:
268,191,173016,1,2,0:0:0:0:
312,184,173097,1,2,0:0:0:0:
356,192,173178,1,2,0:0:0:0:
395,214,173259,5,10,0:0:0:0:
362,234,173340,1,2,0:0:0:0:
344,268,173421,1,2,0:0:0:0:
345,307,173502,1,2,0:0:0:0:
364,340,173583,1,2,0:0:0:0:
397,360,173664,1,2,0:0:0:0:
436,361,173745,1,2,0:0:0:0:
470,343,173826,1,2,0:0:0:0:
490,310,173907,21,10,0:0:0:0:
471,311,173961,1,0,0:0:0:0:
451,307,174015,1,0,0:0:0:0:
433,299,174069,1,2,0:0:0:0:
418,286,174123,2,0,L|440:265,1,20
419,133,174230,53,2,0:0:0:0:
393,86,174311,1,2,0:0:0:0:
349,55,174392,1,2,0:0:0:0:
296,46,174473,1,2,0:0:0:0:
245,62,174554,1,2,0:0:0:0:
206,98,174635,1,2,0:0:0:0:
187,148,174716,1,2,0:0:0:0:
192,202,174798,1,2,0:0:0:0:
168,248,174879,1,10,0:0:0:0:
122,276,174961,1,2,0:0:0:0:
69,275,175042,1,2,0:0:0:0:
25,246,175123,1,2,0:0:0:0:
2,197,175204,1,2,0:0:0:0:
9,145,175285,1,2,0:0:0:0:
44,104,175366,1,2,0:0:0:0:
94,87,175447,1,2,0:0:0:0:
147,102,175528,6,0,L|195:141,1,45.0000017166138,2|2,0:0|0:0,0:0:0:0:
202,309,175690,1,2,0:0:0:0:
235,350,175771,1,2,0:0:0:0:
286,367,175852,1,2,0:0:0:0:
338,355,175933,1,2,0:0:0:0:
376,318,176014,2,0,L|396:248,1,45.0000017166138,2|2,0:0|0:0,0:0:0:0:
260,128,176176,5,10,0:0:0:0:
262,75,176257,1,2,0:0:0:0:
296,34,176338,1,2,0:0:0:0:
356,42,176419,85,2,0:0:0:0:
407,56,176500,1,2,0:0:0:0:
457,38,176581,1,2,0:0:0:0:
512,71,176663,5,0,0:0:0:0:
346,147,176825,6,0,P|331:186|333:225,1,67.5000025749207,10|0,0:0|0:0,0:0:0:0:
333,245,177149,1,2,0:0:0:0:
409,92,177311,2,0,P|377:69|275:101,1,135.224996146202,14|0,0:0|0:0,0:0:0:0:
288,85,178122,37,2,0:0:0:0:
324,142,178284,2,0,L|384:148,1,45.0749987154007
256,145,178609,5,2,0:0:0:0:
292,202,178771,2,0,L|350:207,1,45.0000017166138
224,205,179095,6,0,P|234:236|262:262,1,67.6124980731011
351,275,179419,5,10,0:0:0:0:
351,275,179906,2,0,P|321:332|256:358,1,135.224990987778,14|0,0:0|0:0,0:0:0:0:
211,345,180717,5,2,0:0:0:0:
251,207,180879,1,8,0:0:0:0:
191,364,181203,5,2,0:0:0:0:
151,226,181365,1,8,0:0:0:0:
257,357,181690,85,10,0:0:0:0:
292,349,181771,1,10,0:0:0:0:
322,330,181852,1,10,0:0:0:0:
343,301,181933,1,10,0:0:0:0:
352,266,182014,6,0,P|344:227|324:191,1,67.6124980731011,10|0,0:0|0:0,0:0:0:0:
312,176,182338,1,2,0:0:0:0:
181,294,182501,2,0,P|122:293|78:223,1,135.000005149841,14|0,0:0|0:0,0:0:0:0:
78,236,183311,53,2,0:0:0:0:
106,168,183474,2,0,L|78:118,1,45.0000017166138
151,226,183797,5,2,0:0:0:0:
179,158,183960,2,0,L|151:108,1,45.0000017166138
224,216,184284,6,0,P|246:188|248:140,1,67.6124980731011
215,69,184609,5,10,0:0:0:0:
215,69,185095,2,0,P|280:67|336:120,1,135.224990987778,14|0,0:0|0:0,0:0:0:0:
335,159,185906,5,2,0:0:0:0:
413,31,186068,1,8,0:0:0:0:
293,197,186392,5,2,0:0:0:0:
215,69,186554,1,8,0:0:0:0:
374,216,186879,85,10,0:0:0:0:
375,251,186960,1,10,0:0:0:0:
363,285,187041,1,10,0:0:0:0:
340,312,187122,1,10,0:0:0:0:
288,328,187203,5,6,0:0:0:0:
251,308,187284,1,2,0:0:0:0:
198,318,187365,1,2,0:0:0:0:
175,281,187446,1,2,0:0:0:0:
125,264,187528,1,10,0:0:0:0:
123,220,187609,1,2,0:0:0:0:
74,191,187690,5,2,0:0:0:0:
79,149,187771,1,2,0:0:0:0:
100,113,187852,1,2,0:0:0:0:
132,87,187933,1,2,0:0:0:0:
172,74,188014,1,2,0:0:0:0:
214,77,188095,1,2,0:0:0:0:
251,95,188176,2,0,L|293:127,3,30.049997997284,10|2|2|2,0:0|0:0|0:0|0:0,0:0:0:0:
183,181,188501,85,2,0:0:0:0:
216,206,188582,1,2,0:0:0:0:
255,219,188663,1,2,0:0:0:0:
297,217,188744,1,2,0:0:0:0:
336,202,188825,1,10,0:0:0:0:
368,175,188906,1,2,0:0:0:0:
408,165,188988,1,2,0:0:0:0:
449,173,189069,1,2,0:0:0:0:
482,199,189150,1,2,0:0:0:0:
501,236,189231,1,2,0:0:0:0:
501,277,189312,1,2,0:0:0:0:
484,315,189393,1,2,0:0:0:0:
435,344,189474,5,10,0:0:0:0:
392,331,189555,1,2,0:0:0:0:
392,277,189636,1,2,0:0:0:0:
361,244,189717,1,2,0:0:0:0:
304,263,189798,5,2,0:0:0:0:
281,298,189879,1,2,0:0:0:0:
230,297,189960,1,2,0:0:0:0:
188,317,190041,1,2,0:0:0:0:
148,276,190122,1,2,0:0:0:0:
96,271,190203,1,2,0:0:0:0:
94,211,190284,1,2,0:0:0:0:
67,161,190365,1,2,0:0:0:0:
127,127,190446,85,10,0:0:0:0:
172,142,190527,1,2,0:0:0:0:
219,136,190608,1,2,0:0:0:0:
259,111,190689,1,2,0:0:0:0:
284,70,190770,1,2,0:0:0:0:
324,44,190852,1,2,0:0:0:0:
371,36,190933,1,2,0:0:0:0:
418,46,191014,1,2,0:0:0:0:
442,95,191095,5,2,0:0:0:0:
449,124,191176,1,2,0:0:0:0:
412,144,191257,1,2,0:0:0:0:
403,185,191338,1,2,0:0:0:0:
433,219,191419,1,2,0:0:0:0:
440,255,191501,1,2,0:0:0:0:
400,282,191582,1,2,0:0:0:0:
393,311,191663,1,2,0:0:0:0:
343,344,191744,5,10,0:0:0:0:
325,320,191825,1,2,0:0:0:0:
283,317,191906,1,2,0:0:0:0:
255,285,191987,1,2,0:0:0:0:
266,241,192068,1,2,0:0:0:0:
259,205,192149,1,2,0:0:0:0:
217,182,192230,1,2,0:0:0:0:
202,156,192311,1,2,0:0:0:0:
240,106,192392,85,6,0:0:0:0:
247,64,192474,1,2,0:0:0:0:
197,44,192555,1,2,0:0:0:0:
173,3,192637,1,2,0:0:0:0:
124,24,192716,1,10,0:0:0:0:
79,8,192798,1,2,0:0:0:0:
44,53,192879,5,2,0:0:0:0:
34,93,192960,1,2,0:0:0:0:
38,135,193041,1,2,0:0:0:0:
55,173,193122,1,2,0:0:0:0:
84,203,193203,1,2,0:0:0:0:
121,222,193284,1,2,0:0:0:0:
163,227,193365,2,0,L|210:222,3,30.049997997284,10|2|2|2,0:0|0:0|0:0|0:0,0:0:0:0:
156,102,193690,5,2,0:0:0:0:
197,96,193771,1,2,0:0:0:0:
238,105,193852,1,2,0:0:0:0:
274,126,193933,1,2,0:0:0:0:
301,158,194014,1,10,0:0:0:0:
316,197,194095,1,2,0:0:0:0:
318,239,194176,1,2,0:0:0:0:
306,279,194257,1,2,0:0:0:0:
281,313,194338,1,2,0:0:0:0:
247,337,194419,1,2,0:0:0:0:
207,349,194500,1,2,0:0:0:0:
165,347,194581,1,2,0:0:0:0:
132,302,194662,85,10,0:0:0:0:
141,257,194744,1,2,0:0:0:0:
100,227,194825,1,2,0:0:0:0:
87,184,194906,1,2,0:0:0:0:
124,137,194988,5,2,0:0:0:0:
161,117,195069,1,2,0:0:0:0:
203,147,195149,1,2,0:0:0:0:
245,165,195230,1,2,0:0:0:0:
272,118,195311,1,2,0:0:0:0:
319,96,195392,1,2,0:0:0:0:
364,137,195474,1,2,0:0:0:0:
418,155,195555,1,2,0:0:0:0:
452,95,195636,5,10,0:0:0:0:
423,56,195717,1,2,0:0:0:0:
383,31,195798,1,2,0:0:0:0:
336,22,195879,1,2,0:0:0:0:
289,30,195960,1,2,0:0:0:0:
248,56,196041,1,2,0:0:0:0:
220,94,196122,1,2,0:0:0:0:
207,140,196203,1,2,0:0:0:0:
226,194,196284,85,2,0:0:0:0:
244,218,196365,1,2,0:0:0:0:
286,215,196446,1,2,0:0:0:0:
326,229,196528,1,2,0:0:0:0:
335,273,196609,1,2,0:0:0:0:
355,303,196690,1,2,0:0:0:0:
403,300,196771,1,2,0:0:0:0:
432,308,196852,1,2,0:0:0:0:
469,261,196933,5,2,0:0:0:0:
461,232,197014,1,2,0:0:0:0:
423,214,197095,1,2,0:0:0:0:
393,184,197176,1,2,0:0:0:0:
407,141,197257,1,2,0:0:0:0:
399,99,197338,1,2,0:0:0:0:
350,76,197419,1,2,0:0:0:0:
314,43,197501,1,2,0:0:0:0:
248,69,197582,5,2,0:0:0:0:
248,69,197873,1,0,0:0:0:0:
248,69,198152,1,8,0:0:0:0:
412,17,198292,1,8,0:0:0:0:
294,144,198431,85,6,0:0:0:0:
271,154,198500,1,2,0:0:0:0:
246,157,198570,1,2,0:0:0:0:
221,153,198640,1,2,0:0:0:0:
198,142,198710,1,2,0:0:0:0:
180,125,198779,1,2,0:0:0:0:
167,103,198850,1,2,0:0:0:0:
161,79,198919,1,2,0:0:0:0:
147,57,198989,1,2,0:0:0:0:
127,42,199059,1,2,0:0:0:0:
104,34,199129,1,2,0:0:0:0:
78,35,199198,1,2,0:0:0:0:
55,44,199268,6,0,L|18:65,3,35.9999989013672,10|2|2|2,0:0|0:0|0:0|0:0,0:0:0:0:
90,121,199547,2,0,L|69:159,3,35.9999989013672,2|2|2|2,0:0|0:0|0:0|0:0,0:0:0:0:
245,78,199827,5,2,0:0:0:0:
269,85,199896,1,2,0:0:0:0:
289,99,199966,1,2,0:0:0:0:
303,120,200036,1,2,0:0:0:0:
308,145,200106,1,2,0:0:0:0:
306,170,200175,1,2,0:0:0:0:
294,192,200245,1,2,0:0:0:0:
276,209,200315,1,2,0:0:0:0:
253,219,200384,85,10,0:0:0:0:
252,193,200453,1,2,0:0:0:0:
258,169,200523,1,2,0:0:0:0:
271,148,200593,1,2,0:0:0:0:
290,131,200663,1,2,0:0:0:0:
313,121,200732,1,2,0:0:0:0:
338,117,200802,1,2,0:0:0:0:
362,121,200872,1,2,0:0:0:0:
385,133,200942,5,2,0:0:0:0:
388,136,201012,1,2,0:0:0:0:
391,139,201081,2,0,L|397:177,1,35.9999989013672,10|2,0:0|0:0,0:0:0:0:
260,314,201221,1,0,0:0:0:0:
235,311,201290,1,0,0:0:0:0:
211,302,201360,1,0,0:0:0:0:
191,287,201430,1,0,0:0:0:0:
175,267,201500,2,0,L|159:205,1,35.9999989013672,10|2,0:0|0:0,0:0:0:0:
205,53,201639,1,2,0:0:0:0:
205,49,201709,1,2,0:0:0:0:
205,45,201779,5,10,0:0:0:0:
171,12,201848,1,10,0:0:0:0:
126,3,201918,1,10,0:0:0:0:
83,20,201988,1,10,0:0:0:0:
56,58,202058,85,2,0:0:0:0:
56,58,202336,1,2,0:0:0:0:
56,58,202615,1,8,0:0:0:0:
94,226,202755,1,8,0:0:0:0:
205,53,202894,5,6,0:0:0:0:
228,45,202963,1,2,0:0:0:0:
254,44,203033,1,2,0:0:0:0:
278,49,203103,1,2,0:0:0:0:
300,61,203173,1,2,0:0:0:0:
318,79,203243,1,2,0:0:0:0:
331,100,203313,1,2,0:0:0:0:
338,124,203383,1,2,0:0:0:0:
339,149,203452,1,2,0:0:0:0:
332,174,203521,1,2,0:0:0:0:
320,195,203591,1,2,0:0:0:0:
302,213,203661,1,2,0:0:0:0:
280,225,203731,6,0,L|241:242,3,35.9999989013672,10|2|2|2,0:0|0:0|0:0|0:0,0:0:0:0:
243,138,204010,2,0,L|199:132,3,35.9999989013672,2|2|2|2,0:0|0:0|0:0|0:0,0:0:0:0:
382,228,204289,85,2,0:0:0:0:
385,231,204359,1,2,0:0:0:0:
388,234,204429,2,0,L|401:272,1,35.9999989013672,10|2,0:0|0:0,0:0:0:0:
430,101,204568,1,0,0:0:0:0:
417,78,204637,1,0,0:0:0:0:
399,61,204707,1,0,0:0:0:0:
377,50,204777,1,0,0:0:0:0:
352,46,204847,2,0,L|300:58,1,35.9999989013672,10|2,0:0|0:0,0:0:0:0:
193,199,204987,1,2,0:0:0:0:
170,210,205056,1,2,0:0:0:0:
145,214,205126,1,2,0:0:0:0:
120,210,205196,1,2,0:0:0:0:
98,199,205266,1,2,0:0:0:0:
79,182,205335,1,2,0:0:0:0:
67,161,205405,5,2,0:0:0:0:
67,157,205475,1,2,0:0:0:0:
67,153,205544,2,0,L|76:100,1,35.9999989013672,10|2,0:0|0:0,0:0:0:0:
94,292,205684,1,2,0:0:0:0:
117,301,205753,1,2,0:0:0:0:
141,306,205823,1,2,0:0:0:0:
167,306,205893,1,2,0:0:0:0:
191,301,205963,2,0,L|245:273,1,35.9999989013672,10|2,0:0|0:0,0:0:0:0:
141,140,206102,1,2,0:0:0:0:
142,136,206172,1,2,0:0:0:0:
143,132,206242,5,10,0:0:0:0:
166,92,206311,1,10,0:0:0:0:
208,72,206381,1,10,0:0:0:0:
253,80,206451,1,10,0:0:0:0:
287,111,206521,85,2,0:0:0:0:
287,111,206800,1,2,0:0:0:0:
287,111,207078,1,8,0:0:0:0:
134,34,207218,1,8,0:0:0:0:
230,187,207358,5,6,0:0:0:0:
252,197,207427,1,2,0:0:0:0:
277,201,207497,1,2,0:0:0:0:
302,199,207567,1,2,0:0:0:0:
326,190,207637,1,2,0:0:0:0:
347,176,207706,1,2,0:0:0:0:
363,157,207775,1,2,0:0:0:0:
374,134,207845,1,2,0:0:0:0:
394,119,207915,1,2,0:0:0:0:
418,111,207985,1,2,0:0:0:0:
443,111,208055,1,2,0:0:0:0:
466,121,208124,1,2,0:0:0:0:
485,137,208194,6,0,L|506:174,3,35.9999989013672,10|2|2|2,0:0|0:0|0:0|0:0,0:0:0:0:
467,47,208473,2,0,L|487:11,3,36.059996496277,2|2|2|2,0:0|0:0|0:0|0:0,0:0:0:0:
429,178,208751,85,2,0:0:0:0:
427,203,208822,1,2,0:0:0:0:
434,227,208892,1,2,0:0:0:0:
448,247,208960,1,2,0:0:0:0:
469,262,209030,1,2,0:0:0:0:
483,280,209100,1,2,0:0:0:0:
490,304,209170,1,2,0:0:0:0:
487,329,209240,1,2,0:0:0:0:
476,352,209310,5,10,0:0:0:0:
460,332,209379,1,2,0:0:0:0:
440,317,209449,1,2,0:0:0:0:
416,308,209519,1,2,0:0:0:0:
391,305,209589,1,2,0:0:0:0:
366,309,209658,1,2,0:0:0:0:
344,320,209728,1,2,0:0:0:0:
324,336,209798,1,2,0:0:0:0:
310,356,209868,5,2,0:0:0:0:
310,360,209938,1,0,0:0:0:0:
310,363,210007,2,0,L|249:378,1,35.9999989013672,10|2,0:0|0:0,0:0:0:0:
245,191,210147,1,2,0:0:0:0:
268,181,210216,1,2,0:0:0:0:
293,181,210286,1,2,0:0:0:0:
316,190,210356,1,2,0:0:0:0:
334,207,210426,2,0,L|347:249,1,35.9999989013672,10|2,0:0|0:0,0:0:0:0:
157,248,210565,1,2,0:0:0:0:
153,246,210635,1,2,0:0:0:0:
149,244,210705,85,10,0:0:0:0:
105,258,210774,1,10,0:0:0:0:
81,297,210844,1,10,0:0:0:0:
89,342,210914,1,10,0:0:0:0:
124,372,210984,5,2,0:0:0:0:
124,372,211263,1,2,0:0:0:0:
124,372,211542,1,8,0:0:0:0:
14,229,211681,1,0,0:0:0:0:
187,307,211820,5,6,0:0:0:0:
212,305,211890,1,2,0:0:0:0:
236,298,211960,1,2,0:0:0:0:
257,285,212030,1,2,0:0:0:0:
276,268,212100,1,2,0:0:0:0:
289,247,212169,1,2,0:0:0:0:
297,223,212239,1,2,0:0:0:0:
300,198,212309,1,2,0:0:0:0:
296,173,212379,1,2,0:0:0:0:
287,150,212448,1,2,0:0:0:0:
272,129,212518,1,2,0:0:0:0:
253,113,212588,1,2,0:0:0:0:
231,101,212657,86,0,L|184:100,3,36.059996496277,10|2|2|2,0:0|0:0|0:0|0:0,0:0:0:0:
203,201,212936,2,0,L|163:224,3,36.059996496277,2|2|2|2,0:0|0:0|0:0|0:0,0:0:0:0:
276,268,213215,5,2,0:0:0:0:
298,257,213284,1,2,0:0:0:0:
323,255,213354,1,2,0:0:0:0:
348,261,213424,1,2,0:0:0:0:
368,275,213494,1,2,0:0:0:0:
383,295,213563,1,2,0:0:0:0:
390,319,213633,1,2,0:0:0:0:
389,344,213703,1,2,0:0:0:0:
380,367,213773,5,10,0:0:0:0:
358,353,213842,1,2,0:0:0:0:
341,335,213912,1,2,0:0:0:0:
328,313,213982,1,2,0:0:0:0:
320,289,214052,1,2,0:0:0:0:
318,264,214121,1,2,0:0:0:0:
322,240,214191,1,10,0:0:0:0:
351,202,214261,1,10,0:0:0:0:
396,187,214331,86,0,L|455:198,1,35.9999989013672,10|2,0:0|0:0,0:0:0:0:
254,160,214470,1,10,0:0:0:0:
250,161,214540,1,2,0:0:0:0:
246,162,214610,6,0,L|210:168,1,35.9999989013672,2|2,0:0|0:0,0:0:0:0:
383,115,214749,1,10,0:0:0:0:
387,116,214819,1,2,0:0:0:0:
391,117,214889,6,0,L|427:123,1,35.9999989013672,2|2,0:0|0:0,0:0:0:0:
242,87,215028,1,10,0:0:0:0:
238,88,215098,1,2,0:0:0:0:
234,89,215168,86,0,L|198:95,1,35.9999989013672,10|2,0:0|0:0,0:0:0:0:
384,43,215307,2,0,L|420:49,1,35.9999989013672,10|10,0:0|0:0,0:0:0:0:
187,18,215447,5,6,0:0:0:0:
148,36,215516,1,2,0:0:0:0:
125,71,215586,1,2,0:0:0:0:
124,114,215656,1,2,0:0:0:0:
147,150,215726,1,6,0:0:0:0:
185,169,215795,1,2,0:0:0:0:
228,164,215865,1,2,0:0:0:0:
266,181,215935,1,2,0:0:0:0:
290,216,216005,1,10,0:0:0:0:
293,258,216075,1,2,0:0:0:0:
273,296,216144,1,2,0:0:0:0:
237,318,216214,1,2,0:0:0:0:
194,319,216283,5,6,0:0:0:0:
207,274,216352,1,2,0:0:0:0:
239,240,216422,1,2,0:0:0:0:
282,225,216492,1,2,0:0:0:0:
328,231,216562,1,10,0:0:0:0:
367,257,216631,1,2,0:0:0:0:
412,261,216702,1,2,0:0:0:0:
455,244,216772,1,2,0:0:0:0:
486,209,216841,1,2,0:0:0:0:
497,164,216911,1,2,0:0:0:0:
486,119,216981,1,2,0:0:0:0:
456,84,217051,1,2,0:0:0:0:
413,67,217121,85,10,0:0:0:0:
412,117,217190,1,2,0:0:0:0:
391,162,217260,1,2,0:0:0:0:
353,194,217330,1,2,0:0:0:0:
304,207,217399,1,2,0:0:0:0:
255,199,217469,1,2,0:0:0:0:
214,171,217539,1,2,0:0:0:0:
188,128,217608,1,2,0:0:0:0:
146,101,217678,5,10,0:0:0:0:
96,97,217748,1,2,0:0:0:0:
50,116,217818,1,2,0:0:0:0:
18,155,217887,1,2,0:0:0:0:
7,203,217956,1,2,0:0:0:0:
20,252,218026,1,2,0:0:0:0:
53,289,218096,1,2,0:0:0:0:
100,306,218165,1,2,0:0:0:0:
150,300,218235,5,10,0:0:0:0:
190,272,218305,1,2,0:0:0:0:
213,228,218375,1,2,0:0:0:0:
214,177,218445,1,2,0:0:0:0:
239,133,218515,1,2,0:0:0:0:
282,108,218585,1,2,0:0:0:0:
332,107,218655,1,2,0:0:0:0:
375,132,218724,1,2,0:0:0:0:
400,175,218794,86,0,L|407:227,1,35.9999989013672,10|2,0:0|0:0,0:0:0:0:
308,235,218933,2,0,L|304:200,1,35.9999989013672,2|2,0:0|0:0,0:0:0:0:
422,216,219073,6,0,L|414:273,1,38.9999982147218,2|2,0:0|0:0,0:0:0:0:
299,254,219212,2,0,L|304:214,1,38.9999982147218,2|2,0:0|0:0,0:0:0:0:
427,275,219352,6,0,L|402:333,1,41.9999987182618,10|2,0:0|0:0,0:0:0:0:
280,281,219491,2,0,L|296:240,1,41.9999987182618,2|2,0:0|0:0,0:0:0:0:
418,339,219631,86,0,L|375:394,1,45.0000017166138,2|2,0:0|0:0,0:0:0:0:
253,297,219770,2,0,L|282:258,1,45.0000017166138,2|2,0:0|0:0,0:0:0:0:
471,176,219910,5,14,0:0:0:0:
498,143,219979,1,2,0:0:0:0:
508,101,220049,1,2,0:0:0:0:
499,59,220119,1,2,0:0:0:0:
472,26,220189,1,6,0:0:0:0:
434,7,220258,1,2,0:0:0:0:
391,8,220328,1,2,0:0:0:0:
353,28,220398,1,2,0:0:0:0:
327,62,220468,1,10,0:0:0:0:
319,104,220537,1,2,0:0:0:0:
294,138,220608,1,2,0:0:0:0:
255,155,220678,1,2,0:0:0:0:
212,152,220747,5,6,0:0:0:0:
240,115,220816,1,2,0:0:0:0:
280,91,220886,1,2,0:0:0:0:
326,84,220956,1,2,0:0:0:0:
371,94,221026,1,10,0:0:0:0:
410,120,221095,1,2,0:0:0:0:
436,158,221165,1,2,0:0:0:0:
446,204,221235,1,2,0:0:0:0:
438,250,221305,1,2,0:0:0:0:
414,290,221374,1,2,0:0:0:0:
377,318,221444,1,2,0:0:0:0:
332,330,221514,1,2,0:0:0:0:
286,325,221583,85,10,0:0:0:0:
306,295,221652,1,2,0:0:0:0:
317,261,221722,1,2,0:0:0:0:
315,225,221792,1,2,0:0:0:0:
301,192,221862,1,2,0:0:0:0:
277,166,221931,1,2,0:0:0:0:
246,148,222001,1,2,0:0:0:0:
210,143,222071,1,2,0:0:0:0:
175,149,222141,1,10,0:0:0:0:
144,167,222211,1,2,0:0:0:0:
121,194,222281,1,2,0:0:0:0:
108,228,222350,1,2,0:0:0:0:
106,263,222420,5,2,0:0:0:0:
145,263,222490,1,2,0:0:0:0:
182,249,222560,1,2,0:0:0:0:
211,223,222629,1,2,0:0:0:0:
228,188,222699,1,10,0:0:0:0:
231,148,222769,1,2,0:0:0:0:
250,114,222838,1,2,0:0:0:0:
280,88,222908,1,2,0:0:0:0:
317,76,222978,1,2,0:0:0:0:
357,80,223047,1,2,0:0:0:0:
392,97,223117,1,2,0:0:0:0:
417,127,223187,1,2,0:0:0:0:
430,165,223257,6,0,L|436:218,1,35.9999989013672,10|2,0:0|0:0,0:0:0:0:
451,68,223396,2,0,L|455:32,1,35.9999989013672,2|2,0:0|0:0,0:0:0:0:
453,180,223536,86,0,L|472:229,1,35.9999989013672,2|2,0:0|0:0,0:0:0:0:
444,56,223675,2,0,L|438:20,1,35.9999989013672,2|2,0:0|0:0,0:0:0:0:
486,185,223815,102,0,L|517:227,7,35.9999989013672,10|2|2|2|2|2|2|2,0:0|0:0|0:0|0:0|0:0|0:0|0:0|0:0,0:0:0:0:
326,158,224373,5,14,0:0:0:0:
284,167,224442,1,2,0:0:0:0:
247,190,224512,1,2,0:0:0:0:
221,224,224582,1,2,0:0:0:0:
208,265,224652,1,6,0:0:0:0:
206,308,224721,1,2,0:0:0:0:
190,346,224791,1,2,0:0:0:0:
156,371,224861,1,2,0:0:0:0:
113,377,224931,1,10,0:0:0:0:
74,361,225000,1,2,0:0:0:0:
47,327,225070,1,2,0:0:0:0:
40,285,225140,1,2,0:0:0:0:
55,245,225210,5,6,0:0:0:0:
84,280,225279,1,2,0:0:0:0:
125,302,225349,1,2,0:0:0:0:
171,308,225419,1,2,0:0:0:0:
216,297,225489,1,10,0:0:0:0:
254,270,225558,1,2,0:0:0:0:
280,231,225628,1,2,0:0:0:0:
289,185,225698,1,2,0:0:0:0:
281,140,225768,1,2,0:0:0:0:
257,100,225837,1,2,0:0:0:0:
220,71,225907,1,2,0:0:0:0:
176,58,225977,1,2,0:0:0:0:
129,63,226046,5,10,0:0:0:0:
152,106,226115,1,2,0:0:0:0:
194,135,226185,1,2,0:0:0:0:
243,141,226255,1,2,0:0:0:0:
290,125,226325,1,2,0:0:0:0:
325,88,226394,1,2,0:0:0:0:
371,72,226465,1,2,0:0:0:0:
421,78,226535,1,2,0:0:0:0:
463,106,226604,85,10,0:0:0:0:
488,149,226673,1,2,0:0:0:0:
491,199,226743,1,2,0:0:0:0:
472,245,226813,1,2,0:0:0:0:
434,278,226883,1,2,0:0:0:0:
386,290,226952,1,2,0:0:0:0:
337,280,227022,1,2,0:0:0:0:
295,250,227092,1,2,0:0:0:0:
270,207,227161,5,10,0:0:0:0:
226,181,227231,1,2,0:0:0:0:
177,180,227301,1,2,0:0:0:0:
133,204,227371,1,2,0:0:0:0:
106,246,227440,1,2,0:0:0:0:
107,296,227510,1,2,0:0:0:0:
132,340,227580,1,2,0:0:0:0:
175,365,227650,1,2,0:0:0:0:
225,366,227720,6,0,L|278:353,1,35.9999989013672,10|2,0:0|0:0,0:0:0:0:
203,275,227859,2,0,L|168:283,1,35.9999989013672,2|2,0:0|0:0,0:0:0:0:
272,338,227999,86,0,L|318:300,1,38.9999982147218,2|2,0:0|0:0,0:0:0:0:
207,242,228138,2,0,L|176:266,1,38.9999982147218,2|2,0:0|0:0,0:0:0:0:
310,297,228278,6,0,L|339:237,1,41.9999987182618,10|2,0:0|0:0,0:0:0:0:
198,218,228417,2,0,L|178:257,1,41.9999987182618,2|2,0:0|0:0,0:0:0:0:
340,231,228557,6,0,L|341:158,1,45.0000017166138,2|2,0:0|0:0,0:0:0:0:
177,205,228696,2,0,L|175:252,1,45.0000017166138,2|2,0:0|0:0,0:0:0:0:
326,117,228836,85,14,0:0:0:0:
332,74,228905,1,2,0:0:0:0:
316,35,228975,1,2,0:0:0:0:
283,8,229045,1,2,0:0:0:0:
240,1,229115,1,6,0:0:0:0:
201,17,229184,1,2,0:0:0:0:
174,50,229254,1,2,0:0:0:0:
167,92,229324,1,2,0:0:0:0:
141,126,229394,1,10,0:0:0:0:
102,142,229464,1,2,0:0:0:0:
60,138,229534,1,2,0:0:0:0:
25,112,229603,1,2,0:0:0:0:
7,74,229673,5,6,0:0:0:0:
52,62,229742,1,2,0:0:0:0:
98,67,229812,1,2,0:0:0:0:
139,89,229882,1,2,0:0:0:0:
169,125,229953,1,10,0:0:0:0:
184,169,230022,1,2,0:0:0:0:
185,217,230092,1,2,0:0:0:0:
201,261,230161,1,2,0:0:0:0:
229,298,230231,1,2,0:0:0:0:
269,323,230301,1,2,0:0:0:0:
314,333,230370,1,2,0:0:0:0:
360,328,230440,1,2,0:0:0:0:
402,307,230510,5,10,0:0:0:0:
393,300,230579,1,2,0:0:0:0:
386,292,230649,1,2,0:0:0:0:
378,284,230719,1,2,0:0:0:0:
372,275,230789,1,2,0:0:0:0:
366,266,230858,1,2,0:0:0:0:
361,257,230928,1,2,0:0:0:0:
357,247,230998,1,2,0:0:0:0:
353,236,231067,86,0,L|362:165,1,45.0000017166138,6|2,0:0|0:0,0:0:0:0:
218,45,231207,1,10,0:0:0:0:
178,66,231277,1,2,0:0:0:0:
138,87,231346,6,0,L|143:131,1,45.0000017166138,2|2,0:0|0:0,0:0:0:0:
345,115,231486,1,10,0:0:0:0:
385,136,231555,1,2,0:0:0:0:
425,157,231625,6,0,L|419:201,1,45.0000017166138,2|2,0:0|0:0,0:0:0:0:
218,185,231765,1,10,0:0:0:0:
178,206,231834,1,2,0:0:0:0:
138,227,231904,86,0,L|143:271,1,45.0000017166138,2|2,0:0|0:0,0:0:0:0:
345,255,232044,1,10,0:0:0:0:
385,276,232113,1,2,0:0:0:0:
425,297,232183,6,0,L|419:341,1,45.0000017166138,2|2,0:0|0:0,0:0:0:0:
218,358,232323,1,10,0:0:0:0:
178,337,232392,1,2,0:0:0:0:
138,316,232462,6,0,L|143:271,1,45.0000017166138,2|2,0:0|0:0,0:0:0:0:
345,255,232601,1,10,0:0:0:0:
385,234,232671,1,2,0:0:0:0:
425,213,232741,86,0,L|419:168,1,45.0000017166138,2|2,0:0|0:0,0:0:0:0:
199,120,232880,1,10,0:0:0:0:
159,99,232950,1,2,0:0:0:0:
119,78,233020,6,0,L|124:33,1,45.0000017166138,2|2,0:0|0:0,0:0:0:0:
358,9,233159,1,10,0:0:0:0:
398,30,233229,1,2,0:0:0:0:
438,51,233299,5,6,0:0:0:0:
277,64,233438,1,2,0:0:0:0:
419,168,233578,1,2,0:0:0:0:
358,9,233717,1,10,0:0:0:0:
326,162,233857,1,2,0:0:0:0:
455,115,233996,1,2,0:0:0:0:
277,64,234136,85,10,0:0:0:0:
362,215,234275,1,2,0:0:0:0:
225,139,234415,1,2,0:0:0:0:
381,97,234554,1,2,0:0:0:0:
267,228,234694,2,0,L|170:243,1,71.9999978027344,10|2,0:0|0:0,0:0:0:0:
72,61,234973,5,2,0:0:0:0:
43,231,235112,1,2,0:0:0:0:
166,119,235252,1,2,0:0:0:0:
169,307,235392,1,10,0:0:0:0:
77,170,235531,1,2,0:0:0:0:
48,326,235671,1,2,0:0:0:0:
267,228,235810,5,10,0:0:0:0:
111,229,235950,1,10,0:0:0:0:
227,346,236089,1,0,0:0:0:0:
222,158,236229,2,0,L|280:80,1,71.9999978027344,10|2,0:0|0:0,0:0:0:0:
421,132,236508,1,10,0:0:0:0:
291,19,236647,85,2,0:0:0:0:
335,172,236787,1,2,0:0:0:0:
375,27,236926,1,2,0:0:0:0:
438,204,237066,1,10,0:0:0:0:
331,78,237205,1,0,0:0:0:0:
490,85,237345,1,2,0:0:0:0:
357,256,237485,5,10,0:0:0:0:
331,78,237624,1,2,0:0:0:0:
438,204,237764,1,2,0:0:0:0:
251,153,237903,1,2,0:0:0:0:
328,340,238043,2,0,L|428:321,1,71.9999978027344,10|2,0:0|0:0,0:0:0:0:
316,142,238322,5,2,0:0:0:0:
250,301,238461,1,2,0:0:0:0:
374,190,238601,1,2,0:0:0:0:
190,161,238740,1,10,0:0:0:0:
313,273,238880,1,2,0:0:0:0:
155,287,239019,1,2,0:0:0:0:
316,142,239159,85,10,0:0:0:0:
148,98,239299,1,2,0:0:0:0:
253,234,239438,1,2,0:0:0:0:
213,36,239578,2,0,L|119:21,1,71.9999978027344,10|2,0:0|0:0,0:0:0:0:
53,109,239857,1,2,0:0:0:0:
323,74,239996,5,6,0:0:0:0:
200,196,240136,1,2,0:0:0:0:
372,207,240275,1,2,0:0:0:0:
247,97,240415,1,2,0:0:0:0:
310,257,240554,1,2,0:0:0:0:
377,113,240694,1,2,0:0:0:0:
220,260,240833,5,10,0:0:0:0:
377,283,240973,1,0,0:0:0:0:
274,163,241112,1,0,0:0:0:0:
327,343,241252,1,10,0:0:0:0:
166,302,241392,1,2,0:0:0:0:
310,257,241531,1,10,0:0:0:0:
312,254,241601,1,8,0:0:0:0:
314,251,241671,85,2,0:0:0:0:
148,232,241810,2,0,L|169:315,1,71.9999978027344,10|2,0:0|0:0,0:0:0:0:
44,131,242089,2,0,L|23:214,1,71.9999978027344,10|2,0:0|0:0,0:0:0:0:
166,35,242368,1,10,0:0:0:0:
83,239,242508,5,10,0:0:0:0:
236,160,242647,1,2,0:0:0:0:
94,88,242787,1,2,0:0:0:0:
148,232,242926,1,2,0:0:0:0:
217,81,243066,1,2,0:0:0:0:
96,179,243205,1,2,0:0:0:0:
287,220,243345,5,2,0:0:0:0:
157,323,243485,2,0,L|65:285,1,71.9999978027344,10|2,0:0|0:0,0:0:0:0:
286,294,243764,1,10,0:0:0:0:
199,162,243903,1,2,0:0:0:0:
157,323,244043,1,2,0:0:0:0:
284,132,244182,85,10,0:0:0:0:
350,292,244322,1,2,0:0:0:0:
349,104,244461,1,2,0:0:0:0:
224,244,244601,1,2,0:0:0:0:
310,44,244740,2,0,L|350:106,1,71.9999978027344,10|2,0:0|0:0,0:0:0:0:
199,162,245019,5,2,0:0:0:0:
370,189,245159,1,10,0:0:0:0:
240,88,245298,1,2,0:0:0:0:
298,259,245438,1,10,0:0:0:0:
349,104,245578,1,0,0:0:0:0:
396,255,245717,1,2,0:0:0:0:
263,156,245857,6,0,L|266:115,1,35.9999989013672,10|10,0:0|0:0,0:0:0:0:
259,155,245996,1,10,0:0:0:0:
255,154,246135,1,10,0:0:0:0:
252,154,246275,2,0,L|255:113,1,35.9999989013672,10|10,0:0|0:0,0:0:0:0:
248,153,246415,1,10,0:0:0:0:
245,153,246554,1,10,0:0:0:0:
241,152,246694,86,0,L|231:274,1,96,14|2,0:0|0:0,0:0:0:0:
415,336,246973,1,2,0:0:0:0:
316,145,247112,1,10,0:0:0:0:
299,310,247252,1,2,0:0:0:0:
448,236,247392,1,2,0:0:0:0:
233,247,247531,5,10,0:0:0:0:
383,160,247671,1,2,0:0:0:0:
299,310,247810,1,2,0:0:0:0:
448,236,247950,1,2,0:0:0:0:
249,155,248089,2,0,L|161:195,1,71.9999978027344,10|2,0:0|0:0,0:0:0:0:
249,353,248368,5,2,0:0:0:0:
334,202,248508,2,0,L|298:110,1,71.9999978027344,10|2,0:0|0:0,0:0:0:0:
157,251,248787,2,0,L|193:159,1,71.9999978027344,10|2,0:0|0:0,0:0:0:0:
299,310,249066,1,0,0:0:0:0:
192,111,249205,85,10,0:0:0:0:
96,213,249345,1,2,0:0:0:0:
249,155,249485,1,2,0:0:0:0:
117,99,249624,1,2,0:0:0:0:
229,241,249764,1,2,0:0:0:0:
74,272,249903,1,2,0:0:0:0:
192,111,250043,5,2,0:0:0:0:
297,256,250182,2,0,L|257:350,1,71.9999978027344,10|2,0:0|0:0,0:0:0:0:
280,91,250461,1,10,0:0:0:0:
163,219,250601,1,2,0:0:0:0:
168,54,250740,1,2,0:0:0:0:
297,256,250880,5,10,0:0:0:0:
192,111,251019,1,2,0:0:0:0:
217,275,251159,1,2,0:0:0:0:
321,147,251298,1,2,0:0:0:0:
163,219,251438,1,2,0:0:0:0:
161,222,251508,1,8,0:0:0:0:
159,225,251578,1,10,0:0:0:0:
388,215,251717,85,2,0:0:0:0:
257,80,251857,2,0,L|178:117,1,71.9999978027344,10|2,0:0|0:0,0:0:0:0:
327,251,252136,2,0,L|248:214,1,71.9999978027344,10|2,0:0|0:0,0:0:0:0:
410,117,252415,1,2,0:0:0:0:
202,172,252554,5,10,0:0:0:0:
248,20,252694,1,2,0:0:0:0:
321,176,252833,1,2,0:0:0:0:
191,110,252973,1,2,0:0:0:0:
210,288,253112,1,2,0:0:0:0:
268,140,253252,1,2,0:0:0:0:
295,348,253392,6,0,L|204:370,1,71.9999978027344,2|2,0:0|0:0,0:0:0:0:
150,225,253671,1,2,0:0:0:0:
291,278,253810,1,2,0:0:0:0:
129,316,253950,1,2,0:0:0:0:
202,172,254089,1,2,0:0:0:0:
295,348,254229,85,10,0:0:0:0:
321,176,254368,1,2,0:0:0:0:
390,327,254508,2,0,L|353:346,1,35.9999989013672,10|8,0:0|0:0,0:0:0:0:
231,248,254647,1,2,0:0:0:0:
404,234,254787,1,2,0:0:0:0:
295,348,254926,1,2,0:0:0:0:
263,163,255066,5,2,0:0:0:0:
354,274,255205,1,2,0:0:0:0:
374,87,255345,1,2,0:0:0:0:
297,234,255485,1,2,0:0:0:0:
456,124,255624,2,0,L|430:44,1,71.9999978027344,2|2,0:0|0:0,0:0:0:0:
207,129,255903,5,10,0:0:0:0:
363,158,256043,2,0,L|375:76,1,71.9999978027344,2|2,0:0|0:0,0:0:0:0:
222,3,256322,1,10,0:0:0:0:
263,163,256461,21,2,0:0:0:0:
207,208,256554,2,0,P|172:200|145:176,1,60.0000022888184,8|8,0:0|0:0,0:0:0:0:
151,90,256740,53,10,0:0:0:0:
47,229,256880,2,0,L|26:147,1,71.9999978027344,10|0,0:0|0:0,0:0:0:0:
189,277,257159,2,0,L|210:195,1,71.9999978027344,10|0,0:0|0:0,0:0:0:0:
54,340,257438,1,2,0:0:0:0:
279,286,257578,5,10,0:0:0:0:
110,252,257717,1,2,0:0:0:0:
224,373,257857,1,2,0:0:0:0:
206,207,257996,2,0,L|269:135,1,71.9999978027344,10|2,0:0|0:0,0:0:0:0:
341,311,258275,1,10,0:0:0:0:
187,124,258415,37,2,0:0:0:0:
241,81,258508,1,8,0:0:0:0:
306,104,258601,1,8,0:0:0:0:
321,172,258694,1,8,0:0:0:0:
386,195,258787,1,8,0:0:0:0:
441,153,258880,1,8,0:0:0:0:
375,123,258973,101,10,0:0:0:0:
352,175,259066,1,10,0:0:0:0:
362,231,259159,1,10,0:0:0:0:
399,276,259252,1,10,0:0:0:0:
397,331,259345,1,10,0:0:0:0:
356,370,259438,1,10,0:0:0:0:
316,322,259531,5,10,0:0:0:0:
286,297,259624,1,10,0:0:0:0:
249,288,259717,1,10,0:0:0:0:
212,295,259810,1,10,0:0:0:0:
182,319,259903,1,10,0:0:0:0:
165,353,259996,1,10,0:0:0:0:
232,382,260089,53,6,0:0:0:0:
209,188,260229,2,0,L|150:157,1,45.0000017166138
54,264,260368,1,2,0:0:0:0:
145,73,260508,1,0,0:0:0:0:
209,188,260647,1,2,0:0:0:0:
128,277,260787,1,0,0:0:0:0:
53,64,260926,5,10,0:0:0:0:
108,178,261066,1,0,0:0:0:0:
54,264,261205,1,2,0:0:0:0:
45,108,261345,1,0,0:0:0:0:
64,196,261485,1,2,0:0:0:0:
7,257,261624,1,0,0:0:0:0:
24,138,261764,6,0,P|57:126|90:131,2,60,2|0|2,0:0|0:0|0:0,0:0:0:0:
128,277,262182,2,0,B|177:287|201:244|205:245|209:245|193:185|265:147|312:181,1,210.000008010865
281,246,262601,86,0,P|214:174|267:99,1,200,10|0,0:0|0:0,0:0:0:0:
331,120,263159,53,2,0:0:0:0:
373,62,263252,1,2,0:0:0:0:
443,81,263345,1,2,0:0:0:0:
485,23,263438,69,2,0:0:0:0:
512,196,263578,1,0,0:0:0:0:
401,139,263717,1,2,0:0:0:0:
425,317,263857,2,0,P|406:351|276:290,1,210.000008010865
286,208,264275,5,10,0:0:0:0:
281,163,264345,1,0,0:0:0:0:
258,124,264415,1,0,0:0:0:0:
159,259,264554,1,2,0:0:0:0:
276,307,264694,1,0,0:0:0:0:
204,350,264833,1,2,0:0:0:0:
212,218,264973,1,0,0:0:0:0:
425,317,265112,86,0,P|469:260|371:164,1,216.359978977662,2|0,0:0|0:0,0:0:0:0:
313,178,265485,53,2,0:0:0:0:
241,144,265578,1,2,0:0:0:0:
198,75,265687,69,10,0:0:0:0:
212,218,265823,1,0,0:0:0:0:
133,112,265959,1,2,0:0:0:0:
108,204,266096,1,0,0:0:0:0:
241,144,266232,1,2,0:0:0:0:
61,114,266368,1,0,0:0:0:0:
212,218,266505,1,2,0:0:0:0:
113,27,266641,1,0,0:0:0:0:
156,313,266783,6,0,B|223:346|296:313|315:253|315:253|341:288|341:288|335:211|407:166|462:187|462:187|406:154|409:107|424:80|424:80|435:116,1,576.959943940433,6|0,0:0|0:0,0:0:0:0:
372,39,267621,85,10,0:0:0:0:
409,15,267691,1,0,0:0:0:0:
453,20,267761,1,0,0:0:0:0:
460,186,267901,1,2,0:0:0:0:
322,84,268041,1,0,0:0:0:0:
433,275,268180,1,0,0:0:0:0:
431,104,268320,1,0,0:0:0:0:
341,286,268460,5,2,0:0:0:0:
308,170,268600,1,0,0:0:0:0:
261,267,268740,1,2,0:0:0:0:
231,138,268879,1,0,0:0:0:0:
189,294,269018,1,2,0:0:0:0:
152,117,269158,1,0,0:0:0:0:
64,352,269299,5,10,0:0:0:0:
190,231,269439,1,0,0:0:0:0:
31,253,269578,1,2,0:0:0:0:
152,117,269718,1,0,0:0:0:0:
125,308,269858,1,2,0:0:0:0:
20,127,269998,1,0,0:0:0:0:
196,303,270138,86,0,P|240:283|244:185,1,143.999995605469,2|0,0:0|0:0,0:0:0:0:
223,130,270417,53,2,0:0:0:0:
152,117,270510,2,0,L|106:114,1,36.059996496277,2|0,0:0|0:0,0:0:0:0:
124,52,270604,1,2,0:0:0:0:
53,39,270697,70,0,P|24:86|86:161,1,143.999995605469,2|0,0:0|0:0,0:0:0:0:
195,65,270976,6,0,P|266:74|293:134,1,120.000004577637,10|0,0:0|0:0,0:0:0:0:
280,182,271256,21,2,0:0:0:0:
325,238,271349,1,2,0:0:0:0:
315,310,271442,1,2,0:0:0:0:
360,366,271536,54,0,P|410:369|458:320,1,120.000004577637,2|0,0:0|0:0,0:0:0:0:
415,264,271815,5,2,0:0:0:0:
393,243,271885,1,0,0:0:0:0:
384,205,271955,1,0,0:0:0:0:
406,160,272025,1,0,0:0:0:0:
465,148,272095,1,2,0:0:0:0:
509,193,272165,1,0,0:0:0:0:
502,253,272235,2,0,L|468:303,1,45.0000017166138
340,159,272374,37,2,0:0:0:0:
384,92,272467,1,2,0:0:0:0:
454,76,272561,1,2,0:0:0:0:
512,103,272654,85,14,0:0:0:0:
512,106,272794,1,10,0:0:0:0:
512,109,272933,1,10,0:0:0:0:
512,112,273073,1,10,0:0:0:0:
501,180,273213,85,10,0:0:0:0:
469,212,273283,1,0,0:0:0:0:
416,226,273353,1,10,0:0:0:0:
359,205,273423,1,0,0:0:0:0:
326,148,273501,6,0,P|303:127|184:173,1,160,6|0,0:0|0:0,0:0:0:0:
173,250,273780,1,2,0:0:0:0:
140,110,273919,2,0,B|178:55|296:86|260:152|261:157|260:162|263:207|307:218|337:211|341:210|341:210|317:376|232:408|193:351|174:299|164:224|392:250|360:308|364:308|376:315|423:304|451:281|460:243,1,751.249978590012
446,171,275175,6,0,P|400:93|329:40,1,180.000006866455,2|0,0:0|0:0,0:0:0:0:
256,366,275454,2,0,P|314:297|339:211,1,180.000006866455,2|0,0:0|0:0,0:0:0:0:
8,255,275733,2,0,P|92:285|181:279,1,180.000006866455,2|0,0:0|0:0,0:0:0:0:
329,40,276012,85,10,0:0:0:0:
86,109,276152,1,0,0:0:0:0:
339,211,276291,1,2,0:0:0:0:
86,109,276431,1,0,0:0:0:0:
256,366,276570,1,2,0:0:0:0:
86,109,276710,1,0,0:0:0:0:
397,139,276848,53,2,0:0:0:0:
431,208,276941,1,2,0:0:0:0:
400,279,277034,1,2,0:0:0:0:
326,302,277127,1,2,0:0:0:0:
261,261,277220,1,2,0:0:0:0:
257,165,277313,1,2,0:0:0:0:
278,74,277406,101,2,0:0:0:0:
216,6,277500,1,2,0:0:0:0:
126,26,277593,1,2,0:0:0:0:
86,109,277686,5,10,0:0:0:0:
163,95,277779,1,2,0:0:0:0:
233,131,277872,1,2,0:0:0:0:
268,201,277965,1,2,0:0:0:0:
260,281,278058,1,2,0:0:0:0:
303,347,278151,1,2,0:0:0:0:
378,367,278244,1,2,0:0:0:0:
448,332,278337,1,2,0:0:0:0:
476,260,278430,1,2,0:0:0:0:
448,168,278524,101,2,0:0:0:0:
365,139,278617,1,2,0:0:0:0:
280,157,278710,1,2,0:0:0:0:
216,215,278803,1,2,0:0:0:0:
191,299,278896,1,2,0:0:0:0:
140,360,278989,1,2,0:0:0:0:
60,353,279082,5,10,0:0:0:0:
20,287,279175,1,2,0:0:0:0:
52,217,279268,1,2,0:0:0:0:
144,196,279361,54,0,P|168:138|86:113,1,160,2|0,0:0|0:0,0:0:0:0:
112,33,279640,2,0,P|196:59|237:168,1,200,2|0,0:0|0:0,0:0:0:0:
303,219,279919,2,0,P|305:100|243:0,1,240.000009155274,2|0,0:0|0:0,0:0:0:0:
238,155,280198,6,0,B|240:216|197:362|71:377|70:243|86:207|103:134|227:226|252:266|268:299|269:335|265:376|265:376|297:303|328:265|386:261|399:271|417:283|461:307|495:285|522:187|492:150|444:123|379:91|319:129|311:238|406:314|444:202|476:166|447:78,1,1121.8665918986,6|0,0:0|0:0,0:0:0:0:
381,95,281594,1,2,0:0:0:0:
313,221,281733,2,0,L|302:177,1,45.0000017166138
225,37,281873,21,2,0:0:0:0:
210,40,281919,1,0,0:0:0:0:
196,45,281966,1,2,0:0:0:0:
183,52,282012,1,0,0:0:0:0:
170,61,282059,2,0,L|128:90,1,30.0000011444092,2|0,0:0|0:0,0:0:0:0:
175,164,282152,5,2,0:0:0:0:
149,244,282245,1,2,0:0:0:0:
77,273,282338,1,2,0:0:0:0:
64,268,282384,1,0,0:0:0:0:
50,263,282431,101,2,0:0:0:0:
81,198,282524,1,2,0:0:0:0:
175,164,282617,2,0,L|217:183,1,30.0000011444092,2|0,0:0|0:0,0:0:0:0:
248,321,282709,5,10,0:0:0:0:
258,331,282755,1,0,0:0:0:0:
270,340,282801,1,2,0:0:0:0:
283,347,282847,1,0,0:0:0:0:
297,352,282894,2,0,L|342:358,1,30.0000011444092,2|0,0:0|0:0,0:0:0:0:
386,268,282986,101,2,0:0:0:0:
341,204,283079,1,2,0:0:0:0:
269,203,283171,1,2,0:0:0:0:
261,215,283218,1,0,0:0:0:0:
253,227,283264,5,2,0:0:0:0:
322,269,283357,1,2,0:0:0:0:
413,211,283449,1,2,0:0:0:0:
400,92,283542,101,2,0:0:0:0:
386,85,283588,1,0,0:0:0:0:
372,81,283634,1,2,0:0:0:0:
357,78,283681,1,0,0:0:0:0:
342,77,283727,2,0,L|295:86,1,30.0000011444092,2|0,0:0|0:0,0:0:0:0:
233,149,283820,5,2,0:0:0:0:
219,155,283866,1,0,0:0:0:0:
205,159,283912,1,2,0:0:0:0:
190,162,283959,1,0,0:0:0:0:
175,164,284005,2,0,L|128:155,1,30.0000011444092,2|0,0:0|0:0,0:0:0:0:
30,257,284097,101,2,0:0:0:0:
74,314,284190,1,2,0:0:0:0:
163,300,284283,1,2,0:0:0:0:
229,222,284375,5,10,0:0:0:0:
242,216,284421,1,0,0:0:0:0:
257,213,284468,1,2,0:0:0:0:
272,212,284514,1,0,0:0:0:0:
287,213,284560,2,0,L|331:223,1,30.0000011444092,2|0,0:0|0:0,0:0:0:0:
382,303,284653,101,2,0:0:0:0:
396,305,284699,1,0,0:0:0:0:
411,304,284746,1,2,0:0:0:0:
426,301,284792,1,0,0:0:0:0:
440,296,284838,2,0,L|479:274,1,30.0000011444092,2|0,0:0|0:0,0:0:0:0:
474,161,284931,5,2,0:0:0:0:
414,121,285023,1,2,0:0:0:0:
334,135,285116,2,0,L|296:157,1,30.0000011444092,2|0,0:0|0:0,0:0:0:0:
171,195,285209,101,2,0:0:0:0:
160,183,285255,1,0,0:0:0:0:
152,171,285302,1,0,0:0:0:0:
145,158,285349,1,0,0:0:0:0:
252,59,285490,102,0,L|261:114,1,45.0000017166138,8|0,0:0|0:0,0:0:0:0:
226,281,285630,1,4,0:0:0:0:
225,285,285700,1,0,0:0:0:0:
224,289,285771,21,0,0:0:0:0:
143,311,285864,1,0,0:0:0:0:
64,256,285958,2,0,L|53:213,1,30.0000011444092
78,120,286052,101,10,0:0:0:0:
89,107,286098,1,0,0:0:0:0:
99,99,286145,1,0,0:0:0:0:
113,90,286192,1,0,0:0:0:0:
250,208,286333,69,8,0:0:0:0:
282,225,286403,1,0,0:0:0:0:
318,227,286473,1,8,0:0:0:0:
356,211,286543,1,0,0:0:0:0:
384,164,286614,1,8,0:0:0:0:
373,102,286684,1,0,0:0:0:0:
317,66,286754,1,8,0:0:0:0:
255,80,286824,1,0,0:0:0:0:
222,136,286895,6,0,L|213:188,3,35.9999989013672,6|2|2|2,0:0|0:0|0:0|0:0,0:0:0:0:
144,165,287175,2,0,L|121:212,3,35.9999989013672,2|2|2|2,0:0|0:0|0:0|0:0,0:0:0:0:
61,172,287454,2,0,L|27:212,3,35.9999989013672,2|2|2|2,0:0|0:0|0:0|0:0,0:0:0:0:
146,55,287733,5,10,0:0:0:0:
160,43,287802,1,2,0:0:0:0:
175,35,287872,1,2,0:0:0:0:
192,29,287942,1,2,0:0:0:0:
210,26,288012,1,2,0:0:0:0:
228,26,288081,1,2,0:0:0:0:
246,28,288151,1,2,0:0:0:0:
263,34,288221,1,2,0:0:0:0:
279,42,288291,1,2,0:0:0:0:
293,53,288360,1,2,0:0:0:0:
306,66,288430,1,2,0:0:0:0:
316,81,288500,1,2,0:0:0:0:
323,97,288570,85,2,0:0:0:0:
328,115,288639,1,2,0:0:0:0:
330,132,288709,1,2,0:0:0:0:
329,150,288779,1,2,0:0:0:0:
325,168,288849,1,2,0:0:0:0:
319,185,288919,1,2,0:0:0:0:
312,201,288988,1,2,0:0:0:0:
308,218,289057,1,2,0:0:0:0:
306,236,289127,1,2,0:0:0:0:
307,254,289197,1,2,0:0:0:0:
312,272,289267,1,2,0:0:0:0:
320,288,289337,1,2,0:0:0:0:
330,302,289406,5,10,0:0:0:0:
346,295,289476,1,2,0:0:0:0:
364,292,289546,1,2,0:0:0:0:
382,291,289616,1,2,0:0:0:0:
400,294,289686,1,2,0:0:0:0:
417,299,289755,1,2,0:0:0:0:
433,307,289825,1,2,0:0:0:0:
450,309,289895,1,2,0:0:0:0:
468,306,289965,1,2,0:0:0:0:
484,298,290034,1,2,0:0:0:0:
497,286,290104,1,2,0:0:0:0:
506,270,290174,1,2,0:0:0:0:
511,252,290244,5,2,0:0:0:0:
512,226,290314,1,2,0:0:0:0:
506,202,290384,1,2,0:0:0:0:
492,181,290454,1,2,0:0:0:0:
472,166,290523,1,2,0:0:0:0:
449,157,290593,1,2,0:0:0:0:
424,156,290663,1,2,0:0:0:0:
400,163,290733,1,2,0:0:0:0:
379,178,290802,1,2,0:0:0:0:
356,186,290872,1,2,0:0:0:0:
331,188,290942,1,2,0:0:0:0:
306,183,291012,1,2,0:0:0:0:
284,170,291082,85,10,0:0:0:0:
277,194,291151,1,2,0:0:0:0:
265,216,291221,1,2,0:0:0:0:
248,234,291291,1,2,0:0:0:0:
227,248,291361,1,2,0:0:0:0:
203,256,291430,1,2,0:0:0:0:
178,258,291500,1,2,0:0:0:0:
153,254,291570,1,2,0:0:0:0:
130,244,291640,1,2,0:0:0:0:
105,242,291708,1,2,0:0:0:0:
81,251,291778,1,2,0:0:0:0:
62,267,291848,1,2,0:0:0:0:
51,289,291918,5,2,0:0:0:0:
48,314,291988,1,2,0:0:0:0:
55,338,292057,1,2,0:0:0:0:
70,358,292127,1,2,0:0:0:0:
92,371,292197,1,2,0:0:0:0:
116,375,292267,1,2,0:0:0:0:
141,370,292337,1,2,0:0:0:0:
162,356,292406,1,2,0:0:0:0:
178,337,292476,1,2,0:0:0:0:
198,322,292546,1,2,0:0:0:0:
222,312,292616,1,2,0:0:0:0:
246,309,292686,1,2,0:0:0:0:
271,312,292756,5,10,0:0:0:0:
290,296,292825,1,2,0:0:0:0:
305,275,292895,1,2,0:0:0:0:
314,252,292965,1,2,0:0:0:0:
317,227,293035,1,2,0:0:0:0:
314,202,293104,1,2,0:0:0:0:
305,179,293174,1,2,0:0:0:0:
289,159,293244,1,2,0:0:0:0:
270,143,293314,1,2,0:0:0:0:
247,133,293383,1,2,0:0:0:0:
222,129,293453,1,2,0:0:0:0:
197,131,293523,1,2,0:0:0:0:
173,140,293592,85,2,0:0:0:0:
140,155,293662,1,2,0:0:0:0:
105,154,293732,1,2,0:0:0:0:
74,136,293801,1,2,0:0:0:0:
56,105,293871,1,2,0:0:0:0:
54,70,293941,1,2,0:0:0:0:
69,37,294011,1,2,0:0:0:0:
98,16,294081,1,2,0:0:0:0:
133,12,294150,1,2,0:0:0:0:
167,24,294220,1,2,0:0:0:0:
190,51,294290,1,2,0:0:0:0:
197,87,294360,1,2,0:0:0:0:
188,122,294429,5,10,0:0:0:0:
163,115,294499,1,2,0:0:0:0:
138,113,294569,1,2,0:0:0:0:
113,115,294639,1,2,0:0:0:0:
89,122,294708,1,2,0:0:0:0:
67,134,294778,1,2,0:0:0:0:
47,150,294848,1,2,0:0:0:0:
31,169,294918,1,2,0:0:0:0:
19,191,294988,1,2,0:0:0:0:
11,215,295057,1,2,0:0:0:0:
7,240,295127,1,2,0:0:0:0:
9,265,295197,1,2,0:0:0:0:
15,289,295267,5,2,0:0:0:0:
26,312,295336,1,2,0:0:0:0:
41,332,295406,1,2,0:0:0:0:
59,350,295476,1,2,0:0:0:0:
81,363,295546,1,2,0:0:0:0:
104,372,295615,1,2,0:0:0:0:
129,376,295685,1,2,0:0:0:0:
154,376,295755,1,2,0:0:0:0:
179,371,295825,1,2,0:0:0:0:
202,361,295895,1,2,0:0:0:0:
223,347,295964,1,2,0:0:0:0:
241,329,296034,1,2,0:0:0:0:
255,309,296104,85,10,0:0:0:0:
219,310,296174,1,2,0:0:0:0:
185,298,296243,1,2,0:0:0:0:
160,273,296313,1,2,0:0:0:0:
146,240,296383,1,2,0:0:0:0:
147,204,296453,1,2,0:0:0:0:
163,172,296522,1,2,0:0:0:0:
190,148,296592,1,2,0:0:0:0:
224,137,296662,1,2,0:0:0:0:
259,141,296732,1,2,0:0:0:0:
290,159,296801,1,2,0:0:0:0:
312,188,296871,1,2,0:0:0:0:
319,222,296941,5,2,0:0:0:0:
322,246,297011,1,2,0:0:0:0:
332,269,297081,1,2,0:0:0:0:
348,289,297151,1,2,0:0:0:0:
368,303,297221,1,2,0:0:0:0:
392,312,297290,1,2,0:0:0:0:
417,313,297360,1,2,0:0:0:0:
442,308,297430,1,2,0:0:0:0:
464,296,297500,1,2,0:0:0:0:
482,279,297569,1,2,0:0:0:0:
495,257,297639,1,2,0:0:0:0:
501,233,297709,1,2,0:0:0:0:
501,208,297778,5,10,0:0:0:0:
483,208,297848,1,2,0:0:0:0:
465,204,297919,1,2,0:0:0:0:
449,196,297989,1,2,0:0:0:0:
435,184,298057,1,2,0:0:0:0:
425,170,298127,1,2,0:0:0:0:
419,153,298197,1,2,0:0:0:0:
417,135,298267,1,2,0:0:0:0:
419,117,298336,1,2,0:0:0:0:
426,101,298407,1,2,0:0:0:0:
430,83,298477,1,2,0:0:0:0:
430,65,298547,1,2,0:0:0:0:
425,48,298615,85,2,0:0:0:0:
416,32,298685,1,2,0:0:0:0:
404,19,298755,1,2,0:0:0:0:
389,9,298825,1,2,0:0:0:0:
372,2,298895,1,2,0:0:0:0:
355,0,298964,1,2,0:0:0:0:
337,3,299034,1,2,0:0:0:0:
320,9,299104,1,2,0:0:0:0:
305,19,299174,1,2,0:0:0:0:
293,33,299243,1,2,0:0:0:0:
285,48,299313,1,2,0:0:0:0:
280,66,299383,1,2,0:0:0:0:
280,84,299453,6,0,L|229:104,1,35.9999989013672,10|2,0:0|0:0,0:0:0:0:
279,87,299592,2,0,L|228:107,1,35.9999989013672,10|2,0:0|0:0,0:0:0:0:
278,90,299732,2,0,L|227:110,1,35.9999989013672,10|2,0:0|0:0,0:0:0:0:
277,93,299871,2,0,L|226:113,1,35.9999989013672,10|2,0:0|0:0,0:0:0:0:
276,96,300011,2,0,L|225:116,1,35.9999989013672,10|2,0:0|0:0,0:0:0:0:
275,99,300150,2,0,L|224:119,1,35.9999989013672,10|2,0:0|0:0,0:0:0:0:
334,153,300291,5,6,0:0:0:0:
354,167,300360,1,2,0:0:0:0:
370,187,300430,1,2,0:0:0:0:
382,209,300500,1,2,0:0:0:0:
389,233,300570,1,2,0:0:0:0:
390,258,300639,1,2,0:0:0:0:
385,283,300709,1,2,0:0:0:0:
376,306,300779,1,2,0:0:0:0:
361,326,300849,1,2,0:0:0:0:
342,343,300918,1,2,0:0:0:0:
320,355,300988,1,2,0:0:0:0:
296,362,301058,1,2,0:0:0:0:
271,364,301128,85,10,0:0:0:0:
284,342,301197,1,2,0:0:0:0:
292,318,301267,1,2,0:0:0:0:
293,293,301337,1,2,0:0:0:0:
288,269,301407,1,2,0:0:0:0:
277,246,301476,1,2,0:0:0:0:
260,227,301546,1,2,0:0:0:0:
240,213,301616,1,2,0:0:0:0:
216,205,301686,1,2,0:0:0:0:
191,203,301755,1,2,0:0:0:0:
166,208,301825,1,2,0:0:0:0:
143,219,301895,1,2,0:0:0:0:
119,225,301965,5,2,0:0:0:0:
94,224,302034,1,2,0:0:0:0:
70,217,302104,1,2,0:0:0:0:
48,204,302174,1,2,0:0:0:0:
31,185,302244,1,2,0:0:0:0:
19,163,302313,1,2,0:0:0:0:
14,139,302383,1,2,0:0:0:0:
15,114,302453,1,2,0:0:0:0:
22,90,302523,1,2,0:0:0:0:
35,68,302593,1,2,0:0:0:0:
54,51,302662,1,2,0:0:0:0:
76,39,302732,1,2,0:0:0:0:
100,34,302802,5,10,0:0:0:0:
106,69,302872,1,2,0:0:0:0:
122,101,302942,1,2,0:0:0:0:
147,126,303012,1,2,0:0:0:0:
179,143,303081,1,2,0:0:0:0:
214,150,303150,1,2,0:0:0:0:
250,147,303220,1,2,0:0:0:0:
283,133,303290,1,2,0:0:0:0:
318,127,303360,1,2,0:0:0:0:
354,129,303429,1,2,0:0:0:0:
389,138,303499,1,2,0:0:0:0:
421,154,303569,1,2,0:0:0:0:
455,152,303639,85,2,0:0:0:0:
485,132,303708,1,2,0:0:0:0:
499,99,303779,1,2,0:0:0:0:
494,64,303848,1,2,0:0:0:0:
472,36,303918,1,2,0:0:0:0:
439,24,303988,1,2,0:0:0:0:
404,31,304058,1,2,0:0:0:0:
378,55,304127,1,2,0:0:0:0:
345,70,304197,1,2,0:0:0:0:
309,71,304267,1,2,0:0:0:0:
275,59,304337,1,2,0:0:0:0:
248,36,304406,1,2,0:0:0:0:
231,5,304477,5,10,0:0:0:0:
277,3,304546,1,2,0:0:0:0:
319,23,304616,1,2,0:0:0:0:
347,59,304686,1,2,0:0:0:0:
356,105,304755,1,2,0:0:0:0:
344,149,304825,1,2,0:0:0:0:
317,188,304895,1,2,0:0:0:0:
307,234,304964,1,2,0:0:0:0:
318,279,305034,1,2,0:0:0:0:
347,314,305104,1,2,0:0:0:0:
390,332,305174,1,2,0:0:0:0:
436,329,305243,1,2,0:0:0:0:
476,305,305313,5,2,0:0:0:0:
495,275,305383,1,2,0:0:0:0:
503,240,305453,1,2,0:0:0:0:
498,204,305523,1,2,0:0:0:0:
481,173,305593,1,2,0:0:0:0:
454,149,305662,1,2,0:0:0:0:
421,137,305732,1,2,0:0:0:0:
385,136,305802,1,2,0:0:0:0:
351,149,305872,1,2,0:0:0:0:
324,172,305941,1,2,0:0:0:0:
290,183,306012,1,2,0:0:0:0:
255,176,306082,1,2,0:0:0:0:
226,155,306150,85,10,0:0:0:0:
212,176,306220,1,2,0:0:0:0:
203,199,306290,1,2,0:0:0:0:
199,224,306360,1,2,0:0:0:0:
200,249,306429,1,2,0:0:0:0:
205,274,306499,1,2,0:0:0:0:
216,297,306569,1,2,0:0:0:0:
231,317,306639,1,2,0:0:0:0:
249,334,306708,1,2,0:0:0:0:
271,347,306778,1,2,0:0:0:0:
294,355,306848,1,2,0:0:0:0:
319,359,306918,1,2,0:0:0:0:
344,357,306988,5,6,0:0:0:0:
361,352,307058,1,2,0:0:0:0:
377,344,307128,1,2,0:0:0:0:
392,335,307198,1,2,0:0:0:0:
406,322,307268,1,2,0:0:0:0:
417,308,307337,1,2,0:0:0:0:
425,293,307407,1,2,0:0:0:0:
432,276,307477,1,2,0:0:0:0:
435,258,307547,1,2,0:0:0:0:
435,240,307616,1,2,0:0:0:0:
433,222,307686,1,2,0:0:0:0:
428,205,307756,1,2,0:0:0:0:
420,189,307826,5,10,0:0:0:0:
403,195,307895,1,2,0:0:0:0:
385,199,307965,1,2,0:0:0:0:
367,200,308035,1,2,0:0:0:0:
350,198,308105,1,2,0:0:0:0:
332,193,308174,1,2,0:0:0:0:
316,185,308244,1,2,0:0:0:0:
302,175,308314,1,2,0:0:0:0:
289,162,308383,1,2,0:0:0:0:
279,147,308453,1,2,0:0:0:0:
272,130,308522,1,2,0:0:0:0:
267,113,308592,1,2,0:0:0:0:
266,95,308662,85,2,0:0:0:0:
260,77,308732,1,2,0:0:0:0:
252,61,308801,1,2,0:0:0:0:
241,47,308871,1,2,0:0:0:0:
227,36,308941,1,2,0:0:0:0:
211,28,309011,1,2,0:0:0:0:
193,24,309081,1,2,0:0:0:0:
175,23,309150,1,2,0:0:0:0:
158,26,309220,1,2,0:0:0:0:
141,32,309290,1,2,0:0:0:0:
126,42,309360,1,2,0:0:0:0:
113,55,309429,1,2,0:0:0:0:
103,70,309499,5,10,0:0:0:0:
117,80,309569,1,2,0:0:0:0:
134,87,309639,1,2,0:0:0:0:
151,92,309709,1,2,0:0:0:0:
169,94,309779,1,2,0:0:0:0:
187,92,309848,1,2,0:0:0:0:
204,88,309918,1,2,0:0:0:0:
222,85,309988,1,2,0:0:0:0:
240,86,310058,1,2,0:0:0:0:
257,91,310127,1,2,0:0:0:0:
274,98,310197,1,2,0:0:0:0:
289,108,310267,1,2,0:0:0:0:
302,120,310337,5,2,0:0:0:0:
312,134,310406,1,2,0:0:0:0:
320,151,310476,1,2,0:0:0:0:
326,168,310546,1,2,0:0:0:0:
333,184,310616,1,2,0:0:0:0:
344,197,310686,1,2,0:0:0:0:
359,208,310755,1,2,0:0:0:0:
375,215,310825,1,2,0:0:0:0:
393,218,310895,1,2,0:0:0:0:
411,218,310965,1,2,0:0:0:0:
428,213,311034,1,2,0:0:0:0:
444,204,311104,1,2,0:0:0:0:
457,193,311175,85,10,0:0:0:0:
446,178,311244,1,2,0:0:0:0:
433,166,311314,1,2,0:0:0:0:
417,157,311384,1,2,0:0:0:0:
400,152,311454,1,2,0:0:0:0:
382,150,311523,1,2,0:0:0:0:
364,152,311593,1,2,0:0:0:0:
347,158,311663,1,2,0:0:0:0:
332,168,311733,1,2,0:0:0:0:
319,180,311802,1,2,0:0:0:0:
309,195,311872,1,2,0:0:0:0:
303,212,311942,1,2,0:0:0:0:
300,230,312012,5,2,0:0:0:0:
290,253,312081,1,2,0:0:0:0:
275,273,312151,1,2,0:0:0:0:
257,290,312221,1,2,0:0:0:0:
234,301,312291,1,2,0:0:0:0:
210,308,312360,1,2,0:0:0:0:
185,308,312430,1,2,0:0:0:0:
160,303,312500,1,2,0:0:0:0:
138,292,312570,1,2,0:0:0:0:
118,276,312639,1,2,0:0:0:0:
103,256,312709,1,2,0:0:0:0:
93,233,312779,1,2,0:0:0:0:
89,208,312848,5,10,0:0:0:0:
121,226,312918,1,2,0:0:0:0:
159,233,312988,1,2,0:0:0:0:
198,226,313057,1,2,0:0:0:0:
233,205,313127,1,2,0:0:0:0:
261,172,313197,1,2,0:0:0:0:
274,129,313267,1,2,0:0:0:0:
269,82,313336,1,2,0:0:0:0:
244,40,313406,1,2,0:0:0:0:
203,11,313476,1,2,0:0:0:0:
151,3,313546,1,2,0:0:0:0:
99,19,313615,1,2,0:0:0:0:
60,59,313687,38,0,P|46:101|78:171,1,120,6|0,0:0|0:0,0:0:0:0:
152,221,314137,2,0,P|153:257|138:290,2,60
160,127,314537,1,0,0:0:0:0:
164,115,314587,6,0,P|210:78|269:79,1,120
298,167,315037,2,0,P|269:173|240:168,2,60
437,73,315487,102,0,P|465:83|486:103,1,60,8|0,0:0|0:0,0:0:0:0:
469,215,315787,1,2,0:0:0:0:
348,137,315937,2,0,P|319:147|298:167,1,60,10|0,0:0|0:0,0:0:0:0:
316,279,316237,1,2,0:0:0:0:
174,168,316387,6,0,P|173:138|185:110,1,60,2|2,0:0|0:0,0:0:0:0:
298,167,316687,1,8,0:0:0:0:
220,212,316837,1,8,0:0:0:0:
253,109,316987,1,10,0:0:0:0:
234,203,317137,1,10,0:0:0:0:
218,50,317287,5,6,0:0:0:0:
239,38,317587,1,0,0:0:0:0:
330,70,317887,1,0,0:0:0:0:
185,110,318187,102,0,P|161:87|150:56,1,60,8|0,0:0|0:0,0:0:0:0:
242,186,318487,2,0,P|266:163|277:132,1,60
128,241,318787,1,0,0:0:0:0:
198,298,318937,1,0,0:0:0:0:
201,299,319012,1,0,0:0:0:0:
204,300,319087,102,0,P|293:287|356:197,1,194.999991073609,2|0,0:0|0:0,0:0:0:0:
354,168,319537,1,0,0:0:0:0:
354,168,319987,22,0,P|420:149|350:111,1,180.000006866455,8|0,0:0|0:0,0:0:0:0:
246,143,320887,5,2,0:0:0:0:
233,170,320962,1,0,0:0:0:0:
226,146,321037,1,0,0:0:0:0:
212,167,321112,1,0,0:0:0:0:
207,142,321187,1,0,0:0:0:0:
194,157,321262,1,0,0:0:0:0:
193,138,321337,1,0,0:0:0:0:
177,146,321412,1,0,0:0:0:0:
181,130,321487,1,0,0:0:0:0:
167,131,321562,1,0,0:0:0:0:
170,120,321637,1,0,0:0:0:0:
162,116,321712,1,0,0:0:0:0:
161,107,321787,5,8,0:0:0:0:
158,98,321862,1,0,0:0:0:0:
154,90,321937,1,0,0:0:0:0:
149,83,322012,1,0,0:0:0:0:
142,76,322087,1,0,0:0:0:0:
135,71,322162,1,0,0:0:0:0:
127,68,322237,1,0,0:0:0:0:
118,65,322312,1,0,0:0:0:0:
109,65,322387,1,0,0:0:0:0:
100,66,322462,1,0,0:0:0:0:
91,68,322537,1,0,0:0:0:0:
83,72,322612,1,0,0:0:0:0:
76,78,322687,6,0,P|52:117|125:180,1,155.999992858887,2|0,0:0|0:0,0:0:0:0:
190,119,323137,1,0,0:0:0:0:
278,96,323287,2,0,P|319:122|334:152,1,67.5000025749207
330,168,323587,86,0,P|372:152|335:235,1,210,8|0,0:0|0:0,0:0:0:0:
275,217,324187,2,0,P|244:222|210:258,1,60
219,364,324487,5,2,0:0:0:0:
219,364,324637,2,0,P|210:319|167:285,1,90
170,281,324937,1,0,0:0:0:0:
152,279,325012,1,0,0:0:0:0:
160,266,325087,1,0,0:0:0:0:
141,261,325162,1,0,0:0:0:0:
156,248,325237,1,0,0:0:0:0:
133,237,325312,1,0,0:0:0:0:
158,220,325387,5,8,0:0:0:0:
134,201,325462,1,0,0:0:0:0:
165,202,325537,1,0,0:0:0:0:
154,179,325612,1,0,0:0:0:0:
175,189,325687,1,0,0:0:0:0:
177,170,325762,1,0,0:0:0:0:
186,181,325837,1,0,0:0:0:0:
192,172,325912,1,0,0:0:0:0:
199,177,325987,2,0,P|246:184|270:210,1,67.5000025749207
261,262,326287,85,2,0:0:0:0:
384,214,326437,1,0,0:0:0:0:
408,213,326512,1,0,0:0:0:0:
386,199,326587,1,0,0:0:0:0:
414,195,326662,1,0,0:0:0:0:
386,184,326737,1,0,0:0:0:0:
415,177,326812,1,0,0:0:0:0:
385,169,326887,1,0,0:0:0:0:
414,160,326962,1,0,0:0:0:0:
381,154,327037,1,0,0:0:0:0:
411,141,327112,1,0,0:0:0:0:
376,140,327187,5,8,0:0:0:0:
405,123,327262,1,0,0:0:0:0:
369,127,327337,1,0,0:0:0:0:
395,107,327412,1,0,0:0:0:0:
360,115,327487,1,0,0:0:0:0:
380,93,327562,1,0,0:0:0:0:
349,104,327637,1,0,0:0:0:0:
360,78,327712,1,0,0:0:0:0:
337,95,327787,1,0,0:0:0:0:
343,68,327862,1,0,0:0:0:0:
324,88,327937,1,0,0:0:0:0:
326,62,328012,1,0,0:0:0:0:
297,86,328087,5,2,0:0:0:0:
287,106,328162,2,0,B|225:98|221:47|218:47|214:47|191:-13|112:21,1,210
161,119,328837,1,0,0:0:0:0:
153,84,328912,1,0,0:0:0:0:
118,140,328987,86,0,P|136:184|187:207,1,90,8|0,0:0|0:0,0:0:0:0:
234,185,329287,1,0,0:0:0:0:
219,274,329437,1,0,0:0:0:0:
265,170,329587,1,0,0:0:0:0:
306,289,329737,1,0,0:0:0:0:
286,319,329812,1,0,0:0:0:0:
287,253,329887,6,0,P|335:234|397:276,1,120,2|0,0:0|0:0,0:0:0:0:
426,349,330337,2,0,P|466:351|501:333,1,60
495,243,330637,2,0,L|462:217,1,30
286,319,330787,6,0,P|239:297|227:232,1,90.0000034332277,8|0,0:0|0:0,0:0:0:0:
250,329,331087,2,0,P|222:289|242:232,1,75
222,321,331387,2,0,P|217:273|264:233,1,60
161,236,331687,86,0,P|188:207|228:195,1,60.0000022888184,2|0,0:0|0:0,0:0:0:0:
212,198,331837,2,0,P|249:182|267:156,1,60.0000022888184
264,162,331987,2,0,B|296:96|399:123|377:192|376:196|375:200|385:270|501:272|509:168,1,330.549990579605
441,174,332587,5,8,0:0:0:0:
441,174,332887,2,0,P|445:215|465:243,2,60
398,115,333287,38,0,L|362:130,1,30.0000011444092
385,53,333387,2,0,L|414:51,1,30.0000011444092
313,72,333487,86,0,P|295:153|389:203,1,194.999991073609,2|0,0:0|0:0,0:0:0:0:
441,174,333937,1,0,0:0:0:0:
441,174,334237,1,0,0:0:0:0:
274,308,334387,2,0,P|286:354|359:374,2,120,8|0|0,0:0|0:0|0:0,0:0:0:0:
276,229,335087,2,0,P|258:191|219:174,1,77.9999964294435
223,175,335287,85,2,0:0:0:0:
170,309,335422,1,0,0:0:0:0:
274,308,335572,1,0,0:0:0:0:
228,378,335722,1,0,0:0:0:0:
344,315,335872,1,0,0:0:0:0:
191,232,336022,1,0,0:0:0:0:
405,204,336172,6,0,P|411:175|407:146,1,60.0000022888184,8|0,0:0|0:0,0:0:0:0:
405,141,336322,2,0,P|423:164|432:192,1,60.0000022888184
433,199,336472,2,0,P|439:169|435:140,1,60.0000022888184
432,135,336622,2,0,P|450:158|459:186,1,60.0000022888184
460,193,336772,1,0,0:0:0:0:
391,40,336922,1,0,0:0:0:0:
411,309,337072,5,2,0:0:0:0:
266,103,337222,1,0,0:0:0:0:
275,295,337372,1,0,0:0:0:0:
324,147,337522,1,0,0:0:0:0:
184,278,337672,1,0,0:0:0:0:
441,218,337822,1,0,0:0:0:0:
162,108,337972,86,0,P|127:144|110:191,1,100,8|0,0:0|0:0,0:0:0:0:
111,199,338122,2,0,P|110:149|130:103,1,100
134,97,338272,2,0,P|99:132|82:179,1,100
82,187,338422,2,0,P|81:137|101:91,1,100
105,85,338572,2,0,P|70:120|53:167,1,100
53,175,338722,2,0,P|52:125|72:79,1,100
76,77,338887,6,0,P|118:56|169:81,1,80,2|0,0:0|0:0,0:0:0:0:
152,65,339037,2,0,P|196:77|229:66,1,71.9999978027344
224,69,339187,2,0,P|261:61|288:68,1,64
289,69,339337,2,0,P|313:95|318:129,1,55.9999982910157
319,118,339487,2,0,P|334:146|371:161,1,60.0000022888184
362,160,339637,2,0,P|389:172|410:198,1,55.9999982910157
408,195,339787,6,0,P|428:220|457:230,1,47.9999985351563,8|0,0:0|0:0,0:0:0:0:
446,228,339937,2,0,P|477:224|497:213,1,40
488,218,340087,2,0,P|505:192|505:164,1,47.9999985351563
507,172,340237,2,0,P|496:142|480:128,1,40
487,134,340387,2,0,P|462:128|444:130,1,35.9999989013672
448,130,340537,2,0,P|426:132|406:129,1,32
412,130,340677,86,0,P|384:127|367:130,1,32,2|0,0:0|0:0,0:0:0:0:
376,129,340827,2,0,P|356:140|346:160,1,35.9999989013672
348,155,340977,2,0,P|336:178|321:190,1,40
322,189,341127,2,0,P|294:193|264:183,1,44.0000013427735
275,189,341267,2,0,P|251:184|212:197,1,47.9999985351563
225,191,341417,2,0,P|207:215|218:254,1,51.999997619629
208,240,341567,6,0,P|217:271|203:303,1,55.9999982910157,8|0,0:0|0:0,0:0:0:0:
208,295,341717,2,0,P|179:313|136:292,1,64
148,305,341867,2,0,P|131:279|147:229,1,71.9999978027344
140,237,342017,2,0,P|151:206|148:178,1,55.9999982910157
148,180,342167,2,0,P|146:143|178:88,1,83.9999974365235
168,98,342317,2,0,P|179:68|161:30,1,55.9999982910157
171,42,342467,6,0,P|122:19|76:58,1,100,2|0,0:0|0:0,0:0:0:0:
83,43,342620,2,0,P|76:71|96:113,1,71.9999978027344
96,112,342770,2,0,P|117:139|116:179,1,55.9999982910157
120,164,342920,2,0,P|126:190|161:216,1,71.9999978027344
165,216,343070,2,0,P|192:229|210:258,1,55.9999982910157
208,254,343220,2,0,P|222:275|265:295,1,51.999997619629
248,292,343370,86,0,P|278:293|301:280,1,47.9999985351563,8|0,0:0|0:0,0:0:0:0:
297,283,343520,2,0,P|321:275|343:275,1,40
339,275,343670,2,0,P|363:276|398:264,1,47.9999985351563
389,268,343820,1,0,0:0:0:0:
265,223,343973,1,0,0:0:0:0:
329,151,344126,1,0,0:0:0:0:
357,211,344287,5,2,0:0:0:0:
252,153,344435,1,0,0:0:0:0:
383,110,344584,1,0,0:0:0:0:
265,223,344732,1,0,0:0:0:0:
302,47,344881,1,0,0:0:0:0:
389,268,345029,1,0,0:0:0:0:
156,79,345178,6,0,P|135:123|141:182,1,80,8|0,0:0|0:0,0:0:0:0:
135,157,345328,2,0,P|135:192|113:226,1,60.0000022888184
124,218,345478,2,0,P|119:243|177:286,1,100
173,288,345628,2,0,P|203:294|231:328,1,60.0000022888184
227,316,345778,2,0,P|254:341|344:327,1,120.000004577637
336,334,345928,2,0,P|366:321|398:323,1,60
397,322,346078,86,0,P|461:301|476:248,1,111.999996582031,2|0,0:0|0:0,0:0:0:0:
477,259,346228,2,0,P|472:228|420:192,1,88.000002685547
426,193,346378,2,0,P|394:197|367:222,1,64
368,221,346528,6,0,P|342:238|281:218,1,95.9999970703126
281,218,346678,2,0,P|270:182|291:138,1,71.9999978027344
282,147,346828,2,0,P|308:131|338:133,1,47.9999985351563
329,130,346987,6,0,P|361:121|381:74,1,80,8|0,0:0|0:0,0:0:0:0:
381,77,347122,2,0,P|367:44|331:33,1,60.0000022888184
343,33,347272,2,0,P|316:35|299:47,1,40
302,45,347422,86,0,P|269:55|222:41,1,64
236,50,347572,2,0,P|209:49|176:66,1,47.9999985351563
186,58,347722,2,0,P|163:63|146:63,1,32
150,63,347872,6,0,P|125:67|105:80,1,40,2|0,0:0|0:0,0:0:0:0:
110,77,348022,2,0,P|98:106|108:142,1,47.9999985351563
100,126,348172,2,0,P|105:162|92:198,1,64
96,192,348322,2,0,P|81:212|36:233,1,71.9999978027344
36,233,348472,2,0,P|15:254|26:317,1,88.000002685547
21,312,348622,2,0,P|59:332|113:269,1,95.9999970703126
107,307,348772,6,0,P|176:275|244:304,1,120.000004577637,8|0,0:0|0:0,0:0:0:0:
220,286,348922,2,0,P|266:279|288:254,1,60.0000022888184
279,269,349072,2,0,P|294:239|271:174,1,100
273,175,349222,2,0,P|258:140|273:102,1,60.0000022888184
263,115,349372,2,0,P|258:52|195:31,1,120.000004577637
208,29,349522,1,0,0:0:0:0:
391,157,349677,86,0,P|443:125|437:68,1,120.000004577637,2|0,0:0|0:0,0:0:0:0:
437,68,349827,2,0,P|369:49|338:82,1,100
347,65,349977,2,0,P|336:98|354:144,1,80
394,161,350127,6,0,P|446:129|440:72,1,120.000004577637
440,72,350266,2,0,P|372:53|341:86,1,100
350,69,350406,2,0,P|339:102|360:152,1,90.1499974308015
397,165,350587,6,0,P|449:133|443:76,1,120.000004577637,8|0,0:0|0:0,0:0:0:0:
443,76,350737,2,0,P|375:57|344:90,1,100
353,73,350887,2,0,P|342:106|360:152,1,80
400,169,351037,86,0,P|452:137|446:80,1,120.000004577637
446,80,351187,2,0,P|378:61|347:94,1,100
356,77,351337,1,0,0:0:0:0:
430,289,351467,6,0,P|447:341|407:374,1,100,2|0,0:0|0:0,0:0:0:0:
416,372,351637,2,0,P|370:360|356:322,1,80
356,329,351787,2,0,P|363:303|391:281,1,60.0000022888184
433,287,351937,6,0,P|450:339|410:372,1,100
419,370,352087,2,0,P|373:358|359:320,1,80
359,327,352237,2,0,P|366:301|394:279,1,60.0000022888184
436,285,352387,86,0,P|453:337|413:370,1,100,8|0,0:0|0:0,0:0:0:0:
422,368,352537,2,0,P|376:356|362:318,1,80
362,325,352687,2,0,P|369:299|397:277,1,60.0000022888184
439,283,352837,6,0,P|456:335|416:368,1,100
425,366,352987,2,0,P|379:354|365:316,1,80
365,323,353137,1,0,0:0:0:0:
271,129,353277,6,0,P|220:124|178:150,1,80,2|0,0:0|0:0,0:0:0:0:
192,138,353437,2,0,P|177:162|176:207,1,64
175,201,353587,2,0,P|169:236|152:258,1,51.999997619629
159,253,353737,86,0,P|149:280|150:298,1,40
149,295,353887,2,0,P|159:320|185:337,1,47.9999985351563
178,335,354037,2,0,P|211:336|234:327,1,40
221,333,354187,6,0,P|250:335|275:349,1,40,8|0,0:0|0:0,0:0:0:0:
274,347,354322,2,0,P|259:333|241:325,1,40
225,323,354472,2,0,P|254:325|279:339,1,40
278,337,354622,2,0,P|263:323|245:315,1,40
229,313,354772,1,0,0:0:0:0:
275,243,354922,1,0,0:0:0:0:
370,363,355077,6,0,P|414:358|467:266,1,135.000005149841,2|0,0:0|0:0,0:0:0:0:
453,231,355377,1,8,0:0:0:0:
294,368,355527,2,0,L|238:344,1,60,8|0,0:0|0:0,0:0:0:0:
328,300,355827,1,0,0:0:0:0:
201,138,355980,86,0,P|162:137|125:153,1,80,8|0,0:0|0:0,0:0:0:0:
112,171,356130,2,0,P|138:136|177:116,1,88.000002685547,8|0,0:0|0:0,0:0:0:0:
199,117,356280,2,0,P|149:115|104:133,1,95.9999970703126,8|0,0:0|0:0,0:0:0:0:
93,149,356430,2,0,P|119:114|158:94,1,88.000002685547,8|0,0:0|0:0,0:0:0:0:
185,94,356580,2,0,P|127:91|74:113,1,103.999995239258,8|0,0:0|0:0,0:0:0:0:
70,125,356730,2,0,P|96:90|135:70,1,88.000002685547,8|0,0:0|0:0,0:0:0:0:
177,65,356887,6,0,P|260:100|200:326,1,360.000013732911,6|0,0:0|0:0,0:0:0:0:
217,320,357487,37,0,0:0:0:0:
145,355,357587,1,0,0:0:0:0:
112,282,357687,1,0,0:0:0:0:
40,317,357787,86,0,B|16:232|67:194|114:202|116:202|119:202|172:220|223:209|246:125,1,311.999985717774,8|0,0:0|0:0,0:0:0:0:
243,127,358462,1,0,0:0:0:0:
240,88,358537,1,0,0:0:0:0:
210,52,358612,1,0,0:0:0:0:
151,45,358677,86,0,P|110:67|108:172,1,155.999992858887,2|0,0:0|0:0,0:0:0:0:
204,210,359127,1,0,0:0:0:0:
306,152,359277,1,0,0:0:0:0:
306,152,359577,6,0,P|363:199|353:273,1,155.999992858887,8|0,0:0|0:0,0:0:0:0:
255,322,360011,1,0,0:0:0:0:
152,266,360156,1,0,0:0:0:0:
152,266,360477,5,2,0:0:0:0:
296,227,360627,1,0,0:0:0:0:
121,188,360777,2,0,P|67:275|212:328,1,272.999987503052
255,322,361387,85,8,0:0:0:0:
255,322,361687,2,0,P|230:288|194:274,2,77.9999964294435
363,366,362137,1,0,0:0:0:0:
278,217,362287,6,0,P|282:168|424:126,1,194.999991073609,2|0,0:0|0:0,0:0:0:0:
436,130,362737,1,0,0:0:0:0:
436,130,363037,1,0,0:0:0:0:
278,217,363187,2,0,P|232:196|211:149,1,90,8|0,0:0|0:0,0:0:0:0:
211,87,363487,37,0,0:0:0:0:
147,39,363587,1,0,0:0:0:0:
63,66,363687,1,0,0:0:0:0:
67,162,363787,101,0,0:0:0:0:
78,178,363837,1,0,0:0:0:0:
96,193,363887,1,0,0:0:0:0:
120,202,363937,1,0,0:0:0:0:
151,202,363987,1,0,0:0:0:0:
184,191,364037,1,0,0:0:0:0:
213,163,364087,102,0,P|278:137|360:188,1,161.999995056153,2|0,0:0|0:0,0:0:0:0:
356,203,364387,2,0,B|316:158|355:123|366:80|420:117|423:117|426:118|543:147|580:55|474:-13|394:-39|301:-8|359:79|412:142|489:184|452:239|438:255|381:278|361:279|341:278,1,525
315,260,364987,85,8,0:0:0:0:
315,260,365287,2,0,P|324:304|366:338,2,77.9999964294435
286,182,365687,53,0,0:0:0:0:
206,160,365787,2,0,L|202:125,1,25.9999988098145
145,216,365887,70,0,B|186:276|314:256|289:175|285:175|287:166|281:93|374:61|476:105|454:219,1,429.714951690372,2|0,0:0|0:0,0:0:0:0:
447,270,366787,6,0,P|396:246|372:193,1,116.999994644165,8|0,0:0|0:0,0:0:0:0:
372,162,367087,2,0,L|384:82,1,77.9999964294435
206,160,367387,2,0,L|223:277,1,107.999996704102
268,50,367687,86,0,P|231:33|187:36,1,80,2|0,0:0|0:0,0:0:0:0:
189,37,367837,2,0,P|161:45|117:33,1,64
124,37,367987,2,0,P|95:33|65:43,1,51.999997619629
70,41,368137,6,0,P|52:62|45:88,1,40
47,77,368287,2,0,P|46:100|57:125,1,47.9999985351563
58,126,368437,2,0,P|63:151|59:176,1,40
62,169,368587,6,0,P|59:195|65:214,1,40,8|0,0:0|0:0,0:0:0:0:
64,212,368737,2,0,P|82:233|100:237,1,35.9999989013672
93,237,368887,2,0,P|117:237|136:231,1,32
128,234,369037,86,0,P|157:233|183:242,1,40
171,237,369187,2,0,P|196:241|233:237,1,47.9999985351563
222,239,369337,2,0,P|245:230|269:210,1,40
261,219,369487,6,0,P|316:202|383:285,1,155.999992858887,2|0,0:0|0:0,0:0:0:0:
320,362,369937,1,0,0:0:0:0:
320,362,370237,2,0,L|280:366,1,38.9999982147218
452,299,370387,5,8,0:0:0:0:
309,274,370517,1,0,0:0:0:0:
386,351,370667,1,0,0:0:0:0:
382,263,370817,1,0,0:0:0:0:
266,216,370967,1,0,0:0:0:0:
320,362,371117,1,0,0:0:0:0:
344,176,371267,86,0,P|273:130|184:176,1,155.999992858887,2|0,0:0|0:0,0:0:0:0:
168,214,371717,1,0,0:0:0:0:
95,242,371867,1,0,0:0:0:0:
23,212,372017,2,0,L|-1:172,1,38.9999982147218
168,214,372187,6,0,P|167:275|101:326,1,116.999994644165,8|0,0:0|0:0,0:0:0:0:
85,324,372487,1,0,0:0:0:0:
225,314,372637,1,0,0:0:0:0:
85,324,372787,1,0,0:0:0:0:
197,379,372937,2,0,L|243:383,1,38.9999982147218
168,214,373087,6,0,P|177:139|245:108,1,155.999992858887,2|0,0:0|0:0,0:0:0:0:
346,148,373537,1,0,0:0:0:0:
369,263,373687,1,0,0:0:0:0:
369,263,373987,86,0,P|444:268|487:207,1,155.999992858887,8|0,0:0|0:0,0:0:0:0:
459,103,374437,1,0,0:0:0:0:
351,57,374587,1,0,0:0:0:0:
357,132,374737,1,8,0:0:0:0:
360,131,374812,1,8,0:0:0:0:
363,130,374887,6,0,P|364:82|342:48,1,77.9999964294435,2|0,0:0|0:0,0:0:0:0:
247,112,375187,2,0,B|211:163|111:143|94:74|116:18|148:3|200:2|216:12|210:58|203:71|185:73,1,293.999991027832
166,127,375787,5,8,0:0:0:0:
166,127,376087,2,0,P|182:162|241:197,1,77.9999964294435
321,181,376387,1,0,0:0:0:0:
230,261,376537,1,8,0:0:0:0:
229,264,376612,1,8,0:0:0:0:
228,267,376687,86,0,P|246:317|329:340,1,116.999994644165,2|0,0:0|0:0,0:0:0:0:
305,344,376987,1,0,0:0:0:0:
309,344,377137,1,0,0:0:0:0:
313,344,377287,1,0,0:0:0:0:
317,344,377437,1,0,0:0:0:0:
321,181,377587,5,8,0:0:0:0:
423,299,377737,1,0,0:0:0:0:
301,270,377887,1,0,0:0:0:0:
399,221,378037,1,0,0:0:0:0:
256,206,378187,2,0,P|231:238|223:269,1,60
125,355,378487,6,0,P|94:316|20:318,1,116.999994644165,2|0,0:0|0:0,0:0:0:0:
21,321,378787,2,0,B|107:277|109:202|55:148|52:149|48:149|6:52|121:-23|210:64,1,420
225,116,379387,85,8,0:0:0:0:
225,116,379687,2,0,P|180:125|138:107,2,77.9999964294435
315,7,380137,1,8,0:0:0:0:
313,163,380287,5,2,0:0:0:0:
313,163,380587,1,0,0:0:0:0:
354,70,380737,1,0,0:0:0:0:
384,191,380887,1,0,0:0:0:0:
425,57,381037,1,0,0:0:0:0:
448,208,381187,6,0,P|427:241|398:256,1,68.0000012969971,8|0,0:0|0:0,0:0:0:0:
398,255,381337,2,0,P|362:276|346:307,1,71.9999978027344
348,305,381487,2,0,P|332:338|295:360,1,75.9999979705811
296,359,381637,2,0,P|257:359|218:333,1,80
218,333,381787,85,8,0:0:0:0:
212,326,381862,1,8,0:0:0:0:
206,319,381937,1,8,0:0:0:0:
200,312,382012,1,8,0:0:0:0:
195,305,382087,6,0,B|107:215|63:201|28:236|19:289|61:371|148:271|148:271|200:204|271:190|324:212|324:212|298:129|269:112|187:77|138:227|84:192|30:140|28:56|57:12|161:-1|181:69,1,1036.72497045422,2|0,0:0|0:0,0:0:0:0:
126,90,383887,2,0,B|104:179|186:248|293:258|340:175|340:175|193:176|233:12|269:-2|352:7|343:73|320:100|320:100|378:98|411:115|421:150|399:201|467:225|518:202|536:174|543:78|425:54|414:173|414:173|411:223|373:267|314:298|269:299,1,1244.06987912156,2|0,0:0|0:0,0:0:0:0:
215,296,385687,6,0,P|146:273|90:226,1,120,2|0,0:0|0:0,0:0:0:0:
353,64,385987,2,0,L|440:48,1,77.9999964294435
354,48,386287,1,0,0:0:0:0:
493,206,386437,1,0,0:0:0:0:
208,301,386587,86,0,P|139:278|83:231,1,120,8|0,0:0|0:0,0:0:0:0:
353,64,386887,2,0,L|440:48,1,77.9999964294435
354,48,387187,2,0,L|441:32,1,77.9999964294435
201,306,387487,6,0,P|132:283|76:236,1,120,2|0,0:0|0:0,0:0:0:0:
353,64,387787,2,0,L|440:48,1,77.9999964294435
354,48,388087,1,0,0:0:0:0:
495,208,388237,1,0,0:0:0:0:
194,311,388387,6,0,P|125:288|69:241,1,120,8|0,0:0|0:0,0:0:0:0:
353,64,388687,2,0,L|440:48,1,77.9999964294435
354,48,388987,2,0,L|441:32,1,77.9999964294435
187,316,389287,86,0,P|118:293|62:246,1,120,2|0,0:0|0:0,0:0:0:0:
353,64,389587,2,0,L|440:48,1,77.9999964294435
354,48,389887,1,0,0:0:0:0:
495,208,390037,1,0,0:0:0:0:
180,321,390187,6,0,P|111:298|55:251,1,120,8|0,0:0|0:0,0:0:0:0:
353,64,390487,2,0,L|440:48,1,77.9999964294435
354,48,390787,2,0,L|441:32,1,77.9999964294435
80,125,391087,6,0,P|60:196|73:270,1,150,2|0,0:0|0:0,0:0:0:0:
353,64,391387,2,0,L|440:48,1,77.9999964294435
354,48,391687,1,0,0:0:0:0:
497,210,391837,1,0,0:0:0:0:
72,120,391987,86,0,P|52:191|65:265,1,150,8|0,0:0|0:0,0:0:0:0:
353,64,392287,2,0,L|440:48,1,77.9999964294435
354,48,392587,1,0,0:0:0:0:
499,212,392737,1,0,0:0:0:0:
72,120,392887,6,0,P|135:66|211:63,1,120.000004577637,2|0,0:0|0:0,0:0:0:0:
173,59,393037,2,0,P|201:63|257:127,1,108.000000411987
256,122,393187,2,0,P|273:148|356:166,1,95.9999970703126
336,171,393337,6,0,P|365:179|391:262,1,111.999996582031,2|0,0:0|0:0,0:0:0:0:
396,252,393487,2,0,P|383:282|312:304,1,100
320,305,393637,2,0,P|284:284|270:239,1,88.000002685547
270,238,393787,86,0,P|262:205|175:183,1,103.999995239258,8|0,0:0|0:0,0:0:0:0:
200,174,393937,2,0,P|169:186|146:241,1,92.0000017547608
146,241,394087,2,0,P|139:271|88:297,1,80
96,297,394237,6,0,P|70:292|41:227,1,95.9999970703126
39,231,394387,2,0,P|60:197|113:189,1,83.9999974365235
104,186,394537,2,0,P|137:178|160:141,1,71.9999978027344
159,145,394672,6,0,P|178:119|234:108,1,88.000002685547,2|0,0:0|0:0,0:0:0:0:
234,108,394822,2,0,P|273:100|302:67,1,75.9999979705811
300,72,394972,2,0,P|332:49|377:51,1,64
360,47,395122,86,0,P|395:67|407:108,1,80,2|0,0:0|0:0,0:0:0:0:
408,106,395272,2,0,P|418:133|458:157,1,68.0000012969971
453,157,395422,2,0,P|482:184|488:205,1,55.9999982910157
488,203,395572,6,0,P|487:228|451:269,1,71.9999978027344,8|0,0:0|0:0,0:0:0:0:
457,267,395722,2,0,P|432:275|384:258,1,60.0000022888184
396,267,395872,2,0,P|359:268|335:282,1,47.9999985351563
346,274,396022,6,0,P|320:278|276:260,1,64
281,265,396172,2,0,P|251:256|226:259,1,51.999997619629
227,259,396322,2,0,P|194:260|177:255,1,40
184,257,396487,86,0,B|146:245|109:247|80:289|31:309|0:268|-23:230|-21:197|-3:157|33:140|59:137|81:142|112:166,1,360.599975967408,2|8,0:0|0:0,0:0:0:0:
114,171,397537,1,0,0:0:0:0:
124,186,397687,53,0,0:0:0:0:
204,196,397787,1,0,0:0:0:0:
250,121,397887,1,0,0:0:0:0:
341,71,397987,101,0,0:0:0:0:
359,78,398037,1,0,0:0:0:0:
376,89,398087,1,0,0:0:0:0:
390,103,398137,1,0,0:0:0:0:
401,120,398187,2,0,L|416:158,1,25.9999988098145
321,256,398287,86,0,P|320:301|458:326,1,194.999991073609,2|0,0:0|0:0,0:0:0:0:
456,323,398737,2,0,B|401:331|354:269|406:238|406:235|406:232|362:158|320:154|287:173|255:212|246:228|247:269,1,300,2|0,0:0|0:0,0:0:0:0:
248,271,399177,5,8,0:0:0:0:
188,140,399327,1,0,0:0:0:0:
123,211,399477,1,0,0:0:0:0:
179,126,399627,1,0,0:0:0:0:
114,197,399777,1,0,0:0:0:0:
170,112,399927,1,0,0:0:0:0:
56,235,400067,86,0,P|99:279|180:255,1,150,2|0,0:0|0:0,0:0:0:0:
228,275,400517,2,0,P|101:331|1:204,1,300,2|0,0:0|0:0,0:0:0:0:
19,152,400977,2,0,B|80:88|141:102|174:155|178:155|181:155|201:213|257:245|372:200|411:109|343:17,1,495.824985869408,8|0,0:0|0:0,0:0:0:0:
289,10,401877,5,2,0:0:0:0:
247,23,402177,2,0,P|248:53|257:81,1,60
356,37,402477,1,0,0:0:0:0:
116,40,402777,5,8,0:0:0:0:
172,153,402927,1,0,0:0:0:0:
125,23,403077,1,0,0:0:0:0:
47,172,403227,1,0,0:0:0:0:
169,85,403377,1,0,0:0:0:0:
64,61,403527,1,0,0:0:0:0:
172,153,403677,86,0,B|213:157|262:126|242:56|253:25|294:9|361:25|397:63|413:102|360:173|359:192|291:128|249:189|234:219|233:251,1,468.779947298587,2|8,0:0|0:0,0:0:0:0:
235,238,405177,1,0,0:0:0:0:
172,153,405327,1,0,0:0:0:0:
301,187,405477,6,0,P|303:291|185:308,2,234.389973649294,2|2|8,0:0|0:0|0:0,0:0:0:0:
301,187,406977,1,0,0:0:0:0:
195,314,407127,1,0,0:0:0:0:
396,183,407277,6,0,P|382:134|265:97,1,180,2|2,0:0|0:0,0:0:0:0:
112,232,408177,86,0,P|51:174|67:67,1,180.000006866455,8|0,0:0|0:0,0:0:0:0:
230,236,409060,6,0,P|227:266|211:302,2,60,2|2|2,0:0|0:0|0:0,0:0:0:0:
159,58,409964,6,0,L|158:32,2,24,2|2|2,0:0|0:0|0:0,0:0:0:0:
154,316,410869,85,6,0:0:0:0:
184,350,410938,1,2,0:0:0:0:
229,357,411008,1,2,0:0:0:0:
267,332,411078,1,2,0:0:0:0:
281,288,411148,1,6,0:0:0:0:
267,245,411217,1,2,0:0:0:0:
275,197,411287,1,2,0:0:0:0:
306,163,411357,1,2,0:0:0:0:
350,150,411427,2,0,L|396:158,3,35.9999989013672,6|2|2|2,0:0|0:0|0:0|0:0,0:0:0:0:
348,235,411706,5,14,0:0:0:0:
304,220,411775,1,2,0:0:0:0:
274,184,411845,1,2,0:0:0:0:
267,139,411915,1,2,0:0:0:0:
238,101,411985,1,6,0:0:0:0:
195,85,412055,1,2,0:0:0:0:
150,93,412125,1,2,0:0:0:0:
114,123,412194,1,2,0:0:0:0:
100,167,412264,2,0,L|97:226,3,35.9999989013672,6|2|2|2,0:0|0:0|0:0|0:0,0:0:0:0:
189,176,412543,5,6,0:0:0:0:
223,186,412612,1,2,0:0:0:0:
251,208,412682,1,2,0:0:0:0:
270,238,412752,1,2,0:0:0:0:
277,273,412822,1,6,0:0:0:0:
298,302,412892,1,2,0:0:0:0:
328,321,412962,1,2,0:0:0:0:
364,327,413032,1,2,0:0:0:0:
399,320,413101,2,0,L|438:298,3,35.9999989013672,6|2|2|2,0:0|0:0|0:0|0:0,0:0:0:0:
359,238,413380,85,14,0:0:0:0:
326,223,413449,1,2,0:0:0:0:
290,219,413519,1,2,0:0:0:0:
256,228,413589,1,2,0:0:0:0:
226,248,413659,1,2,0:0:0:0:
204,277,413728,1,2,0:0:0:0:
173,293,413799,1,2,0:0:0:0:
137,296,413869,1,2,0:0:0:0:
103,284,413938,2,0,L|53:246,3,36.059996496277,2|2|2|2,0:0|0:0|0:0|0:0,0:0:0:0:
151,208,414217,5,6,0:0:0:0:
157,183,414286,1,2,0:0:0:0:
164,159,414356,1,2,0:0:0:0:
170,134,414426,1,2,0:0:0:0:
177,110,414496,6,0,L|187:70,1,35.9999989013672,2|2,0:0|0:0,0:0:0:0:
78,94,414636,2,0,L|68:128,1,35.9999989013672,2|2,0:0|0:0,0:0:0:0:
245,168,414775,85,6,0:0:0:0:
268,158,414844,1,2,0:0:0:0:
291,149,414914,1,2,0:0:0:0:
315,140,414984,1,2,0:0:0:0:
339,130,415055,5,10,0:0:0:0:
329,183,415124,1,2,0:0:0:0:
320,236,415194,1,2,0:0:0:0:
310,289,415264,1,2,0:0:0:0:
301,342,415334,6,0,L|294:377,1,35.9999989013672,14|2,0:0|0:0,0:0:0:0:
473,348,415473,2,0,L|479:312,1,35.9999989013672,10|2,0:0|0:0,0:0:0:0:
292,347,415613,86,0,L|285:382,1,35.9999989013672,10|2,0:0|0:0,0:0:0:0:
464,353,415752,2,0,L|470:317,1,35.9999989013672,10|2,0:0|0:0,0:0:0:0:
246,281,415892,5,6,0:0:0:0:
226,264,415961,1,2,0:0:0:0:
207,248,416031,1,2,0:0:0:0:
188,232,416101,1,2,0:0:0:0:
168,216,416171,6,0,L|140:192,1,35.9999989013672,2|2,0:0|0:0,0:0:0:0:
243,158,416310,2,0,L|270:181,1,35.9999989013672,2|2,0:0|0:0,0:0:0:0:
134,303,416450,85,6,0:0:0:0:
110,294,416519,1,2,0:0:0:0:
86,286,416589,1,2,0:0:0:0:
62,278,416659,1,2,0:0:0:0:
38,270,416729,5,10,0:0:0:0:
42,216,416798,1,2,0:0:0:0:
47,162,416868,1,2,0:0:0:0:
52,108,416938,1,2,0:0:0:0:
56,54,417008,6,0,L|59:13,1,35.9999989013672,10|2,0:0|0:0,0:0:0:0:
140,192,417148,2,0,L|136:227,1,35.9999989013672,10|2,0:0|0:0,0:0:0:0:
50,49,417287,86,0,L|53:8,1,35.9999989013672,10|2,0:0|0:0,0:0:0:0:
138,200,417427,2,0,L|134:235,1,35.9999989013672,10|2,0:0|0:0,0:0:0:0:
127,30,417566,5,6,0:0:0:0:
172,21,417635,1,2,0:0:0:0:
218,29,417705,1,2,0:0:0:0:
257,53,417775,1,2,0:0:0:0:
285,91,417845,1,6,0:0:0:0:
298,135,417914,1,2,0:0:0:0:
329,169,417984,1,2,0:0:0:0:
372,187,418054,1,2,0:0:0:0:
418,185,418124,2,0,L|464:163,3,36.059996496277,6|2|2|2,0:0|0:0|0:0|0:0,0:0:0:0:
380,93,418403,5,14,0:0:0:0:
333,95,418472,1,2,0:0:0:0:
296,122,418542,1,2,0:0:0:0:
278,164,418612,1,2,0:0:0:0:
283,212,418682,1,6,0:0:0:0:
271,256,418752,1,2,0:0:0:0:
241,291,418822,1,2,0:0:0:0:
198,308,418892,1,2,0:0:0:0:
151,305,418962,2,0,L|113:290,3,35.9999989013672,6|2|2|2,0:0|0:0|0:0|0:0,0:0:0:0:
184,209,419241,85,6,0:0:0:0:
152,192,419310,1,2,0:0:0:0:
117,186,419380,1,2,0:0:0:0:
81,191,419450,1,2,0:0:0:0:
47,182,419520,1,6,0:0:0:0:
21,158,419590,1,2,0:0:0:0:
8,124,419660,1,2,0:0:0:0:
12,89,419729,1,2,0:0:0:0:
31,58,419799,2,0,L|74:33,3,35.9999989013672,6|2|2|2,0:0|0:0|0:0|0:0,0:0:0:0:
86,115,420078,5,14,0:0:0:0:
109,142,420147,1,2,0:0:0:0:
140,159,420217,1,2,0:0:0:0:
176,163,420287,1,2,0:0:0:0:
211,154,420357,1,2,0:0:0:0:
240,133,420426,1,2,0:0:0:0:
276,128,420497,1,2,0:0:0:0:
311,134,420567,1,2,0:0:0:0:
342,153,420636,2,0,L|376:187,3,35.9999989013672,2|2|2|2,0:0|0:0|0:0|0:0,0:0:0:0:
278,227,420915,5,6,0:0:0:0:
269,250,420984,1,2,0:0:0:0:
260,274,421054,1,2,0:0:0:0:
252,298,421124,1,2,0:0:0:0:
243,321,421194,86,0,L|230:354,1,35.9999989013672,2|2,0:0|0:0,0:0:0:0:
340,344,421334,2,0,L|352:310,1,35.9999989013672,2|2,0:0|0:0,0:0:0:0:
209,200,421473,5,6,0:0:0:0:
185,191,421542,1,2,0:0:0:0:
161,183,421612,1,2,0:0:0:0:
137,174,421682,1,2,0:0:0:0:
114,166,421752,5,10,0:0:0:0:
164,147,421821,1,2,0:0:0:0:
215,129,421891,1,2,0:0:0:0:
266,110,421961,1,2,0:0:0:0:
316,92,422031,86,0,L|352:78,1,35.9999989013672,14|2,0:0|0:0,0:0:0:0:
313,259,422171,2,0,L|279:271,1,35.9999989013672,10|2,0:0|0:0,0:0:0:0:
313,83,422310,6,0,L|349:69,1,35.9999989013672,10|2,0:0|0:0,0:0:0:0:
310,250,422450,2,0,L|276:262,1,35.9999989013672,10|2,0:0|0:0,0:0:0:0:
198,52,422589,5,6,0:0:0:0:
173,45,422658,1,2,0:0:0:0:
149,38,422728,1,2,0:0:0:0:
124,32,422798,1,2,0:0:0:0:
100,25,422869,86,0,L|65:15,1,35.9999989013672,2|2,0:0|0:0,0:0:0:0:
150,110,423008,2,0,L|184:119,1,35.9999989013672,2|2,0:0|0:0,0:0:0:0:
33,162,423148,5,6,0:0:0:0:
26,186,423217,1,2,0:0:0:0:
20,210,423287,1,2,0:0:0:0:
13,235,423357,1,2,0:0:0:0:
7,259,423427,5,10,0:0:0:0:
60,254,423496,1,2,0:0:0:0:
114,249,423566,1,2,0:0:0:0:
168,244,423636,1,2,0:0:0:0:
222,240,423706,86,0,L|260:236,1,35.9999989013672,14|2,0:0|0:0,0:0:0:0:
182,73,423845,2,0,L|146:76,1,35.9999989013672,10|2,0:0|0:0,0:0:0:0:
228,248,423985,6,0,L|266:244,1,35.9999989013672,10|2,0:0|0:0,0:0:0:0:
188,81,424124,2,0,L|152:84,1,35.9999989013672,10|2,0:0|0:0,0:0:0:0:
235,319,424264,5,6,0:0:0:0:
281,321,424333,1,2,0:0:0:0:
321,299,424403,1,2,0:0:0:0:
341,257,424473,1,2,0:0:0:0:
336,212,424543,1,6,0:0:0:0:
306,177,424612,1,2,0:0:0:0:
299,130,424682,1,2,0:0:0:0:
318,88,424752,1,2,0:0:0:0:
356,62,424822,2,0,L|406:48,3,35.9999989013672,6|2|2|2,0:0|0:0|0:0|0:0,0:0:0:0:
387,143,425101,85,14,0:0:0:0:
340,146,425170,1,2,0:0:0:0:
299,125,425240,1,2,0:0:0:0:
275,86,425310,1,2,0:0:0:0:
234,62,425380,1,6,0:0:0:0:
187,61,425450,1,2,0:0:0:0:
146,82,425520,1,2,0:0:0:0:
119,120,425589,1,2,0:0:0:0:
114,166,425659,2,0,L|122:212,3,36.059996496277,6|2|2|2,0:0|0:0|0:0|0:0,0:0:0:0:
210,157,425938,5,6,0:0:0:0:
234,183,426007,1,2,0:0:0:0:
266,199,426077,1,2,0:0:0:0:
301,203,426147,1,2,0:0:0:0:
336,195,426217,1,6,0:0:0:0:
366,174,426286,1,2,0:0:0:0:
401,169,426357,1,2,0:0:0:0:
436,177,426427,1,2,0:0:0:0:
465,198,426496,2,0,L|489:240,3,36.059996496277,6|2|2|2,0:0|0:0|0:0|0:0,0:0:0:0:
399,253,426775,5,14,0:0:0:0:
378,223,426844,1,2,0:0:0:0:
348,205,426914,1,2,0:0:0:0:
312,202,426984,1,2,0:0:0:0:
279,214,427054,1,2,0:0:0:0:
254,240,427123,1,2,0:0:0:0:
243,274,427193,1,2,0:0:0:0:
247,309,427263,1,2,0:0:0:0:
267,339,427334,2,0,L|305:377,3,35.9999989013672,6|2|2|2,0:0|0:0|0:0|0:0,0:0:0:0:
326,283,427613,85,6,0:0:0:0:
317,259,427682,1,2,0:0:0:0:
308,235,427752,1,2,0:0:0:0:
300,211,427822,1,2,0:0:0:0:
291,188,427892,6,0,L|276:149,1,35.9999989013672,2|2,0:0|0:0,0:0:0:0:
205,243,428031,2,0,L|217:276,1,35.9999989013672,2|2,0:0|0:0,0:0:0:0:
347,147,428171,5,6,0:0:0:0:
343,122,428240,1,2,0:0:0:0:
339,97,428310,1,2,0:0:0:0:
336,72,428380,1,2,0:0:0:0:
332,47,428450,85,10,0:0:0:0:
285,74,428519,1,2,0:0:0:0:
238,101,428589,1,2,0:0:0:0:
191,128,428659,1,2,0:0:0:0:
144,155,428729,6,0,L|112:173,1,35.9999989013672,14|2,0:0|0:0,0:0:0:0:
15,18,428869,2,0,L|46:0,1,35.9999989013672,10|2,0:0|0:0,0:0:0:0:
141,166,429008,6,0,L|109:184,1,35.9999989013672,10|2,0:0|0:0,0:0:0:0:
12,29,429148,2,0,L|43:11,1,35.9999989013672,10|2,0:0|0:0,0:0:0:0:
204,191,429287,85,6,0:0:0:0:
197,215,429356,1,2,0:0:0:0:
190,239,429426,1,2,0:0:0:0:
184,264,429496,1,2,0:0:0:0:
177,288,429566,6,0,L|167:322,1,35.9999989013672,2|2,0:0|0:0,0:0:0:0:
69,274,429706,2,0,L|78:239,1,35.9999989013672,2|2,0:0|0:0,0:0:0:0:
255,276,429845,5,6,0:0:0:0:
271,295,429914,1,2,0:0:0:0:
287,314,429984,1,2,0:0:0:0:
303,333,430054,1,2,0:0:0:0:
319,353,430124,85,10,0:0:0:0:
328,299,430193,1,2,0:0:0:0:
337,246,430263,1,2,0:0:0:0:
347,193,430333,1,2,0:0:0:0:
356,140,430403,6,0,L|363:99,1,35.9999989013672,14|2,0:0|0:0,0:0:0:0:
426,288,430543,2,0,L|419:323,1,35.9999989013672,10|2,0:0|0:0,0:0:0:0:
349,134,430682,6,0,L|356:93,1,35.9999989013672,10|2,0:0|0:0,0:0:0:0:
414,301,430822,2,0,L|407:336,1,35.9999989013672,10|2,0:0|0:0,0:0:0:0:
434,96,430962,85,6,0:0:0:0:
419,52,431031,1,2,0:0:0:0:
383,23,431101,1,2,0:0:0:0:
337,20,431171,1,2,0:0:0:0:
297,43,431241,1,6,0:0:0:0:
276,84,431310,1,2,0:0:0:0:
240,112,431380,1,2,0:0:0:0:
193,117,431450,1,2,0:0:0:0:
149,101,431520,2,0,L|108:62,3,35.9999989013672,6|2|2|2,0:0|0:0|0:0|0:0,0:0:0:0:
207,29,431799,5,14,0:0:0:0:
234,66,431868,1,2,0:0:0:0:
240,112,431938,1,2,0:0:0:0:
223,155,432008,1,2,0:0:0:0:
187,184,432078,1,6,0:0:0:0:
141,192,432147,1,2,0:0:0:0:
108,225,432218,1,2,0:0:0:0:
95,269,432288,1,2,0:0:0:0:
106,314,432357,2,0,L|141:352,3,35.9999989013672,6|2|2|2,0:0|0:0|0:0|0:0,0:0:0:0:
180,270,432636,5,6,0:0:0:0:
227,245,432705,1,2,0:0:0:0:
280,247,432775,1,2,0:0:0:0:
326,274,432845,1,2,0:0:0:0:
351,321,432915,1,6,0:0:0:0:
398,344,432985,1,2,0:0:0:0:
450,334,433055,1,2,0:0:0:0:
487,296,433125,1,2,0:0:0:0:
494,243,433194,2,0,L|489:189,3,35.9999989013672,6|2|2|2,0:0|0:0|0:0|0:0,0:0:0:0:
409,260,433473,85,14,0:0:0:0:
364,230,433542,1,2,0:0:0:0:
311,224,433612,1,2,0:0:0:0:
260,241,433682,1,2,0:0:0:0:
223,280,433752,1,2,0:0:0:0:
170,289,433822,1,2,0:0:0:0:
121,269,433892,1,2,0:0:0:0:
92,224,433962,1,2,0:0:0:0:
93,171,434031,2,0,L|108:117,3,36.059996496277,2|2|2|2,0:0|0:0|0:0|0:0,0:0:0:0:
180,197,434310,5,6,0:0:0:0:
196,177,434379,1,2,0:0:0:0:
212,158,434449,1,2,0:0:0:0:
228,139,434519,1,2,0:0:0:0:
244,119,434589,6,0,L|270:87,1,35.9999989013672,2|2,0:0|0:0,0:0:0:0:
163,56,434729,2,0,L|139:83,1,35.9999989013672,2|2,0:0|0:0,0:0:0:0:
285,191,434868,85,6,0:0:0:0:
306,177,434937,1,2,0:0:0:0:
327,163,435007,1,2,0:0:0:0:
348,149,435077,1,2,0:0:0:0:
369,135,435148,5,10,0:0:0:0:
378,188,435217,1,2,0:0:0:0:
387,241,435287,1,2,0:0:0:0:
397,294,435357,1,2,0:0:0:0:
406,347,435427,6,0,L|412:382,1,35.9999989013672,14|2,0:0|0:0,0:0:0:0:
478,195,435566,2,0,L|472:160,1,35.9999989013672,10|2,0:0|0:0,0:0:0:0:
393,349,435706,86,0,L|399:384,1,35.9999989013672,10|2,0:0|0:0,0:0:0:0:
472,188,435845,2,0,L|466:153,1,35.9999989013672,10|2,0:0|0:0,0:0:0:0:
318,344,435985,5,6,0:0:0:0:
300,326,436054,1,2,0:0:0:0:
282,308,436124,1,2,0:0:0:0:
264,290,436194,1,2,0:0:0:0:
246,272,436264,6,0,L|217:243,1,35.9999989013672,2|2,0:0|0:0,0:0:0:0:
169,342,436403,2,0,L|194:367,1,35.9999989013672,2|2,0:0|0:0,0:0:0:0:
318,232,436543,85,2,0:0:0:0:
308,208,436612,1,2,0:0:0:0:
299,185,436682,1,2,0:0:0:0:
289,161,436752,1,2,0:0:0:0:
280,138,436822,5,10,0:0:0:0:
248,156,436891,1,2,0:0:0:0:
217,174,436961,1,2,0:0:0:0:
186,192,437031,1,2,0:0:0:0:
155,210,437101,6,0,L|123:228,1,35.9999989013672,14|2,0:0|0:0,0:0:0:0:
113,82,437241,2,0,L|144:64,1,35.9999989013672,10|2,0:0|0:0,0:0:0:0:
142,201,437380,86,0,L|110:219,1,35.9999989013672,10|2,0:0|0:0,0:0:0:0:
126,91,437520,2,0,L|157:73,1,35.9999989013672,10|2,0:0|0:0,0:0:0:0:
129,192,437659,102,0,L|97:210,5,35.9999989013672,6|2|0|0|0|0,0:0|0:0|0:0|0:0|0:0|0:0,0:0:0:0:
229,93,438078,21,10,0:0:0:0:
264,93,438147,1,2,0:0:0:0:
298,105,438217,1,10,0:0:0:0:
326,127,438287,1,2,0:0:0:0:
346,157,438357,1,10,0:0:0:0:
354,192,438426,1,2,0:0:0:0:
351,228,438496,5,14,0:0:0:0:
341,266,438566,1,2,0:0:0:0:
345,301,438636,1,10,0:0:0:0:
362,333,438706,1,2,0:0:0:0:
391,353,438776,1,10,0:0:0:0:
426,360,438845,1,2,0:0:0:0:
461,351,438915,1,14,0:0:0:0:
488,328,438985,1,2,0:0:0:0:
503,296,439055,1,10,0:0:0:0:
503,260,439124,1,2,0:0:0:0:
488,228,439194,1,10,0:0:0:0:
460,205,439264,1,2,0:0:0:0:
425,196,439334,85,14,0:0:0:0:
414,226,439403,1,2,0:0:0:0:
395,252,439473,1,10,0:0:0:0:
368,271,439543,1,2,0:0:0:0:
338,280,439613,1,10,0:0:0:0:
305,280,439682,1,2,0:0:0:0:
275,270,439752,1,14,0:0:0:0:
249,250,439822,1,2,0:0:0:0:
230,224,439892,1,10,0:0:0:0:
201,208,439962,1,2,0:0:0:0:
169,203,440031,1,10,0:0:0:0:
138,212,440102,1,2,0:0:0:0:
113,232,440171,5,14,0:0:0:0:
99,257,440240,1,2,0:0:0:0:
96,285,440310,1,10,0:0:0:0:
102,313,440380,1,2,0:0:0:0:
117,338,440450,1,14,0:0:0:0:
139,356,440519,1,2,0:0:0:0:
166,365,440589,1,10,0:0:0:0:
195,365,440659,1,2,0:0:0:0:
221,355,440729,1,14,0:0:0:0:
244,337,440798,1,2,0:0:0:0:
258,313,440868,1,10,0:0:0:0:
264,284,440938,1,2,0:0:0:0:
260,256,441008,5,14,0:0:0:0:
222,277,441077,1,2,0:0:0:0:
180,284,441147,1,10,0:0:0:0:
137,277,441217,1,2,0:0:0:0:
100,256,441287,1,10,0:0:0:0:
72,223,441356,1,2,0:0:0:0:
56,183,441426,1,14,0:0:0:0:
55,140,441496,1,2,0:0:0:0:
69,100,441566,1,10,0:0:0:0:
95,66,441635,1,2,0:0:0:0:
131,43,441705,1,10,0:0:0:0:
173,33,441775,1,2,0:0:0:0:
216,38,441845,85,14,0:0:0:0:
185,56,441914,1,2,0:0:0:0:
163,84,441984,1,10,0:0:0:0:
155,119,442054,1,2,0:0:0:0:
160,154,442124,1,10,0:0:0:0:
179,185,442193,1,2,0:0:0:0:
207,206,442263,1,14,0:0:0:0:
242,214,442333,1,2,0:0:0:0:
278,208,442403,1,10,0:0:0:0:
308,189,442472,1,2,0:0:0:0:
328,160,442542,1,10,0:0:0:0:
336,125,442612,1,2,0:0:0:0:
330,90,442683,5,14,0:0:0:0:
302,98,442751,1,2,0:0:0:0:
278,114,442822,1,10,0:0:0:0:
259,136,442891,1,2,0:0:0:0:
246,161,442962,1,10,0:0:0:0:
241,190,443030,1,2,0:0:0:0:
243,218,443101,1,14,0:0:0:0:
253,245,443170,1,2,0:0:0:0:
269,269,443241,1,10,0:0:0:0:
291,287,443309,1,2,0:0:0:0:
317,299,443379,1,10,0:0:0:0:
346,304,443449,1,2,0:0:0:0:
374,301,443520,6,0,L|423:284,3,35.9999989013672,14|2|10|2,0:0|0:0|0:0|0:0,0:0:0:0:
391,197,443799,2,0,L|442:202,3,35.9999989013672,14|2|10|2,0:0|0:0|0:0|0:0,0:0:0:0:
450,109,444078,2,0,L|494:135,3,35.9999989013672,14|2|10|2,0:0|0:0|0:0|0:0,0:0:0:0:
374,301,444358,85,14,0:0:0:0:
331,283,444426,1,2,0:0:0:0:
299,249,444497,1,10,0:0:0:0:
285,205,444566,1,2,0:0:0:0:
291,159,444637,1,10,0:0:0:0:
316,119,444705,1,2,0:0:0:0:
319,74,444776,1,14,0:0:0:0:
299,32,444845,1,2,0:0:0:0:
261,6,444916,1,10,0:0:0:0:
215,1,444984,1,2,0:0:0:0:
173,20,445055,1,10,0:0:0:0:
145,57,445124,1,2,0:0:0:0:
140,103,445194,5,14,0:0:0:0:
171,85,445263,1,2,0:0:0:0:
206,80,445333,1,10,0:0:0:0:
240,89,445403,1,2,0:0:0:0:
269,111,445473,1,10,0:0:0:0:
287,142,445542,1,2,0:0:0:0:
292,177,445612,1,14,0:0:0:0:
283,212,445682,1,2,0:0:0:0:
261,240,445752,1,10,0:0:0:0:
230,258,445821,1,2,0:0:0:0:
195,263,445891,1,10,0:0:0:0:
160,254,445961,1,2,0:0:0:0:
132,233,446031,5,14,0:0:0:0:
160,196,446100,1,2,0:0:0:0:
202,176,446170,1,10,0:0:0:0:
248,175,446240,1,2,0:0:0:0:
291,193,446310,1,10,0:0:0:0:
321,228,446379,1,2,0:0:0:0:
364,246,446449,1,14,0:0:0:0:
410,248,446519,1,2,0:0:0:0:
454,232,446589,1,10,0:0:0:0:
488,200,446658,1,2,0:0:0:0:
507,158,446728,1,10,0:0:0:0:
508,111,446798,1,2,0:0:0:0:
491,68,446868,85,14,0:0:0:0:
462,109,446937,1,2,0:0:0:0:
419,133,447007,1,10,0:0:0:0:
369,134,447077,1,2,0:0:0:0:
324,112,447147,1,14,0:0:0:0:
273,114,447218,1,2,0:0:0:0:
228,135,447288,1,10,0:0:0:0:
196,174,447358,1,2,0:0:0:0:
184,222,447427,1,14,0:0:0:0:
194,272,447497,1,2,0:0:0:0:
223,312,447567,1,10,0:0:0:0:
267,336,447637,1,2,0:0:0:0:
316,340,447706,6,0,L|364:333,3,35.9999989013672,14|2|10|2,0:0|0:0|0:0|0:0,0:0:0:0:
411,221,447985,1,14,0:0:0:0:
435,178,448055,1,2,0:0:0:0:
430,128,448124,1,10,0:0:0:0:
398,90,448194,1,2,0:0:0:0:
350,77,448264,1,10,0:0:0:0:
303,94,448334,1,2,0:0:0:0:
274,134,448403,1,10,0:0:0:0:
273,184,448473,1,2,0:0:0:0:
301,226,448544,5,14,0:0:0:0:
324,182,448612,1,2,0:0:0:0:
319,133,448683,1,10,0:0:0:0:
287,95,448752,1,2,0:0:0:0:
239,82,448822,1,10,0:0:0:0:
193,99,448891,1,2,0:0:0:0:
164,139,448962,1,10,0:0:0:0:
163,189,449031,1,2,0:0:0:0:
190,230,449101,85,14,0:0:0:0:
213,186,449170,1,2,0:0:0:0:
208,137,449241,1,10,0:0:0:0:
176,99,449310,1,2,0:0:0:0:
128,86,449380,1,10,0:0:0:0:
82,103,449449,1,2,0:0:0:0:
53,143,449520,1,10,0:0:0:0:
52,193,449589,1,2,0:0:0:0:
79,234,449659,6,0,L|120:268,1,35.9999989013672,6|2,0:0|0:0,0:0:0:0:
162,85,449799,1,10,0:0:0:0:
202,57,449868,1,2,0:0:0:0:
251,56,449938,1,10,0:0:0:0:
292,85,450008,1,2,0:0:0:0:
309,132,450078,1,10,0:0:0:0:
297,179,450148,1,2,0:0:0:0:
261,213,450217,5,14,0:0:0:0:
249,165,450287,1,2,0:0:0:0:
267,118,450357,1,10,0:0:0:0:
308,90,450427,1,2,0:0:0:0:
357,90,450497,1,10,0:0:0:0:
398,119,450566,1,2,0:0:0:0:
415,166,450636,1,10,0:0:0:0:
403,213,450706,1,2,0:0:0:0:
367,247,450776,85,14,0:0:0:0:
355,199,450845,1,2,0:0:0:0:
373,152,450915,1,10,0:0:0:0:
414,124,450985,1,2,0:0:0:0:
463,124,451055,5,6,0:0:0:0:
454,89,451124,1,2,0:0:0:0:
436,58,451194,1,2,0:0:0:0:
409,34,451264,1,2,0:0:0:0:
377,19,451334,1,2,0:0:0:0:
341,15,451403,1,2,0:0:0:0:
306,21,451473,2,0,L|260:40,1,35.9999989013672,10|2,0:0|0:0,0:0:0:0:
373,152,451613,2,0,L|408:147,1,35.9999989013672,2|2,0:0|0:0,0:0:0:0:
238,88,451752,2,0,L|201:123,1,35.9999989013672,2|2,0:0|0:0,0:0:0:0:
337,231,451892,5,2,0:0:0:0:
357,260,451961,1,2,0:0:0:0:
361,295,452031,1,2,0:0:0:0:
350,329,452101,1,2,0:0:0:0:
324,354,452171,1,2,0:0:0:0:
290,365,452240,1,2,0:0:0:0:
255,359,452310,2,0,L|212:335,1,35.9999989013672,10|2,0:0|0:0,0:0:0:0:
246,189,452450,2,0,L|271:214,1,35.9999989013672,2|2,0:0|0:0,0:0:0:0:
166,365,452589,2,0,L|140:322,1,35.9999989013672,2|2,0:0|0:0,0:0:0:0:
211,112,452729,85,2,0:0:0:0:
194,80,452798,1,2,0:0:0:0:
166,57,452868,1,2,0:0:0:0:
131,48,452938,1,2,0:0:0:0:
96,54,453008,1,2,0:0:0:0:
66,73,453077,1,2,0:0:0:0:
46,102,453148,2,0,L|37:141,1,35.9999989013672,10|2,0:0|0:0,0:0:0:0:
50,296,453287,2,0,L|41:260,1,35.9999989013672,2|2,0:0|0:0,0:0:0:0:
128,133,453427,2,0,L|119:172,1,35.9999989013672,2|2,0:0|0:0,0:0:0:0:
223,341,453566,5,2,0:0:0:0:
257,348,453635,1,2,0:0:0:0:
293,342,453705,1,2,0:0:0:0:
323,323,453775,1,2,0:0:0:0:
343,294,453845,1,2,0:0:0:0:
351,259,453914,1,2,0:0:0:0:
345,224,453985,2,0,L|332:187,1,35.9999989013672,10|2,0:0|0:0,0:0:0:0:
418,341,454124,2,0,L|423:376,1,35.9999989013672,2|2,0:0|0:0,0:0:0:0:
416,186,454264,2,0,L|403:149,1,35.9999989013672,2|2,0:0|0:0,0:0:0:0:
259,256,454403,5,2,0:0:0:0:
238,222,454472,1,2,0:0:0:0:
233,183,454542,1,2,0:0:0:0:
243,145,454612,1,2,0:0:0:0:
266,113,454682,1,2,0:0:0:0:
300,93,454751,1,2,0:0:0:0:
339,88,454822,2,0,L|400:93,1,35.9999989013672,10|2,0:0|0:0,0:0:0:0:
180,124,454962,2,0,L|119:129,1,35.9999989013672,2|2,0:0|0:0,0:0:0:0:
333,190,455101,2,0,L|394:195,1,35.9999989013672,2|2,0:0|0:0,0:0:0:0:
195,41,455241,85,2,0:0:0:0:
157,28,455310,1,2,0:0:0:0:
118,31,455380,1,2,0:0:0:0:
83,50,455450,1,2,0:0:0:0:
59,80,455520,1,2,0:0:0:0:
48,118,455589,1,2,0:0:0:0:
53,157,455659,2,0,L|77:211,1,35.9999989013672,10|2,0:0|0:0,0:0:0:0:
212,72,455799,2,0,L|194:40,1,35.9999989013672,2|2,0:0|0:0,0:0:0:0:
127,212,455938,2,0,L|164:257,1,35.9999989013672,2|2,0:0|0:0,0:0:0:0:
321,108,456078,5,2,0:0:0:0:
360,106,456147,1,2,0:0:0:0:
396,120,456217,1,2,0:0:0:0:
424,148,456287,1,2,0:0:0:0:
438,185,456357,1,2,0:0:0:0:
436,224,456426,1,2,0:0:0:0:
418,259,456496,2,0,L|381:290,1,35.9999989013672,10|2,0:0|0:0,0:0:0:0:
502,161,456636,2,0,L|498:126,1,35.9999989013672,2|2,0:0|0:0,0:0:0:0:
484,305,456775,2,0,L|487:339,1,35.9999989013672,2|2,0:0|0:0,0:0:0:0:
350,198,456915,5,2,0:0:0:0:
311,189,456984,1,2,0:0:0:0:
273,196,457054,1,2,0:0:0:0:
240,218,457124,1,2,0:0:0:0:
219,251,457194,1,2,0:0:0:0:
213,290,457263,1,2,0:0:0:0:
223,328,457334,2,0,L|257:364,1,35.9999989013672,10|2,0:0|0:0,0:0:0:0:
164,194,457473,2,0,L|139:167,1,35.9999989013672,2|2,0:0|0:0,0:0:0:0:
309,287,457613,2,0,L|333:313,1,35.9999989013672,6|2,0:0|0:0,0:0:0:0:
89,225,457752,85,14,0:0:0:0:
66,188,457821,1,2,0:0:0:0:
67,146,457891,1,2,0:0:0:0:
90,110,457961,1,2,0:0:0:0:
169,112,458031,5,14,0:0:0:0:
211,109,458100,1,2,0:0:0:0:
247,86,458170,1,2,0:0:0:0:
268,48,458240,1,2,0:0:0:0:
336,7,458310,5,14,0:0:0:0:
373,27,458379,1,2,0:0:0:0:
393,65,458449,1,2,0:0:0:0:
388,107,458519,1,2,0:0:0:0:
323,152,458589,85,14,0:0:0:0:
280,153,458658,1,2,0:0:0:0:
244,176,458728,1,2,0:0:0:0:
225,214,458798,1,2,0:0:0:0:
267,282,458868,5,14,0:0:0:0:
309,289,458937,1,2,0:0:0:0:
345,312,459007,1,2,0:0:0:0:
369,348,459077,1,2,0:0:0:0:
449,333,459148,5,14,0:0:0:0:
470,295,459217,1,2,0:0:0:0:
470,253,459287,1,2,0:0:0:0:
449,215,459357,1,2,0:0:0:0:
370,221,459427,85,14,0:0:0:0:
327,221,459496,1,2,0:0:0:0:
289,201,459566,1,2,0:0:0:0:
265,166,459636,1,2,0:0:0:0:
291,91,459706,5,14,0:0:0:0:
274,51,459775,1,2,0:0:0:0:
239,27,459845,1,2,0:0:0:0:
197,26,459915,1,2,0:0:0:0:
166,99,459985,5,14,0:0:0:0:
134,128,460054,1,2,0:0:0:0:
93,139,460124,1,2,0:0:0:0:
52,129,460194,1,2,0:0:0:0:
12,54,460264,86,0,L|7:1,1,45.0000017166138,10|2,0:0|0:0,0:0:0:0:
72,305,460403,2,0,L|67:349,1,45.0000017166138,10|2,0:0|0:0,0:0:0:0:
30,49,460543,6,0,L|38:-3,1,45.0000017166138,10|2,0:0|0:0,0:0:0:0:
56,324,460682,2,0,L|44:367,1,45.0000017166138,10|2,0:0|0:0,0:0:0:0:
48,48,460822,6,0,L|70:0,1,45.0000017166138,10|2,0:0|0:0,0:0:0:0:
36,339,460962,2,0,L|16:379,1,45.0000017166138,10|2,0:0|0:0,0:0:0:0:
123,44,461101,85,6,0:0:0:0:
173,26,461170,1,2,0:0:0:0:
223,42,461240,1,2,0:0:0:0:
254,85,461310,1,2,0:0:0:0:
253,138,461380,1,2,0:0:0:0:
225,184,461449,1,2,0:0:0:0:
219,238,461520,1,10,0:0:0:0:
239,288,461590,1,2,0:0:0:0:
280,323,461660,1,2,0:0:0:0:
332,334,461729,1,2,0:0:0:0:
383,318,461799,1,2,0:0:0:0:
421,281,461869,1,2,0:0:0:0:
437,230,461938,6,0,L|437:182,1,35.9999989013672,2|2,0:0|0:0,0:0:0:0:
313,175,462078,2,0,L|282:211,1,35.9999989013672,2|2,0:0|0:0,0:0:0:0:
326,313,462217,2,0,L|373:321,1,35.9999989013672,2|2,0:0|0:0,0:0:0:0:
450,221,462357,6,0,L|442:174,1,35.9999989013672,10|2,0:0|0:0,0:0:0:0:
342,181,462496,2,0,L|305:211,1,35.9999989013672,2|2,0:0|0:0,0:0:0:0:
363,296,462636,2,0,L|407:312,1,35.9999989013672,2|2,0:0|0:0,0:0:0:0:
453,114,462775,85,6,0:0:0:0:
419,101,462844,1,8,0:0:0:0:
385,89,462914,1,8,0:0:0:0:
351,77,462984,1,8,0:0:0:0:
317,64,463054,1,8,0:0:0:0:
283,52,463123,1,8,0:0:0:0:
250,40,463194,6,0,L|201:22,1,35.9999989013672,2|8,0:0|0:0,0:0:0:0:
413,34,463334,2,0,L|452:0,1,35.9999989013672,2|8,0:0|0:0,0:0:0:0:
339,178,463473,2,0,L|348:229,1,35.9999989013672,2|8,0:0|0:0,0:0:0:0:
198,87,463613,5,6,0:0:0:0:
171,110,463682,1,8,0:0:0:0:
144,134,463752,1,8,0:0:0:0:
117,158,463822,1,8,0:0:0:0:
90,182,463892,1,8,0:0:0:0:
63,206,463961,1,8,0:0:0:0:
36,230,464031,85,10,0:0:0:0:
63,242,464101,1,10,0:0:0:0:
81,260,464171,1,10,0:0:0:0:
90,280,464241,1,10,0:0:0:0:
91,298,464310,1,10,0:0:0:0:
89,312,464380,1,10,0:0:0:0:
87,323,464450,102,0,L|66:366,5,35.9999989013672,14|2|2|2|2|2,0:0|0:0|0:0|0:0|0:0|0:0,0:0:0:0:
149,225,464868,21,14,0:0:0:0:
186,205,464937,1,2,0:0:0:0:
229,201,465007,1,10,0:0:0:0:
270,214,465077,1,2,0:0:0:0:
303,242,465147,1,10,0:0:0:0:
322,280,465216,1,2,0:0:0:0:
356,306,465287,5,14,0:0:0:0:
398,315,465357,1,2,0:0:0:0:
440,305,465427,1,10,0:0:0:0:
473,279,465496,1,2,0:0:0:0:
493,241,465566,1,10,0:0:0:0:
493,198,465636,1,2,0:0:0:0:
476,159,465706,1,14,0:0:0:0:
444,131,465775,1,2,0:0:0:0:
402,119,465845,1,10,0:0:0:0:
360,126,465915,1,2,0:0:0:0:
317,118,465984,1,10,0:0:0:0:
282,94,466054,1,2,0:0:0:0:
260,57,466124,85,14,0:0:0:0:
225,31,466195,1,2,0:0:0:0:
184,18,466265,1,10,0:0:0:0:
141,20,466335,1,2,0:0:0:0:
101,37,466404,1,10,0:0:0:0:
70,66,466474,1,2,0:0:0:0:
51,105,466544,1,14,0:0:0:0:
47,148,466614,1,2,0:0:0:0:
57,189,466683,1,10,0:0:0:0:
82,225,466753,1,2,0:0:0:0:
117,249,466823,1,10,0:0:0:0:
159,260,466893,1,2,0:0:0:0:
202,256,466962,5,14,0:0:0:0:
198,227,467031,1,2,0:0:0:0:
186,201,467101,1,10,0:0:0:0:
167,179,467171,1,2,0:0:0:0:
143,164,467241,1,14,0:0:0:0:
115,156,467310,1,2,0:0:0:0:
87,156,467380,1,10,0:0:0:0:
59,146,467450,1,2,0:0:0:0:
38,126,467520,1,14,0:0:0:0:
25,101,467590,1,2,0:0:0:0:
23,72,467659,1,10,0:0:0:0:
32,45,467729,1,2,0:0:0:0:
50,23,467799,5,14,0:0:0:0:
62,40,467868,1,2,0:0:0:0:
78,55,467938,1,10,0:0:0:0:
96,66,468008,1,2,0:0:0:0:
116,74,468078,1,10,0:0:0:0:
137,79,468147,1,2,0:0:0:0:
159,79,468217,1,14,0:0:0:0:
180,75,468287,1,2,0:0:0:0:
200,68,468357,1,10,0:0:0:0:
219,56,468426,1,2,0:0:0:0:
235,42,468496,1,10,0:0:0:0:
255,34,468566,1,2,0:0:0:0:
277,30,468636,85,14,0:0:0:0:
298,31,468706,1,2,0:0:0:0:
319,37,468775,1,10,0:0:0:0:
338,47,468845,1,2,0:0:0:0:
353,62,468915,1,10,0:0:0:0:
366,79,468985,1,2,0:0:0:0:
373,99,469054,1,14,0:0:0:0:
376,121,469124,1,2,0:0:0:0:
374,142,469194,1,10,0:0:0:0:
367,163,469264,1,2,0:0:0:0:
356,181,469333,1,10,0:0:0:0:
340,196,469403,1,2,0:0:0:0:
322,207,469473,5,14,0:0:0:0:
307,182,469542,1,2,0:0:0:0:
286,162,469612,1,10,0:0:0:0:
261,148,469682,1,2,0:0:0:0:
233,142,469752,1,10,0:0:0:0:
204,143,469821,1,2,0:0:0:0:
177,152,469891,1,14,0:0:0:0:
153,168,469961,1,2,0:0:0:0:
134,190,470031,1,10,0:0:0:0:
122,216,470100,1,2,0:0:0:0:
117,244,470170,1,10,0:0:0:0:
120,272,470240,1,2,0:0:0:0:
131,299,470310,6,0,L|151:343,3,36.059996496277,14|2|10|2,0:0|0:0|0:0|0:0,0:0:0:0:
228,300,470589,2,0,L|234:344,3,36.059996496277,14|2|10|2,0:0|0:0|0:0|0:0,0:0:0:0:
321,326,470868,2,0,L|317:370,3,36.059996496277,14|2|10|2,0:0|0:0|0:0|0:0,0:0:0:0:
217,230,471147,85,14,0:0:0:0:
211,209,471217,1,2,0:0:0:0:
211,187,471286,1,10,0:0:0:0:
216,166,471357,1,2,0:0:0:0:
226,147,471426,1,10,0:0:0:0:
241,132,471496,1,2,0:0:0:0:
259,120,471565,1,14,0:0:0:0:
280,114,471636,1,2,0:0:0:0:
301,112,471705,1,10,0:0:0:0:
323,117,471775,1,2,0:0:0:0:
342,126,471844,1,10,0:0:0:0:
358,140,471915,1,2,0:0:0:0:
371,157,471984,5,14,0:0:0:0:
386,171,472055,1,2,0:0:0:0:
406,179,472124,1,10,0:0:0:0:
428,180,472195,1,2,0:0:0:0:
449,175,472263,1,10,0:0:0:0:
467,164,472334,1,2,0:0:0:0:
482,149,472403,1,14,0:0:0:0:
491,129,472474,1,2,0:0:0:0:
494,108,472542,1,10,0:0:0:0:
490,87,472613,1,2,0:0:0:0:
481,67,472682,1,10,0:0:0:0:
466,52,472753,1,2,0:0:0:0:
447,41,472822,5,14,0:0:0:0:
422,56,472891,1,2,0:0:0:0:
404,78,472961,1,10,0:0:0:0:
392,104,473031,1,2,0:0:0:0:
388,132,473101,1,10,0:0:0:0:
393,161,473170,1,2,0:0:0:0:
405,186,473240,1,14,0:0:0:0:
425,207,473310,1,2,0:0:0:0:
437,232,473380,1,10,0:0:0:0:
442,260,473450,1,2,0:0:0:0:
438,289,473520,1,10,0:0:0:0:
427,315,473589,1,2,0:0:0:0:
408,337,473659,85,14,0:0:0:0:
379,315,473728,1,2,0:0:0:0:
359,285,473798,1,10,0:0:0:0:
351,250,473868,1,2,0:0:0:0:
357,215,473938,1,14,0:0:0:0:
374,184,474007,1,2,0:0:0:0:
402,161,474077,1,10,0:0:0:0:
418,129,474147,1,2,0:0:0:0:
422,94,474217,1,14,0:0:0:0:
411,60,474287,1,2,0:0:0:0:
388,32,474356,1,10,0:0:0:0:
357,16,474426,1,2,0:0:0:0:
321,12,474496,5,14,0:0:0:0:
320,47,474565,1,2,0:0:0:0:
309,82,474635,1,10,0:0:0:0:
288,111,474705,1,2,0:0:0:0:
260,134,474775,1,10,0:0:0:0:
227,147,474844,1,2,0:0:0:0:
192,151,474914,1,14,0:0:0:0:
156,144,474984,1,2,0:0:0:0:
121,151,475054,1,10,0:0:0:0:
90,170,475124,1,2,0:0:0:0:
68,198,475194,1,10,0:0:0:0:
57,232,475263,1,2,0:0:0:0:
58,268,475334,5,14,0:0:0:0:
91,246,475403,1,2,0:0:0:0:
129,236,475473,1,10,0:0:0:0:
168,237,475543,1,2,0:0:0:0:
206,250,475613,1,10,0:0:0:0:
237,274,475682,1,2,0:0:0:0:
261,306,475752,1,14,0:0:0:0:
294,326,475822,1,2,0:0:0:0:
332,333,475892,1,10,0:0:0:0:
371,325,475962,1,2,0:0:0:0:
404,303,476031,1,10,0:0:0:0:
427,271,476101,1,2,0:0:0:0:
436,233,476171,85,14,0:0:0:0:
397,251,476240,1,2,0:0:0:0:
354,256,476310,1,10,0:0:0:0:
313,245,476380,1,2,0:0:0:0:
277,221,476450,1,10,0:0:0:0:
252,186,476519,1,2,0:0:0:0:
241,145,476589,1,14,0:0:0:0:
245,102,476659,1,2,0:0:0:0:
264,63,476729,1,10,0:0:0:0:
294,33,476798,1,2,0:0:0:0:
334,16,476868,1,10,0:0:0:0:
376,13,476938,1,2,0:0:0:0:
418,25,477008,5,14,0:0:0:0:
372,44,477077,1,2,0:0:0:0:
343,84,477147,1,10,0:0:0:0:
340,134,477217,1,2,0:0:0:0:
363,181,477287,1,14,0:0:0:0:
368,230,477357,1,2,0:0:0:0:
354,278,477427,1,10,0:0:0:0:
321,316,477497,1,2,0:0:0:0:
276,338,477566,1,14,0:0:0:0:
227,341,477636,1,2,0:0:0:0:
180,324,477706,1,10,0:0:0:0:
143,289,477776,1,2,0:0:0:0:
123,244,477845,5,6,0:0:0:0:
162,261,477914,1,2,0:0:0:0:
204,261,477984,1,2,0:0:0:0:
243,242,478054,1,2,0:0:0:0:
270,209,478124,1,2,0:0:0:0:
281,168,478193,1,2,0:0:0:0:
274,126,478264,2,0,L|259:77,1,35.9999989013672,10|2,0:0|0:0,0:0:0:0:
329,260,478403,2,0,L|330:295,1,35.9999989013672,2|2,0:0|0:0,0:0:0:0:
361,108,478543,2,0,L|346:59,1,35.9999989013672,2|2,0:0|0:0,0:0:0:0:
417,299,478682,85,2,0:0:0:0:
405,340,478751,1,2,0:0:0:0:
375,370,478821,1,2,0:0:0:0:
335,383,478891,1,2,0:0:0:0:
293,375,478961,1,2,0:0:0:0:
260,348,479030,1,2,0:0:0:0:
244,308,479101,2,0,L|234:257,1,35.9999989013672,10|2,0:0|0:0,0:0:0:0:
421,263,479241,2,0,L|416:298,1,35.9999989013672,2|2,0:0|0:0,0:0:0:0:
214,211,479380,2,0,L|218:175,1,35.9999989013672,2|2,0:0|0:0,0:0:0:0:
438,153,479520,5,2,0:0:0:0:
453,113,479589,1,2,0:0:0:0:
450,70,479659,1,2,0:0:0:0:
429,33,479729,1,2,0:0:0:0:
394,8,479799,1,2,0:0:0:0:
351,1,479868,1,2,0:0:0:0:
310,14,479938,2,0,L|276:36,1,35.9999989013672,10|2,0:0|0:0,0:0:0:0:
352,202,480078,2,0,L|376:175,1,35.9999989013672,2|2,0:0|0:0,0:0:0:0:
228,0,480217,2,0,L|203:32,1,35.9999989013672,2|2,0:0|0:0,0:0:0:0:
274,230,480357,5,2,0:0:0:0:
259,273,480426,1,2,0:0:0:0:
225,305,480496,1,2,0:0:0:0:
180,317,480566,1,2,0:0:0:0:
135,307,480636,1,2,0:0:0:0:
100,277,480705,1,2,0:0:0:0:
83,234,480775,2,0,L|79:182,1,35.9999989013672,10|2,0:0|0:0,0:0:0:0:
208,377,480915,2,0,L|274:362,1,35.9999989013672,2|2,0:0|0:0,0:0:0:0:
37,336,481055,2,0,L|-29:321,1,35.9999989013672,2|2,0:0|0:0,0:0:0:0:
274,230,481194,85,2,0:0:0:0:
308,193,481263,1,2,0:0:0:0:
320,145,481333,1,2,0:0:0:0:
307,97,481403,1,2,0:0:0:0:
273,61,481473,1,2,0:0:0:0:
225,46,481542,1,2,0:0:0:0:
176,56,481613,2,0,L|121:73,1,35.9999989013672,10|2,0:0|0:0,0:0:0:0:
341,33,481752,2,0,L|396:16,1,35.9999989013672,2|2,0:0|0:0,0:0:0:0:
221,146,481892,2,0,L|166:163,1,35.9999989013672,2|2,0:0|0:0,0:0:0:0:
428,141,482031,5,2,0:0:0:0:
470,167,482100,1,2,0:0:0:0:
495,210,482170,1,2,0:0:0:0:
496,260,482240,1,2,0:0:0:0:
473,304,482310,1,2,0:0:0:0:
432,332,482379,1,2,0:0:0:0:
382,337,482450,2,0,L|333:333,1,35.9999989013672,10|2,0:0|0:0,0:0:0:0:
321,126,482589,2,0,L|356:132,1,35.9999989013672,2|2,0:0|0:0,0:0:0:0:
285,363,482729,2,0,L|250:353,1,35.9999989013672,2|2,0:0|0:0,0:0:0:0:
230,102,482868,5,2,0:0:0:0:
194,66,482937,1,2,0:0:0:0:
147,51,483007,1,2,0:0:0:0:
97,58,483077,1,2,0:0:0:0:
56,86,483147,1,2,0:0:0:0:
32,130,483216,1,2,0:0:0:0:
31,180,483287,2,0,L|40:234,1,35.9999989013672,10|2,0:0|0:0,0:0:0:0:
238,136,483427,2,0,L|229:101,1,35.9999989013672,2|2,0:0|0:0,0:0:0:0:
80,273,483566,2,0,L|106:320,1,35.9999989013672,2|2,0:0|0:0,0:0:0:0:
300,168,483706,85,2,0:0:0:0:
353,165,483775,1,2,0:0:0:0:
400,190,483845,1,2,0:0:0:0:
428,236,483915,1,2,0:0:0:0:
430,289,483985,1,2,0:0:0:0:
405,336,484054,1,2,0:0:0:0:
360,364,484124,2,0,L|315:368,1,35.9999989013672,10|2,0:0|0:0,0:0:0:0:
497,209,484264,2,0,L|493:164,1,35.9999989013672,2|2,0:0|0:0,0:0:0:0:
282,311,484403,2,0,L|237:315,1,35.9999989013672,2|2,0:0|0:0,0:0:0:0:
407,78,484543,5,14,0:0:0:0:
384,30,484612,1,2,0:0:0:0:
337,5,484682,1,2,0:0:0:0:
284,14,484752,1,2,0:0:0:0:
253,91,484822,5,14,0:0:0:0:
215,129,484891,1,2,0:0:0:0:
164,144,484961,1,2,0:0:0:0:
112,131,485031,1,2,0:0:0:0:
35,161,485101,85,14,0:0:0:0:
11,208,485170,1,2,0:0:0:0:
23,260,485240,1,2,0:0:0:0:
64,293,485310,1,2,0:0:0:0:
134,248,485380,5,14,0:0:0:0:
185,235,485449,1,2,0:0:0:0:
234,254,485519,1,2,0:0:0:0:
263,299,485589,1,2,0:0:0:0:
309,369,485659,5,14,0:0:0:0:
360,383,485728,1,2,0:0:0:0:
412,370,485798,1,2,0:0:0:0:
451,334,485868,1,2,0:0:0:0:
429,254,485938,85,14,0:0:0:0:
407,205,486007,1,2,0:0:0:0:
418,153,486077,1,2,0:0:0:0:
459,119,486147,1,2,0:0:0:0:
492,43,486217,5,14,0:0:0:0:
449,11,486286,1,2,0:0:0:0:
396,9,486356,1,2,0:0:0:0:
350,37,486426,1,2,0:0:0:0:
334,119,486496,5,14,0:0:0:0:
282,133,486565,1,2,0:0:0:0:
231,118,486635,1,2,0:0:0:0:
197,77,486705,1,2,0:0:0:0:
124,39,486775,85,14,0:0:0:0:
73,57,486844,1,2,0:0:0:0:
35,95,486914,1,2,0:0:0:0:
15,144,486984,1,2,0:0:0:0:
32,240,487055,6,0,L|56:303,1,45.0000017166138,10|2,0:0|0:0,0:0:0:0:
357,157,487194,2,0,L|333:118,1,45.0000017166138,10|2,0:0|0:0,0:0:0:0:
23,270,487334,6,0,L|62:324,1,45.0000017166138,10|2,0:0|0:0,0:0:0:0:
365,131,487473,2,0,L|335:96,1,45.0000017166138,10|2,0:0|0:0,0:0:0:0:
22,301,487613,86,0,L|74:343,1,45.0000017166138,10|2,0:0|0:0,0:0:0:0:
368,104,487752,2,0,L|333:75,1,45.0000017166138,10|2,0:0|0:0,0:0:0:0:
123,335,487892,5,6,0:0:0:0:
159,374,487961,1,2,0:0:0:0:
209,392,488031,1,2,0:0:0:0:
262,385,488101,1,2,0:0:0:0:
305,353,488171,1,2,0:0:0:0:
329,306,488240,1,2,0:0:0:0:
328,252,488310,1,10,0:0:0:0:
303,205,488380,1,2,0:0:0:0:
258,176,488450,1,2,0:0:0:0:
204,173,488519,1,2,0:0:0:0:
156,196,488589,1,2,0:0:0:0:
103,194,488659,1,2,0:0:0:0:
58,165,488729,6,0,L|45:124,1,35.9999989013672,2|2,0:0|0:0,0:0:0:0:
211,109,488868,2,0,L|253:118,1,35.9999989013672,2|2,0:0|0:0,0:0:0:0:
184,270,489008,2,0,L|154:301,1,35.9999989013672,2|2,0:0|0:0,0:0:0:0:
69,128,489148,86,0,L|70:85,1,35.9999989013672,10|2,0:0|0:0,0:0:0:0:
219,129,489287,2,0,L|255:152,1,35.9999989013672,2|2,0:0|0:0,0:0:0:0:
145,260,489427,2,0,L|106:279,1,35.9999989013672,2|2,0:0|0:0,0:0:0:0:
115,31,489566,5,6,0:0:0:0:
158,34,489635,1,8,0:0:0:0:
201,38,489705,1,8,0:0:0:0:
244,42,489775,1,8,0:0:0:0:
287,46,489845,1,8,0:0:0:0:
330,49,489914,1,8,0:0:0:0:
373,53,489985,6,0,L|426:57,1,35.9999989013672,2|8,0:0|0:0,0:0:0:0:
234,194,490124,2,0,L|211:145,1,35.9999989013672,2|8,0:0|0:0,0:0:0:0:
424,244,490264,2,0,L|393:288,1,35.9999989013672,2|8,0:0|0:0,0:0:0:0:
169,358,490403,85,6,0:0:0:0:
150,319,490472,1,8,0:0:0:0:
131,280,490542,1,8,0:0:0:0:
112,241,490612,1,8,0:0:0:0:
94,202,490682,1,8,0:0:0:0:
75,163,490751,1,8,0:0:0:0:
56,124,490821,5,10,0:0:0:0:
97,112,490892,1,10,0:0:0:0:
133,118,490962,1,10,0:0:0:0:
158,132,491031,1,10,0:0:0:0:
173,148,491101,1,10,0:0:0:0:
181,160,491171,1,10,0:0:0:0:
184,167,491241,5,6,0:0:0:0:
198,24,491380,1,2,0:0:0:0:
318,159,491520,1,6,0:0:0:0:
176,228,491659,1,2,0:0:0:0:
264,54,491799,1,6,0:0:0:0:
386,163,491938,1,2,0:0:0:0:
166,92,492078,85,14,0:0:0:0:
280,221,492217,1,2,0:0:0:0:
264,54,492357,1,6,0:0:0:0:
176,228,492496,1,10,0:0:0:0:
327,90,492636,1,6,0:0:0:0:
327,298,492775,1,10,0:0:0:0:
229,121,492915,5,6,0:0:0:0:
230,117,492985,1,2,0:0:0:0:
231,113,493055,1,2,0:0:0:0:
212,291,493194,1,6,0:0:0:0:
386,163,493334,1,2,0:0:0:0:
389,162,493403,1,2,0:0:0:0:
392,161,493473,1,6,0:0:0:0:
376,341,493613,1,10,0:0:0:0:
292,151,493752,5,6,0:0:0:0:
437,246,493892,1,8,0:0:0:0:
212,291,494031,1,8,0:0:0:0:
392,161,494171,1,8,0:0:0:0:
163,141,494310,1,8,0:0:0:0:
376,341,494450,1,8,0:0:0:0:
233,68,494589,85,6,0:0:0:0:
204,62,494658,1,2,0:0:0:0:
176,57,494728,1,2,0:0:0:0:
147,52,494798,1,2,0:0:0:0:
119,47,494868,6,0,L|83:40,1,35.9999989013672,2|2,0:0|0:0,0:0:0:0:
64,149,495008,2,0,L|99:155,1,35.9999989013672,2|2,0:0|0:0,0:0:0:0:
279,119,495148,5,6,0:0:0:0:
299,139,495217,1,0,0:0:0:0:
320,159,495287,1,0,0:0:0:0:
340,179,495357,1,0,0:0:0:0:
361,198,495427,85,10,0:0:0:0:
307,203,495496,1,2,0:0:0:0:
253,208,495566,1,2,0:0:0:0:
199,213,495636,1,2,0:0:0:0:
145,217,495706,6,0,L|109:220,1,35.9999989013672,6|2,0:0|0:0,0:0:0:0:
170,331,495845,2,0,L|205:327,1,35.9999989013672,2|2,0:0|0:0,0:0:0:0:
203,108,495985,5,2,0:0:0:0:
160,98,496054,1,0,0:0:0:0:
118,89,496124,1,0,0:0:0:0:
76,80,496194,1,0,0:0:0:0:
33,71,496264,85,6,0:0:0:0:
33,99,496333,1,2,0:0:0:0:
33,128,496403,1,2,0:0:0:0:
33,157,496473,1,2,0:0:0:0:
33,186,496543,6,0,L|33:222,1,35.9999989013672,2|2,0:0|0:0,0:0:0:0:
118,89,496682,2,0,L|118:53,1,35.9999989013672,2|2,0:0|0:0,0:0:0:0:
168,237,496822,5,6,0:0:0:0:
194,248,496891,1,0,0:0:0:0:
220,260,496961,1,0,0:0:0:0:
246,272,497031,1,0,0:0:0:0:
272,284,497101,85,10,0:0:0:0:
267,230,497170,1,2,0:0:0:0:
262,176,497240,1,2,0:0:0:0:
257,122,497310,1,2,0:0:0:0:
253,68,497380,6,0,L|249:24,1,35.9999989013672,6|2,0:0|0:0,0:0:0:0:
118,89,497520,2,0,L|121:124,1,35.9999989013672,2|2,0:0|0:0,0:0:0:0:
323,135,497659,5,2,0:0:0:0:
359,111,497728,1,0,0:0:0:0:
395,88,497798,1,0,0:0:0:0:
432,65,497868,1,0,0:0:0:0:
468,42,497938,85,6,0:0:0:0:
479,215,498078,1,10,0:0:0:0:
359,111,498217,1,6,0:0:0:0:
417,268,498357,2,0,P|396:313|353:341,1,71.9999978027344,10|6,0:0|0:0,0:0:0:0:
222,277,498636,1,2,0:0:0:0:
418,172,498775,5,14,0:0:0:0:
312,300,498915,2,0,P|308:342|327:380,1,71.9999978027344,2|6,0:0|0:0,0:0:0:0:
418,172,499194,1,10,0:0:0:0:
445,358,499334,1,6,0:0:0:0:
495,149,499473,1,10,0:0:0:0:
312,300,499613,5,6,0:0:0:0:
309,302,499682,1,2,0:0:0:0:
306,304,499752,1,10,0:0:0:0:
359,139,499892,1,6,0:0:0:0:
443,281,500031,1,10,0:0:0:0:
444,284,500101,1,2,0:0:0:0:
445,287,500171,1,6,0:0:0:0:
292,225,500310,1,10,0:0:0:0:
444,115,500450,85,6,0:0:0:0:
376,281,500589,1,8,0:0:0:0:
244,91,500729,1,8,0:0:0:0:
402,190,500868,1,8,0:0:0:0:
153,235,501008,1,8,0:0:0:0:
309,118,501148,1,8,0:0:0:0:
206,339,501287,5,6,0:0:0:0:
177,344,501356,1,2,0:0:0:0:
149,349,501426,1,2,0:0:0:0:
120,354,501496,1,2,0:0:0:0:
92,359,501566,6,0,L|56:365,1,35.9999989013672,2|2,0:0|0:0,0:0:0:0:
57,255,501706,2,0,L|92:248,1,35.9999989013672,2|2,0:0|0:0,0:0:0:0:
249,277,501845,85,6,0:0:0:0:
269,297,501914,1,0,0:0:0:0:
290,317,501984,1,0,0:0:0:0:
310,337,502054,1,0,0:0:0:0:
331,357,502124,5,10,0:0:0:0:
340,303,502193,1,2,0:0:0:0:
349,250,502263,1,2,0:0:0:0:
358,197,502333,1,2,0:0:0:0:
367,144,502403,6,0,L|374:100,1,35.9999989013672,6|2,0:0|0:0,0:0:0:0:
502,198,502543,2,0,L|495:233,1,35.9999989013672,2|2,0:0|0:0,0:0:0:0:
294,145,502682,85,2,0:0:0:0:
266,111,502751,1,0,0:0:0:0:
238,78,502821,1,0,0:0:0:0:
211,45,502891,1,0,0:0:0:0:
183,11,502962,5,6,0:0:0:0:
180,39,503031,1,2,0:0:0:0:
177,68,503101,1,2,0:0:0:0:
175,97,503171,1,2,0:0:0:0:
172,125,503241,6,0,L|168:160,1,35.9999989013672,2|2,0:0|0:0,0:0:0:0:
54,173,503380,2,0,L|57:137,1,35.9999989013672,2|2,0:0|0:0,0:0:0:0:
235,194,503520,85,6,0:0:0:0:
260,207,503589,1,0,0:0:0:0:
286,220,503659,1,0,0:0:0:0:
312,233,503729,1,0,0:0:0:0:
337,246,503799,5,10,0:0:0:0:
286,264,503868,1,2,0:0:0:0:
235,282,503938,1,2,0:0:0:0:
184,301,504008,1,2,0:0:0:0:
134,319,504078,6,0,L|100:331,1,35.9999989013672,6|2,0:0|0:0,0:0:0:0:
135,173,504217,2,0,L|168:160,1,35.9999989013672,2|2,0:0|0:0,0:0:0:0:
295,336,504357,85,2,0:0:0:0:
337,345,504426,1,0,0:0:0:0:
379,354,504496,1,0,0:0:0:0:
421,363,504566,1,2,0:0:0:0:
463,372,504636,5,6,0:0:0:0:
406,195,504775,1,10,0:0:0:0:
337,345,504915,1,6,0:0:0:0:
475,207,505055,2,0,P|470:168|434:131,1,71.9999978027344,10|6,0:0|0:0,0:0:0:0:
287,198,505334,1,10,0:0:0:0:
438,45,505473,5,10,0:0:0:0:
349,235,505613,2,0,P|317:263|278:270,1,71.9999978027344,10|6,0:0|0:0,0:0:0:0:
236,75,505892,2,0,P|278:81|308:106,1,71.9999978027344,10|6,0:0|0:0,0:0:0:0:
225,270,506171,1,10,0:0:0:0:
164,79,506310,85,6,0:0:0:0:
163,75,506380,1,2,0:0:0:0:
163,71,506450,1,10,0:0:0:0:
125,239,506589,1,6,0:0:0:0:
50,99,506729,1,10,0:0:0:0:
49,95,506799,1,2,0:0:0:0:
48,91,506868,1,6,0:0:0:0:
194,144,507008,1,10,0:0:0:0:
29,218,507148,5,6,0:0:0:0:
214,240,507287,1,8,0:0:0:0:
48,91,507427,1,8,0:0:0:0:
277,73,507566,1,8,0:0:0:0:
84,268,507706,1,8,0:0:0:0:
355,300,507845,1,8,0:0:0:0:
109,149,507985,5,2,0:0:0:0:
113,120,508054,1,2,0:0:0:0:
118,92,508124,1,2,0:0:0:0:
122,63,508194,1,2,0:0:0:0:
127,35,508264,86,0,L|136:-11,1,35.9999989013672,2|2,0:0|0:0,0:0:0:0:
48,91,508403,2,0,L|41:126,1,35.9999989013672,2|2,0:0|0:0,0:0:0:0:
213,75,508543,5,6,0:0:0:0:
240,65,508612,1,0,0:0:0:0:
267,56,508682,1,0,0:0:0:0:
294,46,508752,1,0,0:0:0:0:
321,37,508822,5,10,0:0:0:0:
316,90,508891,1,2,0:0:0:0:
311,144,508961,1,2,0:0:0:0:
306,198,509031,1,2,0:0:0:0:
302,252,509101,86,0,L|298:287,1,35.9999989013672,6|2,0:0|0:0,0:0:0:0:
448,250,509241,2,0,L|451:214,1,35.9999989013672,2|2,0:0|0:0,0:0:0:0:
243,154,509380,5,2,0:0:0:0:
202,169,509449,1,0,0:0:0:0:
162,184,509519,1,0,0:0:0:0:
121,199,509589,1,0,0:0:0:0:
81,215,509659,5,6,0:0:0:0:
103,233,509728,1,2,0:0:0:0:
125,252,509798,1,2,0:0:0:0:
147,270,509868,1,2,0:0:0:0:
169,289,509938,86,0,L|202:317,1,35.9999989013672,2|2,0:0|0:0,0:0:0:0:
72,342,510078,2,0,L|44:318,1,35.9999989013672,2|2,0:0|0:0,0:0:0:0:
220,234,510217,5,6,0:0:0:0:
247,241,510286,1,0,0:0:0:0:
275,248,510356,1,0,0:0:0:0:
303,255,510426,1,0,0:0:0:0:
331,262,510496,5,10,0:0:0:0:
317,209,510565,1,2,0:0:0:0:
303,157,510635,1,2,0:0:0:0:
289,105,510705,1,2,0:0:0:0:
275,53,510775,86,0,L|263:10,1,35.9999989013672,6|2,0:0|0:0,0:0:0:0:
390,149,510915,2,0,L|399:183,1,35.9999989013672,2|2,0:0|0:0,0:0:0:0:
204,83,511055,5,2,0:0:0:0:
170,110,511124,1,0,0:0:0:0:
137,138,511194,1,0,0:0:0:0:
104,165,511264,1,0,0:0:0:0:
71,193,511334,5,6,0:0:0:0:
241,163,511473,1,10,0:0:0:0:
121,59,511613,1,6,0:0:0:0:
183,235,511752,1,10,0:0:0:0:
204,83,511892,1,6,0:0:0:0:
111,249,512031,1,10,0:0:0:0:
326,165,512171,85,14,0:0:0:0:
131,182,512310,2,0,P|113:213|111:249,1,71.9999978027344,10|6,0:0|0:0,0:0:0:0:
270,319,512589,1,10,0:0:0:0:
241,163,512729,1,6,0:0:0:0:
156,337,512868,1,10,0:0:0:0:
340,253,513008,5,6,0:0:0:0:
343,254,513078,1,2,0:0:0:0:
346,255,513148,1,10,0:0:0:0:
195,208,513287,1,6,0:0:0:0:
359,132,513427,1,10,0:0:0:0:
362,130,513496,1,2,0:0:0:0:
365,128,513566,1,6,0:0:0:0:
272,257,513706,1,0,0:0:0:0:
273,70,513845,5,6,0:0:0:0:
346,255,513985,1,8,0:0:0:0:
365,26,514124,1,8,0:0:0:0:
266,186,514264,1,8,0:0:0:0:
484,62,514403,1,8,0:0:0:0:
246,2,514543,1,8,0:0:0:0:
465,229,514682,85,6,0:0:0:0:
455,256,514751,1,2,0:0:0:0:
445,283,514821,1,2,0:0:0:0:
435,310,514891,1,2,0:0:0:0:
425,337,514962,6,0,L|412:370,1,35.9999989013672,2|2,0:0|0:0,0:0:0:0:
398,191,515101,2,0,L|410:157,1,35.9999989013672,2|2,0:0|0:0,0:0:0:0:
322,334,515241,5,6,0:0:0:0:
293,339,515310,1,0,0:0:0:0:
265,344,515380,1,0,0:0:0:0:
237,350,515450,1,0,0:0:0:0:
208,355,515520,85,10,0:0:0:0:
212,301,515589,1,2,0:0:0:0:
217,247,515659,1,2,0:0:0:0:
222,193,515729,1,2,0:0:0:0:
226,139,515799,6,0,L|229:95,1,35.9999989013672,6|2,0:0|0:0,0:0:0:0:
398,191,515938,2,0,L|394:226,1,35.9999989013672,2|2,0:0|0:0,0:0:0:0:
142,232,516078,5,2,0:0:0:0:
110,202,516147,1,0,0:0:0:0:
79,172,516217,1,0,0:0:0:0:
48,142,516287,1,0,0:0:0:0:
17,112,516357,85,6,0:0:0:0:
45,114,516426,1,2,0:0:0:0:
74,117,516496,1,2,0:0:0:0:
103,119,516566,1,2,0:0:0:0:
131,122,516636,6,0,L|174:125,1,35.9999989013672,2|2,0:0|0:0,0:0:0:0:
48,225,516775,2,0,L|12:221,1,35.9999989013672,2|2,0:0|0:0,0:0:0:0:
222,193,516915,5,6,0:0:0:0:
244,174,516984,1,0,0:0:0:0:
266,156,517054,1,0,0:0:0:0:
288,137,517124,1,0,0:0:0:0:
310,119,517194,85,10,0:0:0:0:
319,172,517263,1,2,0:0:0:0:
328,225,517333,1,2,0:0:0:0:
338,278,517403,1,2,0:0:0:0:
347,331,517473,6,0,L|353:366,1,35.9999989013672,6|2,0:0|0:0,0:0:0:0:
202,339,517613,2,0,L|195:303,1,35.9999989013672,2|2,0:0|0:0,0:0:0:0:
414,230,517752,86,0,P|446:242|472:285,1,67.6124980731011,2|0,0:0|0:0,0:0:0:0:
404,300,518031,37,6,0:0:0:0:
395,298,518100,1,2,0:0:0:0:
386,295,518170,1,2,0:0:0:0:
378,291,518240,1,2,0:0:0:0:
371,286,518310,1,6,0:0:0:0:
364,280,518379,1,2,0:0:0:0:
358,273,518449,1,2,0:0:0:0:
353,266,518519,1,2,0:0:0:0:
349,258,518589,1,6,0:0:0:0:
346,249,518658,1,2,0:0:0:0:
344,240,518728,1,2,0:0:0:0:
343,231,518798,1,2,0:0:0:0:
343,222,518868,86,0,L|352:182,1,30,14|2,0:0|0:0,0:0:0:0:
299,75,519008,1,2,0:0:0:0:
290,71,519077,1,2,0:0:0:0:
282,67,519147,1,6,0:0:0:0:
273,65,519217,1,2,0:0:0:0:
265,64,519287,2,0,L|219:73,1,30,10|2,0:0|0:0,0:0:0:0:
196,169,519427,1,6,0:0:0:0:
199,171,519496,1,2,0:0:0:0:
202,173,519566,2,0,L|249:182,1,30,10|2,0:0|0:0,0:0:0:0:
343,222,519706,5,6,0:0:0:0:
340,224,519775,1,2,0:0:0:0:
337,226,519845,2,0,L|290:235,1,30,10|2,0:0|0:0,0:0:0:0:
189,261,519985,1,6,0:0:0:0:
192,263,520054,1,2,0:0:0:0:
195,265,520124,2,0,L|242:274,1,30,10|2,0:0|0:0,0:0:0:0:
336,314,520264,1,6,0:0:0:0:
333,316,520333,1,2,0:0:0:0:
330,318,520403,2,0,L|283:327,1,30,10|2,0:0|0:0,0:0:0:0:
188,357,520543,6,0,L|235:366,1,30,10|2,0:0|0:0,0:0:0:0:
337,226,520682,2,0,L|290:235,1,30,10|2,0:0|0:0,0:0:0:0:
187,362,520822,86,0,L|234:371,1,30,10|2,0:0|0:0,0:0:0:0:
338,223,520962,2,0,L|291:232,1,30,10|2,0:0|0:0,0:0:0:0:
186,367,521101,6,0,L|233:376,1,30,10|2,0:0|0:0,0:0:0:0:
339,220,521241,2,0,L|292:229,1,30,10|2,0:0|0:0,0:0:0:0:
117,325,521380,5,6,0:0:0:0:
109,320,521449,1,2,0:0:0:0:
102,315,521519,1,2,0:0:0:0:
95,309,521589,1,2,0:0:0:0:
89,302,521659,1,2,0:0:0:0:
83,295,521728,1,2,0:0:0:0:
78,288,521798,1,2,0:0:0:0:
73,280,521868,1,2,0:0:0:0:
69,272,521938,1,6,0:0:0:0:
66,263,522007,1,2,0:0:0:0:
64,255,522077,1,2,0:0:0:0:
62,246,522147,1,2,0:0:0:0:
62,237,522217,86,0,L|64:195,1,30,10|2,0:0|0:0,0:0:0:0:
186,169,522357,1,2,0:0:0:0:
194,165,522426,1,2,0:0:0:0:
201,160,522496,1,6,0:0:0:0:
209,155,522566,1,2,0:0:0:0:
216,149,522636,2,0,L|223:108,1,30,10|2,0:0|0:0,0:0:0:0:
303,53,522775,1,6,0:0:0:0:
306,52,522845,1,2,0:0:0:0:
309,51,522915,2,0,L|361:59,1,30,10|2,0:0|0:0,0:0:0:0:
340,147,523055,5,6,0:0:0:0:
343,147,523125,1,2,0:0:0:0:
346,147,523195,2,0,L|387:179,1,30,10|2,0:0|0:0,0:0:0:0:
325,246,523333,1,2,0:0:0:0:
324,246,523403,1,2,0:0:0:0:
326,249,523473,2,0,L|345:298,1,30,10|2,0:0|0:0,0:0:0:0:
262,325,523613,1,2,0:0:0:0:
253,327,523682,1,2,0:0:0:0:
244,329,523752,1,2,0:0:0:0:
235,330,523822,1,2,0:0:0:0:
226,330,523892,6,0,L|178:315,1,30,10|2,0:0|0:0,0:0:0:0:
243,203,524031,1,2,0:0:0:0:
242,194,524100,1,2,0:0:0:0:
241,185,524170,1,6,0:0:0:0:
238,176,524240,1,2,0:0:0:0:
235,168,524310,2,0,L|216:136,1,30,10|2,0:0|0:0,0:0:0:0:
134,206,524450,1,2,0:0:0:0:
133,209,524520,1,2,0:0:0:0:
132,212,524589,2,0,L|110:253,1,30,10|2,0:0|0:0,0:0:0:0:
51,106,524729,85,6,0:0:0:0:
54,97,524798,1,2,0:0:0:0:
58,89,524868,1,2,0:0:0:0:
62,81,524938,1,2,0:0:0:0:
67,74,525008,1,6,0:0:0:0:
73,67,525077,1,2,0:0:0:0:
79,60,525147,1,2,0:0:0:0:
85,54,525217,1,2,0:0:0:0:
92,48,525287,1,6,0:0:0:0:
100,43,525356,1,2,0:0:0:0:
108,39,525426,1,2,0:0:0:0:
116,35,525496,1,2,0:0:0:0:
125,31,525566,6,0,L|173:23,1,30,14|2,0:0|0:0,0:0:0:0:
229,135,525706,1,2,0:0:0:0:
233,142,525775,1,2,0:0:0:0:
239,149,525845,1,6,0:0:0:0:
245,155,525915,1,2,0:0:0:0:
252,161,525985,1,2,0:0:0:0:
260,165,526054,1,2,0:0:0:0:
268,169,526124,1,6,0:0:0:0:
277,172,526194,1,2,0:0:0:0:
286,173,526264,1,2,0:0:0:0:
295,174,526333,1,2,0:0:0:0:
304,173,526403,5,6,0:0:0:0:
313,171,526473,1,2,0:0:0:0:
321,169,526543,1,2,0:0:0:0:
329,165,526612,1,2,0:0:0:0:
337,160,526682,1,6,0:0:0:0:
344,154,526752,1,2,0:0:0:0:
352,150,526822,1,2,0:0:0:0:
360,146,526892,1,2,0:0:0:0:
368,143,526962,1,6,0:0:0:0:
377,140,527031,1,2,0:0:0:0:
386,139,527101,1,2,0:0:0:0:
395,139,527171,1,2,0:0:0:0:
404,139,527241,86,0,L|451:151,1,30,14|2,0:0|0:0,0:0:0:0:
401,269,527380,1,2,0:0:0:0:
400,272,527450,1,2,0:0:0:0:
399,275,527520,6,0,L|352:287,1,30,10|2,0:0|0:0,0:0:0:0:
231,182,527659,2,0,L|278:194,1,30,10|2,0:0|0:0,0:0:0:0:
428,246,527799,6,0,L|381:258,1,30,10|2,0:0|0:0,0:0:0:0:
224,153,527938,2,0,L|271:165,1,30,10|2,0:0|0:0,0:0:0:0:
476,197,528078,85,6,0:0:0:0:
479,195,528148,1,0,0:0:0:0:
482,193,528217,2,0,L|498:150,1,30,10|2,0:0|0:0,0:0:0:0:
412,65,528357,1,2,0:0:0:0:
415,67,528427,1,0,0:0:0:0:
418,69,528496,2,0,L|434:112,1,30,10|2,0:0|0:0,0:0:0:0:
379,192,528636,1,6,0:0:0:0:
370,192,528705,1,2,0:0:0:0:
361,191,528775,1,2,0:0:0:0:
352,189,528845,1,2,0:0:0:0:
343,186,528915,6,0,L|316:168,1,30,10|2,0:0|0:0,0:0:0:0:
196,130,529055,1,2,0:0:0:0:
187,133,529124,1,2,0:0:0:0:
179,137,529194,1,6,0:0:0:0:
172,143,529264,1,2,0:0:0:0:
165,149,529334,2,0,L|143:190,1,30,10|2,0:0|0:0,0:0:0:0:
205,316,529473,1,2,0:0:0:0:
207,313,529543,1,0,0:0:0:0:
209,310,529613,2,0,L|212:267,1,30,10|2,0:0|0:0,0:0:0:0:
253,164,529752,5,6,0:0:0:0:
255,167,529822,1,0,0:0:0:0:
257,170,529892,2,0,L|260:213,1,30,10|2,0:0|0:0,0:0:0:0:
306,314,530031,1,2,0:0:0:0:
308,311,530101,1,0,0:0:0:0:
310,308,530171,2,0,L|313:265,1,30,10|2,0:0|0:0,0:0:0:0:
351,161,530310,1,6,0:0:0:0:
359,158,530379,1,2,0:0:0:0:
368,156,530449,1,2,0:0:0:0:
377,156,530519,1,2,0:0:0:0:
386,157,530589,86,0,L|429:167,1,30,10|2,0:0|0:0,0:0:0:0:
482,284,530729,1,2,0:0:0:0:
476,291,530798,1,2,0:0:0:0:
470,297,530868,1,6,0:0:0:0:
463,303,530938,1,2,0:0:0:0:
455,308,531008,2,0,L|421:312,1,30,10|2,0:0|0:0,0:0:0:0:
378,219,531148,1,2,0:0:0:0:
375,219,531217,1,2,0:0:0:0:
372,219,531287,2,0,L|339:227,1,30,10|2,0:0|0:0,0:0:0:0:
287,368,531427,5,6,0:0:0:0:
278,372,531496,1,2,0:0:0:0:
270,375,531566,1,2,0:0:0:0:
261,377,531636,1,2,0:0:0:0:
253,379,531706,1,6,0:0:0:0:
244,379,531775,1,2,0:0:0:0:
235,379,531845,1,2,0:0:0:0:
226,378,531915,1,2,0:0:0:0:
217,376,531985,1,6,0:0:0:0:
208,373,532054,1,2,0:0:0:0:
200,369,532124,1,2,0:0:0:0:
193,365,532194,1,2,0:0:0:0:
185,359,532264,6,0,L|164:329,1,30,14|2,0:0|0:0,0:0:0:0:
246,224,532403,1,2,0:0:0:0:
250,216,532472,1,2,0:0:0:0:
253,207,532542,1,6,0:0:0:0:
255,198,532612,1,2,0:0:0:0:
256,190,532682,1,2,0:0:0:0:
256,181,532751,1,2,0:0:0:0:
255,172,532821,1,6,0:0:0:0:
253,163,532891,1,2,0:0:0:0:
250,155,532961,1,2,0:0:0:0:
246,147,533030,1,2,0:0:0:0:
240,139,533100,85,6,0:0:0:0:
234,133,533170,1,2,0:0:0:0:
227,127,533240,1,2,0:0:0:0:
220,122,533309,1,2,0:0:0:0:
212,118,533379,1,6,0:0:0:0:
203,115,533449,1,2,0:0:0:0:
194,113,533519,1,2,0:0:0:0:
186,113,533589,1,2,0:0:0:0:
177,113,533658,1,6,0:0:0:0:
168,115,533728,1,2,0:0:0:0:
159,117,533798,1,2,0:0:0:0:
151,121,533868,1,2,0:0:0:0:
143,125,533938,6,0,L|118:145,1,30,14|2,0:0|0:0,0:0:0:0:
207,269,534078,1,2,0:0:0:0:
210,270,534148,1,2,0:0:0:0:
213,271,534217,6,0,L|234:227,1,30,10|2,0:0|0:0,0:0:0:0:
301,77,534357,2,0,L|309:125,1,30,10|2,0:0|0:0,0:0:0:0:
232,291,534496,86,0,L|253:247,1,30,10|2,0:0|0:0,0:0:0:0:
289,61,534636,2,0,L|297:109,1,30,10|2,0:0|0:0,0:0:0:0:
316,300,534775,5,6,0:0:0:0:
317,303,534845,1,2,0:0:0:0:
318,306,534915,2,0,L|363:329,1,30,10|2,0:0|0:0,0:0:0:0:
479,349,535055,1,6,0:0:0:0:
478,352,535125,1,2,0:0:0:0:
477,355,535195,2,0,L|432:378,1,30,10|2,0:0|0:0,0:0:0:0:
374,253,535334,1,6,0:0:0:0:
373,244,535403,1,2,0:0:0:0:
374,235,535473,1,2,0:0:0:0:
375,226,535543,1,2,0:0:0:0:
378,217,535613,6,0,L|390:178,1,30,10|2,0:0|0:0,0:0:0:0:
379,53,535752,1,2,0:0:0:0:
373,45,535821,1,2,0:0:0:0:
367,39,535891,1,6,0:0:0:0:
360,33,535961,1,2,0:0:0:0:
353,28,536031,2,0,L|312:16,1,30,10|2,0:0|0:0,0:0:0:0:
297,126,536171,1,2,0:0:0:0:
295,129,536241,1,2,0:0:0:0:
293,132,536310,2,0,L|252:149,1,30,10|2,0:0|0:0,0:0:0:0:
138,127,536450,85,6,0:0:0:0:
139,130,536520,1,2,0:0:0:0:
140,134,536589,2,0,L|172:163,1,30,10|2,0:0|0:0,0:0:0:0:
291,202,536729,1,2,0:0:0:0:
288,204,536799,1,2,0:0:0:0:
286,207,536868,2,0,L|242:216,1,30,10|2,0:0|0:0,0:0:0:0:
117,200,537008,1,6,0:0:0:0:
108,204,537077,1,2,0:0:0:0:
101,209,537147,1,2,0:0:0:0:
94,215,537217,1,2,0:0:0:0:
89,222,537287,6,0,L|70:263,1,30,10|2,0:0|0:0,0:0:0:0:
204,262,537427,1,2,0:0:0:0:
211,267,537496,1,2,0:0:0:0:
217,274,537566,1,6,0:0:0:0:
222,281,537636,1,2,0:0:0:0:
226,289,537706,2,0,L|234:339,1,30,10|2,0:0|0:0,0:0:0:0:
82,342,537845,6,0,L|54:311,1,30,6|2,0:0|0:0,0:0:0:0:
72,342,537985,2,0,L|44:311,1,30,6|2,0:0|0:0,0:0:0:0:
172,185,538124,85,6,0:0:0:0:
180,183,538193,1,2,0:0:0:0:
189,182,538263,1,2,0:0:0:0:
198,182,538333,1,2,0:0:0:0:
207,183,538403,1,6,0:0:0:0:
216,185,538472,1,2,0:0:0:0:
225,187,538542,1,2,0:0:0:0:
233,191,538612,1,2,0:0:0:0:
241,195,538682,1,6,0:0:0:0:
249,199,538751,1,2,0:0:0:0:
256,205,538821,1,2,0:0:0:0:
262,211,538891,1,2,0:0:0:0:
268,218,538962,6,0,L|293:256,1,30,14|2,0:0|0:0,0:0:0:0:
394,306,539101,1,2,0:0:0:0:
402,304,539170,1,2,0:0:0:0:
411,300,539240,1,6,0:0:0:0:
419,296,539310,1,2,0:0:0:0:
426,291,539380,1,2,0:0:0:0:
433,285,539449,1,2,0:0:0:0:
439,278,539519,1,6,0:0:0:0:
443,271,539589,1,2,0:0:0:0:
447,263,539659,1,2,0:0:0:0:
450,254,539728,1,2,0:0:0:0:
452,245,539798,5,6,0:0:0:0:
452,236,539868,1,2,0:0:0:0:
451,227,539938,1,2,0:0:0:0:
449,218,540007,1,2,0:0:0:0:
446,210,540077,1,6,0:0:0:0:
442,202,540147,1,2,0:0:0:0:
437,195,540217,1,2,0:0:0:0:
433,187,540287,1,2,0:0:0:0:
430,179,540357,1,6,0:0:0:0:
427,170,540427,1,2,0:0:0:0:
426,161,540496,1,2,0:0:0:0:
426,152,540566,1,2,0:0:0:0:
426,143,540636,86,0,L|431:94,1,30,14|2,0:0|0:0,0:0:0:0:
301,34,540775,1,2,0:0:0:0:
298,35,540845,1,2,0:0:0:0:
295,36,540915,6,0,L|293:80,1,30,10|2,0:0|0:0,0:0:0:0:
383,238,541055,2,0,L|371:211,1,30,10|2,0:0|0:0,0:0:0:0:
283,39,541194,6,0,L|281:83,1,30,10|2,0:0|0:0,0:0:0:0:
380,259,541334,2,0,L|368:232,1,30,10|2,0:0|0:0,0:0:0:0:
206,74,541473,85,6,0:0:0:0:
203,75,541543,1,2,0:0:0:0:
200,76,541613,2,0,L|164:101,1,30,10|2,0:0|0:0,0:0:0:0:
288,136,541752,1,6,0:0:0:0:
291,137,541822,1,2,0:0:0:0:
294,138,541892,2,0,L|330:163,1,30,10|2,0:0|0:0,0:0:0:0:
162,158,542031,1,6,0:0:0:0:
153,161,542100,1,2,0:0:0:0:
146,166,542170,1,2,0:0:0:0:
139,172,542240,1,2,0:0:0:0:
133,178,542310,6,0,L|110:212,1,30,10|2,0:0|0:0,0:0:0:0:
191,307,542450,1,2,0:0:0:0:
199,308,542519,1,2,0:0:0:0:
208,308,542589,1,6,0:0:0:0:
217,307,542659,1,2,0:0:0:0:
226,306,542729,2,0,L|273:290,1,30,10|2,0:0|0:0,0:0:0:0:
231,163,542868,1,2,0:0:0:0:
229,160,542938,1,2,0:0:0:0:
227,157,543008,2,0,L|236:117,1,30,10|2,0:0|0:0,0:0:0:0:
166,26,543148,5,6,0:0:0:0:
164,29,543218,1,2,0:0:0:0:
162,32,543288,2,0,L|171:72,1,30,10|2,0:0|0:0,0:0:0:0:
129,175,543427,1,2,0:0:0:0:
127,172,543497,1,2,0:0:0:0:
125,169,543567,2,0,L|134:129,1,30,10|2,0:0|0:0,0:0:0:0:
242,56,543706,1,6,0:0:0:0:
250,57,543775,1,2,0:0:0:0:
259,60,543845,1,2,0:0:0:0:
267,63,543915,1,2,0:0:0:0:
275,68,543985,86,0,L|303:94,1,30,10|2,0:0|0:0,0:0:0:0:
294,194,544124,1,2,0:0:0:0:
295,202,544193,1,2,0:0:0:0:
298,211,544263,1,6,0:0:0:0:
301,219,544333,1,2,0:0:0:0:
306,227,544403,2,0,L|328:261,1,30,10|2,0:0|0:0,0:0:0:0:
449,199,544543,1,2,0:0:0:0:
450,196,544613,1,2,0:0:0:0:
451,193,544682,2,0,L|438:145,1,30,10|2,0:0|0:0,0:0:0:0:
233,127,544822,5,6,0:0:0:0:
233,127,545101,1,2,0:0:0:0:
233,127,545380,1,8,0:0:0:0:
388,217,545519,1,8,0:0:0:0:
249,51,545659,5,6,0:0:0:0:
223,49,545728,1,2,0:0:0:0:
199,56,545798,1,2,0:0:0:0:
179,71,545868,1,2,0:0:0:0:
164,91,545938,1,2,0:0:0:0:
156,115,546007,1,2,0:0:0:0:
156,140,546077,1,2,0:0:0:0:
164,163,546147,1,2,0:0:0:0:
180,183,546217,1,2,0:0:0:0:
190,204,546286,1,2,0:0:0:0:
193,229,546356,1,2,0:0:0:0:
188,254,546426,1,2,0:0:0:0:
176,276,546496,86,0,L|150:314,3,35.9999989013672,10|2|2|2,0:0|0:0|0:0|0:0,0:0:0:0:
106,227,546775,2,0,L|67:250,3,35.9999989013672,2|2|2|2,0:0|0:0|0:0|0:0,0:0:0:0:
229,123,547054,5,2,0:0:0:0:
254,121,547123,1,2,0:0:0:0:
278,127,547193,1,2,0:0:0:0:
299,141,547263,1,2,0:0:0:0:
314,161,547333,1,2,0:0:0:0:
322,185,547402,1,2,0:0:0:0:
322,210,547472,1,2,0:0:0:0:
314,234,547542,1,2,0:0:0:0:
299,254,547612,5,10,0:0:0:0:
283,234,547681,1,2,0:0:0:0:
274,210,547751,1,2,0:0:0:0:
273,185,547821,1,2,0:0:0:0:
278,161,547891,1,2,0:0:0:0:
291,139,547960,1,2,0:0:0:0:
309,122,548030,1,2,0:0:0:0:
332,110,548100,1,2,0:0:0:0:
356,106,548170,85,2,0:0:0:0:
360,108,548240,1,0,0:0:0:0:
363,109,548310,2,0,L|391:155,1,35.9999989013672,10|2,0:0|0:0,0:0:0:0:
361,301,548449,1,2,0:0:0:0:
341,317,548518,1,2,0:0:0:0:
318,326,548588,1,2,0:0:0:0:
293,328,548658,1,2,0:0:0:0:
268,322,548728,2,0,L|232:293,1,35.9999989013672,10|2,0:0|0:0,0:0:0:0:
194,141,548868,1,2,0:0:0:0:
193,137,548938,1,2,0:0:0:0:
192,133,549008,5,10,0:0:0:0:
154,105,549077,1,10,0:0:0:0:
108,101,549147,1,10,0:0:0:0:
66,121,549217,1,10,0:0:0:0:
41,159,549287,5,2,0:0:0:0:
41,159,549566,1,2,0:0:0:0:
41,159,549845,1,8,0:0:0:0:
83,341,549984,1,8,0:0:0:0:
192,133,550124,85,6,0:0:0:0:
215,124,550193,1,2,0:0:0:0:
240,123,550263,1,2,0:0:0:0:
265,129,550333,1,2,0:0:0:0:
286,142,550403,1,2,0:0:0:0:
303,160,550472,1,2,0:0:0:0:
314,183,550542,1,2,0:0:0:0:
318,207,550612,1,2,0:0:0:0:
318,234,550682,1,2,0:0:0:0:
323,258,550752,1,2,0:0:0:0:
334,281,550822,1,2,0:0:0:0:
351,299,550892,1,2,0:0:0:0:
373,312,550961,6,0,L|430:319,3,35.9999989013672,10|2|2|2,0:0|0:0|0:0|0:0,0:0:0:0:
302,361,551240,2,0,L|245:368,3,35.9999989013672,2|2|2|2,0:0|0:0|0:0|0:0,0:0:0:0:
397,241,551519,5,2,0:0:0:0:
398,237,551589,1,2,0:0:0:0:
399,233,551659,2,0,L|392:192,1,35.9999989013672,10|2,0:0|0:0,0:0:0:0:
252,254,551798,1,2,0:0:0:0:
226,253,551867,1,2,0:0:0:0:
203,244,551937,1,2,0:0:0:0:
184,228,552007,1,2,0:0:0:0:
171,206,552077,2,0,L|161:166,1,35.9999989013672,10|2,0:0|0:0,0:0:0:0:
237,66,552217,1,2,0:0:0:0:
229,42,552286,1,2,0:0:0:0:
214,22,552356,1,2,0:0:0:0:
192,8,552426,1,2,0:0:0:0:
168,3,552496,1,2,0:0:0:0:
143,6,552565,1,2,0:0:0:0:
121,18,552635,85,2,0:0:0:0:
120,22,552705,1,2,0:0:0:0:
119,25,552775,2,0,L|97:79,1,35.9999989013672,10|2,0:0|0:0,0:0:0:0:
235,148,552915,1,2,0:0:0:0:
259,143,552984,1,2,0:0:0:0:
282,131,553054,1,2,0:0:0:0:
300,114,553124,1,2,0:0:0:0:
312,92,553194,2,0,L|323:50,1,35.9999989013672,10|2,0:0|0:0,0:0:0:0:
450,173,553333,1,2,0:0:0:0:
451,176,553403,1,2,0:0:0:0:
452,179,553473,5,10,0:0:0:0:
433,221,553542,1,10,0:0:0:0:
394,246,553612,1,10,0:0:0:0:
348,247,553682,1,10,0:0:0:0:
309,223,553752,5,2,0:0:0:0:
309,223,554031,1,2,0:0:0:0:
309,223,554310,1,8,0:0:0:0:
389,384,554449,1,8,0:0:0:0:
371,172,554589,85,6,0:0:0:0:
351,155,554658,1,2,0:0:0:0:
328,146,554728,1,2,0:0:0:0:
303,144,554798,1,2,0:0:0:0:
279,151,554868,1,2,0:0:0:0:
258,164,554937,1,2,0:0:0:0:
242,184,555007,1,2,0:0:0:0:
233,207,555077,1,2,0:0:0:0:
232,232,555147,1,2,0:0:0:0:
225,255,555216,1,2,0:0:0:0:
210,275,555286,1,2,0:0:0:0:
188,288,555356,1,2,0:0:0:0:
164,294,555426,6,0,L|107:301,3,35.9999989013672,10|2|2|2,0:0|0:0|0:0|0:0,0:0:0:0:
156,218,555705,2,0,L|103:205,3,36.059996496277,2|2|2|2,0:0|0:0|0:0|0:0,0:0:0:0:
309,223,555984,5,2,0:0:0:0:
329,209,556053,1,2,0:0:0:0:
346,189,556123,1,2,0:0:0:0:
356,167,556193,1,2,0:0:0:0:
360,142,556263,1,2,0:0:0:0:
357,117,556332,1,2,0:0:0:0:
347,94,556402,1,2,0:0:0:0:
331,74,556472,1,2,0:0:0:0:
311,60,556542,85,10,0:0:0:0:
335,53,556611,1,2,0:0:0:0:
360,51,556681,1,2,0:0:0:0:
385,54,556751,1,2,0:0:0:0:
409,62,556821,1,2,0:0:0:0:
430,75,556890,1,2,0:0:0:0:
449,92,556960,1,2,0:0:0:0:
464,112,557030,1,2,0:0:0:0:
474,135,557100,5,2,0:0:0:0:
475,139,557170,1,2,0:0:0:0:
475,142,557240,2,0,L|463:184,1,35.9999989013672,10|2,0:0|0:0,0:0:0:0:
284,140,557380,1,2,0:0:0:0:
260,149,557449,1,2,0:0:0:0:
241,166,557519,1,2,0:0:0:0:
228,187,557589,1,2,0:0:0:0:
223,212,557659,2,0,L|223:256,1,35.9999989013672,10|2,0:0|0:0,0:0:0:0:
381,338,557798,1,2,0:0:0:0:
384,336,557868,1,2,0:0:0:0:
387,334,557938,5,10,0:0:0:0:
404,291,558007,1,10,0:0:0:0:
392,247,558077,1,10,0:0:0:0:
354,220,558147,1,10,0:0:0:0:
309,223,558217,85,2,0:0:0:0:
309,223,558496,1,2,0:0:0:0:
309,223,558775,1,8,0:0:0:0:
449,92,558915,1,8,0:0:0:0:
335,290,559054,5,6,0:0:0:0:
310,294,559123,1,2,0:0:0:0:
285,289,559193,1,2,0:0:0:0:
263,276,559263,1,2,0:0:0:0:
247,257,559333,1,2,0:0:0:0:
238,234,559402,1,2,0:0:0:0:
222,213,559473,1,2,0:0:0:0:
201,198,559543,1,2,0:0:0:0:
178,189,559613,1,2,0:0:0:0:
153,187,559682,1,2,0:0:0:0:
128,191,559752,1,2,0:0:0:0:
106,202,559822,1,2,0:0:0:0:
86,218,559891,6,0,L|56:256,3,36.059996496277,10|2|2|2,0:0|0:0|0:0|0:0,0:0:0:0:
156,284,560170,2,0,L|148:332,3,36.059996496277,2|2|2|2,0:0|0:0|0:0|0:0,0:0:0:0:
112,121,560449,85,2,0:0:0:0:
113,117,560519,1,2,0:0:0:0:
114,113,560589,2,0,L|138:60,1,35.9999989013672,10|2,0:0|0:0,0:0:0:0:
222,213,560728,1,2,0:0:0:0:
244,223,560797,1,2,0:0:0:0:
269,226,560867,1,2,0:0:0:0:
294,221,560937,1,2,0:0:0:0:
315,208,561008,2,0,L|351:166,1,35.9999989013672,10|2,0:0|0:0,0:0:0:0:
341,40,561147,1,2,0:0:0:0:
357,21,561216,1,2,0:0:0:0:
379,9,561286,1,2,0:0:0:0:
404,4,561356,1,2,0:0:0:0:
429,8,561426,2,0,L|475:27,1,35.9999989013672,10|2,0:0|0:0,0:0:0:0:
340,115,561566,6,0,L|306:101,1,35.9999989013672,10|2,0:0|0:0,0:0:0:0:
479,83,561705,2,0,L|512:96,1,35.9999989013672,10|2,0:0|0:0,0:0:0:0:
338,180,561845,1,2,0:0:0:0:
334,181,561915,1,2,0:0:0:0:
330,182,561984,2,0,L|296:168,1,35.9999989013672,10|2,0:0|0:0,0:0:0:0:
479,152,562124,2,0,L|494:197,1,35.9999989013672,10|2,0:0|0:0,0:0:0:0:
341,40,562263,2,0,L|329:5,1,35.9999989013672,10|2,0:0|0:0,0:0:0:0:
425,200,562403,1,2,0:0:0:0:
424,200,562473,1,2,0:0:0:0:
426,203,562542,2,0,L|426:254,1,35.9999989013672,10|2,0:0|0:0,0:0:0:0:
271,42,562682,5,6,0:0:0:0:
235,45,562751,1,2,0:0:0:0:
203,61,562821,1,2,0:0:0:0:
179,88,562891,1,2,0:0:0:0:
167,122,562961,2,0,L|163:161,1,35.9999989013672,6|2,0:0|0:0,0:0:0:0:
337,216,563101,85,2,0:0:0:0:
367,250,563170,1,2,0:0:0:0:
374,295,563240,1,10,0:0:0:0:
356,338,563310,1,2,0:0:0:0:
317,363,563380,2,0,L|275:363,1,35.9999989013672,2|2,0:0|0:0,0:0:0:0:
262,176,563519,5,6,0:0:0:0:
287,150,563588,1,2,0:0:0:0:
320,137,563658,1,2,0:0:0:0:
356,136,563728,1,2,0:0:0:0:
389,150,563798,2,0,L|421:181,1,35.9999989013672,14|2,0:0|0:0,0:0:0:0:
297,286,563938,5,2,0:0:0:0:
250,291,564007,1,2,0:0:0:0:
206,277,564077,1,2,0:0:0:0:
171,246,564147,1,2,0:0:0:0:
151,204,564217,2,0,L|153:155,1,35.9999989013672,6|2,0:0|0:0,0:0:0:0:
315,67,564356,85,10,0:0:0:0:
318,68,564426,1,2,0:0:0:0:
321,69,564496,2,0,L|358:91,1,35.9999989013672,6|2,0:0|0:0,0:0:0:0:
193,82,564635,1,2,0:0:0:0:
190,83,564705,1,2,0:0:0:0:
187,84,564775,2,0,L|150:106,1,35.9999989013672,6|2,0:0|0:0,0:0:0:0:
336,175,564915,5,2,0:0:0:0:
371,175,564984,1,2,0:0:0:0:
404,162,565054,1,2,0:0:0:0:
429,136,565124,1,2,0:0:0:0:
441,102,565194,2,0,L|437:55,1,35.9999989013672,2|2,0:0|0:0,0:0:0:0:
268,116,565333,5,2,0:0:0:0:
248,158,565402,1,2,0:0:0:0:
252,204,565472,1,10,0:0:0:0:
278,242,565542,1,2,0:0:0:0:
320,262,565612,2,0,L|364:263,1,35.9999989013672,2|2,0:0|0:0,0:0:0:0:
351,87,565752,85,2,0:0:0:0:
330,57,565821,1,2,0:0:0:0:
301,37,565891,1,2,0:0:0:0:
266,30,565961,1,2,0:0:0:0:
231,37,566031,6,0,L|196:53,1,35.9999989013672,10|2,0:0|0:0,0:0:0:0:
248,158,566170,2,0,L|282:142,1,35.9999989013672,2|2,0:0|0:0,0:0:0:0:
202,33,566310,6,0,L|168:56,1,38.9999982147218,10|2,0:0|0:0,0:0:0:0:
269,166,566449,2,0,L|306:140,1,38.9999982147218,2|2,0:0|0:0,0:0:0:0:
169,30,566589,86,0,L|140:59,1,41.9999987182618,10|2,0:0|0:0,0:0:0:0:
293,172,566728,2,0,L|331:134,1,41.9999987182618,2|2,0:0|0:0,0:0:0:0:
133,32,566868,6,0,L|107:68,1,45.0000017166138,10|2,0:0|0:0,0:0:0:0:
321,173,567008,2,0,L|346:136,1,45.0000017166138,10|2,0:0|0:0,0:0:0:0:
87,136,567147,5,6,0:0:0:0:
62,162,567216,1,2,0:0:0:0:
52,196,567286,1,2,0:0:0:0:
59,231,567356,1,2,0:0:0:0:
81,259,567426,2,0,L|123:282,1,35.9999989013672,6|2,0:0|0:0,0:0:0:0:
201,126,567566,85,2,0:0:0:0:
206,80,567635,1,2,0:0:0:0:
234,43,567705,1,10,0:0:0:0:
277,25,567775,1,2,0:0:0:0:
323,30,567845,2,0,L|367:49,1,35.9999989013672,2|2,0:0|0:0,0:0:0:0:
369,217,567984,5,6,0:0:0:0:
385,248,568053,1,2,0:0:0:0:
414,269,568123,1,2,0:0:0:0:
449,273,568193,1,2,0:0:0:0:
482,261,568263,2,0,L|509:225,1,35.9999989013672,10|2,0:0|0:0,0:0:0:0:
385,108,568403,5,2,0:0:0:0:
338,110,568472,1,2,0:0:0:0:
298,133,568542,1,2,0:0:0:0:
273,171,568612,1,2,0:0:0:0:
268,218,568682,2,0,L|281:282,1,35.9999989013672,2|2,0:0|0:0,0:0:0:0:
425,342,568822,85,10,0:0:0:0:
428,342,568891,1,2,0:0:0:0:
431,342,568961,2,0,L|472:332,1,35.9999989013672,2|2,0:0|0:0,0:0:0:0:
409,208,569101,1,2,0:0:0:0:
406,208,569170,1,2,0:0:0:0:
403,208,569240,2,0,L|362:218,1,35.9999989013672,2|2,0:0|0:0,0:0:0:0:
265,359,569380,5,10,0:0:0:0:
250,358,569449,1,2,0:0:0:0:
236,356,569519,1,2,0:0:0:0:
222,352,569589,1,2,0:0:0:0:
209,347,569659,1,2,0:0:0:0:
196,340,569728,1,2,0:0:0:0:
184,332,569798,1,2,0:0:0:0:
173,323,569868,1,2,0:0:0:0:
163,312,569938,1,10,0:0:0:0:
154,301,570007,1,2,0:0:0:0:
147,289,570077,1,2,0:0:0:0:
141,276,570147,1,2,0:0:0:0:
137,262,570217,1,2,0:0:0:0:
134,248,570286,1,2,0:0:0:0:
132,233,570356,1,2,0:0:0:0:
133,219,570426,1,2,0:0:0:0:
134,205,570496,6,0,L|143:150,1,35.9999989013672,10|2,0:0|0:0,0:0:0:0:
53,168,570635,2,0,L|47:203,1,35.9999989013672,2|2,0:0|0:0,0:0:0:0:
142,193,570775,86,0,L|151:134,1,38.9999982147218,2|2,0:0|0:0,0:0:0:0:
47,152,570914,2,0,L|40:190,1,38.9999982147218,2|2,0:0|0:0,0:0:0:0:
151,182,571054,6,0,L|161:117,1,41.9999987182618,10|2,0:0|0:0,0:0:0:0:
40,137,571193,2,0,L|33:178,1,41.9999987182618,2|2,0:0|0:0,0:0:0:0:
161,171,571333,6,0,L|172:99,1,45.0000017166138,2|2,0:0|0:0,0:0:0:0:
33,121,571472,2,0,L|25:166,1,45.0000017166138,2|2,0:0|0:0,0:0:0:0:
199,230,571612,85,14,0:0:0:0:
231,215,571681,1,2,0:0:0:0:
257,190,571751,1,2,0:0:0:0:
271,157,571821,1,2,0:0:0:0:
273,122,571891,2,0,L|263:63,1,35.9999989013672,6|2,0:0|0:0,0:0:0:0:
433,28,572031,5,2,0:0:0:0:
456,68,572100,1,2,0:0:0:0:
463,114,572170,1,10,0:0:0:0:
452,159,572240,1,2,0:0:0:0:
426,198,572310,2,0,L|394:218,1,35.9999989013672,2|2,0:0|0:0,0:0:0:0:
321,33,572449,5,6,0:0:0:0:
290,14,572518,1,2,0:0:0:0:
254,12,572588,1,2,0:0:0:0:
222,27,572658,1,2,0:0:0:0:
199,54,572728,2,0,L|182:89,1,35.9999989013672,10|2,0:0|0:0,0:0:0:0:
319,204,572868,85,2,0:0:0:0:
331,248,572937,1,2,0:0:0:0:
320,293,573007,1,2,0:0:0:0:
288,327,573077,1,2,0:0:0:0:
245,342,573147,2,0,L|198:343,1,35.9999989013672,10|2,0:0|0:0,0:0:0:0:
103,167,573287,5,10,0:0:0:0:
104,163,573356,1,2,0:0:0:0:
105,159,573426,2,0,L|135:118,1,35.9999989013672,2|2,0:0|0:0,0:0:0:0:
222,216,573566,1,2,0:0:0:0:
223,220,573635,1,2,0:0:0:0:
224,224,573705,2,0,L|254:265,1,35.9999989013672,2|2,0:0|0:0,0:0:0:0:
73,247,573845,5,10,0:0:0:0:
40,231,573914,1,2,0:0:0:0:
17,204,573984,1,2,0:0:0:0:
9,169,574054,1,2,0:0:0:0:
16,134,574124,2,0,L|42:87,1,35.9999989013672,2|2,0:0|0:0,0:0:0:0:
158,271,574263,85,2,0:0:0:0:
182,310,574332,1,2,0:0:0:0:
223,331,574402,1,10,0:0:0:0:
269,330,574472,1,2,0:0:0:0:
309,306,574542,2,0,L|342:263,1,35.9999989013672,2|2,0:0|0:0,0:0:0:0:
257,94,574682,5,2,0:0:0:0:
268,60,574751,1,2,0:0:0:0:
292,34,574821,1,2,0:0:0:0:
326,22,574891,1,2,0:0:0:0:
361,25,574961,6,0,L|401:34,1,35.9999989013672,10|2,0:0|0:0,0:0:0:0:
338,147,575101,2,0,L|302:139,1,35.9999989013672,2|2,0:0|0:0,0:0:0:0:
397,24,575240,86,0,L|429:53,1,38.9999982147218,2|2,0:0|0:0,0:0:0:0:
323,172,575380,2,0,L|294:146,1,38.9999982147218,2|2,0:0|0:0,0:0:0:0:
433,29,575519,6,0,L|447:74,1,41.9999987182618,10|2,0:0|0:0,0:0:0:0:
297,192,575659,2,0,L|284:151,1,41.9999987182618,2|2,0:0|0:0,0:0:0:0:
464,47,575798,6,0,L|452:98,1,45.0000017166138,2|2,0:0|0:0,0:0:0:0:
265,200,575938,2,0,L|275:154,1,45.0000017166138,2|2,0:0|0:0,0:0:0:0:
492,158,576077,85,14,0:0:0:0:
506,190,576146,1,2,0:0:0:0:
507,226,576216,1,2,0:0:0:0:
494,259,576286,1,2,0:0:0:0:
469,285,576356,2,0,L|407:302,1,35.9999989013672,6|2,0:0|0:0,0:0:0:0:
345,118,576496,5,2,0:0:0:0:
310,87,576565,1,2,0:0:0:0:
264,81,576635,1,10,0:0:0:0:
223,102,576705,1,2,0:0:0:0:
201,142,576775,2,0,L|193:185,1,35.9999989013672,2|2,0:0|0:0,0:0:0:0:
158,353,576915,5,6,0:0:0:0:
123,363,576984,1,2,0:0:0:0:
88,358,577054,1,2,0:0:0:0:
58,339,577124,1,2,0:0:0:0:
40,308,577194,2,0,L|30:256,1,35.9999989013672,10|2,0:0|0:0,0:0:0:0:
259,308,577333,85,2,0:0:0:0:
303,296,577403,1,2,0:0:0:0:
331,260,577473,1,2,0:0:0:0:
331,214,577543,1,2,0:0:0:0:
303,178,577612,2,0,L|264:147,1,35.9999989013672,2|2,0:0|0:0,0:0:0:0:
112,285,577752,5,10,0:0:0:0:
115,286,577822,1,2,0:0:0:0:
118,287,577891,2,0,L|169:288,1,35.9999989013672,2|2,0:0|0:0,0:0:0:0:
87,159,578031,1,2,0:0:0:0:
93,164,578101,1,2,0:0:0:0:
93,162,578170,2,0,L|140:180,1,35.9999989013672,2|2,0:0|0:0,0:0:0:0:
159,32,578310,5,10,0:0:0:0:
182,23,578379,1,2,0:0:0:0:
207,19,578449,1,2,0:0:0:0:
232,20,578519,1,2,0:0:0:0:
256,26,578589,1,2,0:0:0:0:
279,37,578658,1,2,0:0:0:0:
299,52,578728,1,2,0:0:0:0:
316,71,578798,1,2,0:0:0:0:
328,92,578868,85,10,0:0:0:0:
303,87,578937,1,2,0:0:0:0:
278,89,579007,1,2,0:0:0:0:
254,97,579077,1,2,0:0:0:0:
233,111,579147,1,2,0:0:0:0:
216,129,579216,1,2,0:0:0:0:
204,151,579286,1,2,0:0:0:0:
198,175,579356,1,2,0:0:0:0:
198,201,579426,5,10,0:0:0:0:
220,189,579495,1,2,0:0:0:0:
244,182,579565,1,2,0:0:0:0:
269,182,579635,1,2,0:0:0:0:
294,188,579705,1,2,0:0:0:0:
316,200,579774,1,2,0:0:0:0:
335,216,579844,1,2,0:0:0:0:
349,237,579914,1,2,0:0:0:0:
358,261,579984,5,10,0:0:0:0:
333,256,580053,1,2,0:0:0:0:
308,257,580123,1,2,0:0:0:0:
283,264,580193,1,2,0:0:0:0:
261,276,580263,1,2,0:0:0:0:
243,293,580332,1,2,0:0:0:0:
228,313,580402,1,2,0:0:0:0:
218,337,580472,1,2,0:0:0:0:
214,361,580542,85,6,0:0:0:0:
248,370,580611,1,2,0:0:0:0:
282,361,580681,1,2,0:0:0:0:
307,335,580751,1,2,0:0:0:0:
300,281,580822,5,6,0:0:0:0:
308,246,580891,1,2,0:0:0:0:
332,219,580961,1,2,0:0:0:0:
365,206,581031,1,2,0:0:0:0:
430,217,581101,5,14,0:0:0:0:
454,190,581170,1,2,0:0:0:0:
462,156,581240,1,2,0:0:0:0:
453,121,581310,1,2,0:0:0:0:
402,104,581380,85,6,0:0:0:0:
370,86,581449,1,2,0:0:0:0:
347,59,581519,1,2,0:0:0:0:
337,25,581589,1,2,0:0:0:0:
288,2,581659,5,6,0:0:0:0:
252,4,581728,1,2,0:0:0:0:
221,22,581798,1,2,0:0:0:0:
203,53,581868,1,2,0:0:0:0:
211,107,581938,5,6,0:0:0:0:
209,142,582007,1,2,0:0:0:0:
189,171,582077,1,2,0:0:0:0:
156,186,582147,1,2,0:0:0:0:
96,163,582217,85,14,0:0:0:0:
65,181,582286,1,2,0:0:0:0:
44,210,582356,1,2,0:0:0:0:
37,245,582426,1,2,0:0:0:0:
86,271,582496,5,6,0:0:0:0:
116,289,582565,1,2,0:0:0:0:
136,319,582635,1,2,0:0:0:0:
141,354,582705,1,2,0:0:0:0:
91,384,582775,5,6,0:0:0:0:
256,192,582846,12,0,595060,0:0:0:0:
266,244,595346,37,0,1:0:0:0:
266,244,595511,1,0,0:0:0:0:
266,244,595677,2,0,L|290:216,1,30
218,194,596008,1,0,0:0:0:0:
218,194,596173,1,0,0:0:0:0:
218,194,596340,2,0,L|194:166,1,30
132,213,596671,5,0,1:0:0:0:
72,185,596837,2,0,L|85:150,2,30.049997997284
78,251,597334,1,0,0:0:0:0:
18,223,597500,2,0,L|6:187,2,30.049997997284
138,279,597997,5,0,1:0:0:0:
84,319,598163,2,0,L|43:313,2,30.049997997284
144,345,598660,1,0,0:0:0:0:
90,384,598826,2,0,L|51:378,2,30.049997997284
141,282,599323,85,0,1:0:0:0:
141,282,599489,2,0,L|136:248,2,30.049997997284
210,292,599986,1,0,0:0:0:0:
210,292,600152,2,0,L|205:259,2,30.049997997284
279,302,600649,5,0,1:0:0:0:
273,236,600815,1,0,0:0:0:0:
333,263,600982,2,0,L|347:302,1,30
273,236,601315,1,0,1:0:0:0:
303,175,601481,1,0,0:0:0:0:
339,233,601649,2,0,L|330:272,1,30
236,179,601982,5,0,1:0:0:0:
236,179,602149,1,0,0:0:0:0:
236,179,602315,2,0,L|223:145,1,30
173,214,602649,1,0,0:0:0:0:
173,214,602816,1,0,0:0:0:0:
173,214,602982,2,0,L|160:180,1,30
96,190,603315,85,0,1:0:0:0:
126,129,603482,1,0,0:0:0:0:
59,136,603649,2,0,L|35:158,1,30
126,129,603982,1,0,0:0:0:0:
115,64,604149,1,0,0:0:0:0:
64,106,604316,2,0,L|57:137,1,30
183,92,604649,5,0,1:0:0:0:
183,92,604812,1,0,0:0:0:0:
183,92,604976,2,0,L|220:77,1,30
228,154,605304,1,0,0:0:0:0:
228,154,605467,1,0,0:0:0:0:
228,154,605632,1,0,0:0:0:0:
291,150,605796,1,0,0:0:0:0:
237,222,605960,5,0,1:0:0:0:
248,287,606124,1,0,0:0:0:0:
309,312,606288,2,0,L|349:298,1,30
237,222,606616,1,0,0:0:0:0:
186,264,606780,1,0,0:0:0:0:
195,329,606944,2,0,L|227:356,1,30
237,222,607271,85,0,1:0:0:0:
175,198,607433,1,0,0:0:0:0:
289,178,607595,2,0,L|325:171,1,30
237,222,607919,1,0,0:0:0:0:
226,156,608081,1,0,0:0:0:0:
301,245,608243,2,0,L|325:270,1,30.049997997284
175,198,608568,5,0,1:0:0:0:
120,234,608736,1,0,0:0:0:0:
126,302,608905,1,0,0:0:0:0:
126,302,609073,1,0,0:0:0:0:
175,198,609242,1,0,1:0:0:0:
116,168,609410,1,0,0:0:0:0:
60,207,609579,1,0,0:0:0:0:
60,207,609747,1,0,0:0:0:0:
175,198,609916,5,0,1:0:0:0:
171,131,610089,1,0,0:0:0:0:
109,102,610262,1,0,0:0:0:0:
109,102,610609,86,0,P|124:82|156:65,1,45.0000017166138,0|0,1:0|0:0,0:0:0:0:
171,131,611020,2,0,P|199:138|221:135,1,45
215,136,611464,38,0,B|270:126|320:147|327:226|329:227|332:229|341:308|406:323|501:293|511:231|505:176,1,420.699971961976,0|0,1:0|0:0,0:0:0:0:
485,161,614023,1,0,0:0:0:0:
456,155,614111,1,0,0:0:0:0:
430,167,614199,1,0,0:0:0:0:
415,193,614287,6,0,B|392:232|320:272|246:236|188:192|152:100|280:76|356:88|360:144|340:208|300:212|284:216|284:216|211:250|206:323|241:364,1,608.51248265791,0|0,1:0|0:0,0:0:0:0:
324,345,616687,2,0,P|317:324|303:303,1,45.0749987154007
102,248,617002,6,0,P|36:284|151:280,1,338.062490365506,0|0,1:0|0:0,0:0:0:0:
95,311,618265,2,0,B|25:297|-7:222|56:128|149:152|152:220|156:219|161:218|198:226|219:231|261:207,1,330.549977970124,0|0,1:0|0:0,0:0:0:0:
264,208,619212,1,0,0:0:0:0:
264,208,619528,86,0,P|261:246|358:301,1,150,0|0,1:0|0:0,0:0:0:0:
375,238,620014,2,0,P|354:231|332:232,1,45.0000017166138
210,148,620244,6,0,B|236:116|315:97|350:183|362:162|366:163|391:177|431:179|458:153,1,255.424982976914,0|0,1:0|0:0,0:0:0:0:
467,94,621760,2,0,P|495:108|516:152,1,60
401,66,622105,6,0,B|306:122|360:173|297:241|425:262|426:266|431:270|452:331|446:418|296:431|288:324|293:305,1,480.799967956544,0|0,1:0|0:0,0:0:0:0:
355,309,623639,2,0,P|349:348|320:373,1,60
239,231,624054,86,0,P|200:208|122:249,1,116.999994644165,0|0,1:0|0:0,0:0:0:0:
79,255,624369,53,0,0:0:0:0:
25,227,624449,1,0,0:0:0:0:
15,166,624529,1,0,0:0:0:0:
59,123,624609,70,0,P|98:121|134:143,1,60
186,274,624853,6,0,B|231:323|309:313|364:244|294:181|293:177|291:174|231:123|273:4|464:3|448:166,1,518.362485227108,0|0,1:0|0:0,0:0:0:0:
385,195,626933,2,0,P|371:169|367:140,1,60
459,224,627266,86,0,B|437:278|362:301|321:252|304:212|304:212|257:157|180:179|172:217|183:248|217:316|268:317|330:198|327:148|288:132|266:110,1,570.949961948396,0|0,1:0|0:0,0:0:0:0:
209,117,628861,2,0,P|170:135|143:163,1,60
385,195,629232,6,0,P|369:108|328:57,1,155.999992858887,0|0,1:0|0:0,0:0:0:0:
209,117,629666,1,0,0:0:0:0:
385,195,629926,2,0,P|367:251|302:308,1,120,0|0,1:0|0:0,0:0:0:0:
170,245,630546,6,0,B|126:261|126:338|199:335|251:291|259:258|238:203|213:177|156:181,1,285.474980974198,0|0,1:0|0:0,0:0:0:0:
166,180,632481,86,0,B|94:177|70:104|97:45|139:16|202:18|226:57|270:102|273:103|281:106|289:121|328:130|367:104,1,420.699971961976,0|0,1:0|0:0,0:0:0:0:
374,99,634869,37,0,0:0:0:0:
383,96,634925,1,0,0:0:0:0:
393,94,634981,2,0,L|413:96,1,20
430,86,635147,86,0,B|454:67|459:22|428:-46|353:-6|276:18|269:63|278:97|316:125|314:157|301:184|291:225|207:261|90:241|111:55|211:62,1,608.51248265791,0|0,1:0|0:0,0:0:0:0:
220,130,637442,2,0,P|173:127|161:119,1,45.0000017166138
51,273,637769,6,0,P|51:347|102:244,1,338.062490365506,0|0,1:0|0:0,0:0:0:0:
105,310,639066,2,0,B|157:323|225:280|181:204|181:199|181:192|143:115|185:66|242:67,1,330.549977970124,0|0,1:0|0:0,0:0:0:0:
266,67,640039,1,0,0:0:0:0:
266,67,640363,86,0,P|250:104|296:177,1,120,0|0,1:0|0:0,0:0:0:0:
353,170,640791,2,0,P|342:136|317:112,1,71.9999978027344
192,205,641048,6,0,P|157:215|110:76,1,225.37498497963,0|0,1:0|0:0,0:0:0:0:
178,86,642606,2,0,P|171:115|153:139,1,60
103,291,642996,6,0,B|121:360|188:346|210:336|210:336|251:314|262:285|254:258|231:244|205:241|180:253|170:272|162:305|211:332|211:332|241:357|300:338,1,450.74996995926,0|0,1:0|0:0,0:0:0:0:
320,276,644496,2,0,P|310:242|287:212,1,60
213,57,644942,86,0,P|254:9|348:45,1,135.000005149841,0|0,1:0|0:0,0:0:0:0:
282,77,645257,5,0,0:0:0:0:
256,113,645340,1,0,0:0:0:0:
214,127,645423,1,0,0:0:0:0:
172,113,645507,1,0,0:0:0:0:
146,77,645590,2,0,P|117:62|86:62,1,45.0000017166138
85,176,645766,6,0,B|146:237|236:243|313:206|313:206|381:212|375:269|351:294|306:307|267:280|262:209|331:164,1,518.362485227108,0|0,1:0|0:0,0:0:0:0:
423,211,647871,2,0,P|428:254|419:293,1,60
245,141,648222,86,0,B|281:52|375:26|416:124|420:125|425:124|477:151|479:75|483:3|355:37|371:-12|331:25|296:2|270:32,1,450.74996995926,0|0,1:0|0:0,0:0:0:0:
332,165,649740,2,0,P|314:201|286:225,1,60.099995994568
115,141,650132,6,0,P|75:168|87:276,1,135.000005149841,0|0,1:0|0:0,0:0:0:0:
69,254,650417,2,0,P|101:287|176:283,1,116.999994644165
172,285,650617,2,0,P|213:274|273:302,1,90
261,291,650831,6,0,P|295:307|359:287,1,90,0|0,1:0|0:0,0:0:0:0:
348,296,651053,2,0,P|374:267|369:205,1,99.0000030212403
370,206,651253,2,0,P|362:166|402:108,1,107.999996704102
400,109,651453,86,0,P|426:71|402:19,1,80
419,35,651619,2,0,P|371:6|341:17,1,88.000002685547
341,18,651786,2,0,P|277:42|204:24,1,135.000005149841
210,27,652046,6,0,P|163:29|124:109,1,116.999994644165,0|0,1:0|0:0,0:0:0:0:
122,86,652252,2,0,P|92:142|45:164,1,100
58,162,652439,2,0,P|21:195|45:279,1,111.999996582031
24,257,652639,6,0,P|81:292|151:210,1,153.000002918243,0|0,1:0|0:0,0:0:0:0:
150,246,652914,2,0,P|192:198|286:207,1,161.999995056153
286,209,653144,2,0,P|354:226|407:122,1,190.316648900796
409,131,653404,86,0,P|301:63|289:209,1,300,0|0,1:0|0:0,0:0:0:0:
287,208,653853,1,0,0:0:0:0:
327,137,654078,6,0,P|223:158|252:281,1,247.500009441376,0|0,1:0|0:0,0:0:0:0:
287,208,655072,2,0,P|218:195|163:295,1,180
160,279,655344,6,0,P|123:353|33:344,1,180,0|0,1:0|0:0,0:0:0:0:
33,345,655570,2,0,P|6:301|50:219,1,135.000005149841
37,226,655770,2,0,P|74:191|83:137,1,90
84,150,655970,86,0,P|98:98|207:75,1,169.031245182753,0|0,1:0|0:0,0:0:0:0:
203,72,657230,2,0,P|230:75|304:43,1,105.174992990494,0|0,1:0|0:0,0:0:0:0:
303,43,657896,2,0,P|356:33|403:95,1,136.727484628755,0|0,1:0|0:0,0:0:0:0:
404,95,658548,6,0,P|395:127|276:130,1,169.031245182753,0|0,1:0|0:0,0:0:0:0:
278,133,660036,2,0,L|262:104,1,30.049997997284
203,171,660193,2,0,P|214:189|233:206,1,45.074996995926
231,205,660465,6,0,P|188:196|137:229,1,80.1333279927573,0|0,1:0|0:0,0:0:0:0:
151,212,660652,2,0,P|131:243|180:326,1,135.224996146202
176,324,660892,2,0,P|217:327|263:279,1,90.149993991852
258,295,661106,86,0,P|286:276|337:270,1,78.8812477519513,0|0,1:0|0:0,0:0:0:0:
364,278,661567,1,0,0:0:0:0:
364,278,661733,6,0,P|399:277|461:189,1,135.224996146202,0|0,1:0|0:0,0:0:0:0:
465,140,662048,1,0,0:0:0:0:
438,77,662129,1,0,0:0:0:0:
438,77,662372,6,0,P|397:116|340:123,1,108.179989488831,0|0,1:0|0:0,0:0:0:0:
298,77,662696,1,0,0:0:0:0:
297,8,662777,1,0,0:0:0:0:
297,8,663020,86,0,P|243:4|160:105,1,180.299987983704,0|0,1:0|0:0,0:0:0:0:
183,155,663448,1,0,0:0:0:0:
183,155,663698,6,0,P|165:207|65:231,1,159.865987394062,0|0,1:0|0:0,0:0:0:0:
61,203,665111,1,0,0:0:0:0:
63,165,665205,2,0,P|84:158|107:159,1,45.074996995926
107,159,665514,6,0,P|121:109|192:78,1,135.224996146202,0|0,1:0|0:0,0:0:0:0:
197,79,665764,2,0,P|236:95|258:165,1,108.179989488831
260,158,665964,2,0,P|266:196|324:233,1,90.149993991852
308,229,666178,86,0,P|347:247|390:328,1,135.224986861039,0|0,1:0|0:0,0:0:0:0:
391,330,667402,2,0,P|398:350|474:358,1,105.174992990494,0|0,1:0|0:0,0:0:0:0:
474,358,668107,2,0,P|487:341|425:274,1,136.727484628755,0|0,1:0|0:0,0:0:0:0:
422,275,668749,6,0,P|392:278|361:267,2,60.099995994568,0|0|0,1:0|0:0|0:0,0:0:0:0:
400,214,669374,2,0,P|368:189|355:151,2,72.1199929925541
428,149,669999,6,0,P|410:108|388:92,1,60.099995994568,0|0,1:0|0:0,0:0:0:0:
394,96,670207,2,0,P|363:87|311:100,1,75.12499499321
319,97,670415,2,0,P|290:129|286:186,1,90.1499974308015
285,179,670624,86,0,P|283:210|243:254,1,75.12499499321,0|0,1:0|0:0,0:0:0:0:
254,248,670832,2,0,P|211:258|181:249,1,60.099995994568
192,253,671040,2,0,P|167:232|154:199,1,54.0899947444156
154,207,671249,6,0,P|137:178|107:162,2,60.099998287201,0|0|0,1:0|0:0|0:0,0:0:0:0:
91,227,671880,2,0,P|62:229|37:244,2,52.0866608109542
195,267,672525,6,0,P|218:242|221:230,2,40.0666639963787,0|0|0,1:0|0:0|0:0,0:0:0:0:
285,249,673170,2,0,P|284:223|277:204,1,40.0666639963787
225,171,673651,2,0,L|231:143,1,22.5374993577004
229,148,674001,86,0,P|331:91|290:227,1,330.549977970124,0|0,1:0|0:0,0:0:0:0:
300,156,675692,1,0,0:0:0:0:
300,227,675765,2,0,P|241:268|248:325,1,135.224996146202,0|0,1:0|0:0,0:0:0:0:
300,290,676317,1,0,0:0:0:0:
247,324,676396,6,0,P|296:354|363:302,1,150.24998998642,0|0,1:0|0:0,0:0:0:0:
300,290,676874,1,0,0:0:0:0:
362,303,676954,2,0,B|378:263|398:250|427:251|430:251|434:251|473:253|496:215|503:154|461:129|414:126,1,270.449981975556,0|0,1:0|0:0,0:0:0:0:
419,126,677953,6,0,P|377:140|365:155,1,60.099995994568
429,322,678305,2,0,P|467:314|501:283,2,60.099998287201,0|0|0,1:0|0:0|0:0,0:0:0:0:
279,171,678923,86,0,P|225:173|203:188,1,60.099998287201,0|0,1:0|0:0,0:0:0:0:
184,244,679353,1,0,0:0:0:0:
283,153,679568,2,0,P|255:121|200:110,1,72.1199929925541
106,112,679984,1,0,0:0:0:0:
301,141,680193,2,0,P|305:90|286:53,1,80.1333279927573,0|0,1:0|0:0,0:0:0:0:
156,0,680609,1,0,0:0:0:0:
321,138,680818,6,0,P|365:99|371:47,1,100.166659990947,0|0,1:0|0:0,0:0:0:0:
211,28,681206,2,0,P|227:46|237:52,1,30.049997997284
231,49,681491,6,0,P|204:79|195:119,1,80.1333279927573,0|0,1:0|0:0,0:0:0:0:
354,202,681903,1,0,0:0:0:0:
128,86,682109,2,0,P|130:143|151:175,1,92.1533289493562,0|0,1:0|0:0,0:0:0:0:
368,103,682497,1,0,0:0:0:0:
76,192,682691,2,0,P|111:232|196:239,1,108.179993202896,0|0,1:0|0:0,0:0:0:0:
323,1,683103,1,0,0:0:0:0:
116,312,683309,2,0,P|184:316|250:262,1,120.199996574402,0|0,1:0|0:0,0:0:0:0:
227,291,683763,1,0,0:0:0:0:
227,291,683990,86,0,P|270:263|337:269,1,99.1649943367483,0|0,1:0|0:0,0:0:0:0:
320,263,684212,2,0,P|373:259|415:231,1,90.1499974308015
407,239,684434,2,0,P|439:188|430:114,1,120.199991989136
436,127,684656,6,0,P|403:85|309:83,1,120.199991989136,0|0,1:0|0:0,0:0:0:0:
337,73,684871,2,0,P|299:91|266:160,1,105.174993993521
267,147,685086,2,0,P|249:182|194:206,1,90.1499974308015
201,205,685301,6,0,P|164:197|127:132,1,105.174993993521,0|0,1:0|0:0,0:0:0:0:
128,140,685516,2,0,P|142:89|196:67,1,96.1599935913088
181,68,685731,2,0,P|228:77|255:115,1,87.1449968515778
254,110,685946,86,0,P|279:137|356:137,1,96.1599935913088,0|0,1:0|0:0,0:0:0:0:
339,145,686136,2,0,P|386:148|426:188,1,87.1449968515778
419,175,686326,2,0,P|433:212|419:263,1,78.1299912164312
426,254,686517,6,0,P|406:282|377:298,1,60.099995994568,0|0,1:0|0:0,0:0:0:0:
381,296,686729,2,0,P|331:294|288:226,1,105.174993993521
292,253,686942,2,0,P|258:215|204:210,1,105.174993993521
202,211,687155,6,0,P|154:216|101:174,1,105.174993993521,0|0,1:0|0:0,0:0:0:0:
106,183,687330,2,0,P|63:170|16:205,1,96.1599935913088
19,198,687505,2,0,P|9:223|44:283,1,90.1499974308015
36,280,687732,86,0,P|75:290|125:258,1,96.1599935913088,0|0,1:0|0:0,0:0:0:0:
124,261,687964,2,0,P|162:237|209:237,1,87.1449968515778
207,236,688197,2,0,P|260:231|292:208,1,78.1299912164312
284,217,688429,6,0,P|309:180|304:125,1,90.1499974308015,0|0,1:0|0:0,0:0:0:0:
307,133,688644,2,0,P|287:99|241:83,1,81.1349949021722
246,83,688859,2,0,P|215:86|181:115,1,72.1199929925541
182,115,689074,5,0,1:0:0:0:
431,260,689289,2,0,P|447:194|446:153,1,90.1499974308015
489,192,689504,2,0,P|463:229|430:259,1,90.1499974308015
384,162,689719,86,0,P|410:119|467:109,1,90.1499974308015,0|0,1:0|0:0,0:0:0:0:
450,105,689934,2,0,P|489:74|479:25,1,84.1399918246464
488,39,690149,2,0,P|459:16|421:23,1,75.12499499321
420,27,690364,5,0,1:0:0:0:
265,307,690586,2,0,P|197:281|134:229,1,120.199991989136
146,314,690808,2,0,P|205:317|264:306,1,120.199991989136
201,193,691030,6,0,P|141:185|88:237,1,120.199991989136,0|0,1:0|0:0,0:0:0:0:
94,222,691236,2,0,P|40:243|4:196,1,111.184992165814
5,207,691442,2,0,P|7:172|71:147,1,102.169995139504
66,144,691648,86,0,P|105:127|124:65,2,100.166659990947,0|0|0,1:0|0:0|0:0,0:0:0:0:
196,80,692267,2,0,P|183:35|149:7,2,80.1333279927573,0|0|0,1:0|0:0|0:0,0:0:0:0:
220,255,692885,6,0,P|240:284|270:299,2,60.099998287201,0|0|0,1:0|0:0|0:0,0:0:0:0:
286,191,693516,2,0,P|281:211|282:231,2,40.0666639963787,0|0|0,1:0|0:0|0:0,0:0:0:0:
453,112,694275,6,0,P|453:88|451:78,2,30.0499991436005,0|0|0,1:0|0:0|0:0,0:0:0:0:
387,275,694830,2,0,P|402:305|421:319,2,48.0799953283694
453,112,695552,86,0,P|453:88|449:73,2,40.0666639963787,0|0|0,1:0|0:0|0:0,0:0:0:0:
222,191,696146,2,0,P|188:177|170:152,1,60.099998287201
243,27,696516,2,0,L|243:57,1,30.049997997284
243,57,696779,6,0,P|295:40|362:83,1,120.199991989136,0|0,1:0|0:0,0:0:0:0:
353,71,696979,2,0,P|370:123|333:182,1,111.184992165814
346,175,697179,2,0,P|294:192|231:162,1,102.169995139504
247,177,697379,6,0,P|204:166|126:225,1,135.224996146202,0|0,1:0|0:0,0:0:0:0:
132,219,697656,1,0,0:0:0:0:
132,227,697749,2,0,L|116:261,1,30.049997997284
119,254,698002,86,0,P|124:316|176:346,1,120.199991989136,0|0,1:0|0:0,0:0:0:0:
173,346,698224,2,0,P|223:342|257:289,1,111.184992165814
258,290,698446,2,0,P|282:255|351:240,1,102.169995139504
341,237,698668,6,0,P|394:225|420:139,1,135.224996146202,0|0,1:0|0:0,0:0:0:0:
424,149,698953,1,0,0:0:0:0:
424,142,699048,2,0,L|402:114,1,30.049997997284
405,118,699321,6,0,P|378:100|347:98,2,60.099998287201,0|0|0,1:0|0:0|0:0,0:0:0:0:
265,284,699987,86,0,P|202:277|165:228,1,105.174993993521,0|0,1:0|0:0,0:0:0:0:
172,245,700187,2,0,P|165:212|198:154,1,96.1599935913088
196,155,700387,2,0,P|218:119|209:71,1,90.1499974308015
208,69,700587,6,0,P|178:45|119:53,1,90.1499974308015,0|0,1:0|0:0,0:0:0:0:
136,127,700978,2,0,L|156:104,1,30.049997997284
155,104,701228,6,0,P|194:131|264:102,1,105.174993993521,0|0,1:0|0:0,0:0:0:0:
252,117,701428,2,0,P|301:107|352:143,1,96.1599935913088
343,131,701628,2,0,P|387:151|445:133,1,90.1499974308015
452,112,701828,85,0,1:0:0:0:
452,112,702034,2,0,P|406:107|353:173,1,120.199991989136
353,170,702240,2,0,P|332:204|255:215,1,105.174993993521
255,217,702446,2,0,P|209:220|163:289,2,120.199996574402,0|0|0,1:0|0:0|0:0,0:0:0:0:
367,46,703017,6,0,P|325:17|249:21,1,120.199996574402,0|0,1:0|0:0,0:0:0:0:
408,231,703398,2,0,L|420:172,1,60.099998287201
164,274,703588,37,0,1:0:0:0:
82,275,703678,1,0,0:0:0:0:
32,212,703769,1,0,0:0:0:0:
54,133,703860,101,0,0:0:0:0:
66,125,703912,1,0,0:0:0:0:
80,119,703965,1,0,0:0:0:0:
95,117,704017,1,0,0:0:0:0:
110,117,704070,1,0,0:0:0:0:
125,120,704123,1,0,0:0:0:0:
138,126,704175,6,0,L|182:151,1,40.0666639963787
263,101,704308,1,0,0:0:0:0:
288,93,704375,54,0,P|362:148|266:234,1,247.912492934704,0|0,1:0|0:0,0:0:0:0:
291,165,706289,2,0,P|345:222|308:305,1,160.266655985515,0|0,1:0|0:0,0:0:0:0:
275,236,706928,5,0,1:0:0:0:
181,368,707135,2,0,P|100:366|199:298,1,308.012491221905
142,320,709422,6,0,B|123:264|162:231|186:207|231:244|244:253|241:234|274:237|314:213|313:186|306:137,1,270.449992292404,0|0,1:0|0:0,0:0:0:0:
308,165,710672,2,0,P|373:206|440:174,1,120.199991989136,0|0,1:0|0:0,0:0:0:0:
200,55,711324,86,0,P|201:114|237:162,1,120.199996574402,0|0,1:0|0:0,0:0:0:0:
465,155,711778,1,0,0:0:0:0:
200,55,712005,6,0,B|140:71|118:97|91:166|103:195|103:195|84:297|4:288|-74:196|11:99|71:118|124:164|155:213|164:268|192:314|282:292|310:258,1,676.124980731011,0|0,1:0|0:0,0:0:0:0:
317,260,713264,86,0,L|359:231,3,45.0749987154007,0|0|0|0,1:0|0:0|0:0|0:0,0:0:0:0:
364,269,713905,2,0,L|406:240,3,45.0749987154007,0|0|0|0,1:0|0:0|0:0|0:0,0:0:0:0:
411,278,714569,38,0,B|501:228|496:115|368:37|266:96|277:197|277:199|277:202|297:324|190:326|123:304|99:227,1,608.51248265791,0|0,1:0|0:0,0:0:0:0:
120,146,718944,2,0,P|159:167|183:206,1,90.149993991852
196,331,719610,86,0,P|237:357|286:351,1,90.149993991852,0|0,1:0|0:0,0:0:0:0:
270,212,720248,2,0,B|279:156|314:134|363:127|406:141|437:159|472:281|395:248|408:296|329:331|347:293|304:273|280:277|255:284,1,420.699971961976,0|0,1:0|0:0,0:0:0:0:
277,354,721472,2,0,P|310:332|329:285,1,85.6424920053581
182,205,722110,6,0,P|164:169|191:77,1,135.224996146202,0|0,1:0|0:0,0:0:0:0:
189,272,722776,2,0,B|82:261|92:149|140:88|251:113|276:206|323:219|398:227|398:227|471:197|501:130|431:74|308:79|297:158|337:215|432:238|423:279|398:331,1,826.37494492531,0|0,1:0|0:0,0:0:0:0:
345,291,724612,6,0,B|314:277|257:263|225:345|219:359|210:360|118:345|38:338|-3:253|12:200|31:148|64:70|83:2|231:-30|281:133|314:175|381:138|387:100|403:78|411:66,1,811.349945926668,0|0,1:0|0:0,0:0:0:0:
341,42,728987,2,0,P|335:82|363:129,1,90.149993991852
446,217,729599,86,0,P|453:262|422:307,1,90.149993991852,0|0,1:0|0:0,0:0:0:0:
273,185,730237,2,0,P|218:167|301:241,1,420.699971961976,0|0,1:0|0:0,0:0:0:0:
222,245,731487,2,0,P|235:288|272:320,1,90.149993991852
273,185,732112,6,0,P|235:167|171:186,1,105.174992990494,0|0,1:0|0:0,0:0:0:0:
176,181,732912,2,0,P|116:210|15:134,1,180.299994861603,0|0,1:0|0:0,0:0:0:0:
283,18,733488,6,0,P|307:67|300:120,1,108.179989488831,0|0,1:0|0:0,0:0:0:0:
368,138,733948,2,0,P|341:178|290:189,1,90.1499974308015,0|0,1:0|0:0,0:0:0:0:
325,260,734438,2,0,P|271:256|237:225,1,90.149993991852,0|0,1:0|0:0,0:0:0:0:
234,160,734866,86,0,P|220:139|76:197,1,225.37498497963,0|0,1:0|0:0,0:0:0:0:
80,215,736970,53,0,0:0:0:0:
88,233,737023,1,0,0:0:0:0:
102,248,737075,1,0,0:0:0:0:
118,259,737128,1,0,0:0:0:0:
137,266,737181,1,0,0:0:0:0:
157,268,737234,38,0,P|220:312|116:337,1,240.399983978272,0|0,1:0|0:0,0:0:0:0:
