osu file format v14

[General]
AudioFilename: audio.mp3
AudioLeadIn: 0
PreviewTime: 400530
Countdown: 0
SampleSet: Drum
StackLeniency: 0.5
Mode: 0
LetterboxInBreaks: 0
WidescreenStoryboard: 0

[Editor]
DistanceSpacing: 0.1
BeatDivisor: 4
GridSize: 32
TimelineZoom: 2.272013

[Metadata]
Title:Intra Venus
TitleUnicode:Intra Venus
Artist:Ne Obliviscaris
ArtistUnicode:Ne Obliviscaris
Creator:Aurhight
Version:Descending Shadows of a Lifetime
Source:osu!
Tags:NeO English FA Featured Artist Progressive Death Metal Urn Marathon KysT_T violin
BeatmapID:3066331
BeatmapSetID:1495753

[Difficulty]
HPDrainRate:5.2
CircleSize:4.2
OverallDifficulty:9.6
ApproachRate:9.8
SliderMultiplier:2
SliderTickRate:1

[Events]
//Background and Video events
0,0,"dark-space-clouds-art.jpg",0,0
//Break Periods
2,33496,35028
2,38548,39449
2,277253,288847
//Storyboard Layer 0 (Background)
//Storyboard Layer 1 (Fail)
//Storyboard Layer 2 (Pass)
//Storyboard Layer 3 (Foreground)
//Storyboard Layer 4 (Overlay)
//Storyboard Sound Samples

[TimingPoints]
139,315.789473684211,4,3,1,30,1,0
30454,-125,4,3,1,30,0,0
31086,-125,4,3,1,5,0,0
31402,-125,4,3,1,5,0,0
31717,-125,4,3,1,5,0,0
32033,-125,4,3,1,5,0,0
32349,-125,4,3,1,5,0,0
32665,-125,4,3,1,5,0,0
32902,-125,4,3,1,5,0,0
32981,-133.333333333333,4,3,1,30,0,0
33296,-133.333333333333,4,3,1,5,0,0
35507,-153.846153846154,4,3,1,30,0,0
35823,-133.333333333333,4,3,1,5,0,0
36139,-133.333333333333,4,3,1,5,0,0
36454,-133.333333333333,4,3,1,5,0,0
36770,-133.333333333333,4,3,1,5,0,0
37086,-133.333333333333,4,3,1,5,0,0
37402,-133.333333333333,4,3,1,5,0,0
37717,-133.333333333333,4,3,1,5,0,0
37954,-153.846153846154,4,3,1,5,0,0
38033,-111.111111111111,4,3,1,30,0,0
38349,-111.111111111111,4,3,1,5,0,0
39928,-111.111111111111,4,3,3,50,0,0
39967,-111.111111111111,4,3,1,70,0,0
40086,-111.111111111111,4,3,1,50,0,0
40560,-133.333333333333,4,3,1,55,0,0
41033,-200,4,3,1,55,0,0
41507,-133.333333333333,4,3,1,55,0,0
41981,-200,4,3,1,55,0,0
42454,-200,4,3,5,55,0,0
42612,-200,4,3,4,55,0,0
42770,-200,4,3,3,55,0,0
42928,-200,4,3,2,55,0,0
43086,-153.846153846153,4,3,1,55,0,0
43560,-200,4,3,1,55,0,0
44033,-153.846153846153,4,3,1,55,0,0
44507,-200,4,3,1,55,0,0
44981,-200,4,3,3,55,0,0
45296,-200,4,3,2,55,0,0
45612,-181.818181818182,4,3,1,55,0,0
47507,-181.818181818182,4,3,5,55,0,0
47665,-181.818181818182,4,3,4,55,0,0
47823,-181.818181818182,4,3,3,55,0,0
47981,-181.818181818182,4,3,2,55,0,0
48139,352.941176470588,4,3,1,55,1,0
48139,-200,4,3,1,55,0,0
49197,461.538461538462,4,3,1,55,1,0
49197,-133.333333333333,4,3,1,55,0,0
49918,314.136125654451,4,3,1,55,1,0
49918,-250,4,3,1,55,0,0
50232,-250,4,3,1,5,0,0
50546,-250,4,3,1,5,0,0
50860,-250,4,3,1,5,0,0
51174,-250,4,3,1,5,0,0
51488,-250,4,3,1,5,0,0
51802,-250,4,3,1,5,0,0
52116,-250,4,3,1,5,0,0
52431,-250,4,3,1,5,0,0
52745,-250,4,3,1,5,0,0
53059,-250,4,3,1,5,0,0
53373,-250,4,3,1,5,0,0
53530,-250,4,3,1,5,0,0
53690,272.727272727273,3,3,1,75,1,0
53690,-133.333333333333,3,3,1,75,0,0
56349,-133.333333333333,3,3,1,5,0,0
56417,-133.333333333333,3,3,1,75,0,0
56962,-153.846153846153,3,3,1,75,0,0
57780,-133.333333333333,3,3,1,75,0,0
57985,-133.333333333333,3,3,1,5,0,0
58053,-133.333333333333,3,3,1,75,0,0
58599,-142.857142857143,3,3,1,75,0,0
58803,-142.857142857143,3,3,1,5,0,0
58871,-142.857142857143,3,3,1,75,0,0
59417,-153.846153846153,3,3,1,75,0,0
60235,-125,3,3,1,75,0,0
61871,-133.333333333333,3,3,1,75,0,0
62076,-133.333333333333,3,3,1,5,0,0
62144,-133.333333333333,3,3,1,75,0,0
62690,-142.857142857143,3,3,1,75,0,0
63508,-166.666666666667,3,3,1,75,0,0
63712,-166.666666666667,3,3,1,5,0,0
63780,-166.666666666667,3,3,1,75,0,0
65962,-200,3,3,1,75,0,0
66780,-133.333333333333,3,3,1,75,0,0
67530,-133.333333333333,3,3,1,5,0,0
67599,-133.333333333333,3,3,1,75,0,0
68076,-133.333333333333,3,3,1,5,0,0
68144,-117.647058823529,3,3,1,75,0,0
68349,-117.647058823529,3,3,1,5,0,0
68417,-105.263157894737,3,3,1,75,0,0
68894,-105.263157894737,3,3,1,5,0,0
68962,-117.647058823529,3,3,1,75,0,0
69167,-117.647058823529,3,3,1,5,0,0
69235,-133.333333333333,3,3,1,75,0,0
69576,-133.333333333333,3,3,1,5,0,0
69644,-105.263157894737,3,3,1,75,0,0
69712,-105.263157894737,3,3,1,5,0,0
69780,-117.647058823529,3,3,1,75,0,0
69849,-117.647058823529,3,3,1,5,0,0
69917,-133.333333333333,3,3,1,75,0,0
70530,-133.333333333333,3,3,1,5,0,0
70599,-95.2380952380954,3,3,1,75,0,0
70803,-95.2380952380954,3,3,1,5,0,0
70871,-95.2380952380954,3,3,1,75,0,0
73053,-153.846153846153,3,3,1,75,0,0
73258,-153.846153846153,3,3,1,5,0,0
73326,-117.647058823529,3,3,1,75,0,0
73667,-117.647058823529,3,3,1,5,0,0
73735,-153.846153846154,3,3,1,75,0,0
73803,-153.846153846154,3,3,1,5,0,0
73871,-153.846153846154,3,3,1,75,0,0
74076,-153.846153846154,3,3,1,5,0,0
74144,-153.846153846154,3,3,1,75,0,0
75712,-153.846153846154,3,3,1,5,0,0
75780,-153.846153846154,3,3,1,75,0,0
76258,-153.846153846154,3,3,1,5,0,0
76326,-181.818181818181,3,3,1,75,0,0
76530,-181.818181818181,3,3,1,5,0,0
76599,-222.222222222222,3,3,1,75,0,0
76667,-222.222222222222,3,3,1,5,0,0
76871,-133.333333333333,3,3,1,75,0,0
76940,-133.333333333333,3,3,1,5,0,0
77008,-153.846153846153,3,3,1,75,0,0
77076,-153.846153846153,3,3,1,5,0,0
77144,-181.818181818181,3,3,1,75,0,0
78167,-181.818181818181,3,3,1,5,0,0
78235,-133.333333333333,3,3,1,75,0,0
78780,-133.333333333333,3,3,5,75,0,0
79053,-133.333333333333,3,3,4,75,0,0
79326,-133.333333333333,3,3,3,75,0,0
79599,-133.333333333333,3,3,2,75,0,0
79871,-100,3,3,1,75,0,0
80690,-100,3,3,2,75,0,0
80780,-100,3,3,1,75,0,0
82326,-100,3,3,2,75,0,0
82417,-100,3,3,1,75,0,0
83962,-117.647058823529,3,3,2,75,0,0
84053,-117.647058823529,3,3,1,75,0,0
85599,-117.647058823529,3,3,2,75,0,0
85690,-117.647058823529,3,3,1,75,0,0
86417,-105.263157894737,3,3,1,75,0,0
87235,-105.263157894737,3,3,2,75,0,0
87326,-105.263157894737,3,3,1,75,0,0
88871,-133.333333333333,3,3,2,75,0,0
88962,-133.333333333333,3,3,1,75,0,0
90508,-105.263157894737,3,3,1,75,0,0
91326,-117.64705882353,3,3,1,75,0,0
92144,-133.333333333333,3,3,1,75,0,0
92962,-100,3,3,1,75,0,0
93780,-100,3,3,2,75,0,0
93871,-100,3,3,1,75,0,0
95416,-100,3,3,2,75,0,0
95507,-100,3,3,1,75,0,0
97053,-100,3,3,2,75,0,0
97144,-100,3,3,1,75,0,0
97871,-111.111111111111,3,3,1,75,0,0
98690,-111.111111111111,3,3,2,75,0,0
98780,-125,3,3,1,75,0,0
99508,-100,3,3,1,75,0,0
100326,-100,3,3,2,75,0,0
100417,-100,3,3,1,75,0,0
101144,-111.111111111111,3,3,1,75,0,0
101962,-111.111111111111,3,3,2,75,0,0
102053,-111.111111111111,3,3,1,75,0,0
103599,-125,3,3,2,75,0,0
103690,-125,3,3,1,75,0,0
104417,-125,3,3,1,100,0,0
104485,-125,3,3,1,75,0,0
104826,-125,3,3,1,100,0,0
104894,-125,3,3,1,75,0,0
105235,-100,3,3,1,75,0,0
105303,-100,3,3,4,75,0,0
105644,-133.333333333333,3,3,1,75,0,0
105712,-133.333333333333,3,3,3,75,0,0
106053,-90.9090909090909,3,3,1,75,0,1
109326,-111.111111111111,3,3,1,75,0,1
112599,-100,3,3,1,75,0,1
114235,-90.9090909090909,3,3,1,75,0,1
115871,-133.333333333333,3,3,1,75,0,1
116690,-117.647058823529,3,3,1,75,0,1
117508,-166.666666666667,3,3,1,75,0,1
118326,-133.333333333333,3,3,1,75,0,1
119144,-100,3,3,1,75,0,1
120780,-90.9090909090909,3,3,1,75,0,1
121599,-100,3,3,1,75,0,1
122417,-111.111111111111,3,3,1,75,0,1
125690,-100,3,3,1,75,0,1
127326,-90.9090909090909,3,3,1,75,0,1
128962,-133.333333333333,3,3,1,75,0,1
129780,-117.647058823529,3,3,1,75,0,1
130599,-166.666666666667,3,3,1,75,0,1
131417,-133.333333333333,3,3,1,75,0,1
133871,-111.111111111111,3,3,1,75,0,1
134690,-100,3,3,1,75,0,1
135917,-111.111111111111,3,3,1,75,0,1
138780,-90.9090909090908,3,3,1,75,0,1
139462,-100,3,3,1,75,0,1
141235,-90.9090909090909,3,3,1,75,0,1
142053,-117.647058823529,3,3,1,75,0,1
142871,-100,3,3,1,75,0,1
143962,-133.333333333333,3,3,1,75,0,1
144371,-90.9090909090909,3,3,1,75,0,1
144780,-100,3,3,1,75,0,1
145190,-99.9999999999999,3,3,1,75,0,1
145735,-125,3,3,1,75,0,1
146144,-90.9090909090909,3,3,1,75,0,1
149417,-83.3333333333333,3,3,1,75,0,1
150235,-90.9090909090909,3,3,1,75,0,1
151871,-76.9230769230769,3,3,1,75,0,1
152690,-100,3,3,1,75,0,1
153099,-76.9230769230769,3,3,1,75,0,1
153508,-90.9090909090909,3,3,1,75,0,1
154599,-83.3333333333333,3,3,1,75,0,1
155144,-117.647058823529,3,3,1,75,0,1
155962,-133.333333333333,3,3,1,75,0,1
156371,-100,3,3,1,75,0,1
156780,-111.111111111111,3,3,1,75,0,1
157599,-125,3,3,1,75,0,1
158417,-100,3,3,1,75,0,1
158621,-100,3,3,1,5,0,0
158689,-100,3,3,1,75,0,0
158894,-100,3,3,1,5,0,0
158962,-100,3,3,1,75,0,0
159167,-100,3,3,1,5,0,0
159235,-133.333333333333,3,3,1,75,0,0
160053,-111.111111111111,3,3,1,75,0,0
160258,-111.111111111111,3,3,1,5,0,0
160326,-111.111111111111,3,3,1,75,0,0
161212,-111.111111111111,3,3,1,5,0,0
161280,-111.111111111111,3,3,1,75,0,0
162303,-111.111111111111,3,3,1,5,0,0
162371,-111.111111111111,3,3,1,75,0,0
163530,-111.111111111111,3,3,1,5,0,0
163598,-111.111111111111,3,3,1,75,0,0
164417,-111.111111111111,3,3,3,75,0,0
164690,-111.111111111111,3,3,2,75,0,0
164962,-86.9565217391304,3,3,1,75,0,0
166121,-86.9565217391304,3,3,1,5,0,0
166189,-86.9565217391304,3,3,1,75,0,0
166940,-86.9565217391304,3,3,1,5,0,0
167008,-86.9565217391304,3,3,1,75,0,0
167758,-86.9565217391304,3,3,1,5,0,0
167826,-86.9565217391304,3,3,1,75,0,0
168235,-80,3,3,1,75,0,0
168576,-80,3,3,1,5,0,0
168644,-80,3,3,1,75,0,0
171508,-200,3,3,1,75,0,0
172258,-200,3,3,1,5,0,0
172326,-200,3,3,1,75,0,0
173894,-200,3,3,1,5,0,0
173962,-200,3,3,1,75,0,0
174235,-200,3,3,3,75,0,0
174303,-200,3,3,1,75,0,0
174508,-200,3,3,2,90,0,0
174576,-200,3,3,1,75,0,0
175530,-200,3,3,1,5,0,0
175599,-200,3,3,1,75,0,0
177167,-200,3,3,1,5,0,0
177235,-200,3,3,1,75,0,0
177371,-200,3,3,4,75,0,0
177508,-200,3,3,1,75,0,0
177644,-200,3,3,3,75,0,0
177781,-200,3,3,1,75,0,0
178053,-133.333333333333,3,3,1,75,0,0
183849,-133.333333333333,3,3,4,75,0,0
184053,-133.333333333333,3,3,3,75,0,0
184326,-133.333333333333,3,3,2,75,0,0
184599,-100,3,3,1,75,0,0
185621,-100,3,3,1,5,0,0
185690,-100,3,3,1,75,0,0
187258,-100,3,3,1,5,0,0
187327,-100,3,3,1,75,0,0
187599,-86.9565217391304,3,3,1,75,0,0
187803,-100,3,3,1,5,0,0
187871,-80,3,3,1,75,0,0
188212,-80,3,3,1,5,0,0
188280,-80,3,3,1,75,0,0
189030,-80,3,3,1,5,0,0
189098,-80,3,3,1,75,0,0
189849,-80,3,3,1,5,0,0
189917,-80,3,3,1,75,0,0
190326,-90.9090909090909,3,3,1,75,0,0
190599,-80,3,3,1,75,0,0
190871,-90.9090909090909,3,3,1,75,0,0
191144,-86.9565217391304,3,3,1,75,0,0
191349,-86.9565217391304,3,3,1,5,0,0
191418,-86.9565217391304,3,3,1,75,0,0
192303,-86.9565217391304,3,3,4,75,0,0
192371,-86.9565217391304,3,3,1,75,0,0
192440,-86.9565217391304,3,3,4,75,0,0
192508,-86.9565217391304,3,3,1,75,0,0
192576,-86.9565217391304,3,3,4,75,0,0
192644,-86.9565217391304,3,3,1,75,0,0
192712,-86.9565217391304,3,3,4,75,0,0
192780,-86.9565217391304,3,3,1,75,0,0
192985,-86.9565217391304,3,3,1,5,0,0
193054,-86.9565217391304,3,3,1,75,0,0
193599,-111.111111111111,3,3,1,75,0,0
193940,-86.9565217391304,3,3,3,75,0,0
194008,-86.9565217391304,3,3,1,75,0,0
194076,-86.9565217391304,3,3,3,75,0,0
194144,-86.9565217391304,3,3,1,75,0,0
194212,-86.9565217391304,3,3,3,75,0,0
194280,-86.9565217391304,3,3,1,75,0,0
194349,-86.9565217391304,3,3,3,75,0,0
194417,-86.9565217391304,3,3,1,75,0,0
194621,-86.9565217391304,3,3,1,5,0,0
194690,-86.9565217391304,3,3,1,75,0,0
195235,-111.111111111111,3,3,1,75,0,0
195576,-86.9565217391304,3,3,2,75,0,0
195644,-86.9565217391304,3,3,1,75,0,0
195712,-86.9565217391304,3,3,2,75,0,0
195780,-86.9565217391304,3,3,1,75,0,0
195849,-86.9565217391304,3,3,2,75,0,0
195917,-86.9565217391304,3,3,1,75,0,0
195985,-86.9565217391304,3,3,2,75,0,0
196053,-86.9565217391304,3,3,1,75,0,0
197280,-100,3,3,5,75,0,0
197485,-100,3,3,4,75,0,0
197690,-90.9090909090909,3,3,1,75,0,1
203690,-111.111111111111,3,3,1,75,0,1
205871,-100,3,3,1,75,0,1
206690,-90.9090909090909,3,3,1,75,0,1
207508,-125,3,3,1,75,0,1
208326,-111.111111111111,3,3,1,75,0,1
209826,-90.9090909090909,3,3,1,75,0,1
209962,-100,3,3,1,75,0,1
210371,-111.111111111111,3,3,1,75,0,1
211190,-125,3,3,1,75,0,1
211599,-90.9090909090909,3,3,1,75,0,1
214871,-83.3333333333333,3,3,1,75,0,1
215690,-90.9090909090909,3,3,1,75,0,1
217326,-76.9230769230769,3,3,1,75,0,1
218144,-100,3,3,1,75,0,1
218553,-76.9230769230769,3,3,1,75,0,1
218962,-90.9090909090909,3,3,1,75,0,1
220599,-117.647058823529,3,3,1,75,0,1
221417,-133.333333333333,3,3,1,75,0,1
221826,-100,3,3,1,75,0,1
223871,-100,3,3,1,75,0,0
224690,-83.3333333333333,3,3,1,75,0,0
224962,-90.9090909090909,3,3,1,75,0,0
225235,-100,3,3,1,75,0,0
226326,-83.3333333333333,3,3,1,75,0,0
226599,-90.9090909090909,3,3,1,75,0,0
226871,-100,3,3,5,75,0,0
226962,-100,3,3,1,75,0,0
227553,-83.3333333333333,3,3,1,75,0,0
227962,-100,3,3,1,75,0,0
228167,-100,3,3,1,5,0,0
228236,-100,3,3,1,75,0,0
229599,-125,3,3,1,75,0,0
229803,-125,3,3,1,5,0,0
229871,-111.111111111111,3,3,1,75,0,0
230076,-111.111111111111,3,3,1,5,0,0
230144,-125,3,3,3,75,0,0
230178,-125,3,3,1,75,0,0
230349,-125,3,3,1,5,0,0
230417,-83.3333333333333,3,3,1,75,0,0
230485,-83.3333333333333,3,3,1,5,0,0
230553,-90.9090909090909,3,3,1,75,0,0
230621,-90.9090909090909,3,3,1,5,0,0
230690,-83.3333333333333,3,3,1,75,0,0
230826,-100,3,3,1,75,0,0
231030,-100,3,3,1,5,0,0
231099,-100,3,3,1,75,0,0
232053,-83.3333333333333,3,3,1,75,0,0
232190,-90.9090909090909,3,3,1,75,0,0
232326,-83.3333333333333,3,3,1,75,0,0
232462,-90.9090909090909,3,3,1,75,0,0
232667,-90.9090909090909,3,3,1,5,0,0
232735,-90.9090909090909,3,3,1,75,0,0
232871,-83.3333333333333,3,3,1,75,0,0
233417,-111.111111111111,3,3,3,75,0,0
233690,-83.3333333333333,3,3,1,75,0,0
233758,-83.3333333333333,3,3,1,5,0,0
233826,-90.9090909090909,3,3,1,75,0,0
233962,-83.3333333333333,3,3,1,75,0,0
234099,-90.9090909090909,3,3,1,75,0,0
234303,-90.9090909090909,3,3,1,5,0,0
234371,-90.9090909090909,3,3,1,75,0,0
235871,-125,3,3,1,75,0,0
236144,-142.857142857143,3,3,1,75,0,0
236349,-142.857142857143,3,3,1,5,0,0
236417,-142.857142857143,3,3,1,75,0,0
236690,-142.857142857143,3,3,3,75,0,0
236826,-142.857142857143,3,3,2,75,0,0
236962,-125,3,3,1,75,0,0
239962,-125,3,3,5,75,0,0
240099,-125,3,3,4,75,0,0
240235,-125,3,3,1,75,0,0
240780,-90.9090909090909,3,3,1,75,0,0
241053,-99.9999999999999,3,3,1,75,0,0
242417,-111.111111111111,3,3,1,75,0,0
242690,-99.9999999999999,3,3,1,75,0,0
242894,-99.9999999999999,3,3,1,5,0,0
242962,-90.9090909090909,3,3,1,75,0,0
243235,-90.9090909090909,3,3,3,75,0,0
243371,-90.9090909090909,3,3,2,75,0,0
243507,-90.9090909090909,3,3,1,75,0,0
244053,-111.111111111111,3,3,1,75,0,0
244326,-99.9999999999999,3,3,1,75,0,0
245690,-125,3,3,1,75,0,0
246167,-125,3,3,1,5,0,0
246235,-125,3,3,1,75,0,0
246508,-100,3,3,4,75,0,0
246644,-100,3,3,3,75,0,0
246780,-100,3,3,1,75,0,0
247326,-111.111111111111,3,3,1,75,0,0
247599,-90.9090909090908,3,3,1,75,0,0
248962,-100,3,3,1,75,0,0
249235,-111.111111111111,3,3,1,75,0,0
249508,-125,3,3,1,75,0,0
249780,-125,3,3,3,75,0,0
249871,-125,3,3,1,75,0,0
250053,-133.333333333333,3,3,1,75,0,0
251690,-83.3333333333333,3,3,5,75,0,0
251780,-83.3333333333333,3,3,1,75,0,0
251962,-90.9090909090909,3,3,1,75,0,0
252235,-100,3,3,4,75,0,0
252326,-100,3,3,1,75,0,0
252780,-100,3,3,4,75,0,0
252871,-100,3,3,1,75,0,0
253053,-100,3,3,3,75,0,0
253144,-100,3,3,1,75,0,0
253326,-111.111111111111,3,3,1,75,0,0
253871,-100,3,3,1,75,0,0
254144,-111.111111111111,3,3,1,75,0,0
254962,-125,3,3,4,75,0,0
255099,-125,3,3,3,75,0,0
255235,-125,3,3,2,75,0,0
255371,-125,3,3,1,75,0,0
255508,-125,3,3,5,75,0,0
255644,-125,3,3,1,75,0,0
255780,-111.111111111111,3,3,1,75,0,0
256053,-111.111111111111,3,3,4,75,0,0
256326,-111.111111111111,3,3,3,75,0,0
256462,-111.111111111111,3,3,2,75,0,0
256599,-111.111111111111,3,3,1,75,0,0
257417,-133.333333333333,3,3,1,75,0,0
257621,-133.333333333333,3,3,1,5,0,0
257690,-90.9090909090909,3,3,1,75,0,0
258235,-90.9090909090909,3,3,4,75,0,0
258371,-90.9090909090909,3,3,3,75,0,0
258508,-90.9090909090909,3,3,1,75,0,0
258780,-90.9090909090909,3,3,2,75,0,0
258917,-90.9090909090909,3,3,1,75,0,0
259053,-100,3,3,1,75,0,0
259326,-100,3,3,3,75,0,0
259599,-100,3,3,2,75,0,0
259871,-100,3,3,1,75,0,0
260690,-111.111111111111,3,3,1,75,0,0
261235,-99.9999999999999,3,3,1,75,0,0
261508,-125,3,3,3,75,0,0
261644,-125,3,3,2,75,0,0
261780,-125,3,3,1,75,0,0
262053,-125,3,3,4,75,0,0
262190,-125,3,3,1,75,0,0
262599,-125,3,3,3,75,0,0
262871,-125,3,3,2,75,0,0
263144,-83.3333333333333,3,3,1,75,0,0
263894,-83.3333333333333,3,3,1,5,0,0
263962,-86.9565217391304,3,3,1,75,0,0
264167,-86.9565217391304,3,3,1,5,0,0
264235,-86.9565217391304,3,3,1,75,0,0
264440,-86.9565217391304,3,3,1,5,0,0
264508,-86.9565217391304,3,3,1,75,0,0
264780,-100,3,3,3,75,0,0
264985,-100,3,3,1,5,0,0
265053,-100,3,3,3,75,0,0
265258,-100,3,3,1,5,0,0
265326,-100,3,3,4,75,0,0
265462,-100,3,3,1,75,0,0
265871,-100,3,3,3,75,0,0
266144,-100,3,3,2,75,0,0
266417,-90.9090909090909,3,3,1,75,0,0
267167,-90.9090909090909,3,3,1,5,0,0
267235,-90.9090909090909,3,3,1,75,0,0
268053,-83.3333333333333,3,3,4,75,0,0
268121,-83.3333333333333,3,3,1,75,0,0
268599,-76.9230769230769,3,3,3,75,0,0
268803,-76.9230769230769,3,3,1,5,0,0
268871,-76.9230769230769,3,3,1,75,0,0
269212,-76.9230769230769,3,3,1,5,0,0
269280,-76.9230769230769,3,3,3,75,0,0
269417,-90.9090909090909,3,3,2,75,0,0
269621,-90.9090909090909,3,3,1,5,0,0
269690,-90.9090909090909,3,3,1,75,0,0
269826,-83.3333333333333,3,3,1,75,0,0
269962,-100,3,3,1,75,0,0
271053,-111.111111111111,3,3,1,75,0,0
271326,-111.111111111111,3,3,3,85,0,0
271462,-111.111111111111,3,3,2,75,0,0
271530,-111.111111111111,3,3,1,75,0,0
271871,-111.111111111111,3,3,3,75,0,0
271939,-111.111111111111,3,3,1,75,0,0
272417,-111.111111111111,3,3,3,75,0,0
272485,-111.111111111111,3,3,1,75,0,0
272553,-111.111111111111,3,3,2,75,0,0
272621,-111.111111111111,3,3,1,75,0,0
272690,-111.111111111111,3,3,2,75,0,0
272758,-111.111111111111,3,3,1,75,0,0
272826,-111.111111111111,3,3,2,75,0,0
272894,-111.111111111111,3,3,1,75,0,0
272962,-125,3,3,1,75,0,0
273440,-125,3,3,1,5,0,0
273508,-125,3,3,1,75,0,0
273780,-111.111111111111,3,3,1,75,0,0
274258,-111.111111111111,3,3,1,5,0,0
274326,-111.111111111111,3,3,1,75,0,0
274599,-111.111111111111,3,3,4,75,0,0
274735,-111.111111111111,3,3,2,75,0,0
274871,-111.111111111111,3,3,1,75,0,0
275690,-111.111111111111,3,3,5,75,0,0
275826,-111.111111111111,3,3,4,75,0,0
275962,-111.111111111111,3,3,3,75,0,0
276099,-111.111111111111,3,3,2,75,0,0
276235,-83.3333333333333,3,3,1,55,0,0
276780,-83.3333333333333,3,3,1,5,0,0
277053,-83.3333333333333,3,3,1,5,0,0
289326,-200,3,2,1,55,0,0
294712,-200,3,2,1,5,0,0
294780,-200,3,2,1,55,0,0
295871,-166.666666666667,3,2,1,55,0,0
297167,-166.666666666667,3,2,1,5,0,0
297235,-166.666666666667,3,2,1,55,0,0
298667,-166.666666666667,3,2,1,5,0,0
298735,-166.666666666667,3,2,1,55,0,0
300303,-166.666666666667,3,2,1,5,0,0
300371,-166.666666666667,3,2,1,55,0,0
301940,-166.666666666667,3,2,1,5,0,0
302008,-166.666666666667,3,2,1,55,0,0
302417,-200,3,2,1,55,0,0
303235,-181.818181818182,3,2,1,55,0,0
303644,-166.666666666667,3,2,1,55,0,0
304871,-142.857142857143,3,2,1,55,0,0
305144,-200,3,2,1,55,0,0
305690,-133.333333333333,3,2,1,55,0,0
306235,-166.666666666667,3,2,1,55,0,0
306440,-166.666666666667,3,2,1,5,0,0
306508,-166.666666666667,3,2,1,55,0,0
306849,-166.666666666667,3,2,1,5,0,0
306917,-166.666666666667,3,2,1,55,0,0
307326,-200,3,2,1,55,0,0
307508,-200,3,2,1,5,0,0
307599,-222.222222222222,3,2,1,55,0,0
307803,-222.222222222222,3,2,1,5,0,0
307871,-250,3,2,1,55,0,0
308076,-250,3,2,1,5,0,0
308144,-200,3,2,1,55,0,0
308417,-181.818181818182,3,2,1,55,0,0
308690,-166.666666666667,3,2,1,55,0,0
308962,-153.846153846154,3,2,1,55,0,0
309712,-153.846153846154,3,2,1,5,0,0
309780,-153.846153846154,3,2,1,55,0,0
310871,-133.333333333333,3,2,1,55,0,0
311144,-200,3,2,1,55,0,0
312235,-200,3,2,1,55,0,0
312849,-200,3,2,1,5,0,0
312917,-200,3,2,1,55,0,0
313053,-400,3,2,1,55,0,0
313599,-200,3,2,1,55,0,0
313871,-200,3,2,1,15,0,0
314212,-200,3,2,1,20,0,0
314485,-200,3,2,1,26,0,0
314690,-200,3,2,1,32,0,0
314962,-200,3,2,1,36,0,0
315167,-200,3,2,1,40,0,0
315508,-133.333333333333,3,2,1,55,0,0
315712,-133.333333333333,3,2,1,5,0,0
315780,-133.333333333333,3,2,1,55,0,0
315985,-133.333333333333,3,2,1,5,0,0
316053,-133.333333333333,3,2,1,55,0,0
316462,-133.333333333333,3,2,5,55,0,0
316599,-133.333333333333,3,2,4,55,0,0
316735,-133.333333333333,3,2,1,55,0,0
316871,-133.333333333333,3,2,3,55,0,0
317008,-133.333333333333,3,2,1,55,0,0
317417,-133.333333333333,3,2,2,55,0,0
317690,-133.333333333333,3,2,1,55,0,0
318508,-133.333333333333,3,2,1,70,0,0
318780,-133.333333333333,3,2,1,55,0,0
318985,-133.333333333333,3,2,1,5,0,0
319053,-133.333333333333,3,2,1,55,0,0
319258,-133.333333333333,3,2,1,5,0,0
319326,-133.333333333333,3,2,1,55,0,0
319735,-133.333333333333,3,2,5,55,0,0
319871,-133.333333333333,3,2,4,55,0,0
320008,-133.333333333333,3,2,3,55,0,0
320144,-133.333333333333,3,2,2,55,0,0
320280,-133.333333333333,3,2,1,55,0,0
320689,-133.333333333333,3,2,2,55,0,0
320826,-133.333333333333,3,2,1,55,0,0
321167,-133.333333333333,3,2,1,5,0,0
321235,-133.333333333333,3,2,1,55,0,0
321780,-133.333333333333,3,2,1,70,0,0
322053,-133.333333333333,3,2,1,55,0,0
322258,-133.333333333333,3,2,1,5,0,0
322326,-133.333333333333,3,2,1,55,0,0
322530,-133.333333333333,3,2,1,5,0,0
322598,-133.333333333333,3,2,1,55,0,0
323008,-133.333333333333,3,2,5,55,0,0
323280,-133.333333333333,3,2,1,55,0,0
323417,-133.333333333333,3,2,4,55,0,0
323553,-133.333333333333,3,2,1,55,0,0
323894,-133.333333333333,3,2,1,5,0,0
323962,-133.333333333333,3,2,2,55,0,0
324099,-133.333333333333,3,2,1,55,0,0
325053,-133.333333333333,3,2,1,70,0,0
325326,-133.333333333333,3,2,1,55,0,0
325530,-133.333333333333,3,2,1,5,0,0
325598,-133.333333333333,3,2,1,55,0,0
325803,-133.333333333333,3,2,1,5,0,0
325871,-133.333333333333,3,2,1,55,0,0
326280,-133.333333333333,3,2,5,55,0,0
326417,-133.333333333333,3,2,4,55,0,0
326553,-133.333333333333,3,2,3,55,0,0
326690,-133.333333333333,3,2,2,55,0,0
326826,-133.333333333333,3,2,1,55,0,0
327235,-133.333333333333,3,2,3,55,0,0
327371,-133.333333333333,3,2,2,55,0,0
327508,-133.333333333333,3,2,1,55,0,0
328326,-133.333333333333,3,2,1,70,0,0
328599,-133.333333333333,3,2,1,55,0,0
328803,-133.333333333333,3,2,1,5,0,0
328871,-133.333333333333,3,2,1,55,0,0
329076,-133.333333333333,3,2,1,5,0,0
329144,-133.333333333333,3,2,1,55,0,0
329553,-133.333333333333,3,2,5,55,0,0
329690,-133.333333333333,3,2,4,55,0,0
329962,-133.333333333333,3,2,3,55,0,0
330099,-133.333333333333,3,2,1,55,0,0
330508,-133.333333333333,3,2,2,55,0,0
330644,-133.333333333333,3,2,1,55,0,0
331599,-133.333333333333,3,2,1,70,0,0
331871,-133.333333333333,3,2,1,55,0,0
332076,-133.333333333333,3,2,1,5,0,0
332144,-133.333333333333,3,2,1,55,0,0
332349,-133.333333333333,3,2,1,5,0,0
332417,-133.333333333333,3,2,1,55,0,0
332826,-133.333333333333,3,2,5,55,0,0
332962,-133.333333333333,3,2,4,55,0,0
333099,-133.333333333333,3,2,1,55,0,0
333235,-133.333333333333,3,2,3,55,0,0
333371,-133.333333333333,3,2,1,55,0,0
333508,-133.333333333333,3,2,2,55,0,0
333644,-133.333333333333,3,2,4,55,0,0
333780,-133.333333333333,3,2,1,55,0,0
334871,-133.333333333333,3,2,1,70,0,0
335144,-133.333333333333,3,2,1,55,0,0
335349,-133.333333333333,3,2,1,5,0,0
335417,-133.333333333333,3,2,1,55,0,0
335621,-133.333333333333,3,2,1,5,0,0
335689,-133.333333333333,3,2,1,55,0,0
336099,-133.333333333333,3,2,5,55,0,0
336235,-133.333333333333,3,2,4,55,0,0
336508,-133.333333333333,3,2,3,55,0,0
336644,-133.333333333333,3,2,1,55,0,0
337053,-133.333333333333,3,2,2,55,0,0
337326,-133.333333333333,3,2,1,55,0,0
337530,-133.333333333333,3,2,1,5,0,0
337599,-133.333333333333,3,2,1,55,0,0
338144,-133.333333333333,3,2,1,70,0,0
338417,-100,3,2,1,55,0,0
339167,-100,3,2,1,5,0,0
339235,-111.111111111111,3,2,1,55,0,0
339985,-111.111111111111,3,2,1,5,0,0
340053,-125,3,2,1,55,0,0
340803,-125,3,2,1,5,0,0
340871,-142.857142857143,3,2,1,55,0,0
341621,-142.857142857143,3,2,1,5,0,0
341690,-83.3333333333333,3,3,1,75,0,0
341894,-1000,3,3,1,5,0,0
341962,-133.333333333333,3,3,1,75,0,0
342030,-133.333333333333,3,3,1,5,0,0
342099,-133.333333333333,3,3,1,75,0,0
342167,-133.333333333333,3,3,1,5,0,0
342235,-133.333333333333,3,3,1,75,0,0
342303,-133.333333333333,3,3,1,5,0,0
342371,-133.333333333333,3,3,1,75,0,0
342440,-133.333333333333,3,3,1,5,0,0
342508,-83.3333333333333,3,2,2,75,0,0
342712,-133.333333333333,3,3,1,5,0,0
342780,-133.333333333333,3,3,1,75,0,0
342849,-133.333333333333,3,3,1,5,0,0
342917,-133.333333333333,3,3,1,75,0,0
342985,-133.333333333333,3,3,1,5,0,0
343053,-133.333333333333,3,3,1,75,0,0
343121,-133.333333333333,3,3,1,5,0,0
343190,-133.333333333333,3,3,1,75,0,0
343258,-133.333333333333,3,3,1,5,0,0
343326,-83.3333333333333,3,2,2,75,0,0
343530,-83.3333333333333,3,3,1,5,0,0
343599,-133.333333333333,3,3,1,75,0,0
343667,-133.333333333333,3,3,1,5,0,0
343736,-133.333333333333,3,3,1,75,0,0
343803,-133.333333333333,3,3,1,5,0,0
343872,-133.333333333333,3,3,1,75,0,0
343940,-133.333333333333,3,3,1,5,0,0
344009,-133.333333333333,3,3,1,75,0,0
344076,-133.333333333333,3,3,1,5,0,0
344144,-83.3333333333333,3,2,2,75,0,0
344349,-83.3333333333333,3,3,1,5,0,0
344417,-133.333333333333,3,3,1,75,0,0
344485,-133.333333333333,3,3,1,5,0,0
344554,-133.333333333333,3,3,1,75,0,0
344621,-133.333333333333,3,3,1,5,0,0
344690,-117.647058823529,3,3,1,75,0,0
344758,-117.647058823529,3,3,1,5,0,0
344826,-117.647058823529,3,3,1,75,0,0
344894,-117.647058823529,3,3,1,5,0,0
344962,-90.9090909090909,3,2,2,75,0,0
345167,-90.9090909090909,3,3,1,5,0,0
345235,-153.846153846153,3,3,1,75,0,0
345303,-153.846153846153,3,3,1,5,0,0
345371,-153.846153846153,3,3,1,75,0,0
345440,-153.846153846153,3,3,1,5,0,0
345508,-153.846153846153,3,3,1,75,0,0
345576,-153.846153846153,3,3,1,5,0,0
345644,-153.846153846153,3,3,1,75,0,0
345712,-153.846153846153,3,3,1,5,0,0
345780,-83.3333333333333,3,2,2,75,0,0
345985,-83.3333333333333,3,3,1,5,0,0
346053,-133.333333333333,3,3,1,75,0,0
346121,-133.333333333333,3,3,1,5,0,0
346190,-133.333333333333,3,3,1,75,0,0
346258,-133.333333333333,3,3,1,5,0,0
346327,-133.333333333333,3,3,1,75,0,0
346394,-133.333333333333,3,3,1,5,0,0
346463,-133.333333333333,3,3,1,75,0,0
346530,-133.333333333333,3,3,1,5,0,0
346599,-90.9090909090909,3,3,1,75,0,0
346803,-90.9090909090909,3,3,1,5,0,0
346871,-153.846153846153,3,3,1,75,0,0
346940,-153.846153846153,3,3,1,5,0,0
347008,-153.846153846153,3,3,1,75,0,0
347076,-153.846153846153,3,3,1,5,0,0
347144,-153.846153846153,3,3,1,75,0,0
347212,-153.846153846153,3,3,1,5,0,0
347280,-153.846153846153,3,3,1,75,0,0
347349,-153.846153846153,3,3,1,5,0,0
347417,-100,3,3,1,75,0,0
347758,-100,3,3,1,5,0,0
347826,-100,3,3,1,75,0,0
348030,-100,3,3,1,5,0,0
348099,-100,3,3,1,75,0,0
348235,-83.3333333333333,3,3,1,75,0,0
348440,-83.3333333333333,3,3,1,5,0,0
348508,-133.333333333333,3,3,1,75,0,0
348576,-133.333333333333,3,3,1,5,0,0
348645,-133.333333333333,3,3,1,75,0,0
348712,-133.333333333333,3,3,1,5,0,0
348781,-133.333333333333,3,3,1,75,0,0
348849,-133.333333333333,3,3,1,5,0,0
348918,-133.333333333333,3,3,1,75,0,0
348985,-133.333333333333,3,3,1,5,0,0
349053,-83.3333333333333,3,2,2,75,0,0
349258,-83.3333333333333,3,3,1,5,0,0
349326,-133.333333333333,3,3,1,75,0,0
349394,-133.333333333333,3,3,1,5,0,0
349463,-133.333333333333,3,3,1,75,0,0
349530,-133.333333333333,3,3,1,5,0,0
349599,-133.333333333333,3,3,1,75,0,0
349667,-133.333333333333,3,3,1,5,0,0
349736,-133.333333333333,3,3,1,75,0,0
349803,-133.333333333333,3,3,1,5,0,0
349871,-83.3333333333333,3,2,2,75,0,0
350076,-83.3333333333333,3,3,1,5,0,0
350144,-133.333333333333,3,3,1,75,0,0
350212,-133.333333333333,3,3,1,5,0,0
350281,-133.333333333333,3,3,1,75,0,0
350349,-133.333333333333,3,3,1,5,0,0
350418,-133.333333333333,3,3,1,75,0,0
350485,-133.333333333333,3,3,1,5,0,0
350554,-133.333333333333,3,3,1,75,0,0
350621,-133.333333333333,3,3,1,5,0,0
350690,-83.3333333333333,3,2,2,75,0,0
350894,-83.3333333333333,3,3,1,5,0,0
350962,-133.333333333333,3,3,1,75,0,0
351030,-133.333333333333,3,3,1,5,0,0
351099,-133.333333333333,3,3,1,75,0,0
351167,-133.333333333333,3,3,1,5,0,0
351235,-117.647058823529,3,3,1,75,0,0
351303,-117.647058823529,3,3,1,5,0,0
351371,-117.647058823529,3,3,1,75,0,0
351440,-117.647058823529,3,3,1,5,0,0
351508,-90.9090909090909,3,2,2,75,0,0
351712,-90.9090909090909,3,3,1,5,0,0
351780,-153.846153846153,3,3,1,75,0,0
351849,-153.846153846153,3,3,1,5,0,0
351917,-153.846153846153,3,3,1,75,0,0
351985,-153.846153846153,3,3,1,5,0,0
352053,-153.846153846153,3,3,1,75,0,0
352121,-153.846153846153,3,3,1,5,0,0
352189,-153.846153846153,3,3,1,75,0,0
352258,-153.846153846153,3,3,1,5,0,0
352326,-83.3333333333333,3,2,2,75,0,0
352530,-83.3333333333333,3,3,1,5,0,0
352599,-133.333333333333,3,3,1,75,0,0
352667,-133.333333333333,3,3,1,5,0,0
352736,-133.333333333333,3,3,1,75,0,0
352803,-133.333333333333,3,3,1,5,0,0
352872,-133.333333333333,3,3,1,75,0,0
352940,-133.333333333333,3,3,1,5,0,0
353009,-133.333333333333,3,3,1,75,0,0
353076,-133.333333333333,3,3,1,5,0,0
353144,-90.9090909090909,3,2,2,75,0,0
353349,-90.9090909090909,3,3,1,5,0,0
353417,-153.846153846153,3,3,1,75,0,0
353485,-153.846153846153,3,3,1,5,0,0
353553,-153.846153846153,3,3,1,75,0,0
353621,-153.846153846153,3,3,1,5,0,0
353689,-153.846153846153,3,3,1,75,0,0
353758,-153.846153846153,3,3,1,5,0,0
353826,-153.846153846153,3,3,1,75,0,0
353894,-153.846153846153,3,3,1,5,0,0
353962,-100,3,3,1,75,0,0
354167,-100,3,3,1,5,0,0
354235,-181.818181818181,3,3,1,75,0,0
354303,-181.818181818181,3,3,1,5,0,0
354371,-181.818181818181,3,3,1,75,0,0
354440,-181.818181818181,3,3,1,5,0,0
354508,-181.818181818181,3,3,1,75,0,0
354576,-181.818181818181,3,3,1,5,0,0
354644,-181.818181818181,3,3,1,75,0,0
354712,-181.818181818181,3,3,1,5,0,0
354780,-83.3333333333333,3,2,2,75,0,0
354985,-83.3333333333333,3,3,1,5,0,0
355053,-133.333333333333,3,3,1,75,0,0
355121,-133.333333333333,3,3,1,5,0,0
355190,-133.333333333333,3,3,1,75,0,0
355258,-133.333333333333,3,3,1,5,0,0
355327,-133.333333333333,3,3,1,75,0,0
355394,-133.333333333333,3,3,1,5,0,0
355463,-133.333333333333,3,3,1,75,0,0
355530,-133.333333333333,3,3,1,5,0,0
355599,-83.3333333333333,3,2,2,75,0,0
355803,-83.3333333333333,3,3,1,5,0,0
355871,-133.333333333333,3,3,1,75,0,0
355940,-133.333333333333,3,3,1,5,0,0
356009,-133.333333333333,3,3,1,75,0,0
356076,-133.333333333333,3,3,1,5,0,0
356145,-133.333333333333,3,3,1,75,0,0
356212,-133.333333333333,3,3,1,5,0,0
356281,-133.333333333333,3,3,1,75,0,0
356349,-133.333333333333,3,3,1,5,0,0
356417,-83.3333333333333,3,2,2,75,0,0
356621,-83.3333333333333,3,3,1,5,0,0
356690,-133.333333333333,3,3,1,75,0,0
356758,-133.333333333333,3,3,1,5,0,0
356827,-133.333333333333,3,3,1,75,0,0
356894,-133.333333333333,3,3,1,5,0,0
356963,-133.333333333333,3,3,1,75,0,0
357030,-133.333333333333,3,3,1,5,0,0
357099,-133.333333333333,3,3,1,75,0,0
357167,-133.333333333333,3,3,1,5,0,0
357235,-83.3333333333333,3,2,2,75,0,0
357440,-83.3333333333333,3,3,1,5,0,0
357508,-133.333333333333,3,3,1,75,0,0
357576,-133.333333333333,3,3,1,5,0,0
357645,-133.333333333333,3,3,1,75,0,0
357712,-133.333333333333,3,3,1,5,0,0
357780,-117.647058823529,3,3,1,75,0,0
357849,-117.647058823529,3,3,1,5,0,0
357917,-117.647058823529,3,3,1,75,0,0
357985,-117.647058823529,3,3,1,5,0,0
358053,-90.9090909090909,3,2,2,75,0,0
358258,-90.9090909090909,3,3,1,5,0,0
358326,-153.846153846153,3,3,1,75,0,0
358394,-153.846153846153,3,3,1,5,0,0
358462,-153.846153846153,3,3,1,75,0,0
358530,-153.846153846153,3,3,1,5,0,0
358598,-153.846153846153,3,3,1,75,0,0
358667,-153.846153846153,3,3,1,5,0,0
358735,-153.846153846153,3,3,1,75,0,0
358803,-153.846153846153,3,3,1,5,0,0
358871,-83.3333333333333,3,2,2,75,0,0
359076,-83.3333333333333,3,3,1,5,0,0
359144,-133.333333333333,3,3,1,75,0,0
359212,-133.333333333333,3,3,1,5,0,0
359281,-133.333333333333,3,3,1,75,0,0
359349,-133.333333333333,3,3,1,5,0,0
359418,-133.333333333333,3,3,1,75,0,0
359485,-133.333333333333,3,3,1,5,0,0
359554,-133.333333333333,3,3,1,75,0,0
359621,-133.333333333333,3,3,1,5,0,0
359690,-90.9090909090909,3,2,2,75,0,0
359894,-90.9090909090909,3,3,1,5,0,0
359962,-153.846153846153,3,3,1,75,0,0
360030,-153.846153846153,3,3,1,5,0,0
360098,-153.846153846153,3,3,1,75,0,0
360167,-153.846153846153,3,3,1,5,0,0
360235,-153.846153846153,3,3,1,75,0,0
360303,-153.846153846153,3,3,1,5,0,0
360371,-153.846153846153,3,3,1,75,0,0
360440,-153.846153846153,3,3,1,5,0,0
360508,-100,3,2,2,75,0,0
360712,-100,3,3,1,5,0,0
360780,-181.818181818181,3,3,1,75,0,0
360849,-181.818181818181,3,3,1,5,0,0
360917,-181.818181818181,3,3,1,75,0,0
360985,-181.818181818181,3,3,1,5,0,0
361053,-181.818181818181,3,3,1,75,0,0
361121,-181.818181818181,3,3,1,5,0,0
361189,-181.818181818181,3,3,1,75,0,0
361258,-181.818181818181,3,3,1,5,0,0
361326,-83.3333333333333,3,2,2,75,0,0
361530,-83.3333333333333,3,3,1,5,0,0
361599,-133.333333333333,3,3,1,75,0,0
361667,-133.333333333333,3,3,1,5,0,0
361736,-133.333333333333,3,3,1,75,0,0
361803,-133.333333333333,3,3,1,5,0,0
361872,-133.333333333333,3,3,1,75,0,0
361940,-133.333333333333,3,3,1,5,0,0
362009,-133.333333333333,3,3,1,75,0,0
362076,-133.333333333333,3,3,1,5,0,0
362144,-83.3333333333333,3,2,2,75,0,0
362349,-83.3333333333333,3,3,1,5,0,0
362417,-133.333333333333,3,3,1,75,0,0
362485,-133.333333333333,3,3,1,5,0,0
362554,-133.333333333333,3,3,1,75,0,0
362621,-133.333333333333,3,3,1,5,0,0
362690,-133.333333333333,3,3,1,75,0,0
362758,-133.333333333333,3,3,1,5,0,0
362827,-133.333333333333,3,3,1,75,0,0
362894,-133.333333333333,3,3,1,5,0,0
362962,-83.3333333333333,3,2,2,75,0,0
363167,-83.3333333333333,3,3,1,5,0,0
363235,-133.333333333333,3,3,1,75,0,0
363303,-133.333333333333,3,3,1,5,0,0
363372,-133.333333333333,3,3,1,75,0,0
363440,-133.333333333333,3,3,1,5,0,0
363509,-133.333333333333,3,3,1,75,0,0
363576,-133.333333333333,3,3,1,5,0,0
363645,-133.333333333333,3,3,1,75,0,0
363712,-133.333333333333,3,3,1,5,0,0
363780,-83.3333333333333,3,2,2,75,0,0
363985,-83.3333333333333,3,3,1,5,0,0
364053,-133.333333333333,3,3,1,75,0,0
364121,-133.333333333333,3,3,1,5,0,0
364190,-133.333333333333,3,3,1,75,0,0
364258,-133.333333333333,3,3,1,5,0,0
364326,-117.647058823529,3,3,1,75,0,0
364394,-117.647058823529,3,3,1,5,0,0
364462,-117.647058823529,3,3,1,75,0,0
364530,-117.647058823529,3,3,1,5,0,0
364599,-90.9090909090909,3,2,2,75,0,0
364803,-90.9090909090909,3,3,1,5,0,0
364871,-133.333333333333,3,3,1,75,0,0
364940,-133.333333333333,3,3,1,5,0,0
365009,-133.333333333333,3,3,1,75,0,0
365076,-133.333333333333,3,3,1,5,0,0
365145,-133.333333333333,3,3,1,75,0,0
365212,-133.333333333333,3,3,1,5,0,0
365281,-133.333333333333,3,3,1,75,0,0
365349,-133.333333333333,3,3,1,5,0,0
365417,-83.3333333333333,3,2,2,75,0,0
365621,-83.3333333333333,3,3,1,5,0,0
365690,-133.333333333333,3,3,1,75,0,0
365758,-133.333333333333,3,3,1,5,0,0
365827,-133.333333333333,3,3,1,75,0,0
365894,-133.333333333333,3,3,1,5,0,0
365963,-133.333333333333,3,3,1,75,0,0
366030,-133.333333333333,3,3,1,5,0,0
366099,-133.333333333333,3,3,1,75,0,0
366167,-133.333333333333,3,3,1,5,0,0
366235,-90.9090909090909,3,2,2,75,0,0
366440,-90.9090909090909,3,3,1,5,0,0
366508,-153.846153846153,3,3,1,75,0,0
366576,-153.846153846153,3,3,1,5,0,0
366644,-153.846153846153,3,3,1,75,0,0
366712,-153.846153846153,3,3,1,5,0,0
366780,-153.846153846153,3,3,1,75,0,0
366849,-153.846153846153,3,3,1,5,0,0
366917,-153.846153846153,3,3,1,75,0,0
366985,-153.846153846153,3,3,1,5,0,0
367053,-100,3,3,1,75,0,0
367121,-100,3,3,5,75,0,0
367258,-100,3,3,4,75,0,0
367462,-100,3,3,3,75,0,0
367667,-100,3,3,2,75,0,0
367871,-80,3,3,1,75,0,0
368144,-100,3,3,1,5,0,0
368417,-83.3333333333333,3,3,1,75,0,0
368621,-83.3333333333333,3,3,1,5,0,0
368690,-100,3,3,1,75,0,0
368962,-100,3,3,1,5,0,0
369235,-111.111111111111,3,3,1,75,0,0
369440,-111.111111111111,3,3,1,5,0,0
369508,-90.9090909090909,3,3,1,75,0,0
369780,-90.9090909090909,3,3,1,5,0,0
370053,-83.3333333333333,3,3,1,75,0,0
370258,-83.3333333333333,3,3,1,5,0,0
370326,-100,3,3,1,75,0,0
370462,-100,3,3,1,5,0,0
370599,-100,3,3,4,75,0,0
370803,-100,3,3,3,75,0,0
370940,-100,3,3,2,75,0,0
371144,-200,3,3,1,75,0,0
371417,-200,3,3,1,5,0,0
371690,-83.3333333333333,3,3,1,75,0,0
371894,-83.3333333333333,3,3,1,5,0,0
371962,-100,3,3,1,75,0,0
372235,-100,3,3,1,5,0,0
372508,-111.111111111111,3,3,1,75,0,0
372712,-111.111111111111,3,3,1,5,0,0
372780,-90.9090909090909,3,3,1,75,0,0
373053,-90.9090909090909,3,3,1,5,0,0
373326,-83.3333333333333,3,3,1,75,0,0
373530,-83.3333333333333,3,3,1,5,0,0
373599,-100,3,3,1,75,0,0
373735,-100,3,3,3,75,0,0
373871,-100,3,3,1,75,0,0
374008,-100,3,3,4,75,0,0
374144,-100,3,3,1,75,0,0
374417,-86.9565217391304,3,3,1,75,0,0
375235,-86.9565217391304,3,3,1,75,0,0
377417,-86.9565217391304,3,3,1,75,0,0
377894,-86.9565217391304,3,3,1,5,0,0
377962,-86.9565217391304,3,3,1,75,0,0
378780,-100,3,3,1,75,0,0
379053,-86.9565217391304,3,3,1,75,0,0
379258,-86.9565217391304,3,3,1,5,0,0
379326,-86.9565217391304,3,3,1,75,0,0
380962,-111.111111111111,3,3,1,75,0,0
381235,-100,3,3,1,75,0,0
381508,-86.9565217391304,3,3,1,75,0,0
381780,-100,3,3,1,75,0,0
384440,-100,3,3,1,5,0,0
384508,-100,3,3,1,75,0,0
385258,-100,3,3,1,5,0,0
385326,-86.9565217391304,3,3,1,75,0,0
386485,-86.9565217391304,3,3,1,5,0,0
386553,-86.9565217391304,3,3,1,75,0,0
386690,-111.111111111111,3,3,1,75,0,0
386962,-86.9565217391304,3,3,1,75,0,0
387235,-100,3,3,1,75,0,0
387508,-100,3,3,1,75,0,0
387780,-125,3,2,3,75,0,0
388326,-100,3,2,3,75,0,0
389008,-125,3,2,3,75,0,0
390235,-100,3,2,3,75,0,0
390780,-125,3,2,3,75,0,0
391599,-100,3,2,3,75,0,0
393235,-100,3,3,1,75,0,0
394053,-200,3,3,1,75,0,0
394530,-200,3,3,1,5,0,0
394599,-83.3333333333333,3,3,1,75,0,0
394803,-83.3333333333333,3,3,1,5,0,0
394871,-100,3,3,1,75,0,0
395144,-100,3,3,1,5,0,0
395417,-111.111111111111,3,3,1,75,0,0
395621,-111.111111111111,3,3,1,5,0,0
395690,-90.9090909090909,3,3,1,75,0,0
395962,-90.9090909090909,3,3,1,5,0,0
396235,-83.3333333333333,3,3,1,75,0,0
396440,-83.3333333333333,3,3,1,5,0,0
396508,-100,3,3,1,75,0,0
396644,-100,3,3,1,5,0,0
396780,-100,3,3,5,75,0,0
396917,-100,3,3,4,75,0,0
397053,-100,3,3,3,75,0,0
397190,-100,3,3,2,75,0,0
397326,-200,3,3,1,75,0,0
397599,-200,3,3,1,5,0,0
397871,-83.3333333333333,3,3,1,75,0,0
398076,-83.3333333333333,3,3,1,5,0,0
398144,-100,3,3,1,75,0,0
398417,-100,3,3,1,5,0,0
398690,-111.111111111111,3,3,1,75,0,0
398894,-111.111111111111,3,3,1,5,0,0
398962,-90.9090909090909,3,3,1,75,0,0
399235,-90.9090909090909,3,3,1,5,0,0
399508,-83.3333333333333,3,3,1,75,0,0
399712,-83.3333333333333,3,3,1,5,0,0
399780,-100,3,3,1,75,0,0
399917,-100,3,3,1,5,0,0
400053,-100,3,3,4,75,0,0
400326,-100,3,3,3,75,0,0
400599,-100,3,3,1,75,0,0
402917,-100,3,3,1,5,0,0
403053,-100,3,3,5,75,0,0
403326,-100,3,3,4,75,0,0
403599,-100,3,3,3,75,0,0
403871,-100,3,3,1,75,0,1
407144,-86.9565217391304,3,3,1,75,0,1
410417,-125,3,3,1,75,0,1
411235,-111.111111111111,3,3,1,75,0,1
412735,-90.9090909090909,3,3,1,75,0,1
413144,-100,3,3,1,75,0,1
413553,-111.111111111111,3,3,1,75,0,1
414099,-100,3,3,1,75,0,1
414508,-83.3333333333333,3,3,1,75,0,1
416008,-83.3333333333333,3,3,4,75,0,1
416076,-83.3333333333333,3,3,1,75,0,1
416144,-100,3,3,3,75,0,1
416212,-100,3,3,1,75,0,1
416417,-100,3,3,2,75,0,1
416485,-100,3,3,1,75,0,1
416962,-111.111111111111,3,3,1,75,0,1
417371,-100,3,3,1,75,0,1
417780,-83.3333333333333,3,3,1,75,0,1
418599,-90.9090909090909,3,3,1,75,0,1
419144,-90.9090909090909,3,3,4,75,0,1
419212,-90.9090909090909,3,3,1,75,0,1
419280,-90.9090909090909,3,3,3,75,0,1
419348,-90.9090909090909,3,3,1,75,0,1
419417,-83.3333333333333,3,3,5,75,0,1
419485,-83.3333333333333,3,3,1,75,0,1
420644,-86.9565217391304,3,3,1,75,0,1
421871,-76.9230769230769,3,3,1,75,0,1
422280,-90.9090909090909,3,3,1,75,0,1
423508,-117.647058823529,3,3,1,75,0,1
424735,-105.263157894737,3,3,1,75,0,1
425144,-90.9090909090909,3,3,1,75,0,1
426780,-100,3,3,1,75,0,1
428417,-100,3,3,3,75,0,1
428690,-100,3,3,1,75,0,1
428962,-100,3,3,2,75,0,1
429235,-100,3,3,1,75,0,1
429644,-100,3,3,5,75,0,1
429780,-100,3,3,2,75,0,1
430053,-111.111111111111,3,3,1,75,0,1
430462,-133.333333333333,3,3,1,75,0,1
430599,-117.647058823529,3,3,1,75,0,1
430735,-105.263157894737,3,3,1,75,0,1
430871,-95.2380952380951,3,3,1,75,0,1
431417,-105.263157894737,3,3,1,75,0,1
432508,-105.263157894737,3,3,5,75,0,1
432780,-105.263157894737,3,3,4,75,0,1
433053,-105.263157894737,3,3,3,75,0,1
433326,-384.615384615385,3,3,1,75,0,0
433599,-384.615384615385,3,3,1,5,0,0
433871,-384.615384615385,3,3,1,5,0,0
434144,-384.615384615385,3,3,1,5,0,0
434417,-384.615384615385,3,3,1,5,0,0
434690,-384.615384615385,3,3,1,5,0,0
434962,-384.615384615385,3,3,1,5,0,0
435235,-384.615384615385,3,3,1,5,0,0
435508,-384.615384615385,3,3,1,5,0,0
435780,-384.615384615385,3,3,1,5,0,0
436053,-384.615384615385,3,3,1,5,0,0
436326,-384.615384615385,3,3,1,5,0,0
436599,-384.615384615385,3,3,1,5,0,0
436871,-384.615384615385,3,3,1,5,0,0
437144,-384.615384615385,3,3,1,5,0,0
437417,-384.615384615385,3,3,1,5,0,0
437690,-384.615384615385,3,3,1,5,0,0
437962,-384.615384615385,3,3,1,5,0,0
438235,-384.615384615385,3,3,1,5,0,0
438508,-384.615384615385,3,3,1,5,0,0
438780,-384.615384615385,3,3,1,5,0,0
439053,-384.615384615385,3,3,1,5,0,0
439326,-384.615384615385,3,3,1,5,0,0
439599,-384.615384615385,3,3,1,5,0,0
439871,-384.615384615385,3,3,1,5,0,0
440144,-384.615384615385,3,3,1,5,0,0
440417,-384.615384615385,3,3,1,5,0,0
440690,-384.615384615385,3,3,1,5,0,0
440962,-384.615384615385,3,3,1,5,0,0
441235,-384.615384615385,3,3,1,5,0,0
441508,-384.615384615385,3,3,1,5,0,0
441780,-384.615384615385,3,3,1,5,0,0
442053,-384.615384615385,3,3,1,5,0,0
442326,-384.615384615385,3,3,1,5,0,0
442599,-384.615384615385,3,3,1,5,0,0
442871,-384.615384615385,3,3,1,5,0,0
443144,-384.615384615385,3,3,1,5,0,0
443417,-384.615384615385,3,3,1,5,0,0
443690,-384.615384615385,3,3,1,5,0,0
443962,-384.615384615385,3,3,1,5,0,0
444235,-384.615384615385,3,3,1,5,0,0
444508,-384.615384615385,3,3,1,5,0,0
444780,-384.615384615385,3,3,1,5,0,0
445053,-384.615384615385,3,3,1,5,0,0
445326,-384.615384615385,3,3,1,5,0,0
445599,-384.615384615385,3,3,1,5,0,0
445871,-384.615384615385,3,3,1,5,0,0
446144,-384.615384615385,3,3,1,5,0,0
446280,-384.615384615385,3,3,1,5,0,0

[Colours]
Combo1 : 128,0,64
Combo2 : 0,0,255
Combo3 : 92,0,185
Combo4 : 159,0,0

[HitObjects]
334,333,30454,6,0,B|381:306|445:341|445:341|391:280|313:280|266:338|266:338|231:387|133:421|67:321|55:242|143:190|191:171|253:219|253:219|182:101|296:0|296:0|420:116|330:220|330:220,1,1240,4|0,0:0|0:0,0:0:0:0:
194,285,32981,6,0,L|33:325,1,150.000005722046,4|0,0:0|0:0,0:0:0:0:
356,122,35507,6,0,B|400:82|396:21|330:-15|276:3|245:28|234:93|249:172|343:184|291:257|267:305|194:291|178:280|178:280|255:238|242:148|195:81|102:81|-4:158|51:260|111:291|111:291|78:261|91:208,1,1007.49995388031,4|0,0:0|0:0,0:0:0:0:
196,132,38033,6,0,P|114:117|50:195,1,179.999994506836,4|0,0:0|0:0,0:0:0:0:
257,52,39928,6,0,L|263:80,1,22.4999993133545,0|8,0:0|0:0,0:0:0:0:
296,198,40086,1,0,0:0:0:0:
257,52,40481,1,0,0:0:0:0:
257,52,40560,6,0,L|281:148,2,75.0000028610231,4|8|8,0:0|0:0|0:0,0:0:0:0:
321,308,41033,2,0,L|252:288,1,50,4|8,0:1|0:0,0:0:0:0:
333,313,41349,1,8,0:0:0:0:
67,235,41507,6,0,L|138:165,2,75.0000028610231,4|8|8,0:0|0:0|0:0,0:0:0:0:
257,52,41981,2,0,L|270:106,1,50,4|8,0:1|0:0,0:0:0:0:
49,316,42296,1,8,0:0:0:0:
0,185,42454,5,0,0:0:0:0:
5,198,42612,1,0,0:0:0:0:
10,211,42770,1,0,0:0:0:0:
15,224,42928,1,0,0:0:0:0:
288,180,43086,6,0,B|321:177|321:177|356:192,2,64.9999970245363,4|8|8,0:0|0:0|0:0,0:0:0:0:
329,343,43560,2,0,B|314:321|314:321|309:290,1,50,4|8,0:1|0:0,0:0:0:0:
335,355,43875,1,8,0:0:0:0:
450,226,44033,6,0,B|436:256|436:256|405:278,2,64.9999970245363,4|8|8,0:0|0:0|0:0,0:0:0:0:
288,180,44507,2,0,B|312:178|312:178|335:188,1,50,4|8,0:1|0:0,0:0:0:0:
173,309,44823,1,8,0:0:0:0:
118,144,44981,5,0,0:0:0:0:
112,128,45139,1,0,0:0:0:0:
106,112,45296,1,0,0:0:0:0:
100,96,45454,1,0,0:0:0:0:
47,289,45612,6,0,P|83:285|117:294,2,55.0000016784668,4|8|8,0:0|0:0|0:0,0:0:0:0:
173,309,46086,1,4,0:1:0:0:
73,359,46244,1,8,0:0:0:0:
273,259,46402,1,8,0:0:0:0:
100,96,46560,6,0,P|96:132|105:166,2,55.0000016784668,4|8|8,0:0|0:0|0:0,0:0:0:0:
273,259,47033,1,4,0:1:0:0:
73,359,47191,1,8,0:0:0:0:
173,309,47349,1,8,0:0:0:0:
80,248,47507,5,0,0:0:0:0:
79,261,47665,1,0,0:0:0:0:
78,274,47823,1,0,0:0:0:0:
77,287,47981,1,0,0:0:0:0:
373,209,48139,6,0,L|379:153,2,50,4|8|8,0:0|0:0|0:0,0:0:0:0:
273,259,48668,1,4,0:1:0:0:
473,159,48844,1,8,0:0:0:0:
459,382,49021,1,8,0:0:0:0:
280,148,49197,6,0,L|288:72,1,75.0000028610231,4|8,0:0|0:0,0:0:0:0:
296,0,49658,1,8,0:0:0:0:
35,142,49918,6,0,B|127:184|188:84|281:148|281:148|203:124|150:190|134:266|197:347|228:382|272:293|263:231|263:231|361:253|424:123|332:62|273:52,1,920,4|0,0:1|0:0,0:0:0:0:
6,246,53690,6,0,L|112:261,1,75.0000028610231,4|0,0:2|0:0,0:0:0:0:
205,113,53962,2,0,L|99:128,1,75.0000028610231,2|2,0:2|0:2,0:0:0:0:
186,273,54235,1,2,0:2:0:0:
281,71,54371,1,0,0:0:0:0:
178,288,54508,6,0,L|284:303,1,75.0000028610231,10|0,0:2|0:0,0:0:0:0:
377,155,54780,2,0,L|271:170,1,75.0000028610231,2|2,0:2|0:2,0:0:0:0:
358,315,55053,1,2,0:2:0:0:
453,113,55190,1,2,0:2:0:0:
464,337,55326,5,2,0:2:0:0:
252,298,55462,1,0,0:0:0:0:
458,224,55599,1,2,0:2:0:0:
235,296,55735,1,0,0:0:0:0:
464,337,55871,2,0,P|482:297|466:243,1,75.0000028610231,2|2,0:2|0:2,0:0:0:0:
304,62,56144,6,0,P|284:105|301:165,1,112.500004291535,10|0,0:2|0:0,0:0:0:0:
367,212,56417,1,2,0:2:0:0:
453,113,56553,1,2,0:2:0:0:
434,109,56621,1,2,0:2:0:0:
415,110,56689,1,2,0:2:0:0:
509,164,56826,1,2,0:2:0:0:
293,245,56962,6,0,B|288:207|288:207|301:157,1,64.9999970245363,2|0,0:2|0:0,0:0:0:0:
358,292,57235,1,2,0:2:0:0:
185,347,57371,1,2,0:2:0:0:
432,260,57508,2,0,B|437:298|437:298|424:348,1,64.9999970245363,2|2,0:2|0:2,0:0:0:0:
151,203,57780,6,0,P|136:157|151:95,1,112.500004291535,10|0,0:2|0:0,0:0:0:0:
223,19,58053,1,2,0:2:0:0:
40,112,58190,1,0,0:0:0:0:
243,149,58326,1,2,0:2:0:0:
28,110,58462,1,2,0:2:0:0:
252,150,58599,6,0,P|265:200|251:251,1,104.999996795654,2|0,0:2|0:0,0:0:0:0:
194,324,58871,1,2,0:2:0:0:
151,203,59008,1,0,0:0:0:0:
287,337,59144,1,2,0:2:0:0:
101,311,59280,1,2,0:2:0:0:
345,264,59417,6,0,B|413:250,1,64.9999970245363,10|0,0:2|0:0,0:0:0:0:
512,228,59690,2,0,B|465:176,1,64.9999970245363,2|0,0:2|0:0,0:0:0:0:
397,101,59962,1,2,0:2:0:0:
371,183,60099,1,4,0:1:0:0:
223,19,60235,6,0,P|180:10|141:22,1,80,4|0,0:0|0:0,0:0:0:0:
21,176,60508,2,0,P|64:167|103:179,1,80,2|0,0:2|0:0,0:0:0:0:
18,18,60780,1,2,0:2:0:0:
59,246,60917,1,0,0:0:0:0:
10,4,61053,6,0,P|1:47|13:86,1,80,10|0,0:2|0:0,0:0:0:0:
97,316,61326,1,2,0:2:0:0:
173,118,61462,2,0,P|135:109|96:119,1,80,2|0,0:2|0:2,0:0:0:0:
231,352,61735,1,2,0:2:0:0:
21,176,61871,6,0,P|-18:228|-8:287,1,112.500004291535,2|0,0:2|0:0,0:0:0:0:
15,343,62144,1,2,0:2:0:0:
196,218,62280,1,2,0:2:0:0:
10,81,62417,1,2,0:2:0:0:
59,246,62553,1,2,0:2:0:0:
144,39,62690,6,0,B|112:28|112:28|52:52,1,69.9999978637696,10|0,0:2|0:0,0:0:0:0:
219,108,62962,2,0,B|244:85|244:85|253:21,1,69.9999978637696,2|2,0:2|0:2,0:0:0:0:
122,139,63235,2,0,B|128:172|128:172|179:212,1,69.9999978637696,2|2,0:2|0:2,0:0:0:0:
330,50,63508,6,0,L|311:166,1,89.9999972534181,2|0,0:2|0:0,0:0:0:0:
241,206,63780,1,2,0:2:0:0:
405,186,63917,1,0,0:0:0:0:
224,208,64053,1,2,0:2:0:0:
346,243,64190,1,0,0:0:0:0:
118,366,64326,6,0,L|132:279,1,59.9999981689454,10|0,0:2|0:0,0:0:0:0:
287,300,64599,1,2,0:2:0:0:
53,333,64735,1,0,0:0:0:0:
228,357,64871,1,2,0:2:0:0:
121,139,65008,6,0,P|113:183|121:216,1,59.9999981689454,8|2,0:3|0:2,0:0:0:0:
221,25,65280,1,8,0:0:0:0:
22,99,65417,1,2,0:2:0:0:
185,235,65553,2,0,P|193:191|185:158,1,59.9999981689454,10|2,0:2|0:2,0:0:0:0:
53,333,65826,1,8,0:1:0:0:
287,300,65962,5,2,0:2:0:0:
3,267,66099,1,8,0:0:0:0:
284,311,66235,5,2,0:2:0:0:
0,278,66371,1,8,0:0:0:0:
228,357,66508,5,2,0:2:0:0:
265,75,66645,1,8,0:0:0:0:
70,137,66780,6,0,B|111:91|80:23|80:23|186:89|22:186|160:285,1,412.500015735627,4|0,0:2|0:0,0:0:0:0:
89,321,67599,2,0,B|141:379|214:332|214:332|235:350|235:350|279:321|323:350,1,262.500010013581,8|0,0:0|0:0,0:0:0:0:
441,233,68144,6,0,P|439:295|393:336,1,127.50000243187,8|0,0:1|0:0,0:0:0:0:
457,226,68417,2,0,P|449:303|260:257,1,332.499991121292,2|0,0:2|0:0,0:0:0:0:
329,251,68962,6,0,P|352:286|380:229,1,127.50000243187,2|0,0:2|0:0,0:0:0:0:
509,348,69235,2,0,P|536:260|509:167,1,187.500007152558,10|0,0:2|0:0,0:0:0:0:
344,60,69644,6,0,P|365:74|393:82,1,47.4999987316132,2|0,0:2|0:0,0:0:0:0:
423,84,69780,2,0,P|445:75|468:56,1,42.5000008106232,8|0,0:1|0:0,0:0:0:0:
403,7,69917,6,0,B|336:-58|243:7|269:88|269:88|209:132|140:78,1,337.500012874604,2|2,0:2|0:2,0:0:0:0:
44,3,70599,2,0,P|28:79|60:150,1,157.499995193482,2|0,0:2|0:0,0:0:0:0:
31,0,70871,6,0,B|-1:64|31:128|31:128|-1:160|-1:160|63:224|-1:288|-1:288|61:290|64:352|64:352|117:337|128:288|128:288|192:320|256:288|317:332|415:152|342:39|233:17|233:17|235:54|203:76|203:76|288:99|310:187|237:261|181:235|143:215|143:215|220:232|237:163,1,1469.99995513916,10|2,0:2|0:2,0:0:0:0:
330,72,72917,1,2,0:2:0:0:
330,72,72985,1,2,0:2:0:0:
330,72,73053,2,0,P|271:87|222:73,1,97.4999955368044,2|0,0:2|0:0,0:0:0:0:
147,7,73326,6,0,B|128:80|128:80|137:105|137:105|106:244,1,212.500004053116,2|0,0:2|0:0,0:0:0:0:
58,151,73735,2,0,L|65:119,1,32.4999985122681,2|0,0:2|0:0,0:0:0:0:
131,179,73871,2,0,L|109:278,1,97.4999955368044
35,311,74144,6,0,B|67:368|141:380|181:328|189:299|189:299|226:350|226:350|197:218|335:152|430:222|437:312|437:312|396:245|337:253,1,747.499965782167,10|0,0:2|0:0,0:0:0:0:
299,314,75780,2,0,P|282:270|379:131,1,227.499989585877,8|0,0:0|0:0,0:0:0:0:
415,142,76326,2,0,P|373:142|330:166,1,82.5000025177003,2|0,0:2|0:0,0:0:0:0:
476,219,76599,6,0,L|497:227,1,22.4999993133545,2|0,0:2|0:0,0:0:0:0:
219,85,76871,6,0,P|242:87|262:101,1,37.5000014305115,2|0,0:2|0:0,2:0:0:0:
320,133,77008,2,0,P|334:151|339:175,1,32.4999985122681,0|0,0:2|0:0,2:0:0:0:
368,232,77144,2,0,B|306:273|236:241|214:206|214:154|214:154|195:165|195:165|156:111|78:119|54:186,1,412.500012588501,2|0,0:2|0:0,0:0:0:0:
73,307,78235,6,8,P|91:289|102:267,5,50.0000019073487
103,101,78780,5,0,0:0:0:0:
107,125,78870,1,0,0:0:0:0:
111,150,78961,1,0,0:0:0:0:
150,184,79053,5,0,0:0:0:0:
145,208,79144,1,0,0:0:0:0:
137,232,79235,1,0,0:0:0:0:
103,268,79326,6,0,L|118:321,2,50.0000019073487
212,131,79599,5,0,0:0:0:0:
216,116,79689,1,0,0:0:0:0:
220,102,79780,1,0,0:0:0:0:
224,87,79871,5,4,0:0:0:0:
262,141,79962,1,0,0:0:0:0:
260,200,80053,1,0,0:0:0:0:
233,247,80144,1,2,0:0:0:0:
195,274,80235,1,0,0:0:0:0:
156,285,80326,1,0,0:0:0:0:
122,282,80417,1,2,0:0:0:0:
97,272,80508,1,0,0:0:0:0:
81,259,80599,1,0,0:0:0:0:
46,214,80690,6,0,L|32:304,1,66.6666666666667,10|0,2:2|0:0,0:0:0:0:
122,112,80871,1,0,0:0:0:0:
123,126,80962,2,0,L|127:217,1,66.6666666666667,2|0,0:0|0:0,0:0:0:0:
57,17,81144,1,0,0:0:0:0:
56,30,81235,2,0,L|42:120,2,66.6666666666667,2|0|0,0:0|0:0|0:0,0:0:0:0:
126,193,81508,5,2,0:0:0:0:
185,232,81598,1,0,0:0:0:0:
257,223,81689,1,0,0:0:0:0:
303,168,81780,1,2,0:0:0:0:
374,159,81871,1,0,0:0:0:0:
434,199,81961,1,0,0:0:0:0:
446,272,82053,5,2,0:0:0:0:
436,303,82144,1,0,0:0:0:0:
426,335,82235,1,0,0:0:0:0:
375,390,82326,5,10,2:2:0:0:
395,326,82416,1,0,0:0:0:0:
414,262,82507,1,0,0:0:0:0:
434,199,82598,1,2,0:0:0:0:
454,135,82690,1,0,0:0:0:0:
474,72,82780,1,0,0:0:0:0:
494,9,82871,6,0,L|507:92,2,66.6666666666667,2|0|0,0:0|0:0|0:0,0:0:0:0:
434,199,83144,5,2,0:0:0:0:
381,228,83235,1,0,0:0:0:0:
328,229,83326,1,0,0:0:0:0:
286,207,83417,1,2,0:0:0:0:
261,175,83508,1,0,0:0:0:0:
233,155,83599,1,0,0:0:0:0:
207,147,83690,1,2,0:0:0:0:
187,150,83781,1,0,0:0:0:0:
175,156,83872,1,0,0:0:0:0:
129,198,83962,6,0,P|164:206|194:191,1,56.6666677474976,10|0,2:2|0:0,0:0:0:0:
141,43,84144,1,0,0:0:0:0:
134,53,84235,2,0,P|117:84|116:125,2,56.6666677474976,2|0|0,0:0|0:0|0:0,0:0:0:0:
258,130,84508,5,2,0:0:0:0:
308,107,84598,1,0,0:0:0:0:
327,55,84689,1,0,0:0:0:0:
304,5,84780,5,2,0:0:0:0:
278,35,84870,1,0,0:0:0:0:
269,73,84961,1,0,0:0:0:0:
279,111,85052,1,0,0:0:0:0:
305,140,85144,1,0,0:0:0:0:
315,178,85235,1,0,0:0:0:0:
306,216,85326,1,0,0:0:0:0:
281,246,85416,1,0,0:0:0:0:
242,257,85508,1,0,0:0:0:0:
189,235,85599,6,0,P|179:194|187:165,5,56.6666677474976,10|0|0|0|0|0,2:2|0:0|0:0|0:0|0:0|0:0,0:0:0:0:
400,77,86144,5,2,0:0:0:0:
416,79,86235,1,0,0:0:0:0:
433,77,86325,1,0,0:0:0:0:
444,71,86416,5,4,0:0:0:0:
388,39,86508,1,0,0:0:0:0:
330,40,86599,1,0,0:0:0:0:
285,64,86690,1,2,0:0:0:0:
258,99,86780,1,0,0:0:0:0:
246,135,86871,1,0,0:0:0:0:
245,166,86962,1,2,0:0:0:0:
252,190,87053,1,0,0:0:0:0:
261,206,87144,1,0,0:0:0:0:
312,243,87235,6,0,B|320:208|320:208|310:168,1,63.3333316421509,10|0,2:2|0:0,0:0:0:0:
444,71,87417,1,0,0:0:0:0:
425,72,87508,2,0,B|390:81|390:81|360:111,1,63.3333316421509,2|0,0:0|0:0,0:0:0:0:
210,43,87689,1,0,0:0:0:0:
220,59,87780,2,0,B|246:84|246:84|285:94,2,63.3333316421509,2|0|0,0:0|0:0|0:0,0:0:0:0:
409,189,88053,5,2,0:0:0:0:
432,241,88144,1,0,0:0:0:0:
420,291,88235,1,0,0:0:0:0:
387,322,88326,1,2,0:0:0:0:
348,326,88417,1,0,0:0:0:0:
317,319,88508,1,0,0:0:0:0:
297,303,88599,1,2,0:0:0:0:
286,287,88690,1,0,0:0:0:0:
281,275,88780,1,0,0:0:0:0:
277,215,88871,6,0,P|286:246|277:277,1,50.0000019073487,10|0,2:2|0:0,0:0:0:0:
226,58,89053,1,0,0:0:0:0:
222,68,89144,2,0,P|213:99|222:130,2,50.0000019073487,2|0|0,0:0|0:0|0:0,0:0:0:0:
78,242,89417,5,2,0:0:0:0:
115,274,89507,1,0,0:0:0:0:
164,278,89598,1,0,0:0:0:0:
210,251,89690,5,2,0:0:0:0:
176,243,89780,1,0,0:0:0:0:
142,252,89871,1,0,0:0:0:0:
115,274,89962,1,2,0:0:0:0:
103,307,90053,1,0,0:0:0:0:
106,341,90144,1,0,0:0:0:0:
126,370,90235,1,2,0:0:0:0:
159,384,90325,1,0,0:0:0:0:
193,381,90416,1,0,0:0:0:0:
239,337,90508,6,0,P|248:300|232:260,1,63.3333316421509,8|0,0:2|0:0,0:0:0:0:
156,123,90690,1,0,0:0:0:0:
139,154,90780,2,0,P|133:184|142:214,1,63.3333316421509,2|0,0:0|0:0,0:0:0:0:
225,0,90963,1,0,0:0:0:0:
242,31,91053,2,0,P|247:61|238:91,1,63.3333316421509,2|0,0:0|0:0,0:0:0:0:
46,36,91235,1,0,0:0:0:0:
65,39,91326,6,0,L|127:44,1,56.6666677474976,2|0,0:0|0:0,0:0:0:0:
207,177,91508,1,0,0:0:0:0:
226,174,91599,2,0,L|288:169,1,56.6666677474976,2|0,0:0|0:0,0:0:0:0:
368,36,91780,1,0,0:0:0:0:
387,39,91871,2,0,L|449:44,1,56.6666677474976,2|0,0:0|0:0,0:0:0:0:
354,194,92053,1,0,0:0:0:0:
354,194,92144,6,0,B|360:164|360:164|348:127,1,50.0000019073487,12|0,0:1|0:0,0:0:0:0:
395,273,92326,1,0,0:0:0:0:
395,273,92417,2,0,B|420:256|420:256|438:221,1,50.0000019073487
368,357,92599,1,0,0:0:0:0:
368,357,92690,2,0,B|398:363|398:363|435:351,1,50.0000019073487,2|0,0:0|0:0,0:0:0:0:
170,279,92871,1,0,0:0:0:0:
170,279,92962,5,4,0:0:0:0:
151,285,93053,1,0,0:0:0:0:
132,291,93144,1,0,0:0:0:0:
113,297,93235,1,0,0:0:0:0:
94,303,93326,1,0,0:0:0:0:
75,309,93417,1,0,0:0:0:0:
56,316,93508,5,2,0:0:0:0:
108,354,93599,1,0,0:0:0:0:
173,352,93690,1,0,0:0:0:0:
224,296,93780,1,10,2:2:0:0:
256,238,93870,1,0,0:0:0:0:
311,203,93961,1,0,0:0:0:0:
377,198,94052,1,2,0:0:0:0:
437,226,94143,1,0,0:0:0:0:
476,279,94234,1,0,0:0:0:0:
486,345,94326,2,0,L|368:324,2,66.6666666666667,2|0|0,0:0|0:0|0:0,0:0:0:0:
173,352,94599,5,2,0:0:0:0:
235,315,94689,1,0,0:0:0:0:
251,245,94780,1,0,0:0:0:0:
212,187,94871,1,2,0:0:0:0:
187,119,94961,1,0,0:0:0:0:
210,51,95052,1,0,0:0:0:0:
269,10,95143,1,2,0:0:0:0:
341,16,95234,1,0,0:0:0:0:
394,65,95325,1,0,0:0:0:0:
405,136,95417,6,0,L|388:203,1,66.6666666666667,10|0,2:2|0:0,0:0:0:0:
204,26,95599,1,0,0:0:0:0:
210,51,95690,2,0,L|227:118,1,66.6666666666667,2|0,0:0|0:0,0:0:0:0:
481,4,95871,1,0,0:0:0:0:
476,25,95962,2,0,L|459:92,2,66.6666666666667,2|0|0,0:0|0:0|0:0,0:0:0:0:
454,269,96235,5,2,0:0:0:0:
440,240,96325,1,0,0:0:0:0:
417,216,96416,1,0,0:0:0:0:
388,200,96507,1,0,0:0:0:0:
355,196,96598,1,0,0:0:0:0:
335,198,96689,1,0,0:0:0:0:
316,204,96780,1,2,0:0:0:0:
272,220,96871,1,0,0:0:0:0:
226,209,96962,1,0,0:0:0:0:
188,155,97053,6,0,P|178:117|205:68,1,66.6666666666667,10|0,2:2|0:0,0:0:0:0:
350,275,97235,1,0,0:0:0:0:
337,304,97326,2,0,P|309:331|253:332,1,66.6666666666667,2|0,0:0|0:0,0:0:0:0:
361,105,97508,1,0,0:0:0:0:
392,101,97599,2,0,P|429:111|458:159,1,66.6666666666667,2|0,0:0|0:0,0:0:0:0:
272,266,97780,1,0,0:0:0:0:
253,262,97871,6,0,L|183:248,1,59.9999981689454,2|0,0:0|0:0,0:0:0:0:
49,160,98053,1,0,0:0:0:0:
63,158,98144,2,0,L|133:144,1,59.9999981689454,2|0,0:0|0:0,0:0:0:0:
287,58,98326,1,0,0:0:0:0:
273,56,98417,2,0,L|203:42,1,59.9999981689454,2|0,0:0|0:0,0:0:0:0:
378,100,98599,1,0,0:0:0:0:
378,100,98690,6,0,B|387:68|387:68|381:31,1,59.9999981689454,10|0,2:2|0:0,0:0:0:0:
297,158,98871,1,0,0:0:0:0:
297,158,98962,2,0,B|288:190|288:190|294:227,1,53.3333333333333,2|0,0:0|0:0,0:0:0:0:
372,267,99144,1,0,0:0:0:0:
372,267,99235,2,0,B|381:299|381:299|375:336,1,53.3333333333333,2|0,0:0|0:0,0:0:0:0:
75,274,99417,1,0,0:0:0:0:
75,274,99508,5,4,0:1:0:0:
147,282,99599,1,0,0:0:0:0:
219,290,99690,1,0,0:0:0:0:
291,298,99780,1,0,0:0:0:0:
233,341,99870,1,0,0:0:0:0:
161,346,99961,1,0,0:0:0:0:
98,312,100052,1,0,0:0:0:0:
63,248,100143,1,0,0:0:0:0:
69,176,100234,1,0,0:0:0:0:
113,118,100326,6,0,P|161:101|209:112,1,66.6666666666667,10|0,2:2|0:0,0:0:0:0:
98,312,100508,1,0,0:0:0:0:
67,341,100599,2,0,P|19:358|-29:347,1,66.6666666666667,2|0,0:0|0:0,0:0:0:0:
249,160,100780,1,0,0:0:0:0:
249,160,100871,5,2,0:0:0:0:
270,91,100961,1,0,0:0:0:0:
239,27,101052,1,0,0:0:0:0:
172,2,101144,6,0,P|137:7|96:38,1,59.9999981689454,2|0,0:0|0:0,0:0:0:0:
205,235,101326,1,0,0:0:0:0:
246,246,101417,2,0,P|281:241|322:210,1,59.9999981689454,2|0,0:0|0:0,0:0:0:0:
61,65,101599,1,0,0:0:0:0:
30,94,101690,2,0,P|16:126|23:177,2,59.9999981689454,2|0|0,0:0|0:0|0:0,0:0:0:0:
208,148,101962,5,10,2:2:0:0:
168,157,102053,1,0,0:0:0:0:
136,183,102144,1,0,0:0:0:0:
120,222,102235,1,2,0:0:0:0:
124,263,102326,1,0,0:0:0:0:
146,298,102417,1,0,0:0:0:0:
183,318,102508,1,2,0:0:0:0:
254,312,102599,1,0,0:0:0:0:
325,306,102690,1,0,0:0:0:0:
396,301,102780,5,2,0:0:0:0:
365,250,102870,1,0,0:0:0:0:
312,223,102961,1,0,0:0:0:0:
253,228,103052,1,0,0:0:0:0:
205,263,103143,1,0,0:0:0:0:
183,318,103234,1,0,0:0:0:0:
135,353,103326,1,2,0:0:0:0:
76,358,103417,1,0,0:0:0:0:
23,331,103508,1,0,0:0:0:0:
0,259,103599,6,0,L|36:193,1,53.3333333333333,10|0,2:2|0:0,0:0:0:0:
88,55,103780,1,0,0:0:0:0:
106,84,103871,2,0,L|144:148,1,53.3333333333333,2|0,0:0|0:0,0:0:0:0:
240,262,104053,1,0,0:0:0:0:
205,263,104144,2,0,L|130:264,1,53.3333333333333,2|0,0:0|0:0,0:0:0:0:
361,130,104326,1,0,0:0:0:0:
367,144,104417,6,0,P|370:162|368:184,5,40,2|8|8|8|8|8,0:0|0:1|0:1|0:1|0:1|0:1,0:0:0:0:
454,294,104826,5,2,0:0:0:0:
422,273,104894,1,8,0:1:0:0:
386,266,104962,1,8,0:1:0:0:
349,275,105030,1,8,0:1:0:0:
319,297,105099,1,8,0:1:0:0:
282,306,105167,1,8,0:1:0:0:
240,262,105235,5,2,0:1:0:0:
245,280,105303,1,0,0:0:0:0:
246,299,105371,1,0,0:0:0:0:
241,317,105439,1,0,0:0:0:0:
237,330,105508,2,0,P|228:298|235:275,1,50
14,236,105644,5,2,0:0:0:0:
10,222,105712,1,0,0:0:0:0:
9,208,105780,1,0,0:0:0:0:
13,194,105848,1,0,0:0:0:0:
20,183,105917,2,0,P|26:206|21:224,1,37.5000014305115
160,38,106053,5,4,0:1:0:0:
176,58,106121,1,0,0:0:0:0:
186,83,106189,1,0,0:0:0:0:
185,111,106257,1,0,0:0:0:0:
176,136,106325,1,0,0:0:0:0:
158,157,106393,1,0,0:0:0:0:
105,211,106462,5,8,0:0:0:0:
146,175,106530,1,0,0:0:0:0:
198,162,106598,1,2,0:2:0:0:
251,174,106666,1,0,0:0:0:0:
293,210,106734,1,2,0:2:0:0:
330,248,106803,1,0,0:0:0:0:
384,251,106871,1,2,0:2:0:0:
426,218,106939,1,0,0:0:0:0:
436,165,107007,1,2,0:2:0:0:
408,119,107075,1,0,0:0:0:0:
356,104,107144,1,2,0:2:0:0:
308,126,107212,1,0,0:0:0:0:
251,174,107280,5,8,0:0:0:0:
286,133,107348,1,0,0:0:0:0:
292,79,107416,1,2,0:2:0:0:
267,31,107484,1,0,0:0:0:0:
219,6,107552,1,2,0:2:0:0:
165,13,107620,1,0,0:0:0:0:
125,50,107689,1,2,0:2:0:0:
113,103,107757,1,0,0:0:0:0:
134,154,107826,1,2,0:2:0:0:
159,201,107894,1,0,0:0:0:0:
155,255,107962,1,2,0:2:0:0:
121,298,108030,1,0,0:0:0:0:
62,341,108099,5,8,0:0:0:0:
110,315,108167,1,0,0:0:0:0:
164,312,108235,1,2,0:2:0:0:
215,331,108303,1,0,0:0:0:0:
261,358,108371,1,2,0:2:0:0:
314,368,108439,1,0,0:0:0:0:
366,352,108507,1,2,0:2:0:0:
405,314,108575,1,0,0:0:0:0:
421,262,108643,1,2,0:2:0:0:
411,208,108711,1,0,0:0:0:0:
377,166,108780,1,2,0:2:0:0:
327,144,108848,1,0,0:0:0:0:
254,158,108917,2,0,P|277:129|274:85,5,55.0000016784668,8|0|2|0|2|0,0:0|0:0|0:2|0:0|0:2|0:0,0:0:0:0:
13,92,109326,5,4,0:1:0:0:
16,117,109394,1,0,0:0:0:0:
31,140,109462,1,0,0:0:0:0:
53,157,109530,1,0,0:0:0:0:
78,164,109598,1,0,0:0:0:0:
105,160,109666,1,0,0:0:0:0:
156,123,109735,5,8,0:0:0:0:
128,158,109803,1,0,0:0:0:0:
118,201,109871,1,2,0:2:0:0:
128,244,109939,1,0,0:0:0:0:
156,279,110007,1,2,0:2:0:0:
196,299,110075,1,0,0:0:0:0:
241,298,110144,1,2,0:2:0:0:
281,278,110212,1,0,0:0:0:0:
308,243,110280,1,2,0:2:0:0:
347,222,110348,1,0,0:0:0:0:
392,223,110416,1,2,0:2:0:0:
430,245,110484,1,0,0:0:0:0:
477,286,110553,5,8,0:0:0:0:
445,255,110621,1,0,0:0:0:0:
433,212,110689,1,2,0:2:0:0:
444,169,110757,1,0,0:0:0:0:
477,138,110825,1,2,0:2:0:0:
501,100,110894,1,0,0:0:0:0:
501,56,110962,1,2,0:2:0:0:
478,19,111030,1,0,0:0:0:0:
438,0,111098,1,2,0:2:0:0:
394,6,111166,1,0,0:0:0:0:
360,35,111235,1,2,0:2:0:0:
348,78,111303,1,0,0:0:0:0:
374,135,111371,5,8,0:0:0:0:
340,106,111439,1,0,0:0:0:0:
296,97,111507,1,2,0:2:0:0:
254,111,111575,1,0,0:0:0:0:
224,145,111644,1,2,0:2:0:0:
194,178,111712,1,0,0:0:0:0:
153,195,111780,1,2,0:2:0:0:
109,192,111848,1,0,0:0:0:0:
70,170,111916,1,2,0:2:0:0:
44,133,111984,1,0,0:0:0:0:
37,89,112053,1,2,0:2:0:0:
50,46,112121,1,0,0:0:0:0:
102,12,112190,2,0,P|99:42|85:72,5,44.999998626709,8|0|2|0|2|0,0:0|0:0|0:2|0:0|0:2|0:0,0:0:0:0:
43,195,112599,5,4,0:0:0:0:
63,205,112667,1,0,0:0:0:0:
89,208,112735,1,0,0:0:0:0:
113,204,112803,1,0,0:0:0:0:
136,194,112871,1,0,0:0:0:0:
154,178,112939,1,0,0:0:0:0:
172,109,113008,5,10,0:0:0:0:
171,158,113076,1,0,0:0:0:0:
198,199,113144,1,0,0:0:0:0:
244,217,113212,1,0,0:0:0:0:
292,205,113280,1,0,0:0:0:0:
325,169,113348,1,0,0:0:0:0:
331,120,113417,1,2,0:0:0:0:
364,83,113485,1,0,0:0:0:0:
412,72,113553,1,0,0:0:0:0:
457,90,113621,1,0,0:0:0:0:
485,131,113689,1,2,0:0:0:0:
484,180,113757,1,0,0:0:0:0:
441,238,113826,5,10,0:0:0:0:
401,208,113894,1,0,0:0:0:0:
382,163,113962,1,0,0:0:0:0:
385,113,114030,1,0,0:0:0:0:
412,72,114099,2,0,P|444:48|469:44,1,50
512,282,114235,5,2,0:0:0:0:
470,316,114303,1,0,0:0:0:0:
416,319,114371,1,0,0:0:0:0:
373,287,114439,1,0,0:0:0:0:
333,250,114508,1,0,0:0:0:0:
280,236,114576,1,0,0:0:0:0:
214,268,114644,5,10,0:0:0:0:
252,229,114712,1,0,0:0:0:0:
259,176,114780,1,0,0:0:0:0:
233,128,114848,1,0,0:0:0:0:
184,106,114916,1,0,0:0:0:0:
131,118,114984,1,0,0:0:0:0:
96,160,115053,5,8,0:0:0:0:
157,192,115121,1,8,0:0:0:0:
225,174,115189,1,8,0:0:0:0:
262,115,115257,1,8,0:0:0:0:
250,46,115326,6,0,P|243:80|254:109,1,55.0000016784668,8|0,0:0|0:0,0:0:0:0:
507,61,115462,2,0,P|514:27|503:-2,1,55.0000016784668,8|0,0:0|0:0,0:0:0:0:
235,46,115599,6,0,P|228:80|239:109,1,55.0000016784668,8|0,0:0|0:0,0:0:0:0:
492,61,115735,2,0,P|499:27|488:-2,1,55.0000016784668,8|0,0:0|0:0,0:0:0:0:
412,251,115871,5,2,0:2:0:0:
392,282,115939,1,8,0:1:0:0:
362,304,116007,1,2,0:2:0:0:
326,313,116075,1,8,0:1:0:0:
289,308,116143,1,2,0:2:0:0:
257,289,116211,1,8,0:1:0:0:
235,259,116280,6,0,P|226:234|228:211,1,37.5000014305115,2|8,0:2|0:1,0:0:0:0:
157,192,116417,2,0,P|168:167|185:152,1,37.5000014305115,2|8,0:2|0:1,0:0:0:0:
149,89,116553,2,0,P|174:79|197:80,1,37.5000014305115,2|8,0:2|0:1,0:0:0:0:
326,313,116690,5,2,0:2:0:0:
357,342,116758,1,8,0:1:0:0:
397,356,116826,1,2,0:2:0:0:
439,353,116894,1,8,0:1:0:0:
477,334,116962,1,2,0:2:0:0:
504,302,117030,1,8,0:1:0:0:
512,259,117099,6,0,L|516:311,1,42.5000008106232,2|8,0:2|0:1,0:0:0:0:
439,154,117235,2,0,L|435:206,1,42.5000008106232,2|8,0:2|0:1,0:0:0:0:
509,39,117371,2,0,L|513:91,1,42.5000008106232,2|8,0:2|0:1,0:0:0:0:
319,223,117508,5,2,0:2:0:0:
297,243,117576,1,8,0:1:0:0:
270,256,117644,1,2,0:2:0:0:
240,260,117712,1,8,0:1:0:0:
211,254,117780,1,2,0:2:0:0:
184,238,117848,1,8,0:1:0:0:
165,217,117917,6,0,L|213:222,1,29.9999990844727,2|8,0:2|0:1,0:0:0:0:
100,164,118053,2,0,L|52:169,1,29.9999990844727,2|8,0:2|0:1,0:0:0:0:
165,111,118190,2,0,L|213:116,1,29.9999990844727,2|8,0:2|0:1,0:0:0:0:
72,257,118326,5,2,0:2:0:0:
39,238,118394,1,8,0:1:0:0:
16,209,118462,1,2,0:2:0:0:
5,173,118530,1,8,0:1:0:0:
9,136,118598,1,2,0:2:0:0:
27,103,118666,1,8,0:1:0:0:
55,79,118735,6,0,P|62:109|53:142,3,37.5000014305115,2|8|2|8,0:2|0:1|0:2|0:1,0:0:0:0:
131,145,119008,2,0,P|114:171|85:188,1,37.5000014305115,2|8,0:2|0:1,0:0:0:0:
147,322,119144,5,4,0:2:0:0:
171,326,119212,1,0,0:0:0:0:
195,330,119280,1,0,0:0:0:0:
219,334,119349,1,0,0:0:0:0:
243,338,119417,1,0,0:0:0:0:
267,342,119485,1,0,0:0:0:0:
324,384,119553,5,8,0:0:0:0:
302,339,119621,1,0,0:0:0:0:
302,289,119689,1,2,0:2:0:0:
324,245,119757,1,0,0:0:0:0:
363,214,119825,1,2,0:2:0:0:
395,177,119894,1,0,0:0:0:0:
400,128,119962,1,2,0:2:0:0:
375,85,120030,1,0,0:0:0:0:
330,65,120098,1,2,0:2:0:0:
282,76,120166,1,0,0:0:0:0:
249,112,120235,1,2,0:2:0:0:
244,161,120303,1,0,0:0:0:0:
285,219,120371,5,8,0:0:0:0:
250,183,120439,1,0,0:0:0:0:
203,168,120507,1,2,0:2:0:0:
155,179,120575,1,0,0:0:0:0:
118,212,120644,2,0,P|104:239|104:279,1,50,2|0,0:2|0:0,0:0:0:0:
389,309,120780,5,2,0:2:0:0:
439,289,120848,1,0,0:0:0:0:
470,245,120916,1,2,0:2:0:0:
471,191,120984,1,0,0:0:0:0:
441,146,121052,1,2,0:2:0:0:
391,125,121120,1,0,0:0:0:0:
321,147,121190,5,8,0:0:0:0:
364,115,121258,1,0,0:0:0:0:
376,62,121326,1,2,0:2:0:0:
350,15,121394,1,0,0:0:0:0:
299,0,121462,1,2,0:2:0:0:
249,17,121530,1,0,0:0:0:0:
226,60,121599,1,2,0:2:0:0:
213,107,121667,1,0,0:0:0:0:
177,141,121735,1,2,0:2:0:0:
129,152,121803,1,0,0:0:0:0:
82,137,121871,1,2,0:2:0:0:
50,99,121939,1,0,0:0:0:0:
35,32,122008,2,0,P|51:68|40:99,5,50,8|0|2|0|2|0,0:0|0:0|0:2|0:0|0:2|0:0,0:0:0:0:
29,342,122417,5,4,0:1:0:0:
50,329,122486,1,0,0:0:0:0:
65,309,122554,1,0,0:0:0:0:
73,286,122622,1,0,0:0:0:0:
73,261,122690,1,0,0:0:0:0:
64,238,122758,1,0,0:0:0:0:
22,191,122826,5,8,0:0:0:0:
59,214,122894,1,0,0:0:0:0:
104,215,122962,1,2,0:2:0:0:
142,192,123030,1,0,0:0:0:0:
162,153,123098,1,2,0:2:0:0:
160,109,123166,1,0,0:0:0:0:
166,65,123235,1,2,0:2:0:0:
193,30,123303,1,0,0:0:0:0:
235,14,123371,1,2,0:2:0:0:
279,22,123439,1,0,0:0:0:0:
312,51,123507,1,2,0:2:0:0:
326,94,123576,1,0,0:0:0:0:
303,153,123644,5,8,0:0:0:0:
339,127,123712,1,0,0:0:0:0:
383,124,123780,1,2,0:2:0:0:
423,143,123848,1,0,0:0:0:0:
447,181,123916,1,2,0:2:0:0:
449,225,123984,1,0,0:0:0:0:
427,264,124053,1,2,0:2:0:0:
389,287,124121,1,0,0:0:0:0:
345,286,124189,1,2,0:2:0:0:
307,264,124257,1,0,0:0:0:0:
262,262,124326,1,2,0:2:0:0:
224,285,124394,1,0,0:0:0:0:
200,343,124462,5,8,0:0:0:0:
244,339,124530,1,0,0:0:0:0:
270,304,124598,1,2,0:2:0:0:
262,262,124666,1,0,0:0:0:0:
245,220,124735,1,2,0:2:0:0:
247,175,124803,1,0,0:0:0:0:
268,136,124871,1,2,0:2:0:0:
303,108,124939,1,0,0:0:0:0:
347,98,125007,1,2,0:2:0:0:
390,107,125076,1,0,0:0:0:0:
426,133,125144,1,2,0:2:0:0:
448,172,125212,1,0,0:0:0:0:
447,236,125280,2,0,P|431:194|437:167,5,44.999998626709,8|0|2|0|2|0,0:0|0:0|0:2|0:0|0:2|0:0,0:0:0:0:
227,154,125690,5,4,0:0:0:0:
237,131,125758,1,0,0:0:0:0:
241,106,125826,1,0,0:0:0:0:
236,82,125894,1,0,0:0:0:0:
224,60,125962,1,0,0:0:0:0:
205,44,126030,1,0,0:0:0:0:
143,8,126099,5,10,0:0:0:0:
160,55,126167,1,0,0:0:0:0:
194,90,126235,1,0,0:0:0:0:
241,107,126303,1,0,0:0:0:0:
290,101,126371,1,0,0:0:0:0:
332,74,126439,1,0,0:0:0:0:
381,72,126508,1,2,0:0:0:0:
424,96,126576,1,0,0:0:0:0:
449,138,126644,1,0,0:0:0:0:
448,188,126712,1,0,0:0:0:0:
422,230,126780,1,2,0:0:0:0:
378,252,126849,1,0,0:0:0:0:
310,232,126917,5,10,0:0:0:0:
346,268,126985,1,0,0:0:0:0:
342,314,127053,1,0,0:0:0:0:
305,348,127121,1,0,0:0:0:0:
256,343,127190,2,0,P|239:332|221:290,1,50
249,24,127326,5,2,0:0:0:0:
254,77,127394,1,0,0:0:0:0:
230,126,127462,1,0,0:0:0:0:
183,154,127530,1,0,0:0:0:0:
129,152,127598,1,0,0:0:0:0:
85,121,127666,1,0,0:0:0:0:
52,51,127735,5,10,0:0:0:0:
65,103,127803,1,0,0:0:0:0:
58,157,127871,1,0,0:0:0:0:
29,204,127939,1,0,0:0:0:0:
22,258,128008,1,0,0:0:0:0:
37,310,128076,1,0,0:0:0:0:
72,351,128144,5,8,0:0:0:0:
126,307,128212,1,8,0:0:0:0:
149,240,128280,1,8,0:0:0:0:
134,171,128348,1,8,0:0:0:0:
85,121,128417,6,0,P|78:155|89:184,1,55.0000016784668,8|0,0:0|0:0,0:0:0:0:
335,72,128553,2,0,P|342:38|331:9,1,55.0000016784668,8|0,0:0|0:0,0:0:0:0:
72,122,128690,6,0,P|65:156|76:185,1,55.0000016784668,8|0,0:0|0:0,0:0:0:0:
322,73,128826,2,0,P|329:39|318:10,1,55.0000016784668,8|0,0:0|0:0,0:0:0:0:
149,240,128962,5,2,0:2:0:0:
182,224,129030,1,8,0:1:0:0:
219,221,129098,1,0,0:0:0:0:
255,233,129166,1,8,0:1:0:0:
290,244,129235,1,0,0:0:0:0:
327,242,129303,1,8,0:1:0:0:
361,226,129371,6,0,P|391:208|400:194,1,37.5000014305115,2|8,0:2|0:1,0:0:0:0:
423,141,129508,2,0,P|431:107|427:90,1,37.5000014305115,0|8,0:0|0:1,0:0:0:0:
406,37,129644,2,0,P|388:6|373:-2,1,37.5000014305115,0|8,0:0|0:1,0:0:0:0:
210,294,129780,5,2,0:2:0:0:
174,316,129848,1,8,0:1:0:0:
132,317,129916,1,0,0:0:0:0:
95,298,129984,1,8,0:1:0:0:
72,263,130052,1,0,0:0:0:0:
70,221,130120,1,8,0:1:0:0:
89,183,130190,6,0,L|96:259,1,42.5000008106232,2|8,0:2|0:1,0:0:0:0:
198,89,130326,2,0,L|191:164,1,42.5000008106232,0|8,0:0|0:1,0:0:0:0:
63,42,130462,2,0,L|59:0,1,42.5000008106232,0|8,0:0|0:1,0:0:0:0:
183,206,130599,5,2,0:2:0:0:
212,205,130667,1,8,0:1:0:0:
240,194,130735,1,0,0:0:0:0:
261,172,130803,1,8,0:1:0:0:
281,150,130871,1,0,0:0:0:0:
309,139,130939,1,8,0:1:0:0:
339,138,131008,6,0,L|395:143,1,29.9999990844727,2|8,0:2|0:1,0:0:0:0:
455,193,131144,2,0,L|426:196,1,29.9999990844727,0|8,0:0|0:1,0:0:0:0:
362,263,131280,2,0,L|418:268,1,29.9999990844727,0|8,0:0|0:1,0:0:0:0:
282,42,131417,5,2,0:2:0:0:
252,65,131485,1,8,0:1:0:0:
232,96,131553,1,0,0:0:0:0:
224,133,131621,1,8,0:1:0:0:
229,170,131689,1,0,0:0:0:0:
248,202,131757,1,8,0:1:0:0:
276,226,131826,6,0,P|283:192|279:170,3,37.5000014305115,2|8|0|8,0:2|0:1|0:0|0:1,0:0:0:0:
353,156,132099,2,0,P|333:127|315:114,1,37.5000014305115,2|8,0:2|0:1,0:0:0:0:
99,26,132235,5,4,0:2:0:0:
114,57,132303,1,0,0:0:0:0:
139,81,132371,1,0,0:0:0:0:
170,95,132439,1,0,0:0:0:0:
205,97,132507,1,0,0:0:0:0:
238,88,132575,1,0,0:0:0:0:
282,42,132644,5,8,0:0:0:0:
247,41,132712,1,0,0:0:0:0:
215,54,132780,1,2,0:2:0:0:
191,79,132848,1,0,0:0:0:0:
179,112,132916,1,2,0:2:0:0:
181,146,132984,1,0,0:0:0:0:
197,177,133053,1,2,0:2:0:0:
228,203,133121,1,0,0:0:0:0:
266,213,133189,1,2,0:2:0:0:
305,205,133257,1,0,0:0:0:0:
336,181,133325,1,2,0:2:0:0:
375,173,133394,1,0,0:0:0:0:
434,199,133462,5,8,0:0:0:0:
401,175,133530,1,0,0:0:0:0:
383,140,133598,1,2,0:2:0:0:
381,101,133666,1,0,0:0:0:0:
390,62,133735,1,2,0:2:0:0:
377,25,133803,1,0,0:0:0:0:
346,1,133871,1,2,0:2:0:0:
302,0,133939,1,0,0:0:0:0:
263,19,134007,1,2,0:2:0:0:
242,58,134075,1,0,0:0:0:0:
203,79,134144,1,2,0:2:0:0:
159,76,134212,1,0,0:0:0:0:
109,30,134280,5,8,0:0:0:0:
140,68,134348,1,0,0:0:0:0:
145,117,134416,1,2,0:2:0:0:
122,161,134484,1,0,0:0:0:0:
80,185,134553,2,0,P|75:155|92:107,1,44.999998626709,2|0,0:2|0:0,0:0:0:0:
317,69,134690,5,2,0:2:0:0:
295,113,134758,1,0,0:0:0:0:
256,143,134826,1,2,0:2:0:0:
207,151,134894,1,0,0:0:0:0:
160,136,134962,1,2,0:2:0:0:
125,101,135030,1,0,0:0:0:0:
109,30,135099,5,8,0:0:0:0:
112,79,135167,1,0,0:0:0:0:
88,122,135235,1,2,0:2:0:0:
44,145,135303,1,0,0:0:0:0:
13,183,135371,2,0,P|2:205|5:251,1,50,2|0,0:2|0:0,0:0:0:0:
140,381,135508,5,4,0:0:0:0:
151,361,135576,1,0,0:0:0:0:
158,340,135644,1,0,0:0:0:0:
160,317,135712,1,0,0:0:0:0:
157,295,135780,1,0,0:0:0:0:
150,274,135848,1,0,0:0:0:0:
120,213,135917,5,8,0:0:0:0:
158,244,135985,1,0,0:0:0:0:
207,253,136053,1,2,0:2:0:0:
254,237,136121,1,0,0:0:0:0:
288,202,136189,1,2,0:2:0:0:
329,174,136258,1,0,0:0:0:0:
378,175,136326,1,2,0:2:0:0:
418,204,136394,1,0,0:0:0:0:
433,251,136462,1,2,0:2:0:0:
420,298,136530,1,0,0:0:0:0:
381,328,136599,1,2,0:2:0:0:
332,331,136667,1,0,0:0:0:0:
277,292,136735,5,8,0:0:0:0:
311,263,136803,1,0,0:0:0:0:
355,254,136871,1,2,0:2:0:0:
398,264,136939,1,0,0:0:0:0:
443,263,137008,1,2,0:2:0:0:
482,241,137076,1,0,0:0:0:0:
507,204,137144,1,2,0:2:0:0:
512,160,137212,1,0,0:0:0:0:
498,118,137280,1,2,0:2:0:0:
465,87,137349,1,0,0:0:0:0:
423,74,137417,1,2,0:2:0:0:
379,82,137485,1,0,0:0:0:0:
329,127,137553,5,8,0:0:0:0:
352,89,137621,1,0,0:0:0:0:
349,45,137689,1,2,0:2:0:0:
321,11,137757,1,0,0:0:0:0:
278,0,137826,2,0,P|268:29|276:78,1,44.999998626709,2|0,0:2|0:0,0:0:0:0:
355,254,137962,5,2,0:2:0:0:
329,217,138030,1,0,0:0:0:0:
290,196,138098,1,2,0:2:0:0:
245,195,138166,1,0,0:0:0:0:
205,214,138234,1,2,0:2:0:0:
178,250,138302,1,0,0:0:0:0:
176,319,138371,6,0,P|186:278|180:252,1,44.999998626709,8|0,0:0|0:0,0:0:0:0:
103,81,138508,2,0,P|93:122|99:148,3,44.999998626709,2|0|2|0,0:2|0:0|0:2|0:0,0:0:0:0:
267,283,138780,5,4,0:0:0:0:
298,327,138848,1,0,0:0:0:0:
349,345,138916,1,0,0:0:0:0:
401,332,138984,1,0,0:0:0:0:
437,292,139052,1,0,0:0:0:0:
445,238,139120,1,0,0:0:0:0:
408,174,139190,2,0,P|403:223|414:254,3,55.0000016784668,10|0|0|0,0:0|0:0|0:0|0:0,0:0:0:0:
493,51,139462,5,0,0:0:0:0:
448,28,139530,1,0,0:0:0:0:
399,25,139598,1,2,0:0:0:0:
352,43,139666,1,0,0:0:0:0:
316,77,139734,1,0,0:0:0:0:
269,94,139803,1,0,0:0:0:0:
219,91,139871,1,2,0:0:0:0:
175,69,139939,1,0,0:0:0:0:
132,8,140008,5,10,0:0:0:0:
153,52,140076,1,0,0:0:0:0:
155,102,140144,1,0,0:0:0:0:
139,149,140212,1,0,0:0:0:0:
107,186,140280,1,0,0:0:0:0:
91,233,140348,1,0,0:0:0:0:
103,281,140416,1,2,0:0:0:0:
138,316,140484,1,0,0:0:0:0:
186,327,140552,1,0,0:0:0:0:
232,311,140620,1,0,0:0:0:0:
263,273,140689,1,0,0:0:0:0:
270,224,140757,1,0,0:0:0:0:
236,159,140826,5,10,0:0:0:0:
271,192,140894,1,0,0:0:0:0:
320,199,140962,1,0,0:0:0:0:
363,176,141030,1,0,0:0:0:0:
406,152,141099,1,0,0:0:0:0:
455,159,141167,1,0,0:0:0:0:
491,197,141235,5,8,0:0:0:0:
422,217,141303,1,8,0:0:0:0:
363,176,141371,1,8,0:0:0:0:
358,104,141439,1,8,0:0:0:0:
411,56,141508,6,0,P|415:92|404:132,1,55.0000016784668,8|0,0:0|0:0,0:0:0:0:
271,278,141644,2,0,P|267:242|278:202,1,55.0000016784668,8|0,0:0|0:0,0:0:0:0:
421,55,141780,6,0,P|425:91|414:131,1,55.0000016784668,8|0,0:0|0:0,0:0:0:0:
281,277,141916,2,0,P|277:241|288:201,1,55.0000016784668,8|0,0:0|0:0,0:0:0:0:
115,159,142053,5,2,0:2:0:0:
153,174,142121,1,8,0:1:0:0:
194,164,142189,1,2,0:2:0:0:
222,133,142257,1,8,0:1:0:0:
226,91,142325,1,2,0:2:0:0:
206,55,142393,1,8,0:1:0:0:
167,34,142462,1,2,0:2:0:0:
189,70,142530,1,8,0:1:0:0:
226,91,142598,1,0,0:2:0:0:
268,91,142666,1,8,0:1:0:0:
304,70,142735,2,0,P|325:44|330:21,1,42.5000008106232,2|8,0:2|0:1,0:0:0:0:
95,81,142871,5,2,0:2:0:0:
53,107,142939,1,8,0:1:0:0:
35,153,143007,1,2,0:2:0:0:
47,201,143075,1,8,0:1:0:0:
83,233,143143,1,2,0:2:0:0:
132,238,143211,1,8,0:1:0:0:
175,214,143280,1,2,0:2:0:0:
215,186,143348,1,8,0:1:0:0:
265,185,143416,1,2,0:2:0:0:
306,211,143484,1,8,0:1:0:0:
325,257,143552,1,2,0:2:0:0:
316,305,143620,1,8,0:1:0:0:
281,340,143689,1,2,0:2:0:0:
232,349,143757,1,8,0:1:0:0:
187,329,143826,2,0,P|170:298|171:269,1,50,2|8,0:2|0:1,0:0:0:0:
297,97,143962,5,0,0:0:0:0:
325,120,144030,1,8,0:1:0:0:
345,152,144098,1,2,0:2:0:0:
351,187,144166,1,8,0:1:0:0:
345,224,144234,1,2,0:2:0:0:
325,257,144302,1,8,0:1:0:0:
296,278,144371,2,0,P|267:285|238:276,1,55.0000016784668,2|8,0:2|0:1,0:0:0:0:
211,98,144508,5,2,0:2:0:0:
229,79,144576,1,8,0:1:0:0:
252,74,144644,1,2,0:2:0:0:
277,78,144712,1,8,0:1:0:0:
297,97,144780,2,0,P|255:117|225:113,1,50,0|8,0:0|0:1,0:0:0:0:
145,207,144917,5,2,0:2:0:0:
136,213,144985,1,8,0:1:0:0:
123,213,145053,1,0,0:0:0:0:
110,207,145121,1,8,0:1:0:0:
103,196,145190,2,0,P|132:190|150:198,1,50,0|8,0:0|0:1,0:0:0:0:
197,56,145326,5,4,0:2:0:0:
199,63,145394,1,0,0:0:0:0:
201,70,145462,1,0,0:0:0:0:
204,77,145530,1,0,0:0:0:0:
206,84,145598,1,0,0:0:0:0:
209,91,145666,1,0,0:0:0:0:
211,98,145735,6,0,L|194:145,1,40,10|0,0:0|0:0,0:0:0:0:
173,202,145871,2,0,L|156:249,1,40,8|0,0:0|0:0,0:0:0:0:
135,306,146008,2,0,L|118:353,1,40,8|0,0:0|0:0,0:0:0:0:
378,298,146144,6,0,L|397:243,1,55.0000016784668,10|0,0:0|0:0,0:0:0:0:
118,306,146280,2,0,L|98:360,1,55.0000016784668,8|0,0:0|0:0,0:0:0:0:
344,198,146417,1,8,0:0:0:0:
326,147,146485,1,8,0:0:0:0:
306,94,146553,6,0,L|286:39,1,55.0000016784668,10|0,0:0|0:0,0:0:0:0:
173,202,146690,2,0,L|154:253,1,55.0000016784668,8|0,0:0|0:0,0:0:0:0:
40,94,146826,2,0,L|59:39,1,55.0000016784668,8|0,0:0|0:0,0:0:0:0:
275,278,146962,5,12,0:2:0:0:
340,303,147030,1,8,0:0:0:0:
407,281,147098,1,8,0:0:0:0:
446,223,147166,1,8,0:0:0:0:
439,153,147235,6,0,P|424:118|397:97,1,55.0000016784668,8|0,0:0|0:0,0:0:0:0:
228,246,147371,2,0,P|263:230|284:203,1,55.0000016784668,12|0,0:2|0:0,0:0:0:0:
414,30,147508,6,0,P|377:16|343:20,1,55.0000016784668,8|0,0:0|0:0,0:0:0:0:
351,220,147644,2,0,P|364:183|360:149,1,55.0000016784668,8|0,0:0|0:0,0:0:0:0:
40,94,147780,5,10,0:0:0:0:
72,137,147848,1,0,0:0:0:0:
122,159,147916,1,8,0:0:0:0:
176,156,147984,1,0,0:0:0:0:
222,127,148052,1,8,0:0:0:0:
249,79,148120,1,0,0:0:0:0:
250,25,148190,5,10,0:0:0:0:
223,25,148258,1,0,0:0:0:0:
200,39,148326,1,8,0:0:0:0:
186,62,148394,1,0,0:0:0:0:
186,90,148462,1,8,0:0:0:0:
200,113,148530,1,0,0:0:0:0:
222,127,148599,5,8,0:0:0:0:
269,180,148667,1,8,0:0:0:0:
280,249,148735,1,8,0:0:0:0:
253,314,148803,1,8,0:0:0:0:
196,355,148871,6,0,L|207:260,1,55.0000016784668,8|0,0:0|0:0,0:0:0:0:
224,147,149008,2,0,L|301:204,1,55.0000016784668,8|0,0:0|0:0,0:0:0:0:
390,275,149144,2,0,L|302:313,1,55.0000016784668,8|0,0:0|0:0,0:0:0:0:
187,356,149280,2,0,L|198:261,1,55.0000016784668,8|0,0:0|0:0,0:0:0:0:
453,242,149417,6,0,P|460:273|450:315,1,59.9999981689454,10|0,0:0|0:0,0:0:0:0:
161,178,149553,2,0,P|154:147|164:105,1,59.9999981689454,8|0,0:0|0:0,0:0:0:0:
466,242,149690,2,0,P|473:273|463:315,1,59.9999981689454,8|0,0:0|0:0,0:0:0:0:
213,74,149826,6,0,B|236:52|236:52|277:40,1,59.9999981689454,10|0,0:0|0:0,0:0:0:0:
401,348,149962,2,0,B|377:369|377:369|336:381,1,59.9999981689454,8|0,0:0|0:0,0:0:0:0:
204,64,150099,2,0,B|227:42|227:42|268:30,1,59.9999981689454,8|0,0:0|0:0,0:0:0:0:
253,314,150235,5,8,0:0:0:0:
189,346,150303,1,8,0:0:0:0:
121,327,150371,1,8,0:0:0:0:
84,268,150439,1,8,0:0:0:0:
97,199,150508,6,0,L|109:140,1,55.0000016784668,8|0,0:0|0:0,0:0:0:0:
263,260,150644,2,0,L|251:319,1,55.0000016784668,8|0,0:0|0:0,0:0:0:0:
14,169,150780,6,0,L|26:110,1,55.0000016784668,8|0,0:0|0:0,0:0:0:0:
180,230,150916,2,0,L|168:289,1,55.0000016784668,8|0,0:0|0:0,0:0:0:0:
105,37,151053,5,10,0:0:0:0:
144,18,151121,1,0,0:0:0:0:
188,20,151189,1,8,0:0:0:0:
226,41,151257,1,0,0:0:0:0:
250,77,151325,1,8,0:0:0:0:
288,98,151394,1,0,0:0:0:0:
332,100,151462,5,10,0:0:0:0:
285,74,151530,1,0,0:0:0:0:
232,84,151598,1,8,0:0:0:0:
197,125,151666,1,0,0:0:0:0:
197,179,151734,1,8,0:0:0:0:
232,220,151802,1,0,0:0:0:0:
285,231,151871,5,8,0:0:0:0:
227,191,151939,1,8,0:0:0:0:
158,199,152007,1,8,0:0:0:0:
111,251,152075,1,8,0:0:0:0:
112,321,152144,6,0,P|139:284|150:249,1,64.9999970245363,8|0,0:0|0:0,0:0:0:0:
355,173,152280,2,0,P|309:168|273:176,1,64.9999970245363,8|0,0:0|0:0,0:0:0:0:
105,37,152417,2,0,P|124:78|149:105,1,64.9999970245363,8|0,0:0|0:0,0:0:0:0:
121,327,152553,2,0,P|147:289|158:254,1,64.9999970245363,8|0,0:0|0:0,0:0:0:0:
290,170,152690,6,0,L|210:145,1,50,10|0,0:0|0:0,0:0:0:0:
136,93,152826,2,0,L|154:174,1,50,8|0,0:0|0:0,0:0:0:0:
153,271,152962,2,0,L|214:214,1,50,8|0,0:0|0:0,0:0:0:0:
267,22,153099,6,0,B|242:47|242:47|229:96,1,64.9999970245363,10|0,0:0|0:0,0:0:0:0:
9,191,153235,2,0,B|42:199|42:199|91:187,1,64.9999970245363,8|0,0:0|0:0,0:0:0:0:
301,321,153371,2,0,B|291:287|291:287|256:251,1,64.9999970245363,8|0,0:0|0:0,0:0:0:0:
55,119,153508,5,10,0:0:0:0:
87,161,153576,1,0,0:0:0:0:
139,175,153644,1,8,0:0:0:0:
189,155,153712,1,0,0:0:0:0:
217,108,153780,1,8,0:0:0:0:
210,55,153848,1,0,0:0:0:0:
172,16,153917,5,10,0:0:0:0:
215,49,153985,1,0,0:0:0:0:
269,53,154053,1,8,0:0:0:0:
317,27,154121,1,0,0:0:0:0:
364,0,154190,1,8,0:0:0:0:
418,4,154258,1,0,0:0:0:0:
461,37,154326,5,8,0:0:0:0:
389,33,154394,1,8,0:0:0:0:
317,27,154462,1,8,0:0:0:0:
245,25,154530,1,8,0:0:0:0:
172,16,154599,6,0,L|94:7,1,59.9999981689454,8|0,0:0|0:0,0:0:0:0:
215,262,154735,2,0,L|293:271,1,59.9999981689454,8|0,0:0|0:0,0:0:0:0:
168,6,154871,6,0,L|90:-3,1,59.9999981689454,8|0,0:0|0:0,0:0:0:0:
219,277,155008,2,0,L|297:286,1,59.9999981689454,8|0,0:0|0:0,0:0:0:0:
58,76,155144,5,2,0:2:0:0:
38,113,155212,1,8,0:1:0:0:
36,155,155280,1,0,0:0:0:0:
52,194,155348,1,8,0:1:0:0:
78,227,155417,1,0,0:0:0:0:
87,268,155485,1,8,0:1:0:0:
75,309,155553,5,2,0:2:0:0:
101,275,155621,1,8,0:1:0:0:
139,257,155689,1,0,0:0:0:0:
181,258,155757,1,8,0:1:0:0:
219,276,155826,2,0,L|266:299,1,42.5000008106232,0|8,0:0|0:1,0:0:0:0:
439,356,155962,5,2,0:2:0:0:
413,329,156030,1,8,0:1:0:0:
400,294,156098,1,0,0:0:0:0:
404,257,156166,1,8,0:1:0:0:
423,225,156235,2,0,P|424:259|414:283,1,37.5000014305115,0|8,0:0|0:1,0:0:0:0:
236,188,156371,5,2,0:2:0:0:
206,148,156439,1,8,0:1:0:0:
199,99,156507,1,0,0:0:0:0:
216,52,156575,1,8,0:1:0:0:
252,19,156644,2,0,P|253:49|241:87,1,50,0|8,0:0|0:1,0:0:0:0:
181,258,156780,5,2,0:2:0:0:
218,233,156848,1,8,0:1:0:0:
262,225,156916,1,0,0:0:0:0:
306,234,156984,1,8,0:1:0:0:
342,259,157053,2,0,P|357:275|370:307,1,44.999998626709,0|8,0:0|0:1,0:0:0:0:
128,347,157190,5,2,0:2:0:0:
100,311,157258,1,8,0:1:0:0:
87,268,157326,1,0,0:0:0:0:
93,224,157394,1,8,0:1:0:0:
115,185,157463,2,0,P|130:167|160:152,1,44.999998626709,0|8,0:0|0:1,0:0:0:0:
401,104,157599,5,2,0:2:0:0:
373,92,157667,1,8,0:1:0:0:
344,87,157735,1,0,0:0:0:0:
314,89,157803,1,8,0:1:0:0:
285,98,157871,2,0,L|294:173,1,40,0|8,0:0|0:1,0:0:0:0:
310,244,158008,5,2,0:2:0:0:
312,263,158076,1,8,0:1:0:0:
314,283,158144,1,0,0:0:0:0:
317,303,158212,1,8,0:1:0:0:
319,323,158280,1,0,0:0:0:0:
321,343,158349,1,8,0:1:0:0:
323,360,158417,6,0,B|225:335|225:335|268:312,1,150,4|0,0:0|0:0,0:0:0:0:
386,239,158690,2,0,B|412:335|412:335|371:309,1,150,4|0,0:1|0:0,0:0:0:0:
250,245,158962,2,0,B|318:172|318:172|316:222,1,150,4|0,0:0|0:0,0:0:0:0:
323,360,159235,5,4,0:0:0:0:
312,357,159303,1,0,0:0:0:0:
301,354,159371,1,0,0:0:0:0:
290,351,159439,1,0,0:0:0:0:
239,321,159508,5,4,0:0:0:0:
228,323,159577,1,0,0:0:0:0:
217,326,159645,1,0,0:0:0:0:
206,329,159713,1,0,0:0:0:0:
155,360,159780,5,4,0:1:0:0:
144,358,159849,1,0,0:0:0:0:
133,355,159917,1,0,0:0:0:0:
122,352,159985,1,0,0:0:0:0:
112,348,160053,6,0,B|81:338|81:338|69:231,1,134.999995880127,4|0,0:1|0:0,0:0:0:0:
57,139,160326,1,2,0:0:0:0:
0,318,160462,1,0,0:0:0:0:
148,178,160599,2,0,L|138:88,1,89.9999972534181,2|0,0:0|0:0,0:0:0:0:
310,251,160871,6,0,B|255:223|201:251|201:251|147:278|93:251,1,224.999993133545,2|0,0:0|0:0,0:0:0:0:
28,228,161280,1,0,0:0:0:0:
57,139,161417,1,2,0:0:0:0:
23,238,161553,1,0,0:0:0:0:
116,84,161690,6,0,P|73:61|23:66,1,89.9999972534181,2|0,0:0|0:0,0:0:0:0:
148,178,161962,2,0,B|206:197|249:149|249:149|286:212|359:206,1,224.999993133545,2|0,0:0|0:0,0:0:0:0:
437,153,162371,1,0,0:0:0:0:
355,10,162508,2,0,B|336:52|336:52|344:111,1,89.9999972534181,2|0,0:0|0:0,0:0:0:0:
435,263,162780,1,2,0:0:0:0:
340,207,162917,1,0,0:0:0:0:
338,317,163053,6,0,P|358:269|337:219,1,89.9999972534181,2|0,0:0|0:0,0:0:0:0:
140,242,163326,2,0,B|167:246|182:269|182:269|229:245|282:277,1,134.999995880127,2|0,0:0|0:0,0:0:0:0:
338,317,163599,2,0,P|297:353|246:357,1,89.9999972534181,2|0,0:0|0:0,0:0:0:0:
261,175,163871,2,0,P|292:130|341:115,1,89.9999972534181,2|0,0:0|0:0,0:0:0:0:
262,267,164144,1,2,0:0:0:0:
171,69,164280,1,0,0:0:0:0:
378,216,164417,5,0,0:0:0:0:
364,216,164485,1,0,0:0:0:0:
351,217,164553,1,0,0:0:0:0:
337,217,164621,1,0,0:0:0:0:
302,174,164690,5,0,0:0:0:0:
288,174,164758,1,0,0:0:0:0:
275,175,164826,1,0,0:0:0:0:
261,175,164894,1,0,0:0:0:0:
225,219,164962,5,4,0:1:0:0:
276,10,165099,1,0,0:0:0:0:
115,124,165235,2,0,P|178:150|226:127,1,115.000002193451,2|0,0:0|0:0,0:0:0:0:
88,267,165508,2,0,B|61:296|61:296|-27:273,1,115.000002193451,2|0,0:0|0:0,0:0:0:0:
198,360,165780,6,0,B|175:340|155:335|155:335|199:344|239:326|239:326|254:332|254:332|290:309|337:330,1,230.000004386902,2|0,0:0|0:0,0:0:0:0:
397,353,166190,1,0,0:0:0:0:
479,262,166326,1,2,3:0:0:0:
396,366,166462,1,0,0:0:0:0:
281,163,166599,6,0,B|320:245|320:245|371:6,1,287.500005483627,2|0,0:0|0:0,0:0:0:0:
419,0,167008,1,0,0:0:0:0:
502,149,167144,2,0,L|478:261,1,115.000002193451,2|0,0:0|0:0,0:0:0:0:
180,181,167417,6,0,B|157:137|157:137|123:259|123:259|119:284|125:310|152:321,1,230.000004386902,2|0,0:0|0:0,0:0:0:0:
181,374,167826,1,0,0:0:0:0:
305,312,167962,1,2,0:0:0:0:
174,381,168099,1,0,0:0:0:0:
361,246,168235,6,0,B|312:219|312:219|262:236|262:236|288:166|288:166|281:141|281:141|304:39,1,312.5,2|0,0:0|0:0,0:0:0:0:
379,0,168644,1,0,0:0:0:0:
180,181,168780,2,0,B|156:217|156:217|177:257|159:300,1,125,2|0,0:0|0:0,0:0:0:0:
337,382,169053,6,0,B|315:357|323:319|323:319|308:260,1,125,2|0,0:0|0:0,0:0:0:0:
433,146,169326,2,0,B|456:182|456:182|448:277,1,125,2|0,0:0|0:0,0:0:0:0:
102,101,169599,1,2,0:0:0:0:
261,169,169735,1,0,0:0:0:0:
56,295,169871,5,2,0:0:0:0:
284,89,170008,1,0,0:3:0:0:
38,213,170144,5,2,0:0:0:0:
338,148,170281,1,0,0:3:0:0:
137,321,170417,5,2,0:0:0:0:
72,20,170554,1,0,0:3:0:0:
323,225,170690,5,2,0:0:0:0:
284,206,170758,1,8,0:1:0:0:
261,169,170826,1,0,0:0:0:0:
261,126,170894,1,8,0:1:0:0:
283,89,170962,5,2,0:0:0:0:
246,138,171030,1,8,0:1:0:0:
189,161,171098,1,0,0:0:0:0:
128,149,171166,1,8,0:1:0:0:
83,106,171234,5,2,0:0:0:0:
74,90,171303,1,8,0:1:0:0:
64,74,171371,1,0,0:0:0:0:
54,57,171440,1,8,0:1:0:0:
46,43,171508,6,0,B|27:75|2:78|2:78|55:68|91:109|91:109|141:65|208:87,1,275,4|0,0:1|0:0,0:0:0:0:
299,145,172326,5,4,0:1:0:0:
297,152,172394,1,0,0:0:0:0:
295,159,172462,1,0,0:0:0:0:
293,166,172530,1,0,0:0:0:0:
254,198,172599,5,4,0:1:0:0:
256,205,172667,1,0,0:0:0:0:
258,212,172735,1,0,0:0:0:0:
260,219,172803,1,0,0:0:0:0:
298,250,172871,5,4,0:0:0:0:
262,226,172939,1,0,0:0:0:0:
217,223,173007,1,0,0:0:0:0:
178,244,173075,1,0,0:0:0:0:
154,282,173144,6,0,B|159:317|94:355|57:277|101:251|101:251|89:223|102:194|102:194|121:161|102:124,1,275,4|0,0:2|0:0,0:0:0:0:
135,28,173962,5,4,0:1:0:0:
134,35,174030,1,0,0:0:0:0:
135,42,174099,2,0,P|136:69|140:80,1,25
105,130,174235,5,0,0:0:0:0:
109,135,174303,1,0,0:0:0:0:
114,139,174372,2,0,P|133:157|144:162,1,25
5,294,174508,5,0,0:0:0:0:
47,283,174576,1,0,0:0:0:0:
91,273,174645,1,0,0:0:0:0:
133,261,174712,1,0,0:0:0:0:
182,223,174780,6,0,B|283:250|283:250|332:225|332:225|445:256,1,275,4|0,0:0|0:0,0:0:0:0:
437,338,175599,5,4,0:1:0:0:
429,336,175667,1,0,0:0:0:0:
422,334,175735,1,0,0:0:0:0:
415,332,175803,1,0,0:0:0:0:
408,330,175871,1,2,0:0:0:0:
400,328,175939,1,0,0:0:0:0:
393,326,176008,1,0,0:0:0:0:
386,324,176076,1,0,0:0:0:0:
337,337,176144,5,4,0:0:0:0:
379,322,176212,1,0,0:0:0:0:
422,308,176280,1,0,0:0:0:0:
465,294,176349,1,0,0:0:0:0:
508,281,176417,6,0,P|410:321|511:351,1,275,4|0,0:1|0:0,0:0:0:0:
337,349,177234,5,8,0:0:0:0:
313,344,177302,1,8,0:0:0:0:
289,339,177371,2,0,L|241:330,1,25
390,262,177508,5,8,0:0:0:0:
414,257,177576,1,8,0:0:0:0:
438,252,177645,2,0,L|486:243,1,25
337,175,177780,5,8,0:0:0:0:
330,173,177849,1,8,0:0:0:0:
323,171,177917,1,8,0:0:0:0:
315,169,177985,1,8,0:0:0:0:
308,168,178053,5,4,0:1:0:0:
338,188,178121,1,0,0:0:0:0:
375,190,178189,1,0,0:0:0:0:
408,173,178257,1,0,0:0:0:0:
426,141,178325,1,2,0:0:0:0:
426,104,178393,1,0,0:0:0:0:
406,72,178462,1,0,0:0:0:0:
373,56,178530,1,0,0:0:0:0:
336,59,178599,1,2,0:0:0:0:
299,90,178667,1,0,0:0:0:0:
252,102,178735,1,0,0:0:0:0:
204,93,178803,1,0,0:0:0:0:
156,43,178871,6,0,L|166:97,1,37.5000014305115,10|0,0:0|0:0,0:0:0:0:
146,53,179008,2,0,L|156:107,1,37.5000014305115
99,179,179144,6,0,L|89:233,1,37.5000014305115,2|0,0:0|0:0,0:0:0:0:
109,189,179281,2,0,L|99:243,1,37.5000014305115
192,280,179417,6,0,L|202:334,1,37.5000014305115,2|0,0:0|0:0,0:0:0:0:
182,290,179554,2,0,L|192:344,1,37.5000014305115
288,224,179690,5,2,0:0:0:0:
322,239,179758,1,0,0:0:0:0:
356,255,179826,1,0,0:0:0:0:
390,271,179894,1,0,0:0:0:0:
424,286,179962,1,2,0:0:0:0:
460,282,180030,1,0,0:0:0:0:
489,259,180098,1,0,0:0:0:0:
499,223,180166,1,0,0:0:0:0:
487,188,180234,1,2,0:0:0:0:
449,151,180303,1,0,0:0:0:0:
438,100,180371,1,0,0:0:0:0:
454,51,180439,1,0,0:0:0:0:
503,0,180508,6,0,L|498:61,1,37.5000014305115,10|0,0:0|0:0,0:0:0:0:
512,0,180645,2,0,L|507:61,1,37.5000014305115
491,151,180780,6,0,L|486:212,1,37.5000014305115,2|0,0:0|0:0,0:0:0:0:
500,151,180917,2,0,L|495:212,1,37.5000014305115
467,294,181053,6,0,L|462:355,1,37.5000014305115,2|0,0:0|0:0,0:0:0:0:
476,294,181190,2,0,L|471:355,1,37.5000014305115
345,165,181326,5,2,0:0:0:0:
316,189,181394,1,0,0:0:0:0:
280,198,181462,1,0,0:0:0:0:
244,190,181530,1,0,0:0:0:0:
215,166,181598,1,2,0:0:0:0:
200,133,181666,1,0,0:0:0:0:
201,96,181735,1,0,0:0:0:0:
219,63,181803,1,0,0:0:0:0:
250,42,181871,1,2,0:0:0:0:
222,81,181939,1,0,0:0:0:0:
178,101,182007,1,0,0:0:0:0:
130,97,182075,1,0,0:0:0:0:
81,45,182144,6,0,P|83:72|77:93,1,37.5000014305115,10|0,0:0|0:0,0:0:0:0:
94,45,182280,2,0,P|96:72|90:93,1,37.5000014305115
24,187,182417,6,0,P|46:171|67:166,1,37.5000014305115,2|0,0:0|0:0,0:0:0:0:
17,175,182553,2,0,P|39:159|60:154,1,37.5000014305115
176,165,182690,6,0,P|151:153|136:137,1,37.5000014305115,2|0,0:0|0:0,0:0:0:0:
169,176,182826,2,0,P|144:164|129:148,1,37.5000014305115
250,42,182962,5,2,0:0:0:0:
262,77,183030,1,0,0:0:0:0:
275,112,183099,1,0,0:0:0:0:
287,147,183167,1,0,0:0:0:0:
299,182,183235,5,2,0:0:0:0:
324,153,183303,1,0,0:0:0:0:
348,124,183372,1,0,0:0:0:0:
372,97,183440,1,0,0:0:0:0:
396,69,183508,5,2,0:0:0:0:
359,62,183576,1,0,0:0:0:0:
322,56,183645,1,0,0:0:0:0:
286,48,183713,1,0,0:0:0:0:
250,42,183781,5,2,0:1:0:0:
268,95,183849,1,0,0:0:0:0:
287,147,183917,1,0,0:0:0:0:
304,201,183985,1,0,0:0:0:0:
303,271,184053,5,0,0:0:0:0:
332,248,184121,1,0,0:0:0:0:
368,239,184189,1,0,0:0:0:0:
405,246,184257,1,0,0:0:0:0:
449,287,184326,5,0,0:0:0:0:
430,286,184394,1,0,0:0:0:0:
411,285,184462,1,0,0:0:0:0:
392,284,184530,1,0,0:0:0:0:
374,283,184599,6,0,B|421:304|421:304|483:272,1,100,2|0,0:1|0:0,0:0:0:0:
377,145,184871,2,0,B|330:124|330:124|268:156,1,100,2|0,0:0|0:0,0:0:0:0:
512,230,185144,1,2,0:0:0:0:
303,271,185280,1,0,0:0:0:0:
473,43,185417,2,0,B|461:97|461:97|465:115|465:115|442:194,1,150,2|0,0:0|0:0,0:0:0:0:
374,224,185690,5,2,0:0:0:0:
430,365,185826,1,0,0:0:0:0:
471,297,185962,1,2,0:0:0:0:
426,376,186099,1,0,0:0:0:0:
232,318,186235,5,2,0:0:0:0:
471,297,186371,1,0,0:0:0:0:
299,178,186508,2,0,P|286:225|303:271,1,100,2|0,0:0|0:0,0:0:0:0:
477,136,186780,2,0,P|489:88|472:42,1,100,2|0,0:0|0:0,0:0:0:0:
298,55,187053,6,0,B|291:80|256:103|256:103|300:82|347:105,1,150,2|0,0:0|0:0,0:0:0:0:
387,157,187326,1,2,0:0:0:0:
472,42,187462,1,0,0:0:0:0:
262,234,187599,2,0,B|269:206|307:181|307:181|259:204|208:179,1,172.500003290176,2|0,0:0|0:0,0:0:0:0:
174,107,187871,6,0,B|115:153|142:222|142:222|170:292|128:362|64:371,1,312.5,2|0,0:0|0:0,0:0:0:0:
42,264,188280,1,0,0:0:0:0:
244,343,188417,2,0,L|364:373,1,125,2|0,0:0|0:0,0:0:0:0:
42,264,188690,6,0,P|155:251|71:348,1,312.5,2|0,0:0|0:0,0:0:0:0:
0,375,189099,1,0,0:0:0:0:
63,89,189235,2,0,P|90:152|60:210,1,125,2|0,0:0|0:0,0:0:0:0:
250,5,189508,6,0,B|182:30|164:117|194:183|259:186|301:179|313:135|305:103|299:87|262:70|238:61,1,312.5,2|0,0:0|0:0,0:0:0:0:
352,188,189917,1,0,0:0:0:0:
5,141,190053,2,0,P|-14:78|13:27,1,125,2|0,0:0|0:0,0:0:0:0:
137,159,190326,2,0,P|79:127|62:72,1,110.000003356934,2|0,0:0|0:0,0:0:0:0:
340,281,190599,6,0,P|359:218|332:167,1,125,2|0,0:0|0:0,0:0:0:0:
208,298,190872,2,0,P|265:266|282:211,1,110.000003356934,2|0,0:0|0:0,0:0:0:0:
73,10,191144,6,0,B|39:21|39:21|65:46|65:46|116:27|164:62,1,172.500003290176,4|0,0:2|0:0,0:0:0:0:
234,96,191417,1,2,0:2:0:0:
5,141,191553,1,0,0:0:0:0:
309,41,191690,2,0,P|326:88|306:156,1,115.000002193451,2|0,0:2|0:0,0:0:0:0:
150,55,191962,2,0,P|142:103|178:171,1,115.000002193451,2|0,0:2|0:0,0:0:0:0:
242,353,192235,5,2,0:2:0:0:
242,343,192303,1,0,0:0:0:0:
243,334,192371,1,2,0:2:0:0:
244,324,192439,1,0,0:0:0:0:
217,281,192508,5,2,0:2:0:0:
218,271,192576,1,0,0:0:0:0:
219,262,192644,1,2,0:2:0:0:
220,252,192712,1,0,0:0:0:0:
248,199,192780,6,0,B|258:168|258:168|250:145|250:145|279:89|251:31,1,172.500003290176,2|0,0:2|0:0,0:0:0:0:
333,146,193053,1,2,0:2:0:0:
103,209,193190,1,0,0:0:0:0:
335,338,193326,2,0,B|357:305|357:305|343:206,1,115.000002193451,2|0,0:2|0:0,0:0:0:0:
440,119,193599,2,0,B|418:152|418:152|431:242,1,89.9999972534181,2|0,0:2|0:0,0:0:0:0:
399,20,193871,5,2,0:2:0:0:
385,23,193939,1,0,0:0:0:0:
372,26,194007,1,2,0:2:0:0:
359,30,194075,1,0,0:0:0:0:
322,64,194144,5,2,0:2:0:0:
309,62,194212,1,0,0:0:0:0:
296,59,194280,1,2,0:2:0:0:
283,55,194349,1,0,0:0:0:0:
245,22,194417,6,0,B|217:40|219:68|219:68|255:110|230:181,1,172.500003290176,2|0,0:2|0:0,0:0:0:0:
207,261,194690,1,2,0:2:0:0:
426,211,194826,1,0,0:0:0:0:
130,309,194962,2,0,P|115:261|140:196,1,115.000002193451,2|0,0:2|0:0,0:0:0:0:
35,185,195235,2,0,P|58:141|109:114,1,89.9999972534181,2|0,0:2|0:0,0:0:0:0:
210,351,195508,5,2,0:2:0:0:
209,338,195576,1,0,0:0:0:0:
209,326,195644,1,2,0:2:0:0:
209,313,195712,1,0,0:0:0:0:
207,261,195780,6,0,L|277:270,1,57.5000010967255,2|0,0:2|0:0,0:0:0:0:
162,187,195917,2,0,L|92:196,1,57.5000010967255,2|0,0:2|0:0,0:0:0:0:
350,284,196053,5,2,0:2:0:0:
421,38,196190,1,0,0:0:0:0:
426,333,196326,5,2,0:2:0:0:
355,87,196463,1,0,0:0:0:0:
345,374,196599,5,2,0:2:0:0:
431,120,196735,1,0,0:0:0:0:
207,261,196871,5,2,0:0:0:0:
240,224,196939,1,8,0:0:0:0:
288,216,197007,1,8,0:0:0:0:
331,240,197075,1,8,0:0:0:0:
350,284,197144,6,0,L|289:274,1,57.5000010967255,8|8,0:0|0:0,0:0:0:0:
229,45,197280,2,0,L|290:55,1,50
244,346,197417,5,0,0:0:0:0:
231,343,197485,1,0,0:0:0:0:
219,341,197553,1,0,0:0:0:0:
206,339,197621,1,0,0:0:0:0:
194,337,197689,5,4,0:1:0:0:
246,319,197758,1,0,0:0:0:0:
298,301,197826,1,0,0:0:0:0:
350,284,197894,1,0,0:0:0:0:
401,266,197962,1,0,0:0:0:0:
453,248,198030,1,0,0:0:0:0:
512,197,198099,5,8,0:0:0:0:
494,249,198167,1,0,0:0:0:0:
454,285,198235,1,2,0:2:0:0:
401,298,198303,1,0,0:0:0:0:
350,284,198371,1,2,0:2:0:0:
310,245,198439,1,0,0:0:0:0:
294,193,198508,1,2,0:2:0:0:
255,154,198576,1,0,0:0:0:0:
203,140,198644,1,2,0:2:0:0:
150,153,198712,1,0,0:0:0:0:
110,189,198780,1,2,0:2:0:0:
92,241,198848,1,0,0:0:0:0:
62,313,198917,5,8,0:0:0:0:
107,282,198985,1,0,0:0:0:0:
161,272,199053,1,2,0:2:0:0:
214,282,199121,1,0,0:0:0:0:
260,313,199189,1,2,0:2:0:0:
314,318,199258,1,0,0:0:0:0:
363,296,199326,1,2,0:2:0:0:
395,252,199394,1,0,0:0:0:0:
400,197,199462,1,2,0:2:0:0:
378,148,199530,1,0,0:0:0:0:
333,117,199599,1,2,0:2:0:0:
279,112,199667,1,0,0:0:0:0:
215,157,199735,5,8,0:0:0:0:
256,123,199803,1,0,0:0:0:0:
267,70,199871,1,2,0:2:0:0:
243,22,199939,1,0,0:0:0:0:
193,1,200007,1,2,0:2:0:0:
141,16,200075,1,0,0:0:0:0:
111,60,200144,1,2,0:2:0:0:
115,114,200212,1,0,0:0:0:0:
152,154,200280,1,2,0:2:0:0:
156,208,200349,1,0,0:0:0:0:
126,252,200417,6,0,P|86:264|39:248,1,55.0000016784668,2|0,0:2|0:0,0:0:0:0:
192,84,200553,2,0,P|232:72|279:88,3,55.0000016784668,2|0|0|0,0:2|0:0|0:0|0:0,0:0:0:0:
84,185,200826,2,0,P|47:165|25:120,1,55.0000016784668,2|0,0:2|0:0,0:0:0:0:
193,298,200962,5,4,0:0:0:0:
153,327,201030,1,0,0:0:0:0:
104,327,201098,1,0,0:0:0:0:
64,299,201166,1,0,0:0:0:0:
48,253,201234,1,0,0:0:0:0:
62,205,201302,1,0,0:0:0:0:
126,171,201371,5,8,0:0:0:0:
76,174,201439,1,0,0:0:0:0:
35,148,201507,1,2,0:2:0:0:
18,102,201575,1,0,0:0:0:0:
31,54,201643,1,2,0:2:0:0:
70,25,201711,1,0,0:0:0:0:
119,24,201780,1,2,0:2:0:0:
159,53,201848,1,0,0:0:0:0:
174,100,201916,1,2,0:2:0:0:
211,131,201985,1,0,0:0:0:0:
260,132,202053,1,2,0:2:0:0:
298,101,202121,1,0,0:0:0:0:
309,29,202190,5,8,0:0:0:0:
307,78,202258,1,0,0:0:0:0:
337,116,202326,1,2,0:2:0:0:
385,127,202394,1,0,0:0:0:0:
433,117,202462,1,2,0:2:0:0:
478,136,202530,1,0,0:0:0:0:
506,176,202598,1,2,0:2:0:0:
507,226,202666,1,0,0:0:0:0:
480,267,202734,1,2,0:2:0:0:
435,287,202803,1,0,0:0:0:0:
386,278,202871,1,2,0:2:0:0:
350,244,202939,1,0,0:0:0:0:
322,174,203008,5,8,0:0:0:0:
333,221,203076,1,0,0:0:0:0:
309,263,203144,1,2,0:2:0:0:
262,278,203212,1,0,0:0:0:0:
218,257,203280,1,2,0:2:0:0:
182,232,203348,1,0,0:0:0:0:
137,226,203416,1,2,0:2:0:0:
95,241,203484,1,0,0:0:0:0:
65,273,203552,1,2,0:2:0:0:
57,318,203621,1,0,0:0:0:0:
72,360,203690,6,0,P|85:329|88:304,1,44.999998626709,2|0,0:2|0:0,0:0:0:0:
14,165,203826,2,0,P|1:196|-2:221,3,44.999998626709,8|0|2|0,0:0|0:0|0:2|0:0,0:0:0:0:
167,274,204099,2,0,P|180:243|183:218,1,44.999998626709,2|0,0:2|0:0,0:0:0:0:
86,12,204235,5,4,0:0:0:0:
80,56,204303,1,0,0:0:0:0:
97,97,204371,1,0,0:0:0:0:
133,124,204439,1,0,0:0:0:0:
177,129,204507,1,0,0:0:0:0:
218,112,204575,1,0,0:0:0:0:
264,64,204644,5,10,0:0:0:0:
241,102,204712,1,0,0:0:0:0:
249,145,204780,1,0,0:0:0:0:
284,173,204848,1,0,0:0:0:0:
328,171,204916,1,0,0:0:0:0:
360,142,204984,1,0,0:0:0:0:
401,125,205053,1,2,0:0:0:0:
445,134,205121,1,0,0:0:0:0:
476,165,205189,1,0,0:0:0:0:
484,209,205257,1,0,0:0:0:0:
467,250,205325,1,2,0:0:0:0:
430,274,205394,1,0,0:0:0:0:
365,260,205462,5,10,0:0:0:0:
399,287,205530,1,0,0:0:0:0:
407,330,205598,1,0,0:0:0:0:
384,368,205666,1,0,0:0:0:0:
342,380,205735,2,0,P|314:385|284:372,1,44.999998626709
116,232,205871,5,2,0:0:0:0:
155,201,205939,1,0,0:0:0:0:
203,189,206007,1,0,0:0:0:0:
252,197,206075,1,0,0:0:0:0:
293,224,206144,2,0,P|265:229|235:216,1,50
29,271,206280,5,10,0:0:0:0:
20,222,206349,1,0,0:0:0:0:
37,176,206417,1,0,0:0:0:0:
75,144,206485,1,0,0:0:0:0:
123,135,206553,1,0,0:0:0:0:
170,151,206621,1,0,0:0:0:0:
203,189,206689,5,8,0:0:0:0:
264,223,206758,1,8,0:0:0:0:
335,222,206826,1,8,0:0:0:0:
396,186,206894,1,8,0:0:0:0:
431,125,206962,6,0,L|440:50,1,55.0000016784668,8|0,0:0|0:0,0:0:0:0:
222,4,207099,2,0,L|212:78,1,55.0000016784668,8|0,0:0|0:0,0:0:0:0:
419,122,207234,6,0,L|428:47,1,55.0000016784668,8|0,0:0|0:0,0:0:0:0:
210,1,207371,2,0,L|200:75,1,55.0000016784668,8|0,0:0|0:0,0:0:0:0:
335,222,207508,5,2,0:2:0:0:
310,190,207576,1,8,0:1:0:0:
273,177,207644,1,2,0:2:0:0:
234,186,207712,1,8,0:1:0:0:
206,214,207780,1,2,0:2:0:0:
198,252,207848,1,8,0:1:0:0:
211,289,207917,1,2,0:2:0:0:
181,263,207985,1,8,0:1:0:0:
143,252,208053,1,2,0:2:0:0:
103,257,208121,1,8,0:1:0:0:
69,277,208190,2,0,P|111:282|130:270,1,40,2|8,0:2|0:1,0:0:0:0:
101,19,208326,5,2,0:2:0:0:
67,48,208394,1,8,0:1:0:0:
48,88,208462,1,2,0:2:0:0:
46,133,208530,1,8,0:1:0:0:
62,175,208599,2,0,P|73:196|97:215,1,44.999998626709,2|8,0:2|0:1,0:0:0:0:
273,256,208735,5,2,0:2:0:0:
304,286,208803,1,8,0:1:0:0:
348,293,208871,1,2,0:2:0:0:
387,273,208939,1,8,0:1:0:0:
408,234,209007,1,2,0:2:0:0:
401,190,209075,1,8,0:1:0:0:
371,158,209144,1,2,0:2:0:0:
339,138,209212,1,8,0:1:0:0:
321,106,209280,1,2,0:2:0:0:
320,69,209348,1,8,0:1:0:0:
336,35,209416,1,2,0:2:0:0:
365,13,209484,1,8,0:1:0:0:
405,5,209553,5,2,0:2:0:0:
388,38,209621,1,8,0:1:0:0:
371,72,209690,1,2,0:2:0:0:
355,105,209758,1,8,0:1:0:0:
339,138,209826,2,0,L|308:193,1,55.0000016784668,2|8,0:2|0:1,0:0:0:0:
219,336,209962,5,2,0:2:0:0:
238,320,210030,1,8,0:1:0:0:
262,314,210098,1,2,0:2:0:0:
287,316,210166,1,8,0:1:0:0:
309,328,210235,2,0,P|283:338|250:329,1,50,2|8,0:2|0:1,0:0:0:0:
506,268,210371,5,2,0:2:0:0:
485,258,210439,1,8,0:1:0:0:
463,255,210507,1,2,0:2:0:0:
441,258,210575,1,8,0:1:0:0:
421,268,210644,2,0,P|451:275|478:271,1,44.999998626709,2|8,0:2|0:1,0:0:0:0:
259,171,210780,5,4,0:2:0:0:
259,171,210849,1,0,0:0:0:0:
259,171,210917,1,0,0:0:0:0:
259,171,210985,1,0,0:0:0:0:
259,171,211053,1,0,0:0:0:0:
259,171,211121,1,0,0:0:0:0:
259,171,211190,6,0,L|195:195,1,40,10|0,0:0|0:0,0:0:0:0:
149,217,211326,2,0,L|85:241,1,40,10|0,0:0|0:0,0:0:0:0:
39,263,211462,2,0,L|-25:287,1,40,8|0,0:0|0:0,0:0:0:0:
103,107,211599,6,0,L|81:49,1,55.0000016784668,10|0,0:0|0:0,0:0:0:0:
259,171,211735,2,0,L|310:151,1,55.0000016784668,10|0,0:0|0:0,0:0:0:0:
195,327,211872,2,0,L|219:391,1,55.0000016784668,8|0,0:0|0:0,0:0:0:0:
88,113,212008,6,0,L|66:55,1,55.0000016784668,10|0,0:0|0:0,0:0:0:0:
244,177,212144,2,0,L|295:157,1,55.0000016784668,10|0,0:0|0:0,0:0:0:0:
180,333,212281,2,0,L|204:397,1,55.0000016784668,10|0,0:0|0:0,0:0:0:0:
31,176,212417,5,8,0:0:0:0:
2,112,212485,1,8,0:0:0:0:
29,48,212553,1,8,0:0:0:0:
94,25,212621,1,8,0:0:0:0:
155,58,212690,6,0,P|177:102|156:151,1,55.0000016784668,8|0,0:0|0:0,0:0:0:0:
60,311,212826,2,0,P|38:267|59:218,1,55.0000016784668,8|0,0:0|0:0,0:0:0:0:
149,69,212962,6,0,P|170:112|149:161,1,55.0000016784668,8|0,0:0|0:0,0:0:0:0:
53,322,213098,2,0,P|31:278|52:229,1,55.0000016784668,8|0,0:0|0:0,0:0:0:0:
285,315,213235,5,10,0:0:0:0:
323,354,213303,1,0,0:0:0:0:
376,365,213371,1,8,0:0:0:0:
427,346,213439,1,0,0:0:0:0:
459,302,213507,1,8,0:0:0:0:
461,248,213575,1,0,0:0:0:0:
434,201,213644,5,10,0:0:0:0:
416,180,213712,1,0,0:0:0:0:
405,155,213780,1,8,0:0:0:0:
402,128,213848,1,0,0:0:0:0:
406,101,213916,1,8,0:0:0:0:
418,77,213984,1,0,0:0:0:0:
436,59,214053,5,8,0:0:0:0:
388,111,214121,1,8,0:0:0:0:
320,131,214189,1,8,0:0:0:0:
252,115,214257,1,8,0:0:0:0:
201,66,214326,6,0,P|177:35|175:2,1,55.0000016784668,8|0,0:0|0:0,0:0:0:0:
334,111,214462,2,0,P|372:105|402:120,1,55.0000016784668,8|0,0:0|0:0,0:0:0:0:
229,204,214599,2,0,P|214:240|186:258,1,55.0000016784668,8|0,0:0|0:0,0:0:0:0:
208,59,214735,2,0,P|184:28|182:-5,1,55.0000016784668,8|0,0:0|0:0,0:0:0:0:
362,182,214871,6,0,B|368:208|368:208|361:258,1,59.9999981689454,10|0,0:0|0:0,0:0:0:0:
121,344,215008,2,0,B|115:318|115:318|122:268,1,59.9999981689454,8|0,0:0|0:0,0:0:0:0:
375,182,215144,2,0,B|381:208|381:208|374:258,1,59.9999981689454,8|0,0:0|0:0,0:0:0:0:
92,215,215280,6,0,L|102:139,1,59.9999981689454,10|0,0:0|0:0,0:0:0:0:
408,309,215417,2,0,L|398:385,1,59.9999981689454,8|0,0:0|0:0,0:0:0:0:
81,213,215553,2,0,L|91:137,1,59.9999981689454,8|0,0:0|0:0,0:0:0:0:
330,298,215690,5,8,0:0:0:0:
260,313,215758,1,8,0:0:0:0:
190,328,215826,1,8,0:0:0:0:
121,344,215894,1,8,0:0:0:0:
51,359,215962,6,0,L|-10:371,1,55.0000016784668,8|0,0:0|0:0,0:0:0:0:
175,214,216099,2,0,L|229:204,1,55.0000016784668,8|0,0:0|0:0,0:0:0:0:
53,288,216235,6,0,L|-8:300,1,55.0000016784668,8|0,0:0|0:0,0:0:0:0:
177,143,216372,2,0,L|230:132,1,55.0000016784668,8|0,0:0|0:0,0:0:0:0:
6,13,216508,5,10,0:0:0:0:
45,30,216576,1,0,0:0:0:0:
73,64,216644,1,8,0:0:0:0:
83,106,216712,1,0,0:0:0:0:
74,149,216780,1,8,0:0:0:0:
47,183,216848,1,0,0:0:0:0:
7,202,216917,5,10,0:0:0:0:
38,163,216985,1,0,0:0:0:0:
80,138,217053,1,8,0:0:0:0:
129,132,217121,1,0,0:0:0:0:
177,143,217189,1,8,0:0:0:0:
217,172,217257,1,0,0:0:0:0:
243,213,217326,5,8,0:0:0:0:
287,267,217394,1,8,0:0:0:0:
354,287,217462,1,8,0:0:0:0:
421,264,217530,1,8,0:0:0:0:
462,207,217599,6,0,L|472:128,1,64.9999970245363,8|0,0:0|0:0,0:0:0:0:
218,278,217735,2,0,L|208:357,1,64.9999970245363,8|0,0:0|0:0,0:0:0:0:
479,209,217871,6,0,L|489:130,1,64.9999970245363,8|0,0:0|0:0,0:0:0:0:
201,276,218008,2,0,L|191:355,1,64.9999970245363,8|0,0:0|0:0,0:0:0:0:
391,303,218144,6,0,P|413:279|423:243,1,50,10|0,0:0|0:0,0:0:0:0:
399,155,218280,2,0,P|367:146|331:157,1,50,8|0,0:0|0:0,0:0:0:0:
267,222,218417,2,0,P|276:253|302:279,1,50,8|0,0:0|0:0,0:0:0:0:
465,327,218553,6,0,P|488:350|495:381,1,64.9999970245363,10|0,0:0|0:0,0:0:0:0:
379,78,218690,2,0,P|388:47|411:25,1,64.9999970245363,8|0,0:0|0:0,0:0:0:0:
201,276,218826,2,0,P|170:283|139:274,1,64.9999970245363,8|0,0:0|0:0,0:0:0:0:
133,58,218962,5,8,0:0:0:0:
168,98,219030,1,0,0:0:0:0:
172,152,219098,1,8,0:0:0:0:
145,199,219166,1,0,0:0:0:0:
117,245,219235,1,8,0:0:0:0:
121,299,219303,1,0,0:0:0:0:
157,340,219371,5,8,0:0:0:0:
184,293,219439,1,0,0:0:0:0:
180,239,219507,1,8,0:0:0:0:
145,199,219575,1,0,0:0:0:0:
92,186,219643,1,8,0:0:0:0:
42,207,219711,1,0,0:0:0:0:
14,253,219780,5,8,0:0:0:0:
80,225,219849,1,8,0:0:0:0:
145,199,219917,1,8,0:0:0:0:
212,171,219985,1,8,0:0:0:0:
278,144,220053,6,0,L|344:116,1,55.0000016784668,8|0,0:0|0:0,0:0:0:0:
272,353,220190,2,0,L|206:381,1,55.0000016784668,8|0,0:0|0:0,0:0:0:0:
278,135,220326,6,0,L|344:107,1,55.0000016784668,8|0,0:0|0:0,0:0:0:0:
271,363,220462,2,0,L|205:391,1,55.0000016784668,8|0,0:0|0:0,0:0:0:0:
421,120,220599,5,2,0:2:0:0:
455,144,220667,1,8,0:1:0:0:
472,182,220735,1,0,0:0:0:0:
466,224,220803,1,8,0:1:0:0:
440,256,220871,1,0,0:0:0:0:
401,271,220940,1,8,0:1:0:0:
356,259,221008,5,2,0:2:0:0:
393,240,221076,1,8,0:1:0:0:
434,249,221144,1,0,0:0:0:0:
459,282,221212,1,8,0:1:0:0:
458,324,221280,2,0,P|459:348|447:374,1,42.5000008106232,0|8,0:0|0:1,0:0:0:0:
226,263,221417,5,2,0:2:0:0:
254,239,221485,1,8,0:1:0:0:
290,229,221553,1,0,0:0:0:0:
326,237,221621,1,8,0:1:0:0:
356,259,221690,2,0,P|327:265|303:260,1,37.5000014305115,0|8,0:0|0:1,0:0:0:0:
180,362,221826,5,2,0:2:0:0:
140,331,221894,1,8,0:1:0:0:
118,287,221962,1,0,0:0:0:0:
118,237,222030,1,8,0:1:0:0:
139,192,222099,2,0,P|172:159|190:152,1,50,0|8,0:0|0:1,0:0:0:0:
344,88,222235,5,2,0:2:0:0:
334,91,222303,1,8,0:1:0:0:
320,97,222371,1,0,0:0:0:0:
304,109,222440,1,8,0:1:0:0:
287,127,222508,1,0,0:0:0:0:
274,154,222576,1,8,0:1:0:0:
278,188,222644,5,2,0:2:0:0:
273,168,222712,1,8,0:1:0:0:
261,145,222780,1,0,0:0:0:0:
231,124,222849,1,8,0:1:0:0:
179,120,222917,1,0,0:0:0:0:
142,136,222985,1,8,0:1:0:0:
117,173,223053,5,2,0:2:0:0:
117,222,223121,1,8,0:1:0:0:
146,269,223190,1,0,0:0:0:0:
203,285,223258,1,8,0:1:0:0:
263,260,223326,1,0,0:0:0:0:
328,236,223394,1,8,0:1:0:0:
402,246,223462,5,2,0:2:0:0:
337,283,223530,1,8,0:1:0:0:
263,260,223598,1,0,0:0:0:0:
225,184,223666,1,8,0:1:0:0:
245,96,223735,2,0,P|264:77|303:62,1,50,0|8,0:0|0:1,0:0:0:0:
456,174,223871,5,4,0:0:0:0:
480,212,223940,1,0,0:0:0:0:
484,251,224008,1,8,0:0:0:0:
474,284,224076,1,0,0:0:0:0:
457,309,224144,1,0,0:0:0:0:
437,324,224212,1,0,0:0:0:0:
419,332,224280,6,0,P|387:338|357:334,1,50
225,184,224417,1,2,0:0:0:0:
402,246,224553,1,8,0:0:0:0:
143,346,224690,6,0,P|137:297|161:243,2,79.9999975585938,8|0|0,0:2|2:0|2:0,0:0:0:0:
41,209,224962,2,0,P|71:170|126:148,1,73.3333355712891,2|0,0:0|2:0,0:0:0:0:
37,58,225144,1,0,2:0:0:0:
65,40,225235,2,0,P|114:34|168:58,2,66.6666666666667,8|0|0,0:0|2:0|2:0,0:0:0:0:
145,268,225508,5,2,0:0:0:0:
166,255,225576,1,0,0:0:0:0:
188,235,225644,1,8,0:0:0:0:
208,206,225712,1,0,0:0:0:0:
219,167,225780,1,0,0:0:0:0:
214,121,225849,1,0,0:0:0:0:
191,76,225917,6,0,P|168:52|145:43,1,50,8|0,0:0|0:0,0:0:0:0:
32,280,226053,1,2,0:0:0:0:
133,116,226190,1,8,0:0:0:0:
177,349,226326,6,0,P|134:356|95:339,2,79.9999975585938,8|0|0,0:2|2:0|2:0,0:0:0:0:
274,174,226599,2,0,P|317:167|356:184,1,73.3333355712891,0|0,0:0|2:0,0:0:0:0:
145,268,226780,1,0,2:0:0:0:
127,240,226871,2,0,P|121:191|145:137,2,66.6666666666667,0|0|0,0:0|2:0|2:0,0:0:0:0:
401,101,227144,5,2,0:0:0:0:
424,127,227212,1,0,0:0:0:0:
437,164,227280,1,8,0:0:0:0:
432,209,227349,1,0,0:0:0:0:
402,249,227417,1,0,0:0:0:0:
351,270,227485,1,0,0:0:0:0:
292,257,227553,6,0,P|332:246|358:248,1,59.9999981689454,8|0,0:0|0:0,0:0:0:0:
270,374,227690,1,2,0:0:0:0:
204,139,227826,1,8,0:0:0:0:
44,349,227962,6,0,B|105:353|105:353|134:368|134:368|215:371,1,150,8|0,0:2|0:0,0:0:0:0:
270,374,228235,1,2,0:0:0:0:
29,348,228508,5,8,0:2:0:0:
285,376,228644,1,8,0:2:0:0:
118,277,228780,5,2,0:0:0:0:
95,266,228848,1,0,0:0:0:0:
79,247,228916,1,0,0:0:0:0:
72,223,228984,1,0,0:0:0:0:
76,198,229052,1,0,0:0:0:0:
89,178,229120,1,0,0:0:0:0:
110,164,229190,6,0,L|114:226,1,50,8|0,0:0|0:0,0:0:0:0:
201,326,229326,1,2,0:0:0:0:
29,348,229462,1,8,0:0:0:0:
269,272,229599,6,0,B|242:252|216:245|216:245|242:238|269:219,1,120,8|0,0:2|0:0,0:0:0:0:
355,163,229871,2,0,B|389:148|411:125|411:125|402:155|407:193,1,134.999995880127,2|0,0:0|0:0,0:0:0:0:
407,291,230144,2,0,B|403:324|410:350|410:350|391:330|360:317,1,120
201,326,230417,6,0,P|241:354|283:350,1,59.9999981689454,2|0,0:0|0:0,0:0:0:0:
342,77,230553,2,0,P|297:97|280:136,1,55.0000016784668,8|0,0:1|0:0,0:0:0:0:
487,322,230690,2,0,P|491:273|466:238,1,59.9999981689454
355,163,230826,2,0,P|348:192|355:221,1,50
344,163,230962,2,0,P|337:192|344:221,1,50,2|0,0:0|0:0,0:0:0:0:
503,90,231099,1,8,0:1:0:0:
261,170,231235,5,10,0:0:0:0:
487,263,231371,1,0,0:0:0:0:
455,21,231508,1,2,0:0:0:0:
344,163,231644,5,0,0:0:0:0:
437,201,231780,1,8,0:0:0:0:
424,101,231917,1,8,0:2:0:0:
306,359,232053,6,0,L|291:293,1,59.9999981689454,2|0,0:0|0:0,0:0:0:0:
138,118,232190,2,0,L|124:176,1,55.0000016784668
274,228,232326,2,0,L|259:162,1,59.9999981689454
107,241,232462,2,0,L|93:299,1,55.0000016784668,8|0,0:1|0:0,0:0:0:0:
91,245,232599,2,0,L|77:303,1,55.0000016784668,2|0,0:0|0:0,0:0:0:0:
242,97,232735,1,8,0:0:0:0:
1,149,232871,5,8,0:2:0:0:
221,280,233008,1,0,3:0:0:0:
224,25,233144,1,2,0:0:0:0:
177,198,233280,1,8,0:2:0:0:
352,152,233417,2,0,B|381:138|413:147|413:147|475:131,1,89.9999972534181
264,361,233690,6,0,P|271:334|263:288,1,59.9999981689454,2|0,0:0|0:0,0:0:0:0:
175,144,233826,2,0,P|172:173|179:202,1,55.0000016784668,8|0,0:0|0:0,0:0:0:0:
321,58,233962,2,0,P|328:31|320:-15,1,59.9999981689454
251,168,234099,2,0,P|269:191|295:206,1,55.0000016784668,8|0,0:1|0:0,0:0:0:0:
247,179,234235,2,0,P|265:202|291:217,1,55.0000016784668,2|0,0:0|0:0,0:0:0:0:
224,25,234371,1,8,0:0:0:0:
126,263,234508,5,8,0:2:0:0:
28,25,234644,1,0,0:0:0:0:
131,275,234780,1,2,0:0:0:0:
100,90,234917,5,0,0:0:0:0:
51,209,235053,1,8,0:2:0:0:
102,83,235189,1,8,0:2:0:0:
218,280,235326,5,2,0:0:0:0:
187,257,235394,1,0,0:0:0:0:
154,259,235462,1,8,0:1:0:0:
131,275,235530,1,0,0:0:0:0:
102,320,235599,5,0,0:0:0:0:
83,340,235667,1,0,0:0:0:0:
62,347,235735,1,8,0:1:0:0:
45,346,235803,1,0,0:0:0:0:
30,338,235871,6,0,P|73:329|121:349,1,80,2|8,0:0|0:1,0:0:0:0:
315,280,236144,2,0,B|290:292|290:292|266:280|266:280|242:292|218:280,1,104.999996795654,8|0,0:0|0:0,0:0:0:0:
154,259,236417,1,2,0:0:0:0:
176,373,236553,1,8,0:1:0:0:
266,102,236690,1,0,0:0:0:0:
244,216,236826,1,0,0:0:0:0:
78,64,236962,5,4,0:1:0:0:
102,59,237030,1,0,0:0:0:0:
127,54,237098,1,8,0:1:0:0:
151,49,237166,1,0,0:0:0:0:
193,87,237235,5,0,0:0:0:0:
217,92,237303,1,0,0:0:0:0:
242,97,237371,1,0,0:0:0:0:
266,102,237439,1,0,0:0:0:0:
307,64,237508,6,0,P|298:113|325:160,1,80,2|8,0:0|0:1,0:0:0:0:
474,163,237780,2,0,B|508:132|508:132|443:138|387:103,1,160,8|2,0:0|0:0,0:0:0:0:
307,64,238190,1,0,0:0:0:0:
364,195,238326,1,8,0:0:0:0:
431,0,238462,1,8,0:2:0:0:
204,196,238599,5,2,0:0:0:0:
215,198,238667,1,0,0:0:0:0:
227,201,238735,1,8,0:1:0:0:
239,203,238803,1,0,0:0:0:0:
284,234,238871,5,0,0:0:0:0:
295,231,238939,1,0,0:0:0:0:
307,228,239008,1,0,0:0:0:0:
319,226,239076,1,0,0:0:0:0:
364,195,239144,6,0,P|357:237|371:286,1,80,2|0,0:0|0:0,0:0:0:0:
512,350,239417,2,0,B|469:323|469:323|357:352,1,160,8|2,0:2|0:0,0:0:0:0:
296,309,239826,1,8,0:2:0:0:
440,233,239962,1,0,0:0:0:0:
292,381,240099,1,0,0:0:0:0:
170,244,240235,5,2,0:0:0:0:
179,223,240303,1,0,0:0:0:0:
182,201,240371,1,8,0:1:0:0:
179,179,240440,1,0,0:0:0:0:
150,131,240508,5,0,0:0:0:0:
139,111,240576,1,0,0:0:0:0:
136,89,240644,1,8,0:1:0:0:
139,67,240712,1,0,0:0:0:0:
168,19,240780,6,0,P|179:74|157:123,1,110.000003356934,2|8,0:0|0:1,0:0:0:0:
16,261,241053,2,0,B|15:219|-15:198|-15:198|47:229|109:198,1,200,8|2,0:2|0:0,0:0:0:0:
57,57,241462,1,8,0:0:0:0:
262,92,241599,1,8,0:2:0:0:
84,128,241735,1,8,0:2:0:0:
216,214,241871,5,2,0:0:0:0:
221,200,241939,1,0,0:0:0:0:
223,185,242007,1,8,0:1:0:0:
223,170,242075,1,0,0:0:0:0:
191,124,242144,5,0,0:0:0:0:
182,100,242212,1,0,0:0:0:0:
184,75,242280,1,8,0:0:0:0:
197,54,242348,1,0,0:0:0:0:
237,15,242417,6,0,P|234:77|201:111,1,89.9999972534181,2|8,0:0|0:1,0:0:0:0:
16,261,242690,2,0,B|51:278|87:261|87:261|124:242|159:261,1,150,8|0,0:0|0:0,0:0:0:0:
228,300,242962,1,2,0:0:0:0:
122,330,243099,1,8,0:0:0:0:
191,124,243235,1,0,0:0:0:0:
159,260,243371,1,0,0:0:0:0:
57,57,243508,5,2,0:0:0:0:
71,64,243576,1,0,0:0:0:0:
85,71,243644,1,8,0:1:0:0:
99,78,243712,1,0,0:0:0:0:
125,129,243780,5,0,0:0:0:0:
153,127,243849,1,0,0:0:0:0:
191,124,243917,1,0,0:0:0:0:
229,122,243985,1,0,0:0:0:0:
265,155,244053,6,0,P|250:108|280:54,1,89.9999972534181,2|8,0:0|0:1,0:0:0:0:
450,109,244326,2,0,B|466:127|491:135|491:135|445:155|445:155|395:119|339:117,1,200,8|2,0:2|0:0,0:0:0:0:
265,155,244735,1,8,0:0:0:0:
341,212,244871,1,8,0:2:0:0:
365,24,245008,1,8,0:2:0:0:
253,249,245144,5,2,0:0:0:0:
239,255,245212,1,0,0:0:0:0:
225,262,245280,1,8,0:1:0:0:
211,269,245349,1,0,0:0:0:0:
176,311,245417,5,0,0:0:0:0:
162,305,245485,1,0,0:0:0:0:
148,298,245553,1,8,0:1:0:0:
134,291,245622,1,0,0:0:0:0:
99,249,245690,6,0,P|108:301|94:330,1,80,2|8,0:0|0:1,0:0:0:0:
50,98,245962,2,0,P|25:166|37:209,1,120,8|0,0:2|0:0,0:0:0:0:
35,282,246235,1,2,0:0:0:0:
223,159,246371,1,8,0:0:0:0:
211,154,246440,1,8,0:0:0:0:
200,149,246508,2,0,B|164:141|164:141|91:168,1,100
308,225,246780,5,2,0:0:0:0:
341,237,246849,1,0,0:0:0:0:
373,249,246917,1,8,0:1:0:0:
405,261,246985,1,0,0:0:0:0:
456,300,247053,5,0,0:3:0:0:
438,271,247121,1,0,0:3:0:0:
432,236,247189,1,8,0:1:0:0:
438,202,247257,1,0,0:3:0:0:
466,155,247326,6,0,P|489:111|475:65,1,89.9999972534181,2|8,0:0|0:0,0:0:0:0:
188,126,247599,6,0,B|233:103|278:126|278:126|301:103|301:103|346:126|391:103,1,220.000006713867,8|2,0:2|0:0,0:0:0:0:
466,155,248008,1,8,0:0:0:0:
349,187,248144,1,8,0:0:0:0:
433,21,248280,1,8,0:2:0:0:
383,265,248417,5,2,0:0:0:0:
347,278,248485,1,0,0:0:0:0:
309,273,248553,1,8,0:0:0:0:
277,252,248621,1,0,0:0:0:0:
253,202,248690,5,0,0:0:0:0:
221,180,248758,1,0,0:0:0:0:
183,176,248826,1,8,0:1:0:0:
147,189,248894,1,0,0:0:0:0:
122,240,248962,6,0,P|119:284|131:318,2,66.6666666666667,2|0|0,0:0|2:0|2:0,0:0:0:0:
41,136,249235,2,0,P|44:180|32:214,2,59.9999981689454,8|0|0,0:2|2:0|2:0,0:0:0:0:
130,43,249508,2,0,P|127:87|139:121,2,53.3333333333333,2|0|0,0:0|2:0|2:0,0:0:0:0:
230,238,249780,5,0,0:0:0:0:
243,164,249871,1,0,2:0:0:0:
174,189,249962,1,0,2:0:0:0:
235,243,250053,6,0,L|275:243,7,37.5000014305115,4|0|8|0|0|0|0|0,0:1|0:0|0:1|0:0|0:0|0:0|0:0|0:0,0:0:0:0:
158,369,250599,5,2,0:0:0:0:
165,368,250667,1,0,0:0:0:0:
172,367,250736,1,8,0:1:0:0:
179,366,250804,1,0,0:0:0:0:
228,346,250871,5,8,0:2:0:0:
235,347,250939,1,0,0:0:0:0:
242,348,251008,1,0,0:0:0:0:
249,349,251076,1,0,0:0:0:0:
298,369,251144,5,2,0:0:0:0:
275,339,251212,1,0,2:0:0:0:
266,303,251280,1,8,0:0:0:0:
270,266,251348,1,0,2:0:0:0:
288,233,251416,1,8,0:2:0:0:
310,203,251485,1,0,2:0:0:0:
319,167,251553,1,8,0:2:0:0:
315,130,251621,1,0,2:0:0:0:
297,97,251690,6,0,P|256:75|200:75,1,79.9999975585938,0|0,0:0|2:0,0:0:0:0:
142,266,251871,1,0,2:0:0:0:
204,219,251962,2,0,P|226:178|226:122,1,73.3333355712891,0|0,0:0|2:0,0:0:0:0:
111,65,252144,1,0,2:0:0:0:
108,128,252235,2,0,P|121:172|161:212,2,66.6666666666667,0|0|0,0:0|2:0|2:0,0:0:0:0:
142,266,252508,5,8,0:2:0:0:
156,279,252599,1,0,2:0:0:0:
178,293,252690,1,0,2:0:0:0:
210,299,252780,1,0,0:0:0:0:
248,289,252871,1,0,2:0:0:0:
281,256,252962,1,0,2:0:0:0:
311,211,253053,1,0,0:0:0:0:
366,187,253144,1,0,2:0:0:0:
431,201,253235,1,0,2:0:0:0:
483,252,253326,6,0,P|448:254|425:244,3,44.999998626709,2|0|8|0,0:0|0:0|0:1|0:0,0:0:0:0:
344,110,253599,5,0,0:0:0:0:
357,107,253667,1,0,0:0:0:0:
370,106,253735,1,8,0:1:0:0:
383,109,253803,1,0,0:0:0:0:
396,115,253871,6,0,B|348:141|348:141|299:123,1,100,2|8,0:0|0:1,0:0:0:0:
120,54,254144,2,0,B|123:31|112:10|112:10|139:35|130:74|130:74|121:105|142:138,1,179.999994506836,8|2,0:2|0:0,0:0:0:0:
179,208,254553,1,8,0:0:0:0:
21,182,254690,1,8,0:2:0:0:
213,88,254826,1,8,0:2:0:0:
145,328,254962,6,0,P|140:268|158:234,1,80
299,177,255235,2,0,P|304:237|286:271,1,80
179,208,255508,1,0,0:0:0:0:
265,297,255644,1,8,0:1:0:0:
213,88,255780,6,0,P|170:77|126:86,1,89.9999972534181,8|8,0:1|0:0,0:0:0:0:
271,312,256053,2,0,P|313:322|357:313,1,89.9999972534181
207,73,256326,1,0,0:0:0:0:
145,328,256462,1,0,0:0:0:0:
386,177,256599,5,2,0:0:0:0:
364,169,256667,1,0,0:0:0:0:
342,167,256735,1,8,0:1:0:0:
320,169,256803,1,0,0:0:0:0:
278,201,256871,5,0,0:0:0:0:
255,203,256939,1,0,0:0:0:0:
233,200,257007,1,8,0:1:0:0:
212,193,257075,1,0,0:0:0:0:
169,161,257144,5,2,0:0:0:0:
271,312,257280,1,8,0:0:0:0:
158,152,257417,2,0,B|141:124|141:124|148:173|130:222,1,112.500004291535,8|0,0:2|0:0,0:0:0:0:
114,279,257690,5,2,0:0:0:0:
47,39,257826,1,0,0:0:0:0:
245,126,257962,1,8,0:0:0:0:
5,193,258098,1,8,0:2:0:0:
259,121,258235,6,0,B|276:149|276:149|269:100|287:51,1,110.000003356934
470,194,258508,1,0,0:0:0:0:
226,245,258644,1,0,0:0:0:0:
447,290,258780,1,0,0:0:0:0:
203,239,258916,1,8,0:1:0:0:
342,375,259053,6,0,P|361:316|328:247,1,100,8|8,0:0|0:2,0:0:0:0:
268,317,259326,1,0,0:0:0:0:
314,197,259462,1,0,0:0:0:0:
273,301,259599,1,0,0:0:0:0:
308,211,259735,1,0,0:0:0:0:
153,303,259871,5,2,0:0:0:0:
115,318,259940,1,0,0:0:0:0:
80,314,260008,1,8,0:1:0:0:
54,299,260076,1,0,0:0:0:0:
37,279,260144,1,0,0:0:0:0:
28,260,260212,1,0,0:0:0:0:
24,245,260280,1,8,0:1:0:0:
23,229,260349,1,0,0:0:0:0:
25,214,260417,5,2,0:0:0:0:
73,63,260553,1,8,0:1:0:0:
112,230,260690,2,0,B|101:183|101:183|76:337,1,179.999994506836,8|2,0:2|0:0,0:0:0:0:
72,384,261099,1,0,0:0:0:0:
287,264,261235,2,0,L|186:246,1,100,8|8,0:0|0:2,0:0:0:0:
15,343,261508,5,0,0:0:0:0:
73,63,261644,1,0,0:0:0:0:
112,230,261780,1,0,0:0:0:0:
16,14,261917,5,0,0:0:0:0:
296,72,262053,1,0,0:0:0:0:
129,111,262190,1,8,0:1:0:0:
358,196,262326,2,0,P|364:156|351:119,1,80,8|8,0:0|0:2,0:0:0:0:
239,23,262599,5,0,0:0:0:0:
315,354,262734,1,0,0:0:0:0:
200,237,262871,1,0,0:0:0:0:
358,196,263008,1,0,0:0:0:0:
143,147,263144,6,0,B|79:179|15:147|15:147|96:201|160:169|160:169|222:135|274:175|286:202|310:265|281:296|229:362|128:331|119:239,1,659.999979858399,4|0,0:1|0:0,0:0:0:0:
200,237,263962,2,0,B|230:239|230:239|270:222|270:222|311:259|370:252,1,172.500003290176,8|0,0:2|0:0,0:0:0:0:
201,227,264235,2,0,B|231:229|231:229|271:212|271:212|312:249|371:242,1,172.500003290176,2|0,0:0|0:0,0:0:0:0:
451,269,264508,1,8,0:0:0:0:
292,359,264644,1,8,0:2:0:0:
384,121,264780,6,0,B|406:81|406:81|393:137|430:179,1,150
397,119,265053,2,0,B|419:79|419:79|406:135|443:177,1,150
512,107,265326,1,0,0:0:0:0:
448,5,265462,1,8,0:1:0:0:
512,218,265599,6,0,B|520:253|520:253|495:327,1,100,8|8,0:0|0:2,0:0:0:0:
292,359,265871,2,0,B|284:324|284:324|309:250,1,100
469,380,266144,1,0,0:0:0:0:
360,325,266280,1,0,0:0:0:0:
512,107,266417,6,0,B|407:113|393:207|404:243|404:243|378:145|286:155|253:175|253:175|173:211|103:165|103:165|139:177|186:158,1,605.000018463135,2|0,0:0|0:0,0:0:0:0:
135,76,267235,1,8,0:2:0:0:
192,330,267508,5,2,0:0:0:0:
177,202,267644,1,8,0:1:0:0:
119,384,267780,1,8,0:0:0:0:
93,152,267917,1,8,0:2:0:0:
409,212,268053,6,0,B|345:244|281:212|281:212|217:180|153:212,1,239.999992675781
351,92,268462,1,0,0:0:0:0:
73,244,268599,2,0,B|85:268|73:292|73:292|97:268|89:227|89:227|81:195|93:154,1,194.999991073609
169,27,268871,6,0,P|194:97|71:27,1,324.999985122681,8|0,0:1|0:0,0:0:0:0:
121,84,269280,1,0,0:0:0:0:
322,178,269417,2,0,B|361:204|361:204|328:137|355:78,1,165.000005035401
433,18,269690,6,0,P|430:47|441:83,1,55.0000016784668,2|0,0:0|0:0,0:0:0:0:
502,222,269826,2,0,P|508:192|504:163,1,59.9999981689454,8|0,0:1|0:0,0:0:0:0:
430,367,269962,6,0,B|441:323|492:298|492:298|415:334|331:296|331:296|246:253|159:304|159:304|250:273|321:312,1,600,0|2,0:0|0:0,0:0:0:0:
81,287,270917,1,0,0:0:0:0:
139,124,271053,2,0,P|154:174|131:229,1,89.9999972534181,8|8,0:0|0:2,0:0:0:0:
27,40,271326,5,0,0:0:0:0:
225,80,271462,1,0,0:0:0:0:
230,92,271530,1,0,2:0:0:0:
236,104,271599,5,0,0:0:0:0:
280,112,271667,1,0,2:0:0:0:
324,120,271735,1,0,0:0:0:0:
328,132,271803,1,0,2:0:0:0:
371,144,271871,1,0,0:0:0:0:
414,156,271940,1,0,2:0:0:0:
456,168,272008,1,8,0:2:0:0:
462,179,272076,1,0,2:0:0:0:
503,195,272144,5,8,0:2:0:0:
467,221,272212,1,0,2:0:0:0:
423,222,272280,1,8,0:2:0:0:
410,216,272348,1,0,2:0:0:0:
380,182,272416,1,0,0:0:0:0:
373,137,272484,1,0,2:0:0:0:
391,95,272553,1,0,0:0:0:0:
400,85,272621,1,0,2:0:0:0:
440,63,272690,6,0,P|443:92|436:126,1,44.999998626709,0|0,0:0|2:0,0:0:0:0:
281,156,272826,2,0,P|278:127|285:93,1,44.999998626709,0|0,0:0|2:0,0:0:0:0:
478,305,272962,6,0,B|411:331|350:293|350:293|315:322|315:322|254:285|188:311,1,280,2|0,0:0|0:0,0:0:0:0:
115,332,273508,1,2,0:0:0:0:
250,384,273644,1,8,0:1:0:0:
193,79,273780,6,0,B|199:34|116:-13|69:85|125:118|125:118|110:153|126:190|126:190|151:232|126:279,1,314.999990386963,8|0,0:2|0:0,0:0:0:0:
218,303,274326,1,8,0:0:0:0:
38,257,274462,1,8,0:2:0:0:
250,222,274599,5,0,0:0:0:0:
8,263,274735,1,0,0:0:0:0:
304,290,274871,1,0,0:0:0:0:
125,117,275008,2,0,B|132:172|132:172|106:212|106:212|128:255|109:292,1,179.999994506836,0|8,0:0|0:1,0:0:0:0:
92,368,275417,5,8,0:0:0:0:
336,210,275553,1,8,0:2:0:0:
111,286,275690,5,0,0:0:0:0:
172,343,275826,1,0,0:0:0:0:
125,117,275962,5,0,0:0:0:0:
68,178,276098,1,0,0:0:0:0:
336,210,276235,6,0,B|304:146|336:82|336:82|375:16|329:-51|270:-53|227:4|219:91|357:125|357:125|467:161|426:304|337:295,1,719.999978027344,4|0,0:2|0:0,0:0:0:0:
69,36,289326,6,0,L|61:95,1,50,2|0,3:0|0:0,0:0:0:0:
116,145,289599,2,0,L|124:204,1,50,2|0,3:0|0:0,0:0:0:0:
68,254,289871,1,0,3:0:0:0:
146,270,290008,5,0,3:0:0:0:
158,271,290076,1,2,0:3:0:0:
170,272,290144,5,8,0:3:0:0:
243,229,290280,1,0,0:0:0:0:
316,272,290417,1,2,0:0:0:0:
394,232,290553,2,0,P|442:225|480:194,1,100,8|8,0:1|0:1,0:0:0:0:
398,145,290894,1,8,0:1:0:0:
402,133,290962,6,0,P|408:111|405:65,1,50,2|8,3:0|0:1,0:0:0:0:
272,19,291235,2,0,P|309:51|324:98,1,100,2|0,3:0|3:0,0:0:0:0:
321,185,291644,1,0,3:0:0:0:
198,145,291780,2,0,B|223:136|223:136|256:138,1,50,10|0,0:3|0:0,0:0:0:0:
273,264,292053,2,0,B|252:246|252:246|237:217,2,50,2|0|2,0:0|0:0|0:0,0:0:0:0:
396,233,292462,1,8,0:1:0:0:
394,245,292530,1,8,0:1:0:0:
392,257,292599,6,0,L|397:318,1,50,2|8,3:0|0:1,0:0:0:0:
480,195,292871,2,0,L|475:256,1,50,2|0,3:0|0:0,0:0:0:0:
401,145,293144,1,0,3:0:0:0:
480,95,293280,1,0,3:0:0:0:
402,2,293417,6,0,L|397:63,1,50,10|0,0:3|0:0,0:0:0:0:
401,145,293690,1,2,0:0:0:0:
318,101,293826,2,0,B|270:85|270:85|212:102,1,100,0|8,0:0|0:1,0:0:0:0:
146,137,294167,1,8,0:1:0:0:
146,137,294235,6,0,L|133:204,1,50,2|8,3:0|0:1,0:0:0:0:
76,289,294508,2,0,P|123:278|165:293,1,75,2|0,3:0|0:0,0:0:0:0:
220,332,294780,1,0,3:0:0:0:
142,370,294917,1,0,3:0:0:0:
227,246,295053,6,0,L|236:196,1,50,10|0,0:3|0:0,0:0:0:0:
307,343,295326,2,0,L|298:294,2,50,2|8|2,0:0|0:1|0:0,0:0:0:0:
352,226,295735,1,8,0:1:0:0:
356,214,295803,1,8,0:1:0:0:
360,199,295871,6,0,B|365:170|365:170|352:123,1,59.9999981689454,2|8,3:0|0:1,0:0:0:0:
415,13,296144,2,0,B|410:42|410:42|423:89,1,59.9999981689454,2|0,3:0|0:0,0:0:0:0:
448,159,296417,1,0,3:0:0:0:
357,141,296553,1,0,3:0:0:0:
478,247,296690,5,10,0:3:0:0:
338,124,296826,2,0,B|301:141|264:124|264:124|227:104|190:124,1,149.999995422363,2|0,0:0|0:0,0:0:0:0:
228,207,297235,1,2,0:0:0:0:
162,278,297371,1,8,0:1:0:0:
153,265,297440,1,8,0:1:0:0:
145,252,297508,6,0,P|133:210|143:181,1,59.9999981689454,2|8,3:0|0:1,0:0:0:0:
102,108,297780,2,0,P|114:66|104:37,2,59.9999981689454,2|0|0,3:0|0:0|3:0,0:0:0:0:
44,180,298190,1,0,3:0:0:0:
194,123,298327,5,10,0:3:0:0:
31,187,298462,2,0,L|23:286,1,89.9999972534181
98,326,298735,1,0,0:0:0:0:
17,368,298871,1,2,0:0:0:0:
174,377,299008,1,8,0:1:0:0:
187,370,299076,1,8,0:1:0:0:
200,363,299144,6,0,L|207:277,1,59.9999981689454,2|8,3:0|0:1,0:0:0:0:
136,194,299417,2,0,L|129:280,1,59.9999981689454,2|0,3:0|0:0,0:0:0:0:
284,263,299690,1,0,3:0:0:0:
210,214,299826,1,0,3:0:0:0:
290,351,299962,6,0,B|320:335|351:351|351:351|367:335|367:335|397:351|428:335,1,149.999995422363,10|0,0:3|0:0,0:0:0:0:
502,317,300371,1,8,0:1:0:0:
397,272,300508,1,2,0:0:0:0:
510,202,300644,1,8,0:1:0:0:
509,216,300712,1,8,0:1:0:0:
509,230,300780,6,0,P|501:202|506:161,1,59.9999981689454,2|8,3:0|0:1,0:0:0:0:
428,66,301053,2,0,P|436:94|431:135,2,59.9999981689454,2|0|0,3:0|0:0|3:0,0:0:0:0:
502,171,301462,1,0,3:0:0:0:
357,105,301599,2,0,B|320:87|320:87|276:129|198:108,1,149.999995422363,10|0,0:3|0:0,0:0:0:0:
158,53,302008,1,8,0:1:0:0:
166,231,302144,2,0,L|173:171,1,59.9999981689454,2|8,0:0|0:1,0:0:0:0:
38,17,302417,5,2,3:2:0:0:
34,45,302553,1,0,0:0:0:0:
30,75,302690,1,2,0:2:0:0:
172,171,302826,5,2,0:2:0:0:
164,113,302962,1,0,0:0:0:0:
158,53,303099,1,0,0:0:0:0:
68,256,303235,5,8,3:2:0:0:
40,246,303371,1,0,0:0:0:0:
60,226,303508,1,2,3:2:0:0:
193,303,303644,5,2,0:2:0:0:
200,361,303780,1,2,0:2:0:0:
144,339,303917,1,0,0:0:0:0:
296,192,304053,6,0,L|303:263,1,59.9999981689454,0|0,3:0|0:0,0:0:0:0:
310,331,304326,1,2,0:2:0:0:
374,283,304462,1,2,0:2:0:0:
301,251,304599,1,2,0:2:0:0:
303,268,304735,1,0,0:0:0:0:
360,144,304871,5,8,0:2:0:0:
296,96,305008,1,0,0:0:0:0:
374,283,305144,1,2,0:2:0:0:
387,268,305280,1,0,0:0:0:0:
173,257,305417,5,2,0:2:0:0:
400,253,305553,1,0,0:0:0:0:
139,182,305690,5,0,3:0:0:0:
120,181,305758,1,0,0:0:0:0:
101,180,305826,1,0,0:0:0:0:
220,190,305962,1,2,0:2:0:0:
92,250,306099,1,0,0:0:0:0:
254,264,306235,1,2,0:2:0:0:
139,182,306371,1,0,0:0:0:0:
206,332,306508,5,8,0:2:0:0:
210,343,306576,1,0,0:0:0:0:
214,354,306644,1,0,0:0:0:0:
127,324,306780,1,2,0:2:0:0:
254,264,306917,1,0,0:0:0:0:
220,190,307053,1,2,0:2:0:0:
203,215,307190,1,0,0:0:0:0:
25,144,307326,5,0,3:0:0:0:
22,137,307394,1,0,0:0:0:0:
19,130,307462,1,0,0:0:0:0:
49,0,307599,2,0,B|86:6|86:6|112:37,1,67.4999979400635,2|0,0:2|0:0,0:0:0:0:
161,92,307871,2,0,B|136:121|136:121|96:128,1,60,2|0,0:2|0:0,0:0:0:0:
279,65,308144,6,0,L|331:71,2,33.3333333333333,10|0|0,0:2|0:0|0:0,0:0:0:0:
349,3,308417,2,0,L|405:44,2,36.6666677856446,2|0|0,0:0|0:0|0:0,0:0:0:0:
249,153,308690,2,0,L|318:125,2,39.9999987792969,2|0|0,0:0|0:0|0:0,0:0:0:0:
446,244,308962,6,0,B|478:277|467:321|467:321|492:272|467:223|467:223|492:198|492:198|467:174|467:174|492:125|467:76,1,357.49998363495,0|0,3:0|0:0,0:0:0:0:
433,4,309780,1,8,0:0:0:0:
377,305,310053,5,2,0:0:0:0:
373,324,310190,1,0,0:0:0:0:
446,244,310326,5,2,0:0:0:0:
453,211,310462,1,0,0:0:0:0:
363,64,310599,5,0,3:0:0:0:
377,151,310735,1,0,0:0:0:0:
299,254,310871,6,0,L|289:179,1,75.0000028610231,2|0,0:0|0:0,0:0:0:0:
241,347,311144,2,0,L|234:297,1,50,2|0,0:0|0:0,0:0:0:0:
72,198,311417,5,8,0:3:0:0:
27,248,311553,1,0,0:0:0:0:
26,308,311690,1,0,0:0:0:0:
155,368,311826,5,0,0:0:0:0:
111,377,311962,1,0,0:0:0:0:
74,368,312099,1,0,0:0:0:0:
116,281,312235,6,0,B|219:253|219:253|252:256|252:256|348:227,1,225,0|0,3:0|0:0,0:0:0:0:
409,211,312917,1,0,0:0:0:0:
330,243,313053,6,0,L|282:257,1,50,8|2,0:3|0:0,0:0:0:0:
263,334,313462,1,0,0:0:0:0:
206,277,313599,2,0,L|158:289,1,50,2|0,0:0|0:0,0:0:0:0:
42,322,313872,5,2,0:3:0:0:
30,330,313940,1,2,0:3:0:0:
28,344,314008,1,2,0:3:0:0:
37,355,314076,1,2,0:3:0:0:
50,359,314144,1,2,0:3:0:0:
62,351,314213,1,2,0:3:0:0:
66,336,314281,1,2,0:3:0:0:
58,324,314349,1,2,0:3:0:0:
50,309,314418,1,2,0:3:0:0:
45,292,314486,1,2,0:3:0:0:
44,270,314554,1,2,0:3:0:0:
49,247,314622,1,2,0:3:0:0:
94,216,314689,5,10,0:3:0:0:
64,220,314759,1,2,0:3:0:0:
38,206,314827,1,2,0:3:0:0:
26,181,314895,1,2,0:3:0:0:
26,151,314963,1,2,0:3:0:0:
41,127,315031,1,2,0:3:0:0:
69,117,315098,1,2,0:3:0:0:
99,121,315167,1,2,0:3:0:0:
125,107,315235,1,2,0:3:0:0:
137,82,315303,1,2,0:3:0:0:
137,52,315371,1,2,0:3:0:0:
122,28,315439,1,2,0:3:0:0:
83,16,315508,6,0,B|105:55|105:55|80:147,1,112.500004291535,2|0,3:0|0:0,0:0:0:0:
94,16,315780,2,0,B|116:55|116:55|91:147,1,112.500004291535,2|0,3:0|0:0,0:0:0:0:
74,197,316053,1,2,0:0:0:0:
230,161,316190,1,0,0:0:0:0:
20,138,316326,5,8,0:2:0:0:
128,256,316462,1,0,3:0:0:0:
284,102,316599,2,0,P|264:89|198:91,1,75.0000028610231,0|0,3:0|0:0,0:0:0:0:
303,252,316871,2,0,L|309:154,1,75.0000028610231,0|2,3:0|0:3,0:0:0:0:
132,330,317144,6,0,L|126:232,1,75.0000028610231,0|2,3:0|0:3,0:0:0:0:
295,327,317417,1,0,3:0:0:0:
55,346,317553,2,0,L|49:248,1,75.0000028610231,0|2,3:0|0:3,0:0:0:0:
132,330,317826,1,0,0:0:0:0:
107,78,317962,5,8,0:1:0:0:
86,150,318099,1,8,0:1:0:0:
67,214,318235,1,8,0:3:0:0:
50,271,318371,1,8,0:3:0:0:
307,177,318508,5,8,0:2:0:0:
34,95,318644,1,8,0:2:0:0:
324,183,318780,6,0,B|337:155|324:128|324:128|310:101|324:74,1,112.500004291535,2|0,3:3|0:0,0:0:0:0:
336,186,319053,2,0,B|349:158|336:131|336:131|322:104|336:77,1,112.500004291535,2|0,3:3|0:0,0:0:0:0:
377,11,319326,1,0,0:0:0:0:
448,233,319462,1,0,0:0:0:0:
429,233,319530,1,0,0:0:0:0:
410,233,319599,5,10,0:3:0:0:
443,52,319735,1,0,3:0:0:0:
333,274,319871,2,0,L|352:359,1,75.0000028610231,0|0,3:0|3:0,0:0:0:0:
464,159,320144,2,0,L|445:244,1,75.0000028610231,0|0,3:0|3:0,0:0:0:0:
335,77,320417,6,0,B|307:69|307:69|291:71|291:71|262:63,1,75.0000028610231,2|0,3:0|0:0,0:0:0:0:
336,186,320690,1,0,3:0:0:0:
262,63,320826,1,0,0:0:0:0:
209,115,320962,2,0,P|186:65|208:11,1,112.500004291535,2|0,0:3|0:0,0:0:0:0:
205,256,321235,5,8,0:1:0:0:
226,184,321372,1,8,0:1:0:0:
245,120,321508,1,8,0:3:0:0:
262,63,321644,1,8,0:3:0:0:
333,274,321780,5,8,0:2:0:0:
77,238,321917,1,8,0:2:0:0:
344,275,322053,6,0,B|367:244|367:244|356:151,1,112.500004291535,2|0,3:0|0:0,0:0:0:0:
355,276,322326,2,0,B|378:245|378:245|367:152,1,112.500004291535,2|0,3:0|0:0,0:0:0:0:
357,92,322599,1,2,0:2:0:0:
226,184,322735,1,0,3:0:0:0:
174,0,322871,5,8,0:2:0:0:
223,192,323008,1,0,3:0:0:0:
357,92,323144,2,0,L|340:-3,1,75.0000028610231,0|0,3:0|0:0,0:0:0:0:
291,137,323417,1,0,3:0:0:0:
431,121,323553,1,2,0:3:0:0:
233,69,323690,6,0,B|178:83|178:83|161:96|161:96|99:112,1,112.500004291535,0|0,3:0|0:0,0:0:0:0:
55,137,323962,1,0,3:0:0:0:
119,182,324099,1,2,0:3:0:0:
40,288,324235,2,0,L|50:188,1,75.0000028610231
290,259,324508,5,8,0:1:0:0:
228,301,324644,1,8,0:1:0:0:
160,298,324780,1,8,0:3:0:0:
112,259,324917,1,8,0:3:0:0:
296,334,325053,5,8,0:0:0:0:
278,109,325190,1,8,0:0:0:0:
295,348,325326,6,0,L|414:357,1,112.500004291535,2|0,3:0|0:0,0:0:0:0:
294,360,325599,2,0,L|413:369,1,112.500004291535,2|0,3:0|0:0,0:0:0:0:
485,374,325871,1,2,0:2:0:0:
291,223,326008,1,0,3:0:0:0:
290,240,326076,1,0,0:0:0:0:
290,259,326144,5,8,0:2:0:0:
425,93,326280,1,0,3:0:0:0:
450,302,326417,2,0,L|437:194,1,75.0000028610231,0|0,3:0|3:0,0:0:0:0:
307,76,326690,2,0,L|298:150,1,75.0000028610231,0|2,3:0|0:3,0:0:0:0:
512,22,326962,6,0,P|464:9|416:31,1,75.0000028610231,0|2,3:0|0:3,0:0:0:0:
370,190,327235,1,0,3:0:0:0:
490,154,327371,1,0,3:0:0:0:
350,19,327508,2,0,P|314:54|309:106,1,75.0000028610231,2|0,0:3|0:0,0:0:0:0:
388,263,327780,5,8,0:1:0:0:
430,201,327916,1,8,0:1:0:0:
427,133,328052,1,8,0:3:0:0:
388,85,328189,1,8,0:3:0:0:
251,258,328326,5,8,0:0:0:0:
501,230,328462,1,8,0:0:0:0:
259,384,328599,6,0,B|235:352|235:352|251:256,1,112.500004291535,2|0,3:0|0:0,0:0:0:0:
246,384,328871,2,0,B|222:352|222:352|238:256,1,112.500004291535,2|0,3:0|0:0,0:0:0:0:
252,204,329144,1,2,0:2:0:0:
86,366,329280,1,0,3:0:0:0:
83,348,329348,1,0,0:0:0:0:
80,329,329416,5,8,0:2:0:0:
317,323,329553,1,0,3:0:0:0:
119,169,329690,2,0,L|136:71,1,75.0000028610231,0|0,3:0|3:0,0:0:0:0:
16,285,329962,2,0,L|3:211,1,75.0000028610231,0|2,3:0|0:3,0:0:0:0:
98,31,330235,6,0,P|133:20|172:32,1,75.0000028610231,0|2,3:0|0:3,0:0:0:0:
119,169,330508,1,0,3:0:0:0:
206,95,330644,2,0,P|232:120|242:159,1,75.0000028610231,0|2,3:0|0:3,0:0:0:0:
131,95,330917,1,0,0:0:0:0:
204,220,331053,5,8,0:1:0:0:
168,282,331190,1,8,0:1:0:0:
101,292,331326,1,8,0:3:0:0:
48,263,331462,1,8,0:3:0:0:
242,156,331599,5,8,0:0:0:0:
237,377,331735,1,8,0:0:0:0:
390,243,331871,6,0,B|374:255|374:255|274:227,1,112.500004291535,2|0,3:0|0:0,0:0:0:0:
384,255,332144,2,0,B|368:267|368:267|268:239,1,112.500004291535,2|0,3:0|0:0,0:0:0:0:
204,220,332417,1,2,0:2:0:0:
376,48,332553,1,0,3:0:0:0:
371,66,332621,1,0,0:0:0:0:
366,84,332689,5,8,0:2:0:0:
168,12,332826,1,0,3:0:0:0:
314,142,332962,2,0,P|365:163|411:146,1,75.0000028610231,0|0,3:0|3:0,0:0:0:0:
121,67,333235,2,0,P|100:118|117:164,1,75.0000028610231,0|0,3:0|0:0,0:0:0:0:
366,84,333508,6,0,P|315:63|269:80,2,75.0000028610231,0|0|0,3:0|3:0|0:0,0:0:0:0:
400,236,333917,1,0,3:0:0:0:
457,107,334053,2,0,P|455:52|426:12,1,75.0000028610231,2|0,0:3|0:0,0:0:0:0:
172,138,334326,5,8,0:1:0:0:
244,118,334462,1,8,0:1:0:0:
309,100,334599,1,8,0:3:0:0:
366,84,334735,1,8,0:3:0:0:
238,245,334871,5,8,0:0:0:0:
168,12,335008,1,8,0:0:0:0:
51,217,335144,6,0,B|102:237|102:237|172:212,1,112.500004291535,2|0,3:0|0:0,0:0:0:0:
50,227,335417,2,0,B|101:247|101:247|171:222,1,112.500004291535,2|0,3:0|0:0,0:0:0:0:
172,138,335690,1,2,0:2:0:0:
97,322,335826,1,0,3:0:0:0:
94,340,335894,1,0,0:0:0:0:
92,358,335962,5,8,0:2:0:0:
313,262,336099,1,0,3:0:0:0:
156,228,336235,2,0,L|168:302,1,75.0000028610231,0|0,3:0|3:0,0:0:0:0:
335,106,336508,2,0,L|323:180,1,75.0000028610231,0|2,3:0|0:3,0:0:0:0:
132,68,336780,6,0,B|172:54|172:54|228:76,1,75.0000028610231,0|2,3:0|0:3,0:0:0:0:
156,228,337053,1,0,3:0:0:0:
172,138,337190,1,0,3:0:0:0:
262,306,337326,2,0,L|240:195,1,112.500004291535,2|0,0:3|0:0,0:0:0:0:
140,318,337599,5,8,0:1:0:0:
214,312,337735,1,8,0:1:0:0:
280,304,337871,1,8,0:3:0:0:
339,298,338008,1,8,0:3:0:0:
256,108,338144,5,8,0:0:0:0:
182,379,338280,1,8,0:0:0:0:
61,268,338417,6,0,B|97:199|43:178|46:117|46:117|25:53|89:-4|120:14|154:17|196:28|226:93|204:149|140:187|90:161,1,550,2|0,0:0|0:0,0:0:0:0:
116,96,339235,6,0,B|176:65|236:96|236:96|296:126|356:96|356:96|319:124|294:181|308:223|349:248|349:248|327:218|335:188,1,494.999984893799,8|0,0:3|0:0,0:0:0:0:
414,198,340053,6,0,B|455:252|438:344|340:350|292:314|292:314|266:345|266:345|184:291|111:357,1,440,2|0,3:0|0:0,0:0:0:0:
40,382,340871,6,0,B|72:318|40:254|40:254|8:190|40:126|40:126|36:204|69:242,1,384.999988250733,8|0,0:3|0:0,0:0:0:0:
154,279,341690,6,0,B|194:270|220:303|220:303|190:239|246:182,1,179.999994506836,4|0,0:3|0:0,0:0:0:0:
323,255,341962,2,0,P|295:255|276:251,1,37.5000014305115,2|0,0:0|0:0,0:0:0:0:
322,268,342099,2,0,P|294:268|275:264,1,37.5000014305115
365,183,342235,2,0,P|393:183|412:187,1,37.5000014305115,2|0,0:0|0:0,0:0:0:0:
366,170,342372,2,0,P|394:170|413:174,1,37.5000014305115
227,30,342508,6,0,B|205:73|227:117|227:117|248:160|227:204,1,179.999994506836,10|0,0:0|0:0,0:0:0:0:
121,156,342780,2,0,L|176:158,1,37.5000014305115,2|0,0:0|0:0,0:0:0:0:
108,167,342917,2,0,L|163:169,1,37.5000014305115
62,80,343053,2,0,L|7:82,1,37.5000014305115,2|0,0:0|0:0,0:0:0:0:
75,91,343190,2,0,L|20:93,1,37.5000014305115
104,266,343326,6,0,B|174:284|174:284|185:297|185:297|274:321,1,179.999994506836,2|0,0:0|0:0,0:0:0:0:
343,240,343599,2,0,B|338:261|338:261|346:287,1,37.5000014305115,2|0,0:0|0:0,0:0:0:0:
353,239,343735,2,0,B|348:260|348:260|356:286,1,37.5000014305115
282,356,343871,2,0,B|287:335|287:335|279:309,1,37.5000014305115,2|0,0:0|0:0,0:0:0:0:
272,357,344007,2,0,B|277:336|277:336|269:310,1,37.5000014305115
388,151,344144,6,0,B|411:154|432:143|432:143|407:170|368:161|368:161|337:152|304:173,1,179.999994506836,10|0,0:0|0:0,0:0:0:0:
223,214,344417,2,0,P|231:186|224:152,1,37.5000014305115,2|0,0:0|0:0,0:0:0:0:
210,217,344553,2,0,P|218:189|211:155,1,37.5000014305115
141,55,344690,2,0,P|133:83|140:117,1,42.5000008106232,2|0,0:0|0:0,0:0:0:0:
196,222,344826,2,0,P|204:194|197:160,1,42.5000008106232
19,287,344962,6,0,B|52:281|70:258|70:258|58:311|58:311|67:367,1,165.000005035401,2|0,0:0|0:0,0:0:0:0:
182,307,345235,2,0,L|139:315,1,32.4999985122681,2|0,0:0|0:0,0:0:0:0:
188,319,345371,2,0,L|145:327,1,32.4999985122681
265,364,345508,2,0,L|308:372,1,32.4999985122681,2|0,0:0|0:0,0:0:0:0:
259,376,345644,2,0,L|302:384,1,32.4999985122681
404,166,345780,6,0,B|402:196|402:196|419:235|419:235|383:284|412:337,1,179.999994506836,10|0,0:0|0:0,0:0:0:0:
512,288,346053,2,0,P|493:283|475:286,1,37.5000014305115,2|0,0:0|0:0,0:0:0:0:
510,298,346190,2,0,P|491:293|473:296,1,37.5000014305115
299,225,346326,2,0,P|317:220|335:223,1,37.5000014305115,2|0,0:0|0:0,0:0:0:0:
301,235,346463,2,0,P|319:230|337:233,1,37.5000014305115
489,127,346599,6,0,P|460:90|329:114,1,165.000005035401,4|0,0:0|0:0,0:0:0:0:
249,153,346871,2,0,L|260:94,1,32.4999985122681,2|0,0:0|0:0,0:0:0:0:
263,146,347008,2,0,L|274:87,1,32.4999985122681
180,213,347144,2,0,L|169:272,1,32.4999985122681,2|0,0:0|0:0,0:0:0:0:
166,220,347281,2,0,L|155:279,1,32.4999985122681
144,0,347417,5,10,0:0:0:0:
350,90,347553,1,0,0:0:0:0:
115,125,347690,6,0,P|109:92|117:65,1,50,12|0,0:0|0:0,0:0:0:0:
188,98,347826,1,0,0:0:0:0:
73,205,347962,2,0,P|79:238|71:265,1,50,12|0,0:1|0:0,0:0:0:0:
0,232,348098,1,0,0:0:0:0:
146,337,348235,6,0,B|183:317|220:337|220:337|240:317|240:317|277:337|315:317,1,179.999994506836,4|0,0:2|0:0,0:0:0:0:
395,283,348508,2,0,L|389:326,1,37.5000014305115,2|0,0:0|0:0,0:0:0:0:
396,352,348644,2,0,L|400:314,1,37.5000014305115
310,249,348780,2,0,L|305:287,1,37.5000014305115,2|0,0:0|0:0,0:0:0:0:
311,318,348916,2,0,L|315:280,1,37.5000014305115
426,138,349053,6,0,B|424:108|424:108|441:68|441:68|434:8|434:8|430:49|408:74,1,179.999994506836,10|0,0:0|0:0,0:0:0:0:
345,70,349326,2,0,P|319:68|297:56,1,37.5000014305115,2|0,0:0|0:0,0:0:0:0:
275,51,349462,2,0,P|301:53|323:65,1,37.5000014305115
229,117,349599,2,0,P|203:115|181:103,1,37.5000014305115,2|0,0:0|0:0,0:0:0:0:
159,98,349735,2,0,P|185:100|207:112,1,37.5000014305115
103,274,349871,6,0,P|91:210|172:259,1,179.999994506836,2|0,0:0|0:0,0:0:0:0:
241,300,350144,2,0,B|235:278|235:278|241:252,1,37.5000014305115,2|0,0:0|0:0,0:0:0:0:
244,227,350280,2,0,B|250:249|250:249|244:275,1,37.5000014305115
326,287,350417,2,0,B|332:309|332:309|326:335,1,37.5000014305115,2|0,0:0|0:0,0:0:0:0:
323,360,350553,2,0,B|317:338|317:338|323:312,1,37.5000014305115
510,186,350690,6,0,B|458:160|406:186|406:186|372:203|337:186,1,179.999994506836,10|0,0:0|0:0,0:0:0:0:
371,118,350962,2,0,L|360:65,1,37.5000014305115,2|0,0:0|0:0,0:0:0:0:
342,43,351099,2,0,L|349:79,1,37.5000014305115
244,227,351235,2,0,L|254:177,1,42.5000008106232,2|0,0:0|0:0,0:0:0:0:
350,33,351371,2,0,L|359:77,1,42.5000008106232
168,127,351508,6,0,B|60:161|60:161|81:130|81:130|111:118,1,165.000005035401,2|0,0:0|0:0,0:0:0:0:
19,88,351780,2,0,P|20:61|12:35,1,32.4999985122681,2|0,0:0|0:0,0:0:0:0:
9,14,351917,2,0,P|8:41|16:67,1,32.4999985122681
61,162,352053,2,0,P|62:189|54:215,1,32.4999985122681,2|0,0:0|0:0,0:0:0:0:
51,236,352190,2,0,P|50:209|58:183,1,32.4999985122681
159,267,352326,6,0,B|172:303|163:327|163:327|196:275|182:203,1,179.999994506836,10|0,0:0|0:0,0:0:0:0:
256,133,352599,2,0,P|255:159|270:203,1,37.5000014305115,2|0,0:0|0:0,0:0:0:0:
267,205,352735,2,0,P|268:179|253:135,1,37.5000014305115
390,83,352871,2,0,P|391:57|376:13,1,37.5000014305115,2|0,0:0|0:0,0:0:0:0:
379,11,353007,2,0,P|378:37|393:81,1,37.5000014305115
492,181,353144,6,0,B|520:298|520:298|465:281,1,165.000005035401,2|0,0:0|0:0,0:0:0:0:
378,320,353417,2,0,L|433:337,1,32.4999985122681,2|0,0:0|0:0,0:0:0:0:
439,354,353553,2,0,L|407:344,1,32.4999985122681
309,270,353690,2,0,L|253:287,1,32.4999985122681,2|0,0:0|0:0,0:0:0:0:
248,304,353826,2,0,L|279:294,1,32.4999985122681
344,95,353962,6,8,P|356:166|289:145,1,150,12|0,0:0|0:0,0:0:0:0:
238,92,354235,2,0,L|188:94,1,27.5000008392334,2|0,0:0|0:0,0:0:0:0:
171,104,354371,2,0,L|220:101,1,27.5000008392334
205,190,354508,2,0,L|155:192,1,27.5000008392334,2|0,0:0|0:0,0:0:0:0:
138,202,354644,2,0,L|187:199,1,27.5000008392334
49,353,354780,6,0,B|79:315|79:315|49:164,1,179.999994506836,2|0,0:0|0:0,0:0:0:0:
13,87,355053,2,0,L|3:136,1,37.5000014305115
69,8,355190,2,0,L|79:57,1,37.5000014305115
21,87,355326,2,0,L|11:136,1,37.5000014305115
77,8,355463,2,0,L|87:57,1,37.5000014305115
205,190,355599,6,0,B|171:159|171:159|239:179|309:148,1,179.999994506836,10|0,0:0|0:0,0:0:0:0:
407,108,355871,2,0,P|379:109|356:120,1,37.5000014305115
480,188,356008,2,0,P|452:187|429:176,1,37.5000014305115
408,98,356144,2,0,P|380:99|357:110,1,37.5000014305115
481,178,356281,2,0,P|453:177|430:166,1,37.5000014305115
225,96,356417,6,0,P|281:45|212:14,1,179.999994506836,2|0,0:0|0:0,0:0:0:0:
108,80,356690,2,0,B|128:88|128:88|148:84,1,37.5000014305115,2|0,0:0|0:0,0:0:0:0:
19,19,356826,2,0,B|39:11|39:11|59:15,1,37.5000014305115
108,90,356962,2,0,B|128:98|128:98|148:94,1,37.5000014305115,2|0,0:0|0:0,0:0:0:0:
19,29,357098,2,0,B|39:21|39:21|59:25,1,37.5000014305115
29,198,357235,6,0,B|29:235|42:266|42:266|93:308|154:281,1,179.999994506836,10|0,0:0|0:0,0:0:0:0:
246,237,357508,2,0,B|229:227|229:227|220:243,1,37.5000014305115
202,341,357644,2,0,B|218:350|218:350|227:334,1,37.5000014305115
135,206,357780,2,0,B|116:195|116:195|105:213,1,42.5000008106232
204,354,357917,2,0,B|222:364|222:364|232:346,1,42.5000008106232
354,143,358053,6,0,P|329:203|369:299,1,165.000005035401,2|0,0:0|0:0,0:0:0:0:
478,302,358326,2,0,L|433:308,1,32.4999985122681
393,371,358462,2,0,L|361:376,1,32.4999985122681
487,311,358599,2,0,L|442:317,1,32.4999985122681
402,380,358735,2,0,L|369:384,1,32.4999985122681
292,195,358871,6,0,B|254:141|292:88|292:88|307:57|292:25,1,179.999994506836,10|0,0:0|0:0,0:0:0:0:
218,53,359144,2,0,L|181:48,1,37.5000014305115
65,176,359280,2,0,L|27:170,1,37.5000014305115
210,64,359417,2,0,L|173:59,1,37.5000014305115
74,167,359553,2,0,L|36:161,1,37.5000014305115
224,257,359690,6,0,P|292:285|375:224,1,165.000005035401,2|0,0:0|0:0,0:0:0:0:
406,140,359962,2,0,B|401:156|401:156|406:176,1,32.4999985122681,2|0,0:0|0:0,0:0:0:0:
480,81,360099,2,0,B|475:65|475:65|480:45,1,32.4999985122681
398,141,360235,2,0,B|393:157|393:157|398:177,1,32.4999985122681,2|0,0:0|0:0,0:0:0:0:
472,82,360372,2,0,B|467:66|467:66|472:46,1,32.4999985122681
297,112,360508,6,0,B|230:94|230:94|223:98|223:98|151:78,1,150,10|0,0:0|0:0,0:0:0:0:
55,45,360780,2,0,L|56:93,1,27.5000008392334
112,135,360917,2,0,L|113:183,1,27.5000008392334
48,45,361053,2,0,L|49:93,1,27.5000008392334,4|0,0:1|0:0,0:0:0:0:
105,135,361190,2,0,L|106:183,1,27.5000008392334
28,308,361326,6,0,B|104:271|104:271|157:313|221:285,1,179.999994506836,2|0,0:0|0:0,0:0:0:0:
267,234,361599,2,0,L|284:171,1,37.5000014305115
337,272,361735,2,0,L|399:289,1,37.5000014305115
299,342,361871,2,0,L|281:404,1,37.5000014305115
229,304,362008,2,0,L|166:286,1,37.5000014305115
463,210,362144,6,0,B|450:244|450:244|425:217|425:217|444:165|408:116,1,179.999994506836,10|0,0:0|0:0,0:0:0:0:
334,51,362417,2,0,P|332:84|338:98,1,37.5000014305115
261,113,362553,2,0,P|275:142|287:151,1,37.5000014305115
188,132,362690,2,0,P|186:99|192:85,1,37.5000014305115
115,70,362826,2,0,P|129:40|141:31,1,37.5000014305115
100,265,362962,6,0,P|26:276|69:192,1,179.999994506836,2|0,0:0|0:0,0:0:0:0:
109,153,363235,2,0,L|106:207,1,37.5000014305115,2|0,0:0|0:0,0:0:0:0:
100,265,363371,2,0,L|97:319,1,37.5000014305115
166,344,363508,2,0,L|169:290,1,37.5000014305115,2|0,0:0|0:0,0:0:0:0:
175,232,363644,2,0,L|178:178,1,37.5000014305115
287,340,363780,6,0,B|332:352|370:324|370:324|417:337|457:309,1,179.999994506836,10|0,0:0|0:0,0:0:0:0:
448,191,364053,2,0,B|454:213|454:213|447:241,1,37.5000014305115
497,104,364190,2,0,B|503:126|503:126|496:154,1,37.5000014305115
367,24,364326,2,0,B|361:46|361:46|368:74,1,42.5000008106232
510,105,364462,2,0,B|516:127|516:127|509:155,1,42.5000008106232
278,85,364599,6,0,L|98:115,1,165.000005035401,2|0,0:0|0:0,0:0:0:0:
41,167,364871,2,0,P|35:195|38:217,1,37.5000014305115
105,237,365008,2,0,P|111:209|108:187,1,37.5000014305115
26,278,365144,2,0,P|20:306|23:328,1,37.5000014305115
90,348,365281,2,0,P|96:320|93:298,1,37.5000014305115
283,217,365417,6,0,B|226:247|226:247|377:302,1,179.999994506836,10|0,0:0|0:0,0:0:0:0:
488,243,365690,2,0,L|434:261,1,37.5000014305115
328,356,365827,2,0,L|381:374,1,37.5000014305115
299,274,365962,2,0,L|335:287,1,37.5000014305115
511,162,366099,2,0,L|475:174,1,37.5000014305115
318,104,366235,6,0,B|312:71|341:41|341:41|288:66|215:27,1,165.000005035401,2|0,0:0|0:0,0:0:0:0:
141,35,366508,2,0,P|172:34|192:40,1,32.4999985122681,2|0,0:0|0:0,0:0:0:0:
63,95,366644,2,0,P|94:94|114:100,1,32.4999985122681
159,136,366780,2,0,P|190:135|210:141,1,32.4999985122681,2|0,0:0|0:0,0:0:0:0:
81,196,366916,2,0,P|112:195|132:201,1,32.4999985122681
188,292,367053,5,2,0:1:0:0:
228,262,367121,1,0,3:0:0:0:
276,253,367189,1,0,3:0:0:0:
325,264,367257,1,0,3:0:0:0:
353,313,367326,5,0,0:0:0:0:
377,317,367394,1,0,0:0:0:0:
401,322,367462,1,0,0:0:0:0:
426,327,367530,1,0,0:0:0:0:
478,318,367599,5,0,0:0:0:0:
464,324,367667,1,0,0:0:0:0:
450,331,367735,1,0,0:0:0:0:
437,337,367803,1,0,0:0:0:0:
396,373,367871,6,0,B|425:331|425:331|402:245|402:245|407:228|407:228|383:124,1,250,4|0,0:1|0:0,0:0:0:0:
83,278,368417,6,0,P|48:209|121:127,1,179.999994506836,4|0,0:0|0:0,0:0:0:0:
180,67,368690,6,0,B|199:100|199:100|188:129|188:129|122:91|68:137,1,200,4|0,0:1|0:0,0:0:0:0:
427,18,369235,6,0,B|395:50|395:50|427:178,1,134.999995880127,4|0,0:0|0:0,0:0:0:0:
475,306,369508,6,0,B|451:212|451:212|440:199|440:199|413:90,1,220.000006713867,4|0,0:1|0:0,3:0:0:0:
41,293,370053,6,0,B|84:271|128:293|128:293|172:314|216:293|216:293,1,179.999994506836,4|0,0:1|0:0,0:0:0:0:
23,288,370326,6,0,P|76:268|125:277,1,100,4|0,0:0|0:0,0:0:0:0:
272,347,370599,5,0,0:0:0:0:
296,352,370667,1,0,0:0:0:0:
320,357,370735,1,0,0:0:0:0:
344,362,370803,1,0,0:0:0:0:
388,340,370871,5,0,0:0:0:0:
402,337,370940,1,0,0:0:0:0:
416,334,371008,1,0,0:0:0:0:
430,331,371076,1,0,0:0:0:0:
480,344,371144,6,0,B|494:314|494:314|420:333,1,100,4|0,0:1|0:0,0:0:0:0:
102,21,371690,6,0,B|120:67|79:93|79:93|86:101|86:101|62:150|113:189,1,179.999994506836,4|0,0:0|0:0,0:0:0:0:
228,166,371962,6,0,P|144:209|72:148,1,200,4|0,0:1|0:0,0:0:0:0:
454,47,372508,6,0,L|436:211,1,134.999995880127,4|0,0:0|0:0,0:0:0:0:
401,320,372780,6,0,B|418:154|418:154|446:230,1,220.000006713867,4|0,0:1|0:0,0:0:0:0:
40,302,373326,6,0,B|28:279|28:279|3:263|3:263|166:289,1,179.999994506836,4|0,0:0|0:0,0:0:0:0:
201,336,373599,5,8,0:2:0:0:
206,311,373667,1,8,0:2:0:0:
211,286,373735,2,0,L|231:192,1,50
114,78,373871,1,8,0:0:0:0:
119,103,373939,1,8,0:0:0:0:
124,128,374007,2,0,L|144:222,1,50
230,131,374144,5,8,3:1:0:0:
276,111,374212,1,8,0:1:0:0:
322,91,374280,1,8,0:1:0:0:
368,72,374349,1,8,0:1:0:0:
409,37,374417,5,4,0:1:0:0:
405,59,374485,1,8,0:1:0:0:
402,81,374553,1,0,0:0:0:0:
398,103,374621,1,8,0:1:0:0:
395,125,374690,5,2,0:0:0:0:
218,5,374826,1,0,0:0:0:0:
356,193,374962,2,0,P|407:203|461:173,1,115.000002193451,2|0,3:0|0:0,0:0:0:0:
158,67,375235,2,0,B|129:121|158:177|158:177|185:232|158:288,1,230.000004386902,2|2,0:0|0:0,0:0:0:0:
140,363,375644,1,0,0:0:0:0:
0,237,375780,6,0,B|21:219|21:219|51:213|51:213|76:237|111:233,1,115.000002193451,2|0,0:0|0:0,0:0:0:0:
321,346,376053,2,0,B|267:364|267:364|214:342,1,115.000002193451,2|0,0:0|0:0,0:0:0:0:
230,131,376326,1,2,0:0:0:0:
267,282,376462,1,0,0:0:0:0:
189,61,376599,6,0,P|152:112|170:190,1,115.000002193451,2|0,0:0|0:0,0:0:0:0:
267,282,376871,2,0,L|277:220,1,57.5000010967255
451,138,377008,5,0,0:0:0:0:
416,142,377076,1,8,0:1:0:0:
381,146,377144,1,2,0:0:0:0:
346,150,377212,1,8,0:1:0:0:
311,154,377280,1,0,0:0:0:0:
275,159,377349,1,8,0:1:0:0:
230,131,377417,5,2,0:0:0:0:
239,150,377485,1,8,0:1:0:0:
243,172,377553,1,0,0:0:0:0:
239,194,377621,1,8,0:1:0:0:
227,213,377690,6,0,P|205:274|284:353,1,172.500003290176,2|0,0:0|0:0,0:0:0:0:
389,296,377962,1,2,0:0:0:0:
126,341,378099,1,0,0:0:0:0:
289,268,378235,6,0,P|333:260|395:306,1,115.000002193451,2|0,0:0|0:0,0:0:0:0:
446,211,378508,2,0,P|479:240|497:310,1,115.000002193451,2|0,0:0|0:0,0:0:0:0:
438,366,378780,1,2,0:3:0:0:
389,296,378917,1,0,0:0:0:0:
469,93,379053,2,0,B|489:52|489:52|442:108|371:82,1,172.500003290176,2|0,0:0|0:0,0:0:0:0:
292,123,379326,5,2,0:0:0:0:
299,99,379394,1,8,0:1:0:0:
306,75,379462,1,0,0:0:0:0:
314,51,379530,1,8,0:1:0:0:
322,27,379599,5,2,0:0:0:0:
287,34,379667,1,8,0:1:0:0:
253,42,379735,1,0,0:0:0:0:
219,49,379803,1,8,0:1:0:0:
185,57,379871,5,2,0:0:0:0:
219,93,379940,1,8,0:1:0:0:
253,130,380008,1,0,0:0:0:0:
287,166,380076,1,8,0:1:0:0:
321,202,380144,2,0,L|344:146,3,57.5000010967255,2|8|2|8,0:0|0:1|0:0|0:1,0:0:0:0:
103,130,380417,5,4,0:1:0:0:
99,179,380485,1,0,0:0:0:0:
96,229,380553,1,0,0:0:0:0:
92,279,380621,1,0,0:0:0:0:
128,330,380690,5,4,0:0:0:0:
107,315,380758,1,0,0:0:0:0:
83,309,380826,1,0,0:0:0:0:
59,312,380894,1,0,0:0:0:0:
36,322,380962,6,0,B|8:338|8:338|25:243,1,89.9999972534181,4|0,0:1|0:0,0:0:0:0:
174,198,381235,2,0,B|202:182|202:182|185:277,1,100,2|0,0:0|0:0,0:0:0:0:
21,327,381508,2,0,B|-7:343|-7:343|10:248,1,115.000002193451,2|0,0:0|0:0,0:0:0:0:
234,356,381780,2,0,B|281:347|281:347|303:330|303:330|425:309,1,200,2|2,0:0|0:0,3:0:0:0:
502,295,382190,1,0,0:0:0:0:
460,141,382326,2,0,L|452:241,1,100,2|0,0:0|0:0,0:0:0:0:
381,1,382599,6,0,L|389:101,1,100,2|0,0:0|0:0,0:0:0:0:
425,305,382871,1,2,0:0:0:0:
225,220,383008,1,0,0:0:0:0:
398,100,383144,2,0,L|390:0,1,100,2|0,0:0|0:0,0:0:0:0:
130,194,383417,2,0,P|133:258|223:212,1,200,2|2,0:0|0:0,0:0:0:0:
154,78,383826,1,0,0:0:0:0:
293,178,383962,2,0,P|306:222|296:278,1,100,2|0,0:0|0:0,0:0:0:0:
439,7,384235,6,0,P|415:84|454:160,1,150,2|0,0:0|0:0,0:0:0:0:
493,203,384508,1,2,0:0:0:0:
512,77,384644,1,0,0:0:0:0:
414,219,384780,2,0,L|400:318,1,100,2|0,0:0|0:0,0:0:0:0:
225,220,385053,6,0,B|192:236|158:208|158:208|119:241|77:222,1,150,2|0,0:0|0:0,0:0:0:0:
17,207,385326,1,2,0:0:0:0:
199,33,385462,1,0,0:0:0:0:
157,294,385599,1,2,0:0:0:0:
127,157,385735,1,0,0:0:0:0:
26,368,385871,6,0,B|52:349|52:349|79:252,1,115.000002193451,2|0,0:0|0:0,0:0:0:0:
318,351,386144,1,2,0:0:0:0:
0,240,386280,2,0,B|11:187|11:187|27:162|27:162|47:62,1,172.500003290176
64,0,386553,1,0,0:0:0:0:
224,220,386690,6,0,P|278:211|326:229,1,89.9999972534181,2|0,0:0|0:0,0:0:0:0:
501,153,386962,2,0,P|510:196|481:271,1,115.000002193451,2|0,0:0|0:0,0:0:0:0:
349,129,387235,2,0,P|393:160|414:207,1,100,2|0,0:0|0:0,0:0:0:0:
307,316,387508,5,4,0:1:0:0:
303,306,387576,1,0,0:0:0:0:
300,296,387644,1,0,0:0:0:0:
299,287,387712,1,0,0:0:0:0:
300,279,387780,5,10,0:0:0:0:
266,298,387848,1,0,0:0:0:0:
226,294,387916,1,10,0:0:0:0:
197,268,387984,1,0,0:0:0:0:
189,230,388052,1,10,0:0:0:0:
168,181,388121,1,0,0:0:0:0:
126,155,388189,1,10,0:0:0:0:
75,157,388257,1,0,0:0:0:0:
34,188,388326,6,0,P|68:202|106:191,3,50,10|0|10|0,0:0|0:0|0:0|0:0,0:0:0:0:
273,35,388599,6,0,P|239:49|219:83,1,50,10|0,0:0|0:0,0:0:0:0:
182,135,388736,2,0,P|168:169|179:207,1,50,10|0,0:0|0:0,0:0:0:0:
314,246,388870,5,10,0:0:0:0:
324,245,388940,1,0,0:0:0:0:
334,244,389007,1,10,0:0:0:0:
344,243,389075,1,0,0:0:0:0:
356,242,389144,5,10,0:0:0:0:
339,277,389212,1,0,0:0:0:0:
344,316,389280,1,10,0:0:0:0:
370,346,389348,1,0,0:0:0:0:
408,357,389416,1,10,0:0:0:0:
446,346,389484,1,0,0:0:0:0:
471,316,389553,1,10,0:0:0:0:
477,277,389621,1,0,0:0:0:0:
460,239,389690,5,10,0:0:0:0:
430,196,389758,1,0,0:0:0:0:
417,146,389826,1,10,0:0:0:0:
422,94,389894,1,0,0:0:0:0:
444,48,389962,1,10,0:0:0:0:
405,81,390030,1,0,0:0:0:0:
356,97,390098,1,10,0:0:0:0:
305,93,390166,1,0,0:0:0:0:
260,70,390235,6,0,L|312:62,1,50,10|0,0:0|0:0,0:0:0:0:
184,155,390371,2,0,L|132:147,1,50,10|0,0:0|0:0,0:0:0:0:
260,240,390508,2,0,L|312:232,1,50,10|0,0:0|0:0,0:0:0:0:
161,360,390644,1,10,0:0:0:0:
148,358,390712,1,0,0:0:0:0:
137,354,390780,5,10,0:0:0:0:
159,321,390848,1,0,0:0:0:0:
158,282,390916,1,10,0:0:0:0:
135,250,390985,1,0,0:0:0:0:
102,227,391053,1,10,0:0:0:0:
82,193,391121,1,0,0:0:0:0:
77,153,391189,1,10,0:0:0:0:
89,115,391257,1,0,0:0:0:0:
116,86,391325,1,10,0:0:0:0:
150,125,391394,1,0,0:0:0:0:
163,174,391462,1,10,0:0:0:0:
152,225,391530,1,0,0:0:0:0:
120,265,391599,6,0,P|111:235|115:211,3,50,10|0|10|0,0:0|0:0|0:0|0:0,0:0:0:0:
318,40,391871,6,0,P|293:38|270:47,1,50,10|0,0:0|0:0,0:0:0:0:
179,86,392008,2,0,P|160:102|150:125,1,50,10|0,0:0|0:0,0:0:0:0:
276,313,392144,5,10,0:0:0:0:
304,272,392212,1,0,0:0:0:0:
311,223,392280,1,10,0:0:0:0:
294,177,392348,1,0,0:0:0:0:
254,142,392417,5,10,0:0:0:0:
281,188,392485,1,0,0:0:0:0:
331,209,392553,1,10,0:0:0:0:
383,195,392621,1,0,0:0:0:0:
417,153,392689,1,10,0:0:0:0:
418,98,392757,1,0,0:0:0:0:
386,55,392826,1,10,0:0:0:0:
335,39,392894,1,0,0:0:0:0:
283,56,392962,1,10,0:0:0:0:
252,101,393030,1,0,0:0:0:0:
201,123,393099,2,0,P|168:129|121:111,1,50,10|0,0:0|0:0,0:0:0:0:
11,9,393235,5,12,0:2:0:0:
50,53,393303,1,0,0:0:0:0:
69,109,393371,1,0,0:0:0:0:
64,169,393439,1,0,0:0:0:0:
32,233,393508,5,12,0:2:0:0:
77,194,393576,1,0,0:0:0:0:
135,182,393644,1,0,0:0:0:0:
192,200,393712,1,0,0:0:0:0:
239,254,393780,5,12,0:2:0:0:
296,272,393848,1,0,0:0:0:0:
354,260,393916,1,0,0:0:0:0:
399,221,393984,1,0,0:0:0:0:
422,154,394053,6,0,B|364:150|364:150|343:160|343:160|228:150,1,175,4|0,0:1|0:0,0:0:0:0:
138,212,394599,6,0,B|165:170|165:170|137:9,1,179.999994506836,4|0,0:0|0:0,0:0:0:0:
71,153,394871,6,0,B|42:196|42:196|59:292|59:292|32:335,1,200,4|0,3:1|0:0,0:0:0:0:
211,117,395417,6,0,B|244:133|278:117|278:117|312:100|346:117,1,134.999995880127,4|0,0:0|0:0,0:0:0:0:
417,23,395690,6,0,P|364:46|425:157,1,220.000006713867,4|0,0:1|0:0,0:0:0:0:
128,301,396235,6,0,P|76:214|146:130,1,179.999994506836,4|0,0:0|0:0,0:0:0:0:
115,309,396508,6,0,P|78:279|64:206,1,100,4|0,0:1|0:0,0:0:0:0:
387,217,396780,5,0,0:0:0:0:
360,222,396848,1,0,0:0:0:0:
333,228,396916,1,0,0:0:0:0:
306,233,396984,1,0,0:0:0:0:
256,209,397052,5,0,0:0:0:0:
240,205,397121,1,0,0:0:0:0:
225,202,397189,1,0,0:0:0:0:
209,198,397257,1,0,0:0:0:0:
157,218,397326,6,0,B|187:195|187:195|178:120,1,100,4|0,0:1|0:0,0:0:0:0:
456,220,397871,6,0,B|466:187|466:187|456:157|456:157|485:213|454:306,1,179.999994506836,4|0,0:0|0:0,0:0:0:0:
370,353,398144,6,0,P|409:294|457:376,1,200,4|0,0:1|0:0,0:0:0:0:
54,173,398690,6,0,P|118:207|200:173,1,134.999995880127,4|0,0:0|0:0,0:0:0:0:
198,59,398962,6,0,B|214:46|244:51|244:51|206:30|128:51|125:133,1,220.000006713867,4|0,0:1|0:0,0:0:0:0:
295,338,399508,6,0,B|313:300|295:262|295:262|313:243|313:243|295:205|313:167,1,179.999994506836,4|0,0:0|0:0,0:0:0:0:
429,59,399780,6,0,P|404:103|413:172,1,100,4|0,0:1|0:0,0:0:0:0:
142,81,400053,5,0,0:0:0:0:
178,115,400121,1,0,0:0:0:0:
187,163,400189,1,0,0:0:0:0:
167,208,400257,1,0,0:0:0:0:
116,236,400326,5,0,0:0:0:0:
140,243,400394,1,0,0:0:0:0:
164,251,400462,1,0,0:0:0:0:
188,259,400530,1,0,0:0:0:0:
223,301,400599,5,4,0:1:0:0:
256,192,400667,12,0,402917,0:0:0:0:
65,74,403053,5,0,0:0:0:0:
101,106,403121,1,0,0:0:0:0:
112,154,403189,1,0,0:0:0:0:
94,200,403257,1,0,0:0:0:0:
69,239,403326,1,0,0:0:0:0:
51,285,403394,1,0,0:0:0:0:
62,333,403462,1,0,0:0:0:0:
98,365,403530,1,0,0:0:0:0:
160,369,403599,5,0,0:0:0:0:
170,345,403667,1,0,0:0:0:0:
171,319,403735,2,0,P|172:287|157:252,1,50
101,106,403871,5,4,0:0:0:0:
134,142,403939,1,0,0:0:0:0:
179,163,404007,1,0,0:0:0:0:
229,167,404075,1,0,0:0:0:0:
276,152,404143,1,0,0:0:0:0:
315,121,404211,1,0,0:0:0:0:
333,52,404280,5,8,0:0:0:0:
321,99,404348,1,0,0:0:0:0:
341,144,404416,1,2,0:2:0:0:
385,167,404485,1,0,0:0:0:0:
419,202,404553,1,2,0:2:0:0:
431,250,404621,1,0,0:0:0:0:
417,298,404689,1,2,0:2:0:0:
382,333,404757,1,0,0:0:0:0:
334,345,404825,1,2,0:2:0:0:
287,333,404894,1,0,0:0:0:0:
251,298,404962,1,2,0:2:0:0:
238,250,405030,1,0,0:0:0:0:
262,183,405098,5,8,0:0:0:0:
230,221,405167,1,0,0:0:0:0:
184,239,405235,1,2,0:2:0:0:
135,231,405303,1,0,0:0:0:0:
96,201,405371,1,2,0:2:0:0:
77,156,405439,1,0,0:0:0:0:
83,106,405508,1,2,0:2:0:0:
124,133,405576,1,0,0:0:0:0:
152,175,405644,1,2,0:2:0:0:
160,224,405712,1,0,0:0:0:0:
148,272,405780,1,2,0:2:0:0:
118,311,405848,1,0,0:0:0:0:
61,354,405917,5,8,0:0:0:0:
105,332,405985,1,0,0:0:0:0:
155,328,406053,1,2,0:2:0:0:
202,344,406121,1,0,0:0:0:0:
240,374,406190,1,2,0:2:0:0:
289,382,406258,1,0,0:0:0:0:
335,364,406326,1,2,0:2:0:0:
366,326,406394,1,0,0:0:0:0:
374,277,406462,1,2,0:2:0:0:
356,231,406531,1,0,0:0:0:0:
318,199,406599,6,0,P|278:192|251:201,1,50,2|0,0:2|0:0,0:0:0:0:
100,265,406735,2,0,P|140:272|167:263,1,50,8|0,0:0|0:0,0:0:0:0:
241,123,406871,2,0,P|206:146|194:171,3,50,2|0|2|0,0:2|0:0|0:2|0:0,0:0:0:0:
366,326,407144,5,4,0:0:0:0:
414,295,407212,1,0,0:0:0:0:
446,247,407280,1,0,0:0:0:0:
455,191,407348,1,0,0:0:0:0:
441,136,407416,1,0,0:0:0:0:
405,91,407484,1,0,0:0:0:0:
339,60,407553,2,0,P|332:111|371:151,3,57.5000010967255,10|0|0|0,0:0|0:0|0:0|0:0,0:0:0:0:
414,295,407826,5,0,0:0:0:0:
366,326,407894,1,0,0:0:0:0:
310,337,407962,1,2,0:0:0:0:
257,318,408030,1,0,0:0:0:0:
217,277,408098,1,0,0:0:0:0:
163,260,408167,1,0,0:0:0:0:
107,269,408235,1,2,0:0:0:0:
60,303,408303,1,0,0:0:0:0:
17,366,408371,5,10,0:0:0:0:
49,319,408439,1,0,0:0:0:0:
59,262,408507,1,0,0:0:0:0:
44,207,408575,1,0,0:0:0:0:
8,163,408644,1,0,0:0:0:0:
0,106,408712,1,0,0:0:0:0:
23,55,408780,1,2,0:0:0:0:
71,24,408848,1,0,0:0:0:0:
128,24,408916,1,0,0:0:0:0:
176,55,408984,1,0,0:0:0:0:
199,106,409053,1,0,0:0:0:0:
192,162,409121,1,0,0:0:0:0:
143,221,409189,5,10,0:0:0:0:
188,186,409258,1,0,0:0:0:0:
244,176,409326,1,0,0:0:0:0:
298,193,409394,1,0,0:0:0:0:
352,210,409462,1,0,0:0:0:0:
408,199,409530,1,0,0:0:0:0:
453,165,409599,5,8,0:0:0:0:
383,187,409667,1,8,0:0:0:0:
345,250,409735,1,8,0:0:0:0:
358,322,409803,1,8,0:0:0:0:
415,368,409871,6,0,P|431:315|422:290,1,57.5000010967255,8|0,0:0|0:0,0:0:0:0:
244,176,410008,2,0,P|228:229|237:254,1,57.5000010967255,8|0,0:0|0:0,0:0:0:0:
425,372,410144,6,0,P|440:318|431:293,1,57.5000010967255,8|0,0:0|0:0,0:0:0:0:
253,179,410281,2,0,P|237:232|246:257,1,57.5000010967255,8|0,0:0|0:0,0:0:0:0:
501,110,410417,5,2,0:2:0:0:
474,80,410485,1,8,0:1:0:0:
438,62,410553,1,0,0:0:0:0:
399,61,410621,1,8,0:1:0:0:
362,75,410689,1,0,0:0:0:0:
333,103,410757,1,8,0:1:0:0:
318,139,410826,1,2,0:2:0:0:
289,112,410894,1,8,0:1:0:0:
251,102,410962,1,0,0:0:0:0:
213,112,411030,1,8,0:1:0:0:
185,141,411099,2,0,P|179:174|185:204,1,40,0|8,0:0|0:1,0:0:0:0:
283,350,411235,5,2,0:2:0:0:
255,314,411303,1,8,0:1:0:0:
217,291,411371,1,0,0:0:0:0:
173,281,411439,1,8,0:1:0:0:
129,288,411507,1,0,0:0:0:0:
89,309,411575,1,8,0:1:0:0:
60,342,411644,1,2,0:2:0:0:
85,305,411712,1,8,0:1:0:0:
93,261,411780,1,0,0:0:0:0:
81,218,411848,1,8,0:1:0:0:
53,183,411916,1,0,0:0:0:0:
25,148,411985,1,8,0:1:0:0:
13,105,412053,1,2,0:2:0:0:
21,61,412121,1,8,0:1:0:0:
46,24,412190,2,0,P|53:50|47:99,1,44.999998626709,0|8,0:0|0:1,0:0:0:0:
10,249,412326,5,0,0:0:0:0:
43,226,412394,1,8,0:1:0:0:
81,218,412462,1,2,0:2:0:0:
120,225,412530,1,8,0:1:0:0:
153,247,412598,1,0,0:0:0:0:
192,254,412667,1,8,0:1:0:0:
230,246,412735,2,0,P|257:233|273:212,1,55.0000016784668,0|8,0:0|0:1,0:0:0:0:
231,76,412871,5,2,0:2:0:0:
212,96,412939,1,8,0:1:0:0:
202,121,413007,1,0,0:0:0:0:
201,148,413075,1,8,0:1:0:0:
210,174,413144,2,0,P|230:153|234:116,1,50,0|8,0:0|0:1,0:0:0:0:
348,28,413280,5,2,0:2:0:0:
333,24,413348,1,8,0:1:0:0:
318,22,413416,1,0,0:0:0:0:
304,23,413484,1,8,0:1:0:0:
289,27,413553,2,0,P|317:40|351:26,1,44.999998626709,0|8,0:0|0:1,0:0:0:0:
384,235,413690,5,4,0:2:0:0:
393,238,413758,1,0,0:0:0:0:
402,240,413826,1,0,0:0:0:0:
411,240,413894,1,0,0:0:0:0:
420,240,413963,1,0,0:0:0:0:
429,238,414031,1,0,0:0:0:0:
437,236,414099,6,0,P|468:217|478:204,1,50,10|0,0:0|0:0,0:0:0:0:
289,27,414235,2,0,P|257:45|248:59,1,50,8|0,0:0|0:0,0:0:0:0:
505,142,414371,2,0,P|514:106|511:90,1,50,8|0,0:0|0:0,0:0:0:0:
230,246,414508,5,10,0:0:0:0:
278,211,414576,1,0,0:0:0:0:
300,156,414644,1,8,0:0:0:0:
289,98,414712,1,0,0:0:0:0:
249,55,414780,1,8,0:0:0:0:
192,39,414848,1,0,0:0:0:0:
136,57,414917,1,10,0:0:0:0:
97,102,414985,1,0,0:0:0:0:
90,161,415053,1,8,0:0:0:0:
112,216,415121,1,0,0:0:0:0:
111,275,415189,1,8,0:0:0:0:
81,326,415257,1,0,0:0:0:0:
29,354,415325,5,8,0:0:0:0:
71,296,415394,1,8,0:0:0:0:
136,267,415462,1,8,0:0:0:0:
207,271,415530,1,8,0:0:0:0:
267,309,415599,6,0,P|248:332|188:339,1,59.9999981689454,8|0,0:0|0:0,0:0:0:0:
43,127,415735,1,0,0:0:0:0:
97,102,415803,1,0,0:0:0:0:
156,111,415871,2,0,P|184:120|211:174,1,59.9999981689454,8|0,0:0|0:0,0:0:0:0:
399,358,416008,5,0,0:0:0:0:
408,299,416076,1,0,0:0:0:0:
416,240,416144,2,0,L|429:176,1,50
255,65,416280,1,8,0:0:0:0:
259,94,416348,1,0,0:0:0:0:
263,124,416416,2,0,L|275:187,1,50
158,241,416553,6,0,P|140:232|115:191,1,50,2|0,0:0|0:0,0:0:0:0:
217,33,416690,2,0,P|235:42|260:83,1,50,2|0,0:1|0:0,0:0:0:0:
52,241,416826,2,0,P|44:222|53:175,1,50,4|0,3:3|3:0,3:0:0:0:
273,173,416962,5,4,0:1:0:0:
259,179,417030,1,0,0:0:0:0:
245,184,417098,1,0,0:0:0:0:
230,186,417166,1,0,0:0:0:0:
215,185,417234,1,0,0:0:0:0:
202,179,417302,1,0,0:0:0:0:
188,171,417371,6,0,L|200:103,1,50,10|0,0:0|0:0,0:0:0:0:
429,69,417508,2,0,L|417:137,1,50,8|0,0:0|0:0,0:0:0:0:
160,59,417644,2,0,L|172:-9,1,50,8|0,0:0|0:0,0:0:0:0:
343,263,417780,6,0,P|354:291|351:321,1,59.9999981689454,10|0,0:0|0:0,0:0:0:0:
159,130,417917,2,0,P|130:126|107:108,1,59.9999981689454,8|0,0:0|0:0,0:0:0:0:
367,37,418053,2,0,P|385:14|416:0,1,59.9999981689454,8|0,0:0|0:0,0:0:0:0:
259,298,418190,6,0,B|226:305|226:305|189:295,1,59.9999981689454,10|0,0:0|0:0,0:0:0:0:
239,19,418326,2,0,B|272:12|272:12|309:22,1,59.9999981689454,8|0,0:0|0:0,0:0:0:0:
255,314,418462,2,0,B|222:321|222:321|185:311,1,59.9999981689454,8|0,0:0|0:0,0:0:0:0:
462,143,418599,5,8,0:0:0:0:
506,197,418667,1,8,0:0:0:0:
509,267,418735,1,8,0:0:0:0:
468,324,418803,1,8,0:0:0:0:
401,346,418871,6,0,L|328:342,1,55.0000016784668,8|0,0:0|0:0,0:0:0:0:
407,140,419008,2,0,L|479:143,1,55.0000016784668,8|0,0:0|0:0,0:0:0:0:
255,314,419144,5,0,0:0:0:0:
247,287,419212,1,0,0:0:0:0:
251,260,419281,2,0,P|254:220|273:197,1,55.0000016784668
407,140,419416,1,0,0:0:0:0:
414,166,419484,1,0,0:0:0:0:
410,193,419553,6,0,P|404:232|387:252,1,59.9999981689454,8|0,0:0|0:0,0:0:0:0:
205,159,419690,2,0,P|236:132|263:129,1,59.9999981689454,8|0,0:0|0:0,0:0:0:0:
456,294,419826,2,0,P|424:320|397:323,1,59.9999981689454,8|0,0:0|0:0,0:0:0:0:
243,55,419962,6,0,P|284:58|305:75,1,59.9999981689454,2|0,0:0|0:0,0:0:0:0:
458,311,420099,2,0,P|426:337|399:340,1,59.9999981689454,4|0,0:3|0:0,0:0:0:0:
159,313,420235,5,4,0:1:0:0:
173,302,420303,1,0,0:0:0:0:
190,295,420371,1,0,0:0:0:0:
207,293,420439,1,0,0:0:0:0:
225,296,420507,1,0,0:0:0:0:
241,303,420575,1,0,0:0:0:0:
255,314,420644,5,10,0:0:0:0:
214,354,420712,1,0,0:0:0:0:
159,365,420780,1,8,0:0:0:0:
106,345,420848,1,0,0:0:0:0:
73,299,420916,1,8,0:0:0:0:
70,243,420984,1,0,0:0:0:0:
98,193,421053,1,10,0:0:0:0:
146,164,421121,1,0,0:0:0:0:
170,112,421189,1,8,0:0:0:0:
162,56,421257,1,0,0:0:0:0:
125,14,421325,1,8,0:0:0:0:
70,0,421393,1,0,0:0:0:0:
16,16,421462,5,10,0:0:0:0:
47,63,421530,1,0,0:0:0:0:
97,90,421598,1,8,0:0:0:0:
154,90,421666,1,0,0:0:0:0:
204,62,421734,1,8,0:0:0:0:
260,61,421803,1,0,0:0:0:0:
310,88,421871,6,0,L|330:172,1,64.9999970245363,10|0,0:0|0:0,0:0:0:0:
106,345,422008,2,0,L|86:261,1,64.9999970245363,8|0,0:0|0:0,0:0:0:0:
328,83,422144,2,0,L|348:167,1,64.9999970245363,8|0,0:0|0:0,0:0:0:0:
19,223,422280,5,10,0:0:0:0:
67,193,422348,1,0,0:0:0:0:
123,198,422416,1,8,0:0:0:0:
166,234,422485,1,0,0:0:0:0:
188,287,422553,1,8,0:0:0:0:
234,320,422621,1,0,0:0:0:0:
305,326,422690,5,10,0:0:0:0:
365,288,422757,1,8,0:0:0:0:
389,220,422825,1,8,0:0:0:0:
367,150,422894,1,8,0:0:0:0:
307,110,422962,2,0,P|263:107|232:116,1,55.0000016784668,8|0,0:0|0:0,0:0:0:0:
90,281,423099,5,8,0:0:0:0:
136,230,423167,1,0,0:0:0:0:
152,164,423235,1,8,0:0:0:0:
133,99,423303,1,0,0:0:0:0:
85,51,423371,2,0,P|66:38|16:37,1,55.0000016784668,8|0,0:0|0:0,0:0:0:0:
22,316,423508,5,2,0:2:0:0:
51,345,423576,1,8,0:1:0:0:
92,355,423644,1,0,0:0:0:0:
132,342,423712,1,8,0:1:0:0:
159,310,423780,1,0,0:0:0:0:
188,279,423848,1,8,0:1:0:0:
226,261,423916,1,2,0:2:0:0:
268,258,423984,1,8,0:1:0:0:
309,271,424052,1,0,0:0:0:0:
342,297,424120,1,8,0:1:0:0:
363,334,424190,2,0,P|369:363|365:387,1,42.5000008106232,0|8,0:0|0:1,0:0:0:0:
188,196,424326,5,2,0:2:0:0:
168,158,424394,1,8,0:1:0:0:
165,116,424462,1,0,0:0:0:0:
179,76,424530,1,8,0:1:0:0:
206,44,424599,2,0,P|232:33|264:28,1,42.5000008106232,0|8,0:0|0:1,0:0:0:0:
456,89,424735,5,2,0:2:0:0:
424,127,424803,1,8,0:1:0:0:
384,150,424871,1,0,0:0:0:0:
337,160,424939,1,8,0:1:0:0:
291,152,425008,2,0,P|264:142|238:117,1,47.4999987316132,0|8,0:0|0:1,0:0:0:0:
37,28,425144,5,2,0:2:0:0:
41,82,425212,1,8,0:1:0:0:
45,136,425280,1,0,0:0:0:0:
49,191,425349,1,8,0:1:0:0:
53,245,425417,2,0,L|56:303,1,55.0000016784668,0|8,0:0|0:1,0:0:0:0:
335,295,425553,5,2,0:2:0:0:
287,266,425621,1,8,0:1:0:0:
233,256,425689,1,0,0:0:0:0:
179,266,425757,1,8,0:1:0:0:
131,294,425826,2,0,L|135:351,1,55.0000016784668,0|8,0:0|0:1,0:0:0:0:
401,348,425962,5,2,0:2:0:0:
418,296,426030,1,8,0:1:0:0:
400,245,426098,1,0,0:0:0:0:
355,216,426166,1,8,0:1:0:0:
301,221,426234,1,0,0:0:0:0:
262,259,426302,1,8,0:1:0:0:
254,312,426371,5,2,0:2:0:0:
265,325,426439,1,8,0:1:0:0:
279,333,426507,1,0,0:0:0:0:
296,335,426575,1,8,0:1:0:0:
311,330,426643,1,0,0:0:0:0:
324,320,426711,1,8,0:1:0:0:
333,306,426780,5,4,0:2:0:0:
315,260,426849,1,0,0:0:0:0:
274,232,426917,1,0,0:0:0:0:
225,235,426985,1,0,0:0:0:0:
186,265,427053,1,2,0:0:0:0:
156,304,427121,1,0,0:0:0:0:
109,319,427189,1,0,0:0:0:0:
62,305,427257,1,0,0:0:0:0:
31,267,427325,1,2,0:0:0:0:
28,217,427393,1,0,0:0:0:0:
53,175,427462,1,0,0:0:0:0:
98,155,427530,1,0,0:0:0:0:
163,177,427598,5,10,0:0:0:0:
122,148,427667,1,0,0:0:0:0:
106,101,427735,1,0,0:0:0:0:
120,54,427803,1,0,0:0:0:0:
158,23,427871,1,2,0:0:0:0:
207,20,427939,1,0,0:0:0:0:
246,43,428008,1,0,0:0:0:0:
281,77,428076,1,0,0:0:0:0:
328,94,428144,1,2,0:0:0:0:
377,90,428212,1,0,0:0:0:0:
421,65,428280,2,0,L|438:12,1,50
246,43,428417,5,0,0:0:0:0:
241,70,428485,1,0,0:0:0:0:
234,94,428553,1,0,0:0:0:0:
226,117,428621,1,0,0:0:0:0:
196,168,428689,5,8,0:0:0:0:
246,160,428758,1,8,0:0:0:0:
295,152,428826,1,8,0:0:0:0:
344,144,428894,1,8,0:0:0:0:
314,195,428962,5,0,0:0:0:0:
305,217,429030,1,0,0:0:0:0:
298,241,429098,1,0,0:0:0:0:
291,265,429166,1,0,0:0:0:0:
261,316,429235,5,8,0:0:0:0:
307,302,429303,1,8,0:0:0:0:
350,325,429371,2,0,P|371:347|381:376,1,50,8|8,0:0|0:0,0:0:0:0:
344,144,429508,5,0,0:0:0:0:
350,119,429576,1,0,0:0:0:0:
364,99,429644,2,0,P|388:82|418:77,1,50
190,240,429780,5,0,0:0:0:0:
178,244,429848,1,0,0:0:0:0:
165,246,429916,1,0,0:0:0:0:
153,246,429984,1,0,0:0:0:0:
126,284,430053,5,4,0:1:0:0:
141,244,430121,1,0,0:0:0:0:
140,199,430189,1,0,0:0:0:0:
121,159,430257,1,0,0:0:0:0:
94,123,430326,1,2,0:0:0:0:
90,79,430394,1,0,0:0:0:0:
108,37,430462,6,0,L|105:85,1,37.5000014305115
229,156,430599,2,0,L|232:108,1,42.5000008106232,2|0,0:0|0:0,0:0:0:0:
36,181,430735,2,0,L|32:228,1,47.4999987316132
261,53,430871,6,0,P|222:47|191:60,1,52.4999983978272,10|0,0:0|0:0,0:0:0:0:
4,290,431008,2,0,P|42:295|73:282,1,52.4999983978272
147,4,431144,6,0,P|115:27|102:58,1,52.4999983978272,2|0,0:0|0:0,0:0:0:0:
119,343,431280,2,0,P|150:319|163:288,1,52.4999983978272
78,108,431417,6,0,P|74:133|80:157,1,47.4999987316132,2|0,0:0|0:0,0:0:0:0:
187,238,431553,2,0,P|191:213|186:191,1,47.4999987316132
4,290,431690,5,4,0:0:0:0:
1,297,431758,1,0,0:0:0:0:
0,305,431826,1,0,0:0:0:0:
0,313,431894,1,0,0:0:0:0:
1,321,431962,1,2,0:0:0:0:
3,329,432030,1,0,0:0:0:0:
16,374,432099,5,0,0:0:0:0:
48,339,432167,1,0,0:0:0:0:
56,293,432235,1,2,0:0:0:0:
37,249,432303,1,0,0:0:0:0:
15,209,432371,2,0,P|6:188|18:124,1,47.4999987316132
306,130,432508,5,0,0:0:0:0:
250,143,432576,1,0,0:0:0:0:
194,156,432644,1,0,0:0:0:0:
138,169,432712,1,0,0:0:0:0:
79,155,432780,5,0,0:0:0:0:
105,175,432849,1,0,0:0:0:0:
131,195,432917,1,0,0:0:0:0:
157,215,432985,1,0,0:0:0:0:
199,250,433053,5,0,0:0:0:0:
198,227,433121,1,0,0:0:0:0:
196,203,433189,1,0,0:0:0:0:
195,179,433257,1,0,0:0:0:0:
194,156,433326,6,0,B|201:106|253:53|354:16|442:130|414:220|394:262|321:286|273:302|222:255|222:255|208:277|222:305|222:305|198:319|204:351|204:351|293:373|418:389|469:280|563:246|503:81|434:29|401:-18|336:-53|225:-22|158:8|112:65|101:138|112:201|112:201|137:333|20:356|20:356|119:324|106:201|27:176|27:176|29:70|74:27|99:4|99:4|292:187,1,2469.99998492432,4|0,0:0|2:0,0:0:0:0:
