osu file format v14

[General]
AudioFilename: audio.mp3
AudioLeadIn: 0
PreviewTime: 679961
Countdown: 0
SampleSet: Soft
StackLeniency: 0.7
Mode: 0
LetterboxInBreaks: 0
WidescreenStoryboard: 1

[Editor]
Bookmarks: 464318,468934,557554,584982,626122,680980,692980,704980,716122
DistanceSpacing: 1
BeatDivisor: 2
GridSize: 4
TimelineZoom: 3.699998

[Metadata]
Title:Forget Not
TitleUnicode:Forget Not
Artist:Ne Obliviscaris
ArtistUnicode:Ne Obliviscaris
Creator:turtatical
Version:The Eternal Echoes of the Forgotten, Cloaked Ravens Soar above Starlit Waters
Source:
Tags:technical progressive black death melodic metal violin harsh english vocals portal of i neo marathon stamina deathstream tim charles xenoyr matt klavins benjamin baret brendan brown daniel presland skro anthem- fa featured artist
BeatmapID:3643218
BeatmapSetID:1778897

[Difficulty]
HPDrainRate:5
CircleSize:4.2
OverallDifficulty:9.2
ApproachRate:9.8
SliderMultiplier:2
SliderTickRate:1

[Events]
//Background and Video events
0,0,"forgetnotbottom.jpg",0,0
//Break Periods
2,251922,254476
//Storyboard Layer 0 (Background)
//Storyboard Layer 1 (Fail)
//Storyboard Layer 2 (Pass)
//Storyboard Layer 3 (Foreground)
//Storyboard Layer 4 (Overlay)
//Storyboard Sound Samples

[TimingPoints]
132628,313.31592689295,3,3,1,40,1,0
132628,-100,3,3,1,40,0,0
132862,-100,3,2,0,5,0,0
132941,-100,3,3,1,65,0,0
133254,-100,3,3,10,65,0,0
133411,324.324324324324,3,3,9,100,1,0
133572,307.692307692308,3,3,1,65,1,0
133879,-100,3,2,0,5,0,0
134033,-100,3,3,1,65,0,0
134264,-100,3,2,0,5,0,0
134341,-100,3,3,1,65,0,0
134418,-100,3,2,0,5,0,0
134495,-100,3,3,1,65,0,0
134648,-100,3,2,0,5,0,0
134802,-100,3,3,1,65,0,0
135110,-200,3,3,1,65,0,0
135341,-200,3,2,0,5,0,0
135418,-100,3,3,1,65,0,0
135572,-100,3,2,0,5,0,0
135725,-100,3,3,1,65,0,0
136341,-66.6666666666667,3,3,1,65,0,0
136572,-100,3,2,0,5,0,0
136648,-100,3,3,1,65,0,0
136802,-100,3,2,0,5,0,0
136955,-100,3,3,1,65,0,0
137110,-100,3,2,0,5,0,0
137263,-100,3,3,1,65,0,0
137725,-100,3,3,1,65,0,0
138495,-100,3,2,0,5,0,0
138648,-100,3,3,1,65,0,0
138802,-100,3,2,0,5,0,0
138956,-100,3,3,1,65,0,0
139264,-100,3,2,0,5,0,0
139418,-100,3,3,1,65,0,0
139572,-100,3,2,0,5,0,0
139725,-100,3,3,1,65,0,0
140956,-100,3,3,1,65,0,0
141341,-100,3,3,1,5,0,0
141418,-100,3,3,1,65,0,0
141572,297.029702970297,3,3,1,65,1,0
141720,280.373831775701,3,3,1,65,1,0
141860,320.855614973262,3,3,1,65,1,0
141860,-100,3,3,1,65,0,0
142341,307.692307692308,3,2,0,5,1,0
142494,307.692307692308,3,3,1,65,1,0
142494,-100,3,3,1,65,0,0
142647,-100,3,2,0,5,0,0
142802,307.692307692308,3,3,1,65,1,0
142802,-100,3,3,1,65,0,0
142955,-100,3,2,0,5,0,0
143109,-100,3,3,1,65,0,0
143878,-100,3,2,0,5,0,0
144032,-100,3,3,1,65,0,0
144186,-100,3,2,0,5,0,0
144340,-100,3,3,1,65,0,0
144494,-100,3,2,0,5,0,0
144648,-100,3,3,1,65,0,0
144802,-100,3,2,0,5,0,0
144955,-100,3,3,1,65,0,0
145725,-100,3,2,0,5,0,0
145878,-100,3,3,1,65,0,0
146032,-100,3,2,0,5,0,0
146186,-100,3,3,1,65,0,0
146340,-100,3,2,0,5,0,0
146494,-100,3,3,1,65,0,0
146648,-100,3,3,1,30,0,0
146802,-100,3,3,1,65,0,0
147571,-100,3,2,0,5,0,0
147725,-100,3,3,1,65,0,0
148648,-100,3,2,0,5,0,0
148802,-100,3,3,1,65,0,0
149417,-100,3,2,0,5,0,0
149571,-100,3,3,1,65,0,0
150340,-100,3,2,0,5,0,0
150494,-100,3,3,1,65,0,0
151263,-100,3,2,0,5,0,0
151417,-100,3,3,1,65,0,0
151571,-100,3,2,0,5,0,0
151725,-100,3,3,1,65,0,0
151849,307.692307692308,3,3,1,65,1,0
152032,307.692307692308,3,3,1,65,1,0
152340,-100,3,2,0,5,0,0
152494,-100,3,3,1,65,0,0
152648,304.568527918782,3,3,1,65,1,0
152952,303.030303030303,3,3,1,65,1,0
152952,-66.6666666666667,3,3,1,65,0,0
153179,-66.6666666666667,3,2,0,5,0,0
153255,-133.333333333333,3,3,1,65,0,0
153330,-133.333333333333,3,2,0,5,0,0
153406,292.682926829268,3,3,1,65,1,0
153406,-66.6666666666667,3,3,1,65,0,0
153625,-66.6666666666667,3,2,0,5,0,0
153698,275.229357798165,3,3,1,65,1,0
153698,-133.333333333333,3,3,1,65,0,0
153766,-133.333333333333,3,2,0,5,0,0
153835,335.195530726257,3,3,1,65,1,0
153835,-100,3,3,1,65,0,0
154002,-100,3,3,1,35,0,0
154170,346.820809248555,3,3,1,65,1,0
154170,-100,3,3,1,65,0,0
154430,-100,3,2,0,5,0,0
154516,286.396181384248,3,3,1,65,1,0
154516,-100,3,3,1,65,0,0
154802,307.692307692308,3,3,1,65,1,0
154802,-76.9230769230769,3,3,1,65,0,0
155032,-76.9230769230769,3,2,0,5,0,0
155109,-133.333333333333,3,3,1,65,0,0
155186,-133.333333333333,3,2,0,5,0,0
155263,-76.9230769230769,3,3,1,65,0,0
155494,-76.9230769230769,3,2,0,5,0,0
155571,-133.333333333333,3,3,1,65,0,0
155648,-133.333333333333,3,2,0,5,0,0
155725,-100,3,3,1,65,0,0
155955,-100,3,2,0,5,0,0
156032,-100,3,3,1,65,0,0
156340,279.06976744186,3,3,1,65,1,0
156340,-100,3,3,1,65,0,0
156619,307.692307692308,3,3,1,65,1,0
156619,-111.111111111111,3,3,1,65,0,0
156849,-133.333333333333,3,2,0,5,0,0
156926,324.324324324324,3,3,1,65,1,0
156926,-133.333333333333,3,3,1,65,0,0
157007,-133.333333333333,3,2,0,5,0,0
157089,307.692307692308,3,3,1,65,1,0
157089,-133.333333333333,3,3,1,65,0,0
157165,-133.333333333333,3,2,0,5,0,0
157242,338.983050847458,3,3,1,65,1,0
157581,307.692307692308,3,3,1,65,1,0
157581,-100,3,3,1,65,0,0
157888,-100,3,2,0,5,0,0
158042,-100,3,3,1,65,0,0
158196,288.461538461538,3,3,1,65,1,0
158196,-100,3,3,1,65,0,0
158484,307.692307692308,3,3,1,65,1,0
158484,-100,3,3,1,65,0,0
158945,-100,3,3,1,35,0,0
159099,-100,3,3,1,65,0,0
159714,348.837209302326,3,2,0,5,1,0
159714,-100,3,2,0,5,0,0
159888,307.692307692308,3,3,1,65,1,0
160041,307.692307692308,3,3,1,65,1,0
160041,-100,3,3,1,65,0,0
160349,285.714285714286,3,3,1,65,1,0
160349,-66.6666666666667,3,3,1,65,0,0
160563,-66.6666666666667,3,2,0,5,0,0
160633,319.148936170213,3,3,1,65,1,0
160633,-133.333333333333,3,3,1,65,0,0
160712,-133.333333333333,3,2,0,5,0,0
160793,315.789473684211,3,3,1,65,1,0
160950,315.789473684211,3,3,1,65,1,0
161265,307.692307692308,3,3,1,65,1,0
161495,-100,3,2,0,5,0,0
161572,-100,3,3,10,65,0,0
161649,-100,3,3,7,65,0,0
161880,288.461538461538,3,3,10,65,1,0
161952,-100,3,3,8,65,0,0
162168,307.692307692308,3,3,1,65,1,0
162475,-100,3,3,10,65,0,0
162552,-100,3,3,8,65,0,0
162783,324.324324324324,3,3,10,65,1,0
162864,-100,3,3,9,65,0,0
163110,307.692307692308,3,3,1,65,1,0
163110,-100,3,3,1,65,0,0
163648,-100,3,2,0,5,0,0
163725,-100,3,3,1,65,0,0
163956,-100,3,2,0,5,0,0
164033,-100,3,3,1,65,0,0
164571,-100,3,2,0,5,0,0
164648,-100,3,3,1,65,0,0
164879,-100,3,2,0,5,0,0
164956,-100,3,3,1,65,0,0
165417,-100,3,3,1,65,0,0
165571,288.461538461538,3,3,1,65,1,0
165861,319.148936170213,3,3,1,65,1,0
165861,-100,3,3,1,65,0,0
166341,307.692307692308,3,3,1,65,1,0
166494,307.692307692308,3,3,1,65,1,0
166494,-100,3,3,1,65,0,0
166724,-100,3,2,0,5,0,0
166802,301.507537688442,3,3,1,65,1,0
166802,-100,3,3,1,65,0,0
167706,326.086956521739,3,3,1,65,1,0
167706,-66.6666666666667,3,3,1,65,0,0
167950,-66.6666666666667,3,2,0,5,0,0
168032,266.666666666667,3,3,1,65,1,0
168032,-133.333333333333,3,3,1,65,0,0
168098,-133.333333333333,3,2,0,5,0,0
168166,327.868852459016,3,3,1,65,1,0
168166,-66.6666666666667,3,3,1,65,0,0
168247,-66.6666666666667,3,2,0,5,0,0
168329,319.148936170213,3,3,1,65,1,0
168488,-100,3,3,1,65,0,0
168648,307.692307692308,3,3,1,65,1,0
168648,-100,3,3,1,65,0,0
168801,-100,3,3,1,35,0,0
168955,-100,3,3,1,65,0,0
169571,-66.6666666666667,3,3,1,65,0,0
169801,-66.6666666666667,3,2,0,5,0,0
169878,-133.333333333333,3,3,1,65,0,0
169955,-133.333333333333,3,2,0,5,0,0
170032,-66.6666666666667,3,3,1,65,0,0
170340,-133.333333333333,3,3,1,65,0,0
170417,-133.333333333333,3,2,0,5,0,0
170494,-100,3,3,1,65,0,0
170955,-100,3,3,1,45,0,0
171109,-100,3,3,1,65,0,0
171417,-66.6666666666667,3,3,1,65,0,0
171648,-66.6666666666667,3,2,0,5,0,0
171724,-100,3,3,1,65,0,0
171878,-100,3,3,1,30,0,0
172032,288.461538461538,3,3,1,65,1,0
172032,-100,3,3,1,65,0,0
172321,326.086956521739,3,3,1,65,1,0
172321,-100,3,3,1,65,0,0
172565,-100,3,2,0,5,0,0
172648,307.692307692308,3,3,1,65,1,0
172648,-100,3,3,1,65,0,0
173263,307.692307692308,3,3,1,65,1,0
173263,-100,3,3,1,65,0,0
173416,-100,3,2,0,5,0,0
173570,-100,3,3,1,65,0,0
173801,-100,3,2,0,5,0,0
173878,-100,3,3,1,65,0,0
174032,-100,3,3,1,45,0,0
174186,-100,3,3,1,65,0,0
174493,-100,3,2,0,5,0,0
174647,-100,3,3,1,65,0,0
176263,-100,3,2,0,5,0,0
176339,-100,3,3,1,65,0,0
176416,-100,3,3,7,65,0,0
176647,285.714285714286,3,3,10,65,1,0
176718,-100,3,3,8,65,0,0
176936,307.692307692308,3,3,1,65,1,0
177243,-100,3,3,10,65,0,0
177320,-100,3,3,8,65,0,0
177551,324.324324324324,3,3,10,65,1,0
177632,-100,3,3,9,65,0,0
177878,307.692307692308,3,3,1,65,1,0
177878,-100,3,3,1,65,0,0
178108,-100,3,2,0,5,0,0
178185,338.983050847458,3,3,1,65,1,0
178185,-100,3,3,1,65,0,0
178439,-100,3,2,0,5,0,0
178523,257.510729613734,3,3,1,65,1,0
178523,-100,3,3,1,65,0,0
178716,-100,3,2,0,5,0,0
178782,320.855614973262,3,3,1,65,1,0
178782,-100,3,3,1,65,0,0
179263,307.692307692308,3,3,1,30,1,0
179263,-100,3,3,1,30,0,0
179339,-100,3,2,0,5,0,0
179416,307.692307692308,3,3,1,65,1,0
179723,-100,3,3,1,65,0,0
179724,307.692307692308,3,3,1,65,1,0
180647,-66.6666666666667,3,3,1,65,0,0
180877,-66.6666666666667,3,2,0,5,0,0
180954,-100,3,3,1,65,0,0
181185,-100,3,2,0,5,0,0
181262,-100,3,3,1,65,0,0
181416,-100,3,3,1,45,0,0
181570,-100,3,3,1,65,0,0
182647,-100,3,3,1,5,0,0
182800,-100,3,3,1,65,0,0
183108,-100,3,2,0,5,0,0
183262,-86.9565217391304,3,3,1,35,0,0
183416,298.507462686567,3,3,1,65,1,0
183416,-100,3,3,1,65,0,0
183565,-100,3,3,1,30,0,0
183714,-100,3,3,1,65,0,0
183863,-100,3,3,1,45,0,0
184013,307.692307692308,3,3,1,65,1,0
184013,-100,3,3,1,65,0,0
184320,307.692307692308,3,3,1,65,1,0
184320,-100,3,3,1,65,0,0
184935,-100,3,3,1,65,0,0
185627,-100,3,2,0,5,0,0
185723,307.692307692308,3,3,1,65,1,0
185799,-100,3,2,0,5,0,0
185876,288.461538461538,3,3,1,65,1,0
186165,306.122448979592,3,3,1,65,1,0
186625,307.692307692308,3,3,1,65,1,0
186778,307.692307692308,3,3,1,65,1,0
187087,320.855614973262,3,3,1,65,1,0
187407,-100,3,2,0,5,0,0
187568,307.692307692308,3,3,1,65,1,0
187721,285.714285714286,3,3,1,65,1,0
188010,307.692307692308,3,3,1,65,1,0
188471,-100,3,3,1,35,0,0
188625,329.67032967033,3,3,1,65,1,0
188789,307.692307692308,3,3,1,65,1,0
188942,307.692307692308,3,3,1,65,1,0
189416,288.461538461538,3,3,1,65,1,0
189704,307.692307692308,3,3,1,65,1,0
189857,307.692307692308,3,3,1,65,1,0
190010,-100,3,3,1,5,0,0
190164,-100,3,3,1,65,0,0
190318,-100,3,3,1,40,0,0
190472,-100,3,3,1,65,0,0
190780,-100,3,3,1,80,0,0
190933,-100,3,3,1,65,0,0
191241,-100,3,3,1,80,0,0
191703,-100,3,3,10,65,0,0
191857,-100,3,3,9,65,0,0
192010,-100,3,3,10,65,0,0
192164,-100,3,3,9,65,0,0
192318,324.324324324324,3,3,10,65,1,0
192480,-100,3,3,9,65,0,0
192646,307.692307692308,3,3,1,65,1,0
193415,-100,3,2,0,5,0,0
193569,-100,3,3,1,65,0,0
193799,-100,3,2,0,5,0,0
193876,-100,3,3,1,65,0,0
194030,-100,3,2,0,5,0,0
194184,-100,3,3,1,65,0,0
194338,-100,3,2,0,5,0,0
194492,-100,3,3,1,65,0,0
194646,-100,3,2,0,5,0,0
194799,-100,3,3,1,65,0,0
195415,-100,3,3,1,65,0,0
195569,-100,3,2,0,5,0,0
195722,-100,3,3,1,65,0,0
195876,-100,3,2,0,5,0,0
196030,-100,3,3,1,65,0,0
196184,-100,3,2,0,5,0,0
196338,-100,3,3,3,65,0,0
196646,-100,3,3,1,65,0,0
197261,-66.6666666666667,3,3,1,65,0,0
197492,-66.6666666666667,3,2,0,5,0,0
197569,-133.333333333333,3,3,1,65,0,0
197646,-133.333333333333,3,2,0,5,0,0
197722,-66.6666666666667,3,3,1,65,0,0
197953,-66.6666666666667,3,2,0,5,0,0
198030,-133.333333333333,3,3,1,65,0,0
198107,-133.333333333333,3,2,0,5,0,0
198184,-100,3,3,1,65,0,0
198338,-100,3,2,0,5,0,0
198492,-100,3,3,1,65,0,0
198646,-100,3,3,1,40,0,0
198799,279.06976744186,3,3,1,65,1,0
198937,346.820809248555,3,3,1,65,1,0
199110,307.692307692308,3,3,1,65,1,0
199110,-66.6666666666667,3,3,1,65,0,0
199341,-66.6666666666667,3,2,0,5,0,0
199417,-133.333333333333,3,3,1,65,0,0
199494,-133.333333333333,3,3,1,5,0,0
199571,-66.6666666666667,3,3,1,65,0,0
199802,-66.6666666666667,3,2,0,5,0,0
199879,-133.333333333333,3,3,1,65,0,0
199956,-133.333333333333,3,2,0,5,0,0
200033,-100,3,3,1,65,0,0
200186,-100,3,3,1,40,0,0
200340,-100,3,3,1,65,0,0
201110,-100,3,2,0,5,0,0
201263,-100,3,3,1,65,0,0
201417,-100,3,2,0,5,0,0
201571,-100,3,3,1,65,0,0
202033,-100,3,3,1,30,0,0
202186,-100,3,3,1,65,0,0
202956,-100,3,3,1,5,0,0
203110,-100,3,3,1,65,0,0
203263,-100,3,2,0,5,0,0
203417,-100,3,3,1,65,0,0
204802,-100,3,2,0,5,0,0
204956,-100,3,3,1,65,0,0
205263,-100,3,3,1,50,0,0
205417,-100,3,3,1,62,0,0
205571,-100,3,3,1,75,0,0
205725,-100,3,3,1,45,0,0
206033,-100,3,3,1,55,0,0
206186,285.714285714286,3,3,1,65,1,0
206475,346.820809248555,3,3,10,65,1,0
206475,-100,3,3,10,65,0,0
206648,307.692307692308,3,3,7,65,1,0
206801,307.692307692308,3,3,8,65,1,0
206954,-100,3,3,9,65,0,0
207417,307.692307692308,3,3,1,65,1,0
207417,-83.3333333333333,3,3,1,65,0,0
207724,-100,3,3,3,65,0,0
208032,-111.111111111111,3,3,3,65,0,0
208340,-125,3,3,1,65,0,0
208647,-142.857142857143,3,3,3,65,0,0
209263,-100,3,3,1,65,0,0
209570,-111.111111111111,3,3,3,65,0,0
209878,-125,3,3,3,65,0,0
210186,-142.857142857143,3,3,1,65,0,0
210493,-200,3,3,3,65,0,0
211109,-83.3333333333333,3,3,1,65,0,0
211340,-83.3333333333333,3,3,1,5,0,0
211417,-83.3333333333333,3,3,1,65,0,0
212263,-83.3333333333333,3,3,1,5,0,0
212340,-83.3333333333333,3,3,1,40,0,0
212417,-83.3333333333333,3,3,1,30,0,0
212493,-83.3333333333333,3,3,1,40,0,0
212570,-83.3333333333333,3,3,1,30,0,0
212647,-83.3333333333333,3,3,1,40,0,0
212724,-83.3333333333333,3,3,1,30,0,0
212801,-83.3333333333333,3,3,1,40,0,0
212878,-83.3333333333333,3,3,1,30,0,0
212955,-83.3333333333333,3,3,1,65,0,0
213186,-83.3333333333333,3,3,1,5,0,0
213263,-83.3333333333333,3,3,1,65,0,0
214109,-83.3333333333333,3,3,1,5,0,0
214186,-83.3333333333333,3,3,7,65,0,0
214391,-83.3333333333333,3,3,8,65,0,0
214596,-83.3333333333333,3,3,9,65,0,0
214801,-83.3333333333333,3,3,1,65,0,0
216340,270.27027027027,3,3,1,65,1,0
216608,344.827586206897,3,3,1,65,1,0
216780,-100,3,3,1,5,0,0
216858,307.692307692308,3,3,1,65,1,0
217088,307.692307692308,3,3,1,65,1,0
217552,307.692307692308,3,3,1,65,1,0
217552,-83.3333333333333,3,3,1,65,0,0
217782,-83.3333333333333,3,3,1,5,0,0
217859,-83.3333333333333,3,3,1,65,0,0
218090,-83.3333333333333,3,3,1,5,0,0
218167,326.086956521739,3,3,1,65,1,0
218495,307.692307692308,3,3,1,65,1,0
218495,-83.3333333333333,3,3,1,65,0,0
218879,-83.3333333333333,3,3,1,5,0,0
218956,-83.3333333333333,3,3,1,65,0,0
219187,-83.3333333333333,3,3,1,5,0,0
219264,-83.3333333333333,3,3,1,65,0,0
219648,-83.3333333333333,3,3,1,5,0,0
219725,-83.3333333333333,3,3,1,65,0,0
220033,285.714285714286,3,3,1,65,1,0
220321,307.692307692308,3,3,1,65,1,0
220936,-100,3,3,10,65,0,0
221013,-100,3,3,7,65,0,0
221244,-133.333333333333,3,3,10,65,0,0
221321,-133.333333333333,3,3,8,65,0,0
221551,-133.333333333333,3,3,10,65,0,0
221705,-133.333333333333,3,3,8,65,0,0
221859,346.820809248555,3,3,9,65,1,0
222207,310.880829015544,3,3,1,65,1,0
222207,-100,3,3,1,65,0,0
222751,-100,3,3,1,5,0,0
222828,281.69014084507,3,3,3,65,1,0
222828,-100,3,3,3,65,0,0
223039,-83.3333333333333,3,3,3,5,0,0
223110,307.692307692308,3,3,1,65,1,0
223110,-100,3,3,1,65,0,0
223648,-83.3333333333333,3,3,1,5,0,0
223707,324.324324324324,3,3,1,65,1,0
223707,-100,3,3,1,65,0,0
223950,-100,3,3,1,5,0,0
224032,320.855614973262,3,3,1,65,1,0
224032,-100,3,3,1,65,0,0
224513,307.692307692308,3,3,1,65,1,0
224820,272.727272727273,3,3,1,65,1,0
224956,307.692307692308,3,3,1,65,1,0
224956,-83.3333333333333,3,3,1,65,0,0
225186,-83.3333333333333,3,3,1,5,0,0
225263,-83.3333333333333,3,3,1,65,0,0
225494,-83.3333333333333,3,3,1,5,0,0
225571,-83.3333333333333,3,3,1,65,0,0
225802,-83.3333333333333,3,3,1,5,0,0
225879,-83.3333333333333,3,3,1,65,0,0
226109,-83.3333333333333,3,3,1,5,0,0
226186,-83.3333333333333,3,3,1,65,0,0
226494,285.714285714286,3,3,1,65,1,0
226494,-83.3333333333333,3,3,1,65,0,0
226782,327.868852459016,3,3,1,65,1,0
226782,-66.6666666666667,3,3,1,65,0,0
227027,-66.6666666666667,3,3,1,5,0,0
227109,307.692307692308,3,3,1,65,1,0
227109,-133.333333333333,3,3,1,65,0,0
227185,-100,3,3,1,5,0,0
227262,-66.6666666666667,3,3,1,65,0,0
227493,-66.6666666666667,3,3,1,5,0,0
227570,-133.333333333333,3,3,1,65,0,0
227647,-133.333333333333,3,3,1,5,0,0
227724,307.692307692308,3,3,1,65,1,0
227724,-83.3333333333333,3,3,1,65,0,0
227954,-83.3333333333333,3,3,1,5,0,0
228031,-83.3333333333333,3,3,1,65,0,0
228493,272.727272727273,3,3,1,65,1,0
228629,326.975476839237,3,3,1,65,1,0
228629,-66.6666666666667,3,3,1,65,0,0
228874,-66.6666666666667,3,3,1,5,0,0
228956,307.692307692308,3,3,1,65,1,0
228956,-133.333333333333,3,3,1,65,0,0
229032,-133.333333333333,3,3,1,5,0,0
229109,-66.6666666666667,3,3,1,65,0,0
229340,-66.6666666666667,3,3,1,5,0,0
229417,-133.333333333333,3,3,1,65,0,0
229494,-133.333333333333,3,3,1,5,0,0
229571,307.692307692308,3,3,1,65,1,0
229571,-83.3333333333333,3,3,1,65,0,0
229955,-83.3333333333333,3,3,1,5,0,0
230032,-83.3333333333333,3,3,1,65,0,0
230263,-83.3333333333333,3,3,1,5,0,0
230340,-83.3333333333333,3,3,1,65,0,0
230724,-83.3333333333333,3,3,1,5,0,0
230801,-83.3333333333333,3,3,1,65,0,0
231032,-83.3333333333333,3,3,1,5,0,0
231109,-83.3333333333333,3,3,1,65,0,0
231724,-83.3333333333333,3,3,1,65,0,0
232186,272.727272727273,3,3,1,65,1,0
232186,-133.333333333333,3,3,1,65,0,0
232254,-83.3333333333333,3,3,1,5,0,0
232320,387.096774193548,3,3,1,65,1,0
232320,-83.3333333333333,3,3,1,65,0,0
232610,324.324324324324,3,3,1,65,1,0
232610,-83.3333333333333,3,3,1,65,0,0
232772,307.692307692308,3,3,1,65,1,0
232772,-83.3333333333333,3,3,1,65,0,0
233002,-83.3333333333333,3,3,1,5,0,0
233079,365.853658536585,3,3,1,65,1,0
233079,-133.333333333333,3,3,1,65,0,0
233170,-133.333333333333,3,3,1,5,0,0
233263,307.692307692308,3,3,1,65,1,0
233263,-83.3333333333333,3,3,1,65,0,0
233493,-83.3333333333333,3,3,1,5,0,0
233570,-83.3333333333333,3,3,1,65,0,0
234416,-83.3333333333333,3,3,1,5,0,0
234493,288.461538461538,3,3,1,65,1,0
234493,-83.3333333333333,3,3,1,65,0,0
234637,-83.3333333333333,3,3,1,45,0,0
234782,307.692307692308,3,3,1,45,1,0
234935,-83.3333333333333,3,3,1,55,0,0
235089,-83.3333333333333,3,3,1,65,0,0
235205,-83.3333333333333,3,3,1,35,0,0
235551,-83.3333333333333,3,3,1,65,0,0
236012,-83.3333333333333,3,3,10,65,0,0
236166,-83.3333333333333,3,3,7,65,0,0
236320,-83.3333333333333,3,3,8,65,0,0
236628,324.324324324324,3,3,9,65,1,0
236955,307.692307692308,3,3,1,65,1,0
236955,-83.3333333333333,3,3,1,65,0,0
237262,-100,3,3,3,65,0,0
237570,-111.111111111111,3,3,3,65,0,0
237878,-125,3,3,1,65,0,0
238185,-142.857142857143,3,3,3,65,0,0
238493,-166.666666666667,3,3,3,65,0,0
238801,-111.111111111111,3,3,3,65,0,0
239108,-125,3,3,3,65,0,0
239416,-142.857142857143,3,3,3,65,0,0
239724,-166.666666666667,3,3,1,65,0,0
240647,-83.3333333333333,3,3,1,65,0,0
240801,-83.3333333333333,3,3,1,5,0,0
240878,-83.3333333333333,3,3,1,65,0,0
241801,-83.3333333333333,3,3,1,5,0,0
241878,-83.3333333333333,3,3,1,40,0,0
242185,-500,3,3,1,40,0,0
242416,-500,3,3,1,5,0,0
242455,281.69014084507,3,3,1,65,1,0
242455,-83.3333333333333,3,3,1,65,0,0
242877,-83.3333333333333,3,3,1,5,0,0
242912,352.941176470588,3,3,1,65,1,0
242912,-83.3333333333333,3,3,1,65,0,0
243176,-83.3333333333333,3,3,1,5,0,0
243251,327.868852459016,3,3,1,65,1,0
243414,307.692307692308,3,3,1,65,1,0
243414,-83.3333333333333,3,3,1,65,0,0
243644,-83.3333333333333,3,3,1,5,0,0
243721,-83.3333333333333,3,3,7,65,0,0
243926,-83.3333333333333,3,3,8,65,0,0
244131,-83.3333333333333,3,3,9,65,0,0
244337,-83.3333333333333,3,3,3,65,0,0
244721,-83.3333333333333,3,3,3,5,0,0
244798,-83.3333333333333,3,3,1,65,0,0
245029,-83.3333333333333,3,3,1,5,0,0
245106,-83.3333333333333,3,3,1,65,0,0
245490,-83.3333333333333,3,3,1,5,0,0
245567,-83.3333333333333,3,3,1,65,0,0
245798,-83.3333333333333,3,3,1,5,0,0
245875,288.461538461538,3,3,1,65,1,0
246166,320.855614973262,3,3,1,65,1,0
246646,285.714285714286,3,3,1,65,1,0
246935,307.692307692308,3,3,1,65,1,0
247088,327.868852459016,3,3,1,65,1,0
247416,384.615384615385,3,3,7,65,1,0
247704,306.122448979592,3,3,8,65,1,0
247857,346.820809248555,3,3,9,65,1,0
248030,307.692307692308,3,3,1,65,1,0
251722,-100,3,3,1,30,0,0
253260,292.682926829268,3,3,1,65,1,0
253553,307.692307692308,3,3,1,65,1,0
255322,370.37037037037,3,3,1,65,1,0
255413,444.444444444444,3,3,1,30,1,0
255487,-76.9230769230769,3,2,16,30,0,0
255857,-100,3,2,16,5,0,0
256690,-100,3,2,16,30,0,0
256857,455.407969639469,3,2,16,30,1,0
257767,-100,3,2,16,5,0,0
258223,352.941176470588,3,2,16,30,1,0
258399,-100,3,2,1,15,0,0
258579,387.096774193548,3,2,1,15,1,0
258772,320.855614973262,3,2,1,15,1,0
258931,387.096774193548,3,2,1,15,1,0
259124,402.684563758389,3,2,1,15,1,0
259326,387.096774193548,3,2,1,15,1,0
260100,400,3,2,1,15,1,0
260502,384.615384615385,3,2,1,25,1,0
261175,304.568527918782,3,2,16,15,1,0
261403,405.405405405405,3,2,16,15,1,0
261810,472.44094488189,3,2,16,20,1,0
262636,-100,3,2,16,5,0,0
262676,500,3,2,16,5,1,0
262801,476.190476190476,3,3,1,65,1,0
263157,487.012987012987,3,3,1,65,1,0
266081,461.538461538462,3,2,1,25,1,0
266138,-100,3,2,16,20,0,0
267004,-100,3,2,16,5,0,0
267350,-100,3,2,16,30,0,0
267465,451.977401129944,3,2,16,30,1,0
268368,-100,3,2,16,5,0,0
268821,416.666666666667,3,2,1,10,1,0
269236,359.281437125748,3,2,1,15,1,0
269598,379.746835443038,3,2,1,15,1,0
269979,387.096774193548,3,2,1,15,1,0
271140,394.736842105263,3,2,1,25,1,0
271732,357.142857142857,3,2,16,20,1,0
271999,472.44094488189,3,2,16,20,1,0
273298,-100,3,2,16,5,0,0
273424,454.545454545455,3,2,16,20,1,0
275241,428.571428571429,3,3,1,65,1,0
275455,384.615384615385,3,3,1,65,1,0
276608,342.857142857143,3,2,3,20,1,0
276665,-100,3,2,16,20,0,0
276784,394.736842105263,3,2,16,20,1,0
277573,-100,3,2,16,5,0,0
277672,-100,3,2,16,20,0,0
279160,519.480519480519,3,2,16,20,1,0
280458,-100,3,2,16,5,0,0
280719,333.333333333333,3,2,16,20,1,0
281552,327.868852459016,3,2,16,20,1,0
281661,375,3,2,16,20,1,0
282784,355.029585798817,3,2,3,25,1,0
283671,508.474576271186,3,2,16,20,1,0
283924,526.315789473684,3,2,16,20,1,0
284188,639.658848614073,3,2,16,20,1,0
285467,476.190476190476,3,2,1,20,1,0
285526,-100,3,2,16,20,0,0
285586,506.329113924051,3,2,16,20,1,0
286094,540.540540540541,3,2,16,40,1,0
286454,521.739130434783,3,2,16,20,1,0
286627,480,3,2,3,40,1,0
287467,-100,3,2,3,5,0,0
287597,444.444444444444,3,2,16,20,1,0
288491,476.190476190476,3,2,16,20,1,0
288967,300,3,2,16,35,1,0
289067,714.285714285714,3,2,16,35,1,0
289602,-100,3,2,16,5,0,0
289662,472.44094488189,4,2,16,35,1,0
290016,355.029585798817,4,2,16,35,1,0
290193,441.988950276243,4,2,16,35,1,0
290634,355.029585798817,4,2,16,35,1,0
290990,528.63436123348,4,2,16,35,1,0
291385,359.281437125748,3,2,1,35,1,0
291564,-100,3,2,16,35,0,0
291744,-100,3,2,1,35,0,0
291864,-100,3,2,16,35,0,0
292462,335.195530726257,3,2,1,30,1,0
292797,-100,3,2,16,30,0,0
293355,361.44578313253,3,2,16,35,1,0
293477,315.789473684211,3,2,1,35,1,0
293529,-100,3,2,16,35,0,0
293792,344.827586206897,3,2,16,35,1,0
294138,292.682926829268,3,2,1,35,1,0
294431,319.148936170213,3,3,1,50,1,0
294431,-66.6666666666667,3,3,1,50,0,0
294670,-83.3333333333333,3,3,1,5,0,0
294750,-83.3333333333333,3,3,1,50,0,0
295067,327.868852459016,3,3,7,65,1,0
295230,-100,3,3,8,65,0,0
295397,307.692307692308,3,3,1,65,1,0
295397,-83.3333333333333,3,3,1,65,0,0
295781,-83.3333333333333,3,3,1,5,0,0
295858,-83.3333333333333,3,3,1,65,0,0
296089,-83.3333333333333,3,3,1,5,0,0
296166,-83.3333333333333,3,3,1,65,0,0
296320,-83.3333333333333,3,3,1,65,0,0
296550,-83.3333333333333,3,3,1,5,0,0
296627,-83.3333333333333,3,3,1,65,0,0
297166,-83.3333333333333,3,3,1,5,0,0
297243,-83.3333333333333,3,3,1,65,0,0
297935,-83.3333333333333,3,3,1,5,0,0
298012,-83.3333333333333,3,3,1,65,0,0
298320,-83.3333333333333,3,3,1,5,0,0
298473,-83.3333333333333,3,3,1,65,0,0
298627,-83.3333333333333,3,3,1,5,0,0
298781,-83.3333333333333,3,3,1,65,0,0
298935,-83.3333333333333,3,3,1,5,0,0
299089,-83.3333333333333,3,3,1,65,0,0
300627,-83.3333333333333,3,3,1,5,0,0
300781,-83.3333333333333,3,3,1,65,0,0
301166,-83.3333333333333,3,3,1,5,0,0
301243,-83.3333333333333,3,3,1,65,0,0
302627,266.666666666667,3,3,1,65,1,0
302762,307.692307692308,3,3,1,65,1,0
302762,-83.3333333333333,3,3,1,65,0,0
303146,-83.3333333333333,3,3,1,5,0,0
303223,-83.3333333333333,3,3,1,65,0,0
303838,-83.3333333333333,3,3,1,5,0,0
303992,-83.3333333333333,3,3,1,65,0,0
304146,-83.3333333333333,3,3,1,5,0,0
304300,-83.3333333333333,3,3,1,65,0,0
304454,-83.3333333333333,3,3,1,5,0,0
304608,-83.3333333333333,3,3,1,65,0,0
304915,352.941176470588,3,3,1,5,1,0
305003,-100,3,3,1,65,0,0
305089,307.692307692308,3,3,1,65,1,0
305089,-83.3333333333333,3,3,1,65,0,0
305550,307.692307692308,3,3,1,65,1,0
305550,-83.3333333333333,3,3,1,65,0,0
305703,-83.3333333333333,3,3,1,5,0,0
305857,288.461538461538,3,3,1,65,1,0
305857,-83.3333333333333,3,3,1,65,0,0
306073,-83.3333333333333,3,3,1,5,0,0
306146,324.324324324324,3,3,1,65,1,0
306146,-83.3333333333333,3,3,1,65,0,0
306389,-83.3333333333333,3,3,1,5,0,0
306473,307.692307692308,3,3,1,65,1,0
306473,-83.3333333333333,3,3,1,65,0,0
306857,-83.3333333333333,3,3,1,5,0,0
306934,-83.3333333333333,3,3,1,65,0,0
307319,-83.3333333333333,3,3,1,5,0,0
307396,297.029702970297,3,3,1,65,1,0
307396,-83.3333333333333,3,3,1,65,0,0
307992,307.692307692308,3,3,1,65,1,0
307992,-133.333333333333,3,3,1,65,0,0
308222,-133.333333333333,3,3,1,5,0,0
308299,307.692307692308,3,3,1,65,1,0
308606,-100,3,3,10,65,0,0
308683,-100,3,3,7,65,0,0
308914,-100,3,3,1,65,0,0
309529,-100,3,3,10,65,0,0
309606,-100,3,3,8,65,0,0
309837,-100,3,3,10,65,0,0
309914,-100,3,3,9,65,0,0
310145,-100,3,3,1,65,0,0
310683,-100,3,3,1,5,0,0
310760,326.086956521739,3,3,1,65,1,0
311004,-100,3,3,1,5,0,0
311088,307.692307692308,3,3,1,65,1,0
311088,-83.3333333333333,3,3,1,65,0,0
311626,-83.3333333333333,3,3,1,5,0,0
311703,-83.3333333333333,3,3,1,65,0,0
311857,-83.3333333333333,3,3,1,5,0,0
312011,-83.3333333333333,3,3,1,65,0,0
313088,-83.3333333333333,3,3,1,5,0,0
313242,-83.3333333333333,3,3,1,65,0,0
313395,-83.3333333333333,3,3,1,5,0,0
313549,-83.3333333333333,3,3,1,65,0,0
313703,-83.3333333333333,3,3,1,5,0,0
313857,-83.3333333333333,3,3,1,65,0,0
314780,-66.6666666666667,3,3,1,65,0,0
315011,-83.3333333333333,3,3,1,5,0,0
315088,-133.333333333333,3,3,1,65,0,0
315164,-83.3333333333333,3,3,1,5,0,0
315241,-66.6666666666667,3,3,1,65,0,0
315472,-83.3333333333333,3,3,1,5,0,0
315549,-133.333333333333,3,3,1,65,0,0
315626,-83.3333333333333,3,3,1,5,0,0
315703,-83.3333333333333,3,3,1,65,0,0
316626,-66.6666666666667,3,3,1,65,0,0
316857,-66.6666666666667,3,3,1,5,0,0
316934,-133.333333333333,3,3,1,65,0,0
317011,-66.6666666666667,3,3,1,5,0,0
317088,-66.6666666666667,3,3,1,65,0,0
317395,-133.333333333333,3,3,1,65,0,0
317472,-66.6666666666667,3,3,1,5,0,0
317549,-83.3333333333333,3,3,1,65,0,0
318703,-83.3333333333333,3,3,1,5,0,0
318780,-83.3333333333333,3,3,1,65,0,0
318934,-83.3333333333333,3,3,1,5,0,0
319011,-83.3333333333333,3,3,1,65,0,0
319318,-83.3333333333333,3,3,1,5,0,0
319395,-83.3333333333333,3,3,1,65,0,0
320549,-83.3333333333333,3,3,1,5,0,0
320626,-83.3333333333333,3,3,1,65,0,0
320780,-83.3333333333333,3,3,1,5,0,0
320934,-83.3333333333333,3,3,1,65,0,0
321472,-83.3333333333333,3,3,1,5,0,0
321549,-83.3333333333333,3,3,1,65,0,0
322318,-83.3333333333333,3,3,1,5,0,0
322472,-83.3333333333333,3,3,1,65,0,0
323395,-83.3333333333333,3,3,10,65,0,0
323472,-83.3333333333333,3,3,7,65,0,0
323703,-83.3333333333333,3,3,1,65,0,0
324318,-83.3333333333333,3,3,10,65,0,0
324395,-83.3333333333333,3,3,8,65,0,0
324626,-83.3333333333333,3,3,10,65,0,0
324703,-83.3333333333333,3,3,9,65,0,0
324934,-83.3333333333333,3,3,3,65,0,0
325011,-83.3333333333333,3,3,1,65,0,0
331395,-83.3333333333333,3,3,10,65,0,0
331472,-83.3333333333333,3,3,7,65,0,0
331703,-83.3333333333333,3,3,8,65,0,0
332011,-83.3333333333333,3,3,10,65,0,0
332088,-83.3333333333333,3,3,9,65,0,0
332318,-83.3333333333333,3,3,3,65,0,0
332626,-83.3333333333333,3,3,1,65,0,0
338780,-83.3333333333333,3,3,10,65,0,0
338857,-83.3333333333333,3,3,7,65,0,0
339088,-83.3333333333333,3,3,8,65,0,0
339396,-83.3333333333333,3,3,10,65,0,0
339473,-83.3333333333333,3,3,9,65,0,0
339703,-83.3333333333333,3,3,1,65,0,0
341549,-83.3333333333333,3,3,3,65,0,0
341652,-83.3333333333333,3,3,1,65,0,0
344626,-83.3333333333333,3,3,5,65,0,0
345088,-83.3333333333333,3,3,3,65,0,0
345241,-83.3333333333333,3,3,1,65,0,0
346472,-83.3333333333333,3,3,10,65,0,0
346549,-83.3333333333333,3,3,8,65,0,0
346780,-83.3333333333333,3,3,10,65,0,0
346857,-83.3333333333333,3,3,9,65,0,0
347088,-83.3333333333333,3,3,3,65,0,0
347164,-83.3333333333333,3,3,1,65,0,0
349857,-66.6666666666667,3,3,1,65,0,0
350780,-83.3333333333333,3,3,3,65,0,0
351088,-83.3333333333333,3,3,1,65,0,0
353241,-83.3333333333333,3,3,10,65,0,0
353318,-83.3333333333333,3,3,7,65,0,0
353549,-83.3333333333333,3,3,8,65,0,0
353857,-83.3333333333333,3,3,10,65,0,0
353934,-83.3333333333333,3,3,9,65,0,0
354472,-83.3333333333333,3,3,3,65,0,0
354780,-83.3333333333333,3,3,1,65,0,0
356011,-83.3333333333333,3,3,5,65,0,0
356088,-83.3333333333333,3,3,1,65,0,0
361241,-83.3333333333333,3,3,10,65,0,0
361318,-83.3333333333333,3,3,7,65,0,0
361549,-83.3333333333333,3,3,10,65,0,0
361626,-83.3333333333333,3,3,8,65,0,0
361857,-83.3333333333333,3,3,3,65,0,0
362164,-83.3333333333333,3,3,1,65,0,0
368318,-83.3333333333333,3,3,10,65,0,0
368395,-83.3333333333333,3,3,7,65,0,0
368626,-83.3333333333333,3,3,8,65,0,0
368934,-83.3333333333333,3,3,10,65,0,0
369011,-83.3333333333333,3,3,9,65,0,0
369241,-83.3333333333333,3,3,3,65,0,0
369549,-83.3333333333333,3,3,1,65,0,0
370780,-83.3333333333333,3,3,5,65,0,0
371088,-83.3333333333333,3,3,1,65,0,0
376011,-83.3333333333333,3,3,7,65,0,0
376164,-83.3333333333333,3,3,10,65,0,0
376241,-83.3333333333333,3,3,7,65,0,0
376318,-83.3333333333333,3,3,8,65,0,0
376472,-83.3333333333333,3,3,10,65,0,0
376549,-83.3333333333333,3,3,8,65,0,0
376626,-83.3333333333333,3,3,3,65,0,0
376934,-83.3333333333333,3,3,1,65,0,0
378164,-83.3333333333333,3,3,5,65,0,0
378472,-83.3333333333333,3,3,1,65,0,0
384011,-83.3333333333333,3,3,3,65,0,0
385857,-83.3333333333333,3,3,1,65,0,0
386318,-83.3333333333333,3,3,3,65,0,0
387549,-83.3333333333333,3,3,1,65,0,0
391395,-83.3333333333333,3,3,3,65,0,0
391703,-83.3333333333333,3,3,1,65,0,0
393241,-83.3333333333333,3,3,10,65,0,0
393318,-83.3333333333333,3,3,7,65,0,0
393549,-83.3333333333333,3,3,8,65,0,0
393857,-83.3333333333333,3,3,10,65,0,0
393934,-83.3333333333333,3,3,9,65,0,0
394164,-83.3333333333333,3,3,1,65,0,0
395088,-83.3333333333333,3,3,3,65,0,0
395395,-83.3333333333333,3,3,5,65,0,0
395549,-83.3333333333333,3,3,1,65,0,0
400318,-83.3333333333333,3,3,5,65,0,0
400626,-83.3333333333333,3,3,1,65,0,0
405549,-83.3333333333333,3,3,10,65,0,0
405626,-83.3333333333333,3,3,7,65,0,0
405857,-83.3333333333333,3,3,10,65,0,0
405934,-83.3333333333333,3,3,8,65,0,0
406164,-83.3333333333333,3,3,3,65,0,0
406472,-83.3333333333333,3,3,1,65,0,0
413549,-83.3333333333333,3,3,3,65,0,0
417241,-83.3333333333333,3,3,1,65,0,0
420164,-83.3333333333333,3,3,3,65,0,0
420626,-83.3333333333333,3,3,1,65,0,0
422780,-83.3333333333333,3,3,10,65,0,0
422857,-83.3333333333333,3,3,7,65,0,0
423088,-83.3333333333333,3,3,8,65,0,0
423396,-83.3333333333333,3,3,10,65,0,0
423473,-83.3333333333333,3,3,9,65,0,0
424626,-83.3333333333333,3,3,1,65,0,0
426472,-83.3333333333333,3,3,5,65,0,0
426626,-83.3333333333333,3,3,1,65,0,0
426780,-83.3333333333333,3,3,5,65,0,0
426934,-83.3333333333333,3,3,1,65,0,0
427088,-83.3333333333333,3,3,5,65,0,0
427241,-83.3333333333333,3,3,1,65,0,0
428318,-83.3333333333333,3,3,3,65,0,0
428626,-83.3333333333333,3,3,1,65,0,0
429857,-83.3333333333333,3,3,5,65,0,0
430165,-83.3333333333333,3,3,1,65,0,0
435088,-83.3333333333333,3,3,7,65,0,0
435395,-83.3333333333333,3,3,8,65,0,0
435703,-83.3333333333333,3,3,3,65,0,0
436011,-83.3333333333333,3,3,1,65,0,0
442164,-83.3333333333333,3,3,7,65,0,0
442472,-133.333333333333,3,3,8,65,0,0
442780,-133.333333333333,3,3,9,65,0,0
443088,-83.3333333333333,3,3,3,65,0,0
443395,-83.3333333333333,3,3,1,65,0,0
449799,-83.3333333333333,3,3,1,65,0,0
449818,-83.3333333333333,3,3,1,65,0,0
449838,-83.3333333333333,3,3,1,65,0,0
449857,-83.3333333333333,3,3,10,65,0,0
449934,-83.3333333333333,3,3,7,65,0,0
450107,-83.3333333333333,3,3,1,65,0,0
450126,-83.3333333333333,3,3,1,65,0,0
450145,-83.3333333333333,3,3,1,65,0,0
450164,-83.3333333333333,3,3,10,65,0,0
450241,-83.3333333333333,3,3,8,65,0,0
450414,-83.3333333333333,3,3,1,65,0,0
450434,-83.3333333333333,3,3,1,65,0,0
450453,-83.3333333333333,3,3,1,65,0,0
450472,-83.3333333333333,3,3,3,65,0,0
450491,-83.3333333333333,3,3,1,65,0,0
450511,-83.3333333333333,3,3,1,65,0,0
450530,-83.3333333333333,3,3,1,65,0,0
450568,-83.3333333333333,3,3,1,65,0,0
450588,-83.3333333333333,3,3,1,65,0,0
450607,-83.3333333333333,3,3,1,65,0,0
450645,-83.3333333333333,3,3,1,65,0,0
450664,-83.3333333333333,3,3,1,65,0,0
450684,-83.3333333333333,3,3,1,65,0,0
450722,-83.3333333333333,3,3,1,65,0,0
450741,-83.3333333333333,3,3,1,65,0,0
450761,-83.3333333333333,3,3,1,65,0,0
450780,-83.3333333333333,3,3,1,65,0,0
453549,-83.3333333333333,3,3,5,65,0,0
453568,-83.3333333333333,3,3,1,65,0,0
453703,-83.3333333333333,3,3,1,65,0,0
453857,-83.3333333333333,3,3,5,65,0,0
453876,-83.3333333333333,3,3,1,65,0,0
454011,-83.3333333333333,3,3,1,65,0,0
457857,-83.3333333333333,3,3,3,65,0,0
458780,-83.3333333333333,3,3,1,65,0,0
459088,-83.3333333333333,3,3,3,65,0,0
460626,-83.3333333333333,3,3,1,65,0,0
460934,-83.3333333333333,3,3,3,65,0,0
461395,-83.3333333333333,3,3,1,65,0,0
465088,-83.3333333333333,3,3,3,65,0,0
465241,-83.3333333333333,3,3,1,65,0,0
467088,-83.3333333333333,3,3,7,65,0,0
467395,-83.3333333333333,3,3,8,65,0,0
467703,-83.3333333333333,3,3,9,65,0,0
468011,-83.3333333333333,3,3,1,65,0,0
468934,-83.3333333333333,3,3,3,65,0,0
469241,-83.3333333333333,3,3,1,65,0,0
474164,-83.3333333333333,3,3,5,65,0,0
474472,-83.3333333333333,3,3,1,65,0,0
479395,-83.3333333333333,3,3,7,65,0,0
479549,-83.3333333333333,3,3,10,65,0,0
479626,-83.3333333333333,3,3,7,65,0,0
479703,-83.3333333333333,3,3,10,65,0,0
479780,-83.3333333333333,3,3,8,65,0,0
479934,-83.3333333333333,3,3,8,65,0,0
480011,-83.3333333333333,3,3,3,65,0,0
480318,-83.3333333333333,3,3,1,65,0,0
494164,-83.3333333333333,3,3,7,65,0,0
494472,-83.3333333333333,3,3,8,65,0,0
494780,-83.3333333333333,3,3,3,65,0,0
495088,-83.3333333333333,3,3,1,65,0,0
504011,-83.3333333333333,3,3,5,65,0,0
504164,-83.3333333333333,3,3,1,65,0,0
504318,-83.3333333333333,3,3,5,65,0,0
504471,-83.3333333333333,3,3,1,65,0,0
504626,-83.3333333333333,3,3,5,65,0,0
504779,-83.3333333333333,3,3,1,65,0,0
504934,-83.3333333333333,3,3,1,65,0,0
505087,-83.3333333333333,3,3,1,65,0,0
505241,-83.3333333333333,3,3,5,65,0,0
505394,-83.3333333333333,3,3,1,65,0,0
505549,-83.3333333333333,3,3,5,65,0,0
505702,-83.3333333333333,3,3,1,65,0,0
505857,-83.3333333333333,3,3,10,65,0,0
505934,-83.3333333333333,3,3,1,65,0,0
511395,-83.3333333333333,3,3,10,65,0,0
511472,-83.3333333333333,3,3,7,65,0,0
511703,-83.3333333333333,3,3,10,65,0,0
511780,-83.3333333333333,3,3,8,65,0,0
512011,-83.3333333333333,3,3,10,65,0,0
512088,-83.3333333333333,3,3,9,65,0,0
512318,-83.3333333333333,3,3,10,65,0,0
513241,-83.3333333333333,3,3,3,65,0,0
513549,-83.3333333333333,3,3,1,65,0,0
523703,-83.3333333333333,3,3,10,65,0,0
523780,-83.3333333333333,3,3,7,65,0,0
523857,-83.3333333333333,3,3,10,65,0,0
523934,-83.3333333333333,3,3,7,65,0,0
524011,-83.3333333333333,3,3,10,65,0,0
524088,-83.3333333333333,3,3,8,65,0,0
524164,-83.3333333333333,3,3,10,65,0,0
524241,-83.3333333333333,3,3,8,65,0,0
524318,-83.3333333333333,3,3,3,65,0,0
524626,-83.3333333333333,3,3,1,65,0,0
526472,-83.3333333333333,3,3,10,65,0,0
526780,-83.3333333333333,3,3,1,65,0,0
533241,-83.3333333333333,3,3,5,65,0,0
533549,-83.3333333333333,3,3,1,65,0,0
538472,-83.3333333333333,3,3,10,65,0,0
538549,-83.3333333333333,3,3,7,65,0,0
538626,-83.3333333333333,3,3,10,65,0,0
538703,-83.3333333333333,3,3,7,65,0,0
538780,-83.3333333333333,3,3,10,65,0,0
538857,-83.3333333333333,3,3,8,65,0,0
538934,-83.3333333333333,3,3,10,65,0,0
539011,-83.3333333333333,3,3,8,65,0,0
539088,-83.3333333333333,3,3,3,65,0,0
539395,-83.3333333333333,3,3,1,65,0,0
540934,-66.6666666666667,3,3,1,65,0,0
541857,-83.3333333333333,3,3,1,65,0,0
542780,-83.3333333333333,3,3,3,65,0,0
543088,-83.3333333333333,3,3,1,65,0,0
549549,-83.3333333333333,3,3,10,65,0,0
549626,-83.3333333333333,3,3,1,65,0,0
549703,-83.3333333333333,3,3,10,65,0,0
549780,-83.3333333333333,3,3,1,65,0,0
549857,-83.3333333333333,3,3,10,65,0,0
549934,-83.3333333333333,3,3,1,65,0,0
550011,-83.3333333333333,3,3,10,65,0,0
550088,-83.3333333333333,3,3,1,65,0,0
551549,-83.3333333333333,3,3,7,65,0,0
551626,-83.3333333333333,3,3,1,65,0,0
552011,-83.3333333333333,3,3,3,65,0,0
552088,-83.3333333333333,3,3,1,65,0,0
555241,-83.3333333333333,3,3,10,65,0,0
555318,-83.3333333333333,3,3,1,65,0,0
556318,-83.3333333333333,3,3,10,65,0,0
556395,-83.3333333333333,3,3,7,65,0,0
556626,-83.3333333333333,3,3,1,65,0,0
556934,-83.3333333333333,3,3,10,65,0,0
557011,-83.3333333333333,3,3,8,65,0,0
557088,-83.3333333333333,3,3,1,65,0,0
557164,-83.3333333333333,3,3,8,65,0,0
557241,-83.3333333333333,3,3,10,65,0,0
557318,-83.3333333333333,3,3,9,65,0,0
557395,-83.3333333333333,3,3,1,65,0,0
557472,-83.3333333333333,3,3,9,65,0,0
557554,285.714285714286,3,3,6,65,1,1
557554,-66.6666666666667,3,3,6,65,0,1
557768,-66.6666666666667,3,3,6,5,0,1
557839,-83.3333333333333,3,3,1,70,0,1
559554,-83.3333333333333,3,3,3,70,0,1
559625,-83.3333333333333,3,3,1,70,0,1
559839,-83.3333333333333,3,3,3,70,0,1
559910,-83.3333333333333,3,3,1,70,0,1
560411,-83.3333333333333,3,3,3,70,0,1
560482,-83.3333333333333,3,3,1,70,0,1
560696,-83.3333333333333,3,3,3,70,0,1
560767,-83.3333333333333,3,3,1,70,0,1
567268,-83.3333333333333,3,3,3,70,0,1
567339,-83.3333333333333,3,3,1,70,0,1
567554,-83.3333333333333,3,3,3,70,0,1
567625,-83.3333333333333,3,3,1,70,0,1
567839,-83.3333333333333,3,3,3,70,0,1
567910,-83.3333333333333,3,3,1,70,0,1
569554,-83.3333333333333,3,3,1,70,0,1
569839,-83.3333333333333,3,3,1,70,0,1
570125,-66.6666666666667,3,3,1,70,0,1
571268,-83.3333333333333,3,3,10,70,0,1
571554,-83.3333333333333,3,3,1,70,0,1
572125,-83.3333333333333,3,3,3,70,0,1
572196,-83.3333333333333,3,3,1,70,0,1
572411,-83.3333333333333,3,3,3,70,0,1
572482,-83.3333333333333,3,3,1,70,0,1
572696,-83.3333333333333,3,3,3,70,0,1
572767,-83.3333333333333,3,3,1,70,0,1
572982,-83.3333333333333,3,3,3,70,0,1
573053,-83.3333333333333,3,3,1,70,0,1
573839,-83.3333333333333,3,3,3,70,0,1
573910,-83.3333333333333,3,3,1,70,0,1
574696,-83.3333333333333,3,3,10,70,0,1
574982,-83.3333333333333,3,3,1,70,0,1
575554,-83.3333333333333,3,3,3,70,0,1
575696,-83.3333333333333,3,3,1,70,0,1
575839,-83.3333333333333,3,3,3,70,0,1
575981,-83.3333333333333,3,3,1,70,0,1
576125,-83.3333333333333,3,3,3,70,0,1
576267,-83.3333333333333,3,3,1,70,0,1
576411,-83.3333333333333,3,3,3,70,0,1
576553,-83.3333333333333,3,3,1,70,0,1
577268,-83.3333333333333,3,3,3,70,0,1
577339,-83.3333333333333,3,3,1,70,0,1
578125,-83.3333333333333,3,3,10,70,0,1
578411,-83.3333333333333,3,3,1,70,0,1
578982,-83.3333333333333,3,3,3,70,0,1
579124,-83.3333333333333,3,3,1,70,0,1
579268,-83.3333333333333,3,3,3,70,0,1
579410,-83.3333333333333,3,3,1,70,0,1
579554,-83.3333333333333,3,3,3,70,0,1
579696,-83.3333333333333,3,3,1,70,0,1
579839,-83.3333333333333,3,3,3,70,0,1
579981,-83.3333333333333,3,3,1,70,0,1
580696,-83.3333333333333,3,3,3,70,0,1
580767,-83.3333333333333,3,3,1,70,0,1
581554,-83.3333333333333,3,3,10,70,0,1
581840,-83.3333333333333,3,3,3,70,0,1
581982,-83.3333333333333,3,3,1,70,0,1
582125,-83.3333333333333,3,3,3,70,0,1
582267,-83.3333333333333,3,3,1,70,0,1
584982,-100,3,3,3,70,0,0
586625,-100,3,2,0,5,0,0
586696,-100,3,3,7,50,0,0
586982,-100,3,3,8,50,0,0
587125,-100,3,3,9,50,0,0
587554,-100,3,3,1,50,0,0
587696,-100,3,3,7,50,0,0
587982,-100,3,3,8,50,0,0
588268,-100,3,3,9,50,0,0
588411,-100,3,3,1,50,0,0
588554,-100,3,3,7,50,0,0
588696,-100,3,3,9,50,0,0
589125,-100,3,3,10,50,0,0
589268,-100,3,3,7,50,0,0
589411,-100,3,2,0,5,0,0
589554,-100,3,3,10,50,0,0
589696,-100,3,2,0,5,0,0
589839,-100,3,3,8,50,0,0
589982,-100,3,2,0,5,0,0
590125,-100,3,3,1,50,0,0
590268,-100,3,3,8,50,0,0
590411,-100,3,3,7,50,0,0
590554,-100,3,3,8,50,0,0
590839,-100,3,3,10,50,0,0
590982,-100,3,3,7,50,0,0
591125,-100,3,2,0,5,0,0
591268,-100,3,3,10,50,0,0
591410,-100,3,2,0,5,0,0
591553,-100,3,3,7,50,0,0
591696,-100,3,2,0,5,0,0
591839,-100,3,3,1,50,0,0
591982,-100,3,3,7,50,0,0
592554,-100,3,3,10,50,0,0
592696,-100,3,3,1,50,0,0
592839,-100,3,2,0,5,0,0
592982,-100,3,3,10,50,0,0
593125,-100,3,2,0,5,0,0
593268,-100,3,3,7,50,0,0
593554,-100,3,3,1,50,0,0
593696,-100,3,3,7,50,0,0
593839,-100,3,3,8,50,0,0
594268,-100,3,3,10,50,0,0
594554,-100,3,2,0,5,0,0
594696,-100,3,3,10,50,0,0
594839,-100,3,3,1,50,0,0
594982,-100,3,3,10,50,0,0
595125,-100,3,2,0,5,0,0
595268,-100,3,3,1,50,0,0
595411,-100,3,3,7,50,0,0
595982,-100,3,3,1,50,0,0
596268,-100,3,2,0,5,0,0
596411,-100,3,3,10,50,0,0
596554,-100,3,2,16,50,0,0
596696,-100,3,3,1,50,0,0
596839,-100,3,2,16,50,0,0
596982,-100,3,3,1,50,0,0
597696,-100,3,3,10,50,0,0
597839,-100,3,3,1,50,0,0
597934,-100,3,3,7,50,0,0
598125,-100,3,3,8,50,0,0
598411,-100,3,3,9,50,0,0
598670,428.571428571429,3,2,0,100,1,0
598706,285.714285714286,3,3,1,75,1,1
598706,-50,3,3,1,75,0,1
599063,-50,3,3,1,5,0,1
599134,-50,3,3,1,75,0,1
599348,-50,3,3,1,5,0,1
599420,-50,3,3,1,75,0,1
599777,-50,3,3,1,5,0,1
599848,-200,3,3,1,75,0,1
599920,-50,3,3,1,5,0,1
599991,250,3,3,1,75,1,1
600178,-50,3,3,1,5,0,1
600241,324.324324324324,3,3,1,75,1,1
600402,320.855614973262,3,3,1,75,1,1
600482,-100,3,3,1,75,0,1
600562,215.827338129496,3,3,1,75,1,1
600615,-100,3,3,1,5,0,1
600670,285.714285714286,3,3,1,75,1,1
600670,-50,3,3,1,75,0,1
600884,-50,3,3,1,5,0,1
600955,-50,3,3,1,75,0,1
601170,-50,3,3,1,5,0,1
601241,-400,3,3,1,75,0,1
601527,266.666666666667,3,3,1,75,1,1
601527,-50,3,3,1,75,0,1
601727,-50,3,3,1,5,0,1
601793,-50,3,3,1,75,0,1
602060,-50,3,3,1,5,0,1
602108,307.692307692308,3,3,1,75,1,1
602108,-50,3,3,1,75,0,1
602492,-50,3,3,1,5,0,1
602561,285.714285714286,3,3,1,75,1,1
602561,-50,3,3,1,75,0,1
602775,-50,3,3,1,5,0,1
602847,245.901639344262,3,3,1,75,1,1
602847,-50,3,3,1,75,0,1
602908,-50,3,3,1,5,0,1
602972,285.714285714286,3,3,1,75,1,1
602972,-50,3,3,1,75,0,1
603329,-50,3,3,1,5,0,1
603400,266.666666666667,3,3,1,75,1,1
603400,-50,3,3,1,75,0,1
603600,-50,3,3,1,5,0,1
603668,285.714285714286,3,3,1,75,1,1
603668,-200,3,3,1,75,0,1
603739,-400,3,3,1,5,0,1
603810,324.324324324324,3,3,1,75,1,1
603810,-50,3,3,1,75,0,1
604053,-50,3,3,1,5,0,1
604096,285.714285714286,3,3,1,75,1,1
604096,-50,3,3,1,75,0,1
604310,-50,3,3,1,5,0,1
604381,-50,3,3,1,75,0,1
604453,-50,3,3,1,5,0,1
604524,-50,3,3,7,75,0,1
604953,-50,3,3,8,75,0,1
605238,-50,3,3,9,75,0,1
605524,297.029702970297,3,3,1,75,1,1
605524,-50,3,3,1,75,0,1
605895,-50,3,3,1,5,0,1
605969,285.714285714286,3,3,1,75,1,1
605969,-50,3,3,1,75,0,1
606183,-50,3,3,1,5,0,1
606254,301.507537688442,3,3,1,75,1,1
606254,-50,3,3,1,75,0,1
606329,-50,3,3,1,5,0,1
606405,285.714285714286,3,3,1,75,1,1
606405,-50,3,3,1,75,0,1
606762,-50,3,3,1,5,0,1
606833,265.486725663717,3,3,1,75,1,1
606833,-50,3,3,1,75,0,1
607032,-50,3,3,1,5,0,1
607099,276.497695852535,3,3,1,75,1,1
607237,361.44578313253,3,3,1,75,1,1
607237,-50,3,3,1,75,0,1
607417,-50,3,3,1,5,0,1
607522,285.714285714286,3,3,1,75,1,1
607522,-50,3,3,1,75,0,1
607736,-100,3,3,1,5,0,1
607807,-100,3,3,1,75,0,1
608075,315.789473684211,3,3,1,75,1,1
608075,-50,3,3,1,75,0,1
608373,285.714285714286,3,3,1,75,1,1
608373,-50,3,3,1,75,0,1
608587,-50,3,3,1,5,0,1
608658,-50,3,3,1,75,0,1
608873,-50,3,3,1,5,0,1
608950,295.566502463054,3,3,1,75,1,1
608950,-50,3,3,1,75,0,1
609319,-50,3,3,1,5,0,1
609414,285.714285714286,3,3,1,75,1,1
609414,-50,3,3,1,75,0,1
609771,-50,3,3,1,5,0,1
609842,285.714285714286,3,3,1,75,1,1
609842,-50,3,3,1,75,0,1
610056,-50,3,3,1,5,0,1
610127,-50,3,3,1,75,0,1
610199,-50,3,3,1,5,0,1
610271,266.666666666667,3,3,1,75,1,1
610271,-50,3,3,1,75,0,1
610471,-50,3,3,1,5,0,1
610539,320.855614973262,3,3,1,75,1,1
610699,285.714285714286,3,3,1,75,1,1
610699,-50,3,3,1,75,0,1
610877,-50,3,3,1,5,0,1
610949,285.714285714286,3,3,1,75,1,1
610949,-50,3,3,1,75,0,1
611163,-50,3,3,1,5,0,1
611234,-50,3,3,1,75,0,1
611449,-50,3,3,7,75,0,1
611520,-50,3,3,8,75,0,1
611591,319.148936170213,3,3,9,75,1,1
611750,-100,3,3,9,75,0,1
611841,285.714285714286,3,3,10,75,1,1
611841,-66.6666666666667,3,3,10,75,0,1
611983,324.324324324324,3,2,0,5,1,1
612145,-100,3,3,10,75,0,1
612307,413.793103448276,3,3,10,75,1,1
612412,285.714285714286,3,3,1,65,1,0
612412,-83.3333333333333,3,3,1,65,0,0
612697,-83.3333333333333,3,3,1,5,0,0
612840,-83.3333333333333,3,3,1,65,0,0
613483,-83.3333333333333,3,3,1,5,0,0
613554,-83.3333333333333,3,3,1,65,0,0
613769,-83.3333333333333,3,3,1,5,0,0
613840,-83.3333333333333,3,3,1,65,0,0
613983,-83.3333333333333,3,3,7,65,0,0
614126,-83.3333333333333,3,3,1,65,0,0
614412,-83.3333333333333,3,3,1,40,0,0
614554,-83.3333333333333,3,3,1,65,0,0
615554,-83.3333333333333,3,3,1,40,0,0
615697,-83.3333333333333,3,3,1,65,0,0
615983,-83.3333333333333,3,3,1,40,0,0
616269,428.571428571429,3,3,1,65,1,0
616697,285.714285714286,3,3,1,65,1,0
616697,-83.3333333333333,3,3,1,65,0,0
616911,-83.3333333333333,3,3,1,5,0,0
616982,-83.3333333333333,3,3,1,65,0,0
617197,-83.3333333333333,3,3,1,5,0,0
617268,303.030303030303,3,3,1,65,1,0
617268,-83.3333333333333,3,3,1,65,0,0
617495,-83.3333333333333,3,3,1,5,0,0
617571,303.030303030303,3,3,10,65,1,0
617571,-83.3333333333333,3,3,10,65,0,0
617798,-83.3333333333333,3,3,1,5,0,0
617874,428.571428571429,3,3,1,65,1,0
617982,284.36018957346,3,3,1,65,1,0
618409,285.714285714286,3,3,1,65,1,0
618409,-83.3333333333333,3,3,1,65,0,0
619266,-83.3333333333333,3,3,10,65,0,0
619551,-83.3333333333333,3,3,1,40,0,0
619694,-83.3333333333333,3,3,1,65,0,0
619980,-83.3333333333333,3,3,1,40,0,0
620123,-83.3333333333333,3,3,1,65,0,0
620266,-83.3333333333333,3,3,1,5,0,0
620409,-83.3333333333333,3,3,1,65,0,0
620551,-83.3333333333333,3,3,1,5,0,0
620696,266.666666666667,3,3,1,65,1,0
620829,-83.3333333333333,3,3,1,40,0,0
620964,303.030303030303,3,3,1,65,1,0
621115,-83.3333333333333,3,3,1,40,0,0
621267,285.714285714286,3,3,1,40,1,0
621410,285.714285714286,3,3,1,65,1,0
621410,-83.3333333333333,3,3,1,65,0,0
621552,-83.3333333333333,3,3,1,40,0,0
621695,-83.3333333333333,3,3,1,65,0,0
621839,285.714285714286,3,3,1,65,1,0
621839,-83.3333333333333,3,3,1,65,0,0
621981,-83.3333333333333,3,3,1,5,0,0
622124,-83.3333333333333,3,3,1,65,0,0
622553,250,3,3,1,65,1,0
622678,285.714285714286,3,3,1,65,1,0
622678,-83.3333333333333,3,3,1,65,0,0
622963,-83.3333333333333,3,3,1,5,0,0
623106,-83.3333333333333,3,3,1,65,0,0
623678,-83.3333333333333,3,3,1,5,0,0
623820,-83.3333333333333,3,3,1,65,0,0
623963,-83.3333333333333,3,3,1,5,0,0
624106,303.030303030303,3,3,1,65,1,0
624410,285.714285714286,3,3,3,65,1,0
624695,297.766749379653,3,3,1,65,1,0
624843,297.766749379653,3,3,1,65,1,0
625290,312.5,3,3,1,65,1,0
625681,294.117647058824,3,3,1,65,1,0
626122,285.714285714286,3,3,1,65,1,0
626122,-50,3,3,1,65,0,0
626336,-66.6666666666667,3,3,1,5,0,0
626407,-50,3,3,1,65,0,0
626764,-66.6666666666667,3,3,1,5,0,0
626836,-66.6666666666667,3,3,1,65,0,0
626907,-66.6666666666667,3,3,1,5,0,0
626979,-50,3,3,1,65,0,0
627193,-66.6666666666667,3,3,1,5,0,0
627264,-50,3,3,1,65,0,0
627622,-66.6666666666667,3,3,1,5,0,0
627693,-66.6666666666667,3,3,1,65,0,0
627764,-66.6666666666667,3,3,1,5,0,0
627836,-50,3,3,1,65,0,0
628050,-66.6666666666667,3,3,1,5,0,0
628122,-66.6666666666667,3,3,1,65,0,0
628193,-66.6666666666667,3,3,1,5,0,0
628264,275.229357798165,3,3,1,65,1,0
628264,-50,3,3,1,65,0,0
628470,-66.6666666666667,3,3,1,5,0,0
628539,-66.6666666666667,3,3,1,65,0,0
628676,285.714285714286,4,3,1,65,1,0
629104,297.029702970297,4,3,1,65,1,0
629551,285.714285714286,4,3,1,65,1,0
629551,-50,4,3,1,65,0,0
629765,-66.6666666666667,4,3,1,5,0,0
629836,-50,4,3,1,65,0,0
630193,-66.6666666666667,4,3,1,5,0,0
630265,294.117647058824,4,3,1,65,1,0
630265,-66.6666666666667,4,3,1,65,0,0
630338,-66.6666666666667,4,3,1,5,0,0
630414,279.06976744186,4,3,1,65,1,0
630414,-66.6666666666667,4,3,1,65,0,0
630623,-66.6666666666667,4,3,1,5,0,0
630693,285.714285714286,4,3,1,65,1,0
630693,-66.6666666666667,4,3,1,65,0,0
630764,-100,4,3,1,5,0,0
630835,275.229357798165,4,3,1,65,1,0
630835,-50,4,3,1,65,0,0
631041,-66.6666666666667,4,3,1,5,0,0
631112,272.727272727273,4,3,1,65,1,0
631247,285.714285714286,4,3,1,65,1,0
631675,266.666666666667,4,3,1,65,1,0
631675,-66.6666666666667,4,3,1,65,0,0
631875,-66.6666666666667,4,3,1,5,0,0
631943,319.148936170213,4,3,1,65,1,0
632104,285.714285714286,4,3,1,65,1,0
632532,-66.6666666666667,4,3,1,65,0,0
632746,-66.6666666666667,4,3,1,5,0,0
632818,319.148936170213,4,3,1,65,1,0
632979,285.714285714286,4,3,3,65,1,0
632979,-50,4,3,3,65,0,0
633193,-66.6666666666667,4,3,1,5,0,0
633264,-66.6666666666667,4,3,1,65,0,0
633407,-50,4,3,1,65,0,0
633621,-66.6666666666667,4,3,1,5,0,0
633693,250,4,3,1,65,1,0
633818,285.714285714286,4,3,1,65,1,0
633818,-50,4,3,1,65,0,0
634032,-66.6666666666667,4,3,1,5,0,0
634103,-66.6666666666667,4,3,1,65,0,0
634246,266.666666666667,4,3,1,65,1,0
634246,-50,4,3,1,65,0,0
634446,-66.6666666666667,4,3,1,5,0,0
634514,324.324324324324,4,3,1,65,1,0
634514,-66.6666666666667,4,3,1,65,0,0
634595,-66.6666666666667,4,3,1,5,0,0
634675,283.018867924528,4,3,3,65,1,0
634675,-50,4,3,3,65,0,0
634887,-66.6666666666667,4,3,3,5,0,0
634958,-66.6666666666667,4,3,1,65,0,0
635028,-66.6666666666667,4,3,1,5,0,0
635099,285.714285714286,4,3,10,65,1,0
635170,-133.333333333333,4,3,7,65,0,0
635527,285.714285714286,4,3,10,65,1,0
635598,-133.333333333333,4,3,8,65,0,0
635955,-100,4,3,10,65,0,0
636027,-100,4,3,9,65,0,0
636384,356.083086053412,4,3,1,65,1,0
636384,-50,4,3,1,65,0,0
636651,-66.6666666666667,4,3,1,5,0,0
636704,285.714285714286,4,3,1,65,1,0
636704,-66.6666666666667,4,3,1,65,0,0
636775,-100,4,3,1,5,0,0
636847,269.058295964126,4,3,1,65,1,0
636847,-50,4,3,1,65,0,0
637048,-66.6666666666667,4,3,1,5,0,0
637117,288.461538461538,4,3,1,65,1,0
637262,285.714285714286,4,3,1,65,1,0
637262,-133.333333333333,4,3,1,65,0,0
637476,-66.6666666666667,4,3,1,5,0,0
637547,-66.6666666666667,4,3,1,65,0,0
637690,266.666666666667,4,3,1,65,1,0
637690,-50,4,3,1,65,0,0
637890,-66.6666666666667,4,3,1,5,0,0
637958,285.714285714286,4,3,1,65,1,0
638100,285.714285714286,3,3,1,65,1,0
638100,-66.6666666666667,3,3,1,65,0,0
638528,-133.333333333333,3,3,10,65,0,0
638600,-133.333333333333,3,3,7,65,0,0
638957,-200,3,3,10,65,0,0
639029,-200,3,3,8,65,0,0
639385,-200,3,3,10,65,0,0
639457,-333.333333333333,3,3,9,65,0,0
639811,303.030303030303,4,3,1,65,1,0
640115,285.714285714286,4,3,1,65,1,0
640257,-83.3333333333333,4,3,1,65,0,0
640543,324.324324324324,4,3,1,65,1,0
640704,272.727272727273,4,3,1,65,1,0
641115,285.714285714286,4,3,1,65,1,0
641543,285.714285714286,4,3,1,65,1,0
641972,266.666666666667,4,3,1,65,1,0
642241,272.727272727273,4,3,1,65,1,0
642377,285.714285714286,4,3,1,65,1,0
642805,266.666666666667,4,3,1,65,1,0
643073,359.281437125748,4,3,1,65,1,0
643253,309.278350515464,4,3,1,65,1,0
643253,-50,4,3,1,65,0,0
643484,-66.6666666666667,4,3,1,5,0,0
643563,237.154150197628,4,3,1,65,1,0
643681,285.714285714286,4,3,1,65,1,0
643681,-50,4,3,1,65,0,0
643895,-66.6666666666667,4,3,1,5,0,0
643967,324.324324324324,4,3,1,65,1,0
643967,-66.6666666666667,4,3,1,65,0,0
644048,-66.6666666666667,4,3,1,5,0,0
644128,285.714285714286,4,3,1,65,1,0
644128,-50,4,3,1,65,0,0
644342,-66.6666666666667,4,3,1,5,0,0
644413,-66.6666666666667,4,3,1,65,0,0
644485,-66.6666666666667,4,3,1,5,0,0
644556,285.714285714286,4,3,1,65,1,0
644556,-50,4,3,1,65,0,0
644770,-50,4,3,1,5,0,0
644841,-50,4,3,1,65,0,0
644985,260.869565217391,4,3,1,65,1,0
645114,285.714285714286,4,3,1,65,1,0
645399,-66.6666666666667,4,3,1,65,0,0
645614,-66.6666666666667,4,3,1,5,0,0
645685,-66.6666666666667,4,3,1,65,0,0
645828,319.148936170213,4,3,1,65,1,0
645988,250,4,3,1,65,1,0
646113,315.789473684211,4,3,1,65,1,0
646270,272.727272727273,4,3,1,65,1,0
646474,-100,4,3,1,5,0,0
646543,319.148936170213,4,3,1,65,1,0
646700,285.714285714286,4,3,3,65,1,0
646700,-50,4,3,3,65,0,0
646914,-66.6666666666667,4,3,1,5,0,0
646985,-50,4,3,1,65,0,0
647342,-66.6666666666667,4,3,1,5,0,0
647413,-66.6666666666667,4,3,1,65,0,0
647485,-66.6666666666667,4,3,1,5,0,0
647557,266.666666666667,4,3,1,65,1,0
647557,-50,4,3,1,65,0,0
647757,-66.6666666666667,4,3,1,5,0,0
647825,320.855614973262,4,3,1,65,1,0
647825,-66.6666666666667,4,3,1,65,0,0
647905,-66.6666666666667,4,3,1,5,0,0
647985,285.714285714286,4,3,1,65,1,0
647985,-50,4,3,1,65,0,0
648199,-66.6666666666667,4,3,1,5,0,0
648270,-66.6666666666667,4,3,1,65,0,0
648342,-66.6666666666667,4,3,1,5,0,0
648413,285.714285714286,4,3,1,65,1,0
648556,255.31914893617,4,3,1,65,1,0
648814,285.714285714286,4,3,10,65,1,0
648885,-100,4,3,7,65,0,0
649242,285.714285714286,4,3,10,65,1,0
649313,-100,4,3,8,65,0,0
649670,-100,4,3,10,65,0,0
649742,-100,4,3,1,65,0,0
650099,324.324324324324,4,3,1,65,1,0
650099,-50,4,3,1,65,0,0
650342,-66.6666666666667,4,3,1,5,0,0
650421,285.714285714286,4,3,1,65,1,0
650563,-50,4,3,1,65,0,0
650778,-66.6666666666667,4,3,1,5,0,0
650849,-66.6666666666667,4,3,1,65,0,0
650992,270.27027027027,4,3,1,65,1,0
650992,-50,4,3,1,65,0,0
651194,-66.6666666666667,4,3,1,5,0,0
651262,283.018867924528,4,3,1,65,1,0
651262,-66.6666666666667,4,3,1,65,0,0
651401,250,4,3,1,65,1,0
651401,-50,4,3,1,65,0,0
651588,-66.6666666666667,4,3,1,5,0,0
651650,327.868852459016,4,3,1,65,1,0
651650,-66.6666666666667,4,3,1,65,0,0
651813,285.714285714286,3,3,1,65,1,0
651813,-66.6666666666667,4,3,1,65,0,0
652241,-66.6666666666667,4,3,10,65,0,0
652313,-66.6666666666667,4,3,7,65,0,0
652670,-66.6666666666667,4,3,10,65,0,0
652741,-66.6666666666667,4,3,8,65,0,0
653098,303.030303030303,4,3,10,65,1,0
653173,-100,4,3,9,65,0,0
653552,285.714285714286,4,3,1,65,1,0
653552,-66.6666666666667,4,3,1,65,0,0
653766,-66.6666666666667,4,3,1,5,0,0
653837,-66.6666666666667,4,3,1,65,0,0
653980,266.666666666667,4,3,1,65,1,0
653980,-66.6666666666667,4,3,1,65,0,0
654180,-66.6666666666667,4,3,1,5,0,0
654248,285.714285714286,4,3,1,65,1,0
654390,320.855614973262,4,3,1,65,1,0
654712,250,4,3,1,65,1,0
654837,266.666666666667,4,3,1,65,1,0
654837,-66.6666666666667,4,3,1,65,0,0
655037,-66.6666666666667,4,3,1,5,0,0
655103,285.714285714286,4,3,1,65,1,0
655246,303.030303030303,4,3,1,65,1,0
655552,285.714285714286,4,3,1,65,1,0
655694,285.714285714286,4,3,1,65,1,0
655694,-66.6666666666667,4,3,1,65,0,0
655908,-66.6666666666667,4,3,1,5,0,0
655980,285.714285714286,4,3,1,65,1,0
656551,281.69014084507,4,3,1,65,1,0
656973,285.714285714286,3,3,1,65,1,0
656973,-50,3,3,1,65,0,0
657187,-66.6666666666667,3,3,1,5,0,0
657258,-66.6666666666667,3,3,1,65,0,0
657615,-66.6666666666667,3,3,1,5,0,0
657686,-66.6666666666667,3,3,1,65,0,0
660615,-66.6666666666667,3,3,1,5,0,0
660687,-66.6666666666667,3,3,1,65,0,0
661044,-66.6666666666667,3,3,1,5,0,0
661115,-66.6666666666667,3,3,1,65,0,0
662473,-66.6666666666667,3,3,1,5,0,0
662544,-66.6666666666667,3,3,10,65,0,0
662615,-66.6666666666667,3,3,7,65,0,0
662973,-133.333333333333,3,3,10,65,0,0
663044,-133.333333333333,3,3,8,65,0,0
663401,-66.6666666666667,3,3,10,65,0,0
663472,-133.333333333333,3,3,9,65,0,0
663830,309.278350515464,3,3,1,65,1,0
663830,-66.6666666666667,3,3,1,65,0,0
664061,-66.6666666666667,3,3,1,5,0,0
664141,250,4,3,1,65,1,0
664265,285.714285714286,4,3,1,65,1,0
664265,-66.6666666666667,3,3,1,65,0,0
664479,-66.6666666666667,3,3,1,5,0,0
664550,-66.6666666666667,3,3,1,65,0,0
664694,285.714285714286,4,3,1,65,1,0
664836,-100,4,3,1,30,0,0
664981,317.460317460317,4,3,1,65,1,0
665140,350.877192982456,4,3,1,65,1,0
665140,-66.6666666666667,3,3,1,65,0,0
665447,-66.6666666666667,3,3,1,65,0,0
665521,285.714285714286,4,3,1,65,1,0
665521,-66.6666666666667,3,3,1,65,0,0
665949,-66.6666666666667,3,3,10,65,0,0
666021,-66.6666666666667,3,3,7,65,0,0
666378,-66.6666666666667,3,3,10,65,0,0
666449,-66.6666666666667,3,3,8,65,0,0
666806,300,4,3,10,65,1,0
666806,-133.333333333333,3,3,10,65,0,0
666881,-133.333333333333,3,3,9,65,0,0
667259,285.714285714286,3,3,1,65,1,0
667259,-66.6666666666667,3,3,1,65,0,0
667473,-66.6666666666667,3,3,1,5,0,0
667544,-66.6666666666667,3,3,10,65,0,0
667687,-66.6666666666667,3,3,1,65,0,0
667901,-66.6666666666667,3,3,1,5,0,0
667973,-66.6666666666667,3,3,1,65,0,0
669401,255.31914893617,3,3,1,65,1,0
669401,-66.6666666666667,3,3,1,65,0,0
669656,309.278350515464,4,3,1,65,1,0
669812,285.714285714286,4,3,1,65,1,0
670240,283.018867924528,4,3,1,65,1,0
670663,303.030303030303,4,3,1,65,1,0
670663,-50,3,3,1,65,0,0
670890,-66.6666666666667,3,3,1,5,0,0
670966,250,4,3,1,65,1,0
670966,-66.6666666666667,4,3,1,65,0,0
671091,285.714285714286,4,3,1,65,1,0
671091,-50,4,3,1,65,0,0
671305,-66.6666666666667,4,3,1,5,0,0
671376,-66.6666666666667,4,3,1,65,0,0
671519,303.030303030303,4,3,1,65,1,0
671823,250,4,3,1,65,1,0
671948,285.714285714286,4,3,1,65,1,0
672376,285.714285714286,4,3,1,65,1,0
672804,-66.6666666666667,4,3,1,65,0,0
672947,-66.6666666666667,4,3,1,5,0,0
673090,319.148936170213,4,3,1,65,1,0
673090,-66.6666666666667,4,3,1,65,0,0
673250,285.714285714286,4,3,1,65,1,0
673250,-66.6666666666667,4,3,1,65,0,0
673678,270.27027027027,4,3,1,65,1,0
673678,-66.6666666666667,4,3,1,65,0,0
673950,333.333333333333,4,3,1,65,1,0
674116,285.714285714286,4,3,1,65,1,0
674116,-50,4,3,1,65,0,0
674330,-66.6666666666667,4,3,1,5,0,0
674401,260.869565217391,4,3,1,65,1,0
674401,-66.6666666666667,4,3,1,65,0,0
674531,300,4,3,1,65,1,0
674531,-66.6666666666667,4,3,1,65,0,0
674758,-66.6666666666667,4,3,1,5,0,0
674830,285.714285714286,4,3,1,65,1,0
674830,-66.6666666666667,4,3,1,65,0,0
674972,285.714285714286,3,3,1,65,1,0
674972,-66.6666666666667,3,3,1,65,0,0
675186,-66.6666666666667,3,3,1,5,0,0
675257,-66.6666666666667,3,3,1,65,0,0
675400,-66.6666666666667,3,3,1,65,0,0
675614,-66.6666666666667,3,3,1,5,0,0
675686,-66.6666666666667,3,3,1,65,0,0
675829,-50,3,3,1,65,0,0
676186,-66.6666666666667,3,3,1,5,0,0
676257,-83.3333333333333,3,3,10,65,0,0
676329,-66.6666666666667,3,3,7,65,0,0
676686,-83.3333333333333,3,3,10,65,0,0
676757,-83.3333333333333,3,3,8,65,0,0
677114,-83.3333333333333,3,3,10,65,0,0
677186,-83.3333333333333,3,3,9,65,0,0
677543,-50,3,3,3,65,0,0
677757,-66.6666666666667,3,3,1,5,0,0
677829,-66.6666666666667,3,3,1,65,0,0
677900,-66.6666666666667,3,3,1,5,0,0
677972,-50,3,3,1,65,0,0
678186,-66.6666666666667,3,3,1,5,0,0
678257,-50,3,3,1,65,0,0
678614,-66.6666666666667,3,3,1,5,0,0
678686,-66.6666666666667,3,3,1,65,0,0
678829,260.869565217391,3,3,1,65,1,0
678829,-50,3,3,1,65,0,0
679024,-66.6666666666667,3,3,1,5,0,0
679090,315.789473684211,4,3,1,65,1,0
679090,-66.6666666666667,3,3,1,65,0,0
679168,-66.6666666666667,3,3,1,5,0,0
679247,285.714285714286,3,3,1,65,1,0
679247,-66.6666666666667,3,3,1,65,0,1
679532,-66.6666666666667,3,3,10,65,0,1
679604,-66.6666666666667,3,3,7,65,0,1
679818,-66.6666666666667,3,3,1,65,0,1
680389,-66.6666666666667,3,3,10,65,0,1
680461,-66.6666666666667,3,3,7,65,0,1
680675,-66.6666666666667,3,3,10,65,0,1
680747,-66.6666666666667,3,3,8,65,0,1
680889,363.636363636364,3,3,9,65,1,0
680889,-83.3333333333333,3,3,9,65,0,1
680980,285.714285714286,3,3,1,65,1,1
680980,-83.3333333333333,3,3,1,65,0,1
686408,-83.3333333333333,3,3,10,65,0,1
686480,-83.3333333333333,3,3,7,65,0,1
686980,-83.3333333333333,3,3,1,65,0,1
687551,-133.333333333333,3,3,10,65,0,1
687622,-83.3333333333333,3,3,1,65,0,1
687837,-83.3333333333333,3,3,3,65,0,1
688122,-83.3333333333333,3,3,1,65,0,1
692980,-83.3333333333333,3,3,3,65,0,1
693837,-83.3333333333333,3,3,1,65,0,1
699837,-83.3333333333333,3,3,10,65,0,1
699908,-133.333333333333,3,3,7,65,0,1
700408,-133.333333333333,3,3,8,65,0,1
700694,-133.333333333333,3,3,1,65,0,1
701265,-133.333333333333,3,3,9,65,0,1
701551,-83.3333333333333,3,3,3,65,0,1
701837,-83.3333333333333,3,3,1,65,0,1
704122,-83.3333333333333,3,3,10,65,0,1
704194,-83.3333333333333,3,3,7,65,0,1
704408,-83.3333333333333,3,3,8,65,0,1
704694,-83.3333333333333,3,3,10,65,0,1
704980,-338.983050847458,3,3,3,65,0,0
706694,-338.983050847458,3,3,1,50,0,0
708408,-338.983050847458,3,3,1,45,0,0
710122,-338.983050847458,3,3,1,40,0,0
711837,-338.983050847458,3,3,1,35,0,0
713551,-338.983050847458,3,3,1,30,0,0
715265,-338.983050847458,3,3,1,25,0,0
716122,-338.983050847458,3,2,0,5,0,0

[Colours]
Combo1 : 217,151,68
Combo2 : 69,73,78
Combo3 : 117,82,38
Combo4 : 184,60,16

[HitObjects]
408,351,132628,6,0,B|390:337|390:337|410:319|415:292|415:292|416:319|434:339|434:339|411:352,1,150,4|0,2:1|0:0,0:0:0:0:
338,277,132941,2,0,L|344:245,1,25,8|8,2:3|2:3,0:0:0:0:
16,372,133254,5,8,0:0:0:0:
87,277,133411,1,8,0:0:0:0:
40,115,133572,6,0,B|19:70|65:89|80:28|80:28|95:79|41:115,1,200,4|0,0:2|0:0,0:0:0:0:
207,108,134033,2,0,P|232:130|182:116,1,150,2|0,0:2|0:0,0:0:0:0:
221,34,134341,2,0,L|273:46,1,50
323,131,134495,2,0,B|311:126|311:126|323:112|328:95|328:95|329:112|343:127|343:127|329:133,1,100,10|0,2:3|0:0,0:0:0:0:
421,202,134802,5,0,2:0:0:0:
283,246,134956,1,0,2:0:0:0:
420,182,135110,2,0,P|416:167|409:192,1,75,2|0,0:0|0:0,0:0:0:0:
488,240,135418,6,0,L|478:346,1,100,2|0,0:0|0:0,0:0:0:0:
327,364,135725,1,0,2:0:0:0:
268,238,135879,2,0,P|255:227|175:191,1,100,0|2,0:0|2:3,0:0:0:0:
76,276,136187,1,0,0:0:0:0:
83,49,136341,6,0,P|64:131|55:279,1,225.000008583069,10|0,2:3|0:0,0:0:0:0:
76,276,136648,2,0,P|74:218|84:154,1,100,2|0,2:3|0:0,0:0:0:0:
161,138,136956,2,0,P|147:202|145:242,1,100,2|0,0:0|0:0,0:0:0:0:
313,103,137264,5,2,0:0:0:0:
430,17,137418,2,0,P|446:46|414:23,1,100,0|2,0:0|2:3,0:0:0:0:
483,128,137725,1,0,0:0:0:0:
310,87,137879,1,2,2:3:0:0:
489,138,138033,1,0,0:0:0:0:
298,94,138187,5,10,2:3:0:0:
380,200,138341,2,0,P|390:227|361:202,1,100
272,290,138648,2,0,P|282:263|253:288,1,100,2|0,0:0|0:0,0:0:0:0:
336,349,138956,1,0,0:0:0:0:
182,303,139110,6,0,P|130:323|79:353,1,100,2|0,0:0|0:0,0:0:0:0:
54,158,139418,2,0,P|96:211|115:251,1,100,2|0,0:0|0:0,0:0:0:0:
0,298,139725,5,2,0:0:0:0:
116,254,139879,1,0,0:0:0:0:
338,213,140033,5,10,2:3:0:0:
222,169,140187,1,2,0:0:0:0:
312,354,140341,5,2,2:3:0:0:
426,263,140495,1,2,0:0:0:0:
331,113,140648,1,0,2:0:0:0:
310,127,140725,1,0,2:0:0:0:
300,155,140802,1,2,0:0:0:0:
307,189,140879,1,0,2:0:0:0:
338,213,140956,6,0,P|404:181|294:105,1,250,4|0,0:2|0:0,0:0:0:0:
242,107,141418,2,0,P|202:71|179:14,1,100,2|2,0:0|2:3,0:0:0:0:
76,162,141720,1,0,0:0:0:0:
210,330,141860,6,0,B|253:307|251:249|164:223|112:273|160:325|67:367|16:317,1,300,12|0,2:2|0:0,0:0:0:0:
182,248,142494,2,0,P|221:258|230:318,1,100,2|0,0:0|0:0,0:0:0:0:
82,151,142802,2,0,P|100:104|129:54,1,100,2|0,0:0|0:0,0:0:0:0:
267,20,143109,5,0,2:0:0:0:
441,108,143263,2,0,B|400:61|316:103|373:171|286:172|269:156,1,200,2|0,0:0|0:0,0:0:0:0:
464,276,143725,6,0,P|487:312|514:370,1,100,10|0,2:3|0:0,0:0:0:0:
379,262,144032,2,0,P|391:207|412:156,1,100,2|0,2:3|0:0,0:0:0:0:
413,338,144340,2,0,P|366:359|314:361,1,100,2|0,0:0|0:0,0:0:0:0:
156,182,144648,6,0,P|186:197|186:257,1,100,2|0,0:0|0:0,0:0:0:0:
35,184,144955,2,0,B|46:124|46:124|44:123|44:123|51:75,1,100,2|0,2:3|0:0,0:0:0:0:
198,4,145263,2,0,P|221:30|172:28,1,100,2|0,2:3|0:0,0:0:0:0:
340,17,145571,6,0,P|400:52|428:80,1,100,10|0,0:0|0:0,0:0:0:0:
311,228,145878,2,0,P|319:188|348:127,1,100,2|0,0:0|0:0,0:0:0:0:
472,246,146186,2,0,P|483:284|441:260,1,100,2|0,2:3|0:0,0:0:0:0:
294,240,146494,5,2,0:0:0:0:
210,148,146648,1,8,2:0:0:0:
278,323,146802,1,2,2:3:0:0:
386,237,146955,1,10,2:3:0:0:
197,260,147109,1,2,2:3:0:0:
339,372,147263,1,0,0:0:0:0:
119,334,147417,6,0,P|69:316|14:273,1,100,10|0,2:3|0:0,0:0:0:0:
137,217,147725,1,2,0:0:0:0:
8,127,147878,5,8,2:0:0:0:
203,96,148032,1,8,2:0:0:0:
17,126,148185,1,8,2:0:0:0:
107,15,148340,6,0,B|86:71|86:71|136:207,1,200,6|0,0:0|0:0,0:0:0:0:
250,322,148802,2,0,P|275:277|315:241,1,100,10|2,2:3|2:3,0:0:0:0:
442,287,149109,1,0,0:0:0:0:
400,157,149263,2,0,P|383:127|333:78,1,100,10|0,0:0|0:0,0:0:0:0:
129,96,149571,6,0,B|172:61|231:83|200:160|270:167|316:156,1,200,2|2,0:0|2:3,0:0:0:0:
151,191,150032,1,10,2:3:0:0:
233,0,150186,2,0,P|259:30|290:86,1,100,2|0,0:0|0:0,0:0:0:0:
126,82,150494,6,0,P|81:53|36:36,1,100,2|8,2:3|2:0,0:0:0:0:
157,195,150802,2,0,P|203:176|245:149,1,100,2|0,2:3|0:0,0:0:0:0:
44,167,151109,6,0,P|36:222|39:273,1,100,10|0,2:3|0:0,0:0:0:0:
169,323,151417,2,0,P|151:353|127:307,1,100,2|0,0:0|0:0,0:0:0:0:
257,237,151725,1,0,2:0:0:0:
313,356,151849,1,8,2:0:0:0:
156,207,152032,6,0,B|193:178|269:206|235:245|260:258|309:263|338:237,1,200,2|0,0:0|0:0,0:0:0:0:
393,111,152494,1,8,2:0:0:0:
246,30,152648,1,0,2:0:0:0:
250,48,152724,1,0,2:0:0:0:
255,67,152800,1,0,0:0:0:0:
96,145,152952,6,0,B|75:138|75:138|95:96|86:49|86:49|95:97|129:126|129:126|102:142,1,225.000008583069,12|0,2:1|0:0,0:0:0:0:
110,137,153255,2,0,L|101:102,1,37.5000014305115
71,233,153406,6,0,B|50:239|50:239|70:281|61:328|61:328|70:280|104:251|104:251|77:235,1,225.000008583069,12|0,2:1|0:0,0:0:0:0:
85,240,153698,2,0,L|75:275,1,37.5000014305115,8|0,2:0|0:0,0:0:0:0:
191,339,153835,6,0,B|218:318|218:318|286:341,1,100,6|8,0:0|2:0,0:0:0:0:
415,357,154170,2,0,P|391:331|421:227,1,150,2|0,2:3|0:0,0:0:0:0:
494,197,154516,2,0,L|480:90,1,100,2|0,2:3|0:0,0:0:0:0:
298,46,154802,6,0,B|280:28|280:28|217:69|217:69|297:91|297:91|301:60,1,194.999991073609,12|0,2:1|0:0,0:0:0:0:
281,32,155109,2,0,L|243:50,1,37.5000014305115
319,193,155263,6,0,B|337:175|337:175|400:212|400:212|320:238|320:238|316:207,1,194.999991073609,12|0,2:1|0:0,0:0:0:0:
338,178,155571,2,0,L|376:192,1,37.5000014305115,8|0,2:0|0:0,0:0:0:0:
317,345,155725,6,0,P|255:299|191:263,1,150,4|0,0:2|0:0,0:0:0:0:
44,288,156032,1,0,2:0:0:0:
182,359,156186,1,8,2:0:0:0:
212,187,156340,2,0,P|194:155|156:103,1,100,2|0,2:3|0:0,0:0:0:0:
258,52,156619,6,0,B|289:22|377:42|382:81,1,134.999995880127,10|0,0:0|0:0,0:0:0:0:
480,140,156926,2,0,P|464:165|453:185,1,37.5000014305115,2|0,0:0|0:0,0:0:0:0:
371,197,157089,2,0,P|387:222|398:242,1,37.5000014305115,0|0,2:0|2:0,0:0:0:0:
385,347,157242,2,0,P|349:317|292:285,1,100,0|8,2:3|2:0,0:0:0:0:
166,361,157581,6,0,B|159:267|159:267|163:266|163:266|157:162,1,200,2|0,0:0|0:0,0:0:0:0:
35,53,158042,1,8,2:0:0:0:
157,149,158196,2,0,P|201:129|254:119,1,100,2|0,2:3|0:0,0:0:0:0:
388,227,158484,6,0,P|351:191|343:286,1,200,10|2,0:0|0:0,0:0:0:0:
429,329,158945,1,8,2:0:0:0:
241,303,159099,2,0,P|212:310|149:348,1,100,2|8,2:3|2:0,0:0:0:0:
344,241,159407,6,0,P|337:207|286:45,1,200,2|0,0:0|0:0,0:0:0:0:
155,0,159888,1,10,0:0:0:0:
306,46,160041,2,0,P|336:32|412:9,1,100,2|0,2:3|0:0,0:0:0:0:
381,192,160349,6,0,B|390:210|390:210|430:183|474:176|474:176|429:174|387:149|387:149|379:175,1,225.000008583069,10|0,0:0|0:0,0:0:0:0:
384,201,160633,2,0,L|424:205,1,37.5000014305115,2|0,0:0|0:0,0:0:0:0:
450,334,160793,5,8,2:0:0:0:
285,274,160950,1,2,2:3:0:0:
445,349,161107,1,8,2:0:0:0:
271,268,161265,6,0,P|195:278|125:300,1,150,4|0,0:2|0:0,0:0:0:0:
39,343,161572,5,8,2:3:0:0:
41,323,161649,1,8,2:3:0:0:
42,303,161726,1,8,2:3:0:0:
45,283,161803,1,8,2:3:0:0:
86,255,161880,5,8,2:3:0:0:
85,245,161952,1,8,2:3:0:0:
84,235,162024,1,8,2:3:0:0:
83,225,162096,1,8,2:3:0:0:
36,196,162168,5,8,0:0:0:0:
43,137,162244,1,8,2:0:0:0:
93,105,162321,1,8,2:0:0:0:
152,108,162398,1,8,2:0:0:0:
192,152,162475,5,8,2:3:0:0:
188,166,162552,1,8,2:3:0:0:
185,180,162629,1,8,2:3:0:0:
182,194,162706,1,8,2:3:0:0:
157,221,162783,5,8,2:3:0:0:
157,230,162864,1,8,2:3:0:0:
158,239,162945,1,8,2:3:0:0:
159,248,163026,1,8,2:3:0:0:
185,269,163110,6,0,B|241:230|336:276|257:355|386:360|458:332|458:332|430:338|401:330,1,350,4|0,0:2|0:0,0:0:0:0:
343,235,163725,2,0,P|375:169|421:105,1,150,2|0,0:0|0:0,0:0:0:0:
268,107,164033,6,0,B|297:87|332:83|332:83|195:98|267:41|141:59|141:59|179:54|224:30,1,350,10|0,2:3|0:0,0:0:0:0:
164,133,164648,2,0,P|149:169|113:291,1,150,2|0,0:0|0:0,0:0:0:0:
223,280,164956,6,0,B|269:249|317:303|272:303|323:336|380:341|433:298|431:226|351:192|319:232,1,300,2|0,0:0|0:0,0:0:0:0:
480,225,165571,2,0,P|468:172|444:112,1,100,0|0,2:0|0:0,0:0:0:0:
372,58,165861,6,0,B|328:86|328:86|333:62|315:51|315:51|338:112|311:171,1,200,10|2,2:3|2:3,0:0:0:0:
53,198,166494,2,0,P|81:261|105:341,1,150,2|0,0:0|0:0,0:0:0:0:
90,364,166801,5,2,0:0:0:0:
237,275,166952,1,0,2:0:0:0:
140,155,167103,1,0,2:0:0:0:
154,244,167254,1,0,0:0:0:0:
249,110,167405,2,0,P|217:72|170:36,1,100,2|0,2:3|0:0,0:0:0:0:
309,201,167706,6,0,B|336:156|336:156|366:167|405:154|405:154|368:178|359:213|359:213|309:200,1,225.000008583069,12|0,2:1|0:0,0:0:0:0:
314,222,168032,2,0,P|338:227|355:225,1,37.5000014305115
256,317,168166,6,0,P|224:295|183:279,1,75.0000028610231,12|0,2:1|0:0,0:0:0:0:
54,340,168329,1,0,2:0:0:0:
194,275,168488,1,8,2:0:0:0:
68,190,168648,6,0,P|83:112|91:85,1,100,4|8,0:2|2:0,0:0:0:0:
160,37,168955,2,0,B|218:82|278:32|278:32|277:41|277:41|356:-20|445:43,1,300,2|0,2:3|0:0,0:0:0:0:
388,183,169571,6,0,B|375:156|375:156|344:168|344:168|340:171|340:171|299:187|299:187|338:203|338:203|341:202|341:202|378:221|378:221|391:195,1,225.000008583069,12|0,2:1|0:0,0:0:0:0:
378,159,169878,2,0,L|338:172,1,37.5000014305115
275,360,170032,5,12,2:1:0:0:
250,345,170109,1,0,2:0:0:0:
248,308,170186,1,0,2:0:0:0:
283,279,170263,1,0,2:0:0:0:
332,281,170340,2,0,L|370:299,1,37.5000014305115,8|0,2:0|0:0,0:0:0:0:
215,205,170494,6,0,B|191:163|118:177|98:242|121:262|184:311|124:362|71:372|38:355,1,300,4|8,0:2|2:0,0:0:0:0:
257,300,171109,2,0,P|303:321|350:353,1,100,2|0,2:3|0:0,0:0:0:0:
89,222,171417,6,0,B|68:201|68:201|115:134|115:134|144:209|144:209|111:230,1,225.000008583069,12|0,2:1|0:0,0:0:0:0:
20,136,171724,2,0,L|85:51,1,100,2|8,0:0|2:0,0:0:0:0:
106,47,172032,6,0,L|45:126,1,100,2|8,2:3|2:0,0:0:0:0:
226,60,172321,2,0,P|275:75|367:130,1,150,2|0,0:0|0:0,0:0:0:0:
369,146,172648,5,2,2:3:0:0:
328,298,172801,1,8,2:0:0:0:
365,157,172955,1,2,2:3:0:0:
325,312,173109,1,0,0:0:0:0:
208,196,173263,6,0,P|166:219|112:268,1,100,10|0,2:3|0:0,0:0:0:0:
393,345,173570,2,0,P|402:314|333:226,1,150,2|0,0:0|0:0,0:0:0:0:
446,214,173878,2,0,P|477:175|484:125,1,100,2|8,2:3|2:0,0:0:0:0:
344,6,174186,6,0,B|234:20|234:20|233:22|233:22|139:34,1,200,2|0,0:0|0:0,0:0:0:0:
0,88,174647,1,8,2:0:0:0:
97,192,174801,1,2,2:3:0:0:
135,27,174955,1,0,0:0:0:0:
0,228,175109,6,0,P|52:206|203:173,2,200,10|2|0,2:3|0:0|2:0,0:0:0:0:
88,372,175878,1,8,2:0:0:0:
283,303,176032,6,0,P|256:341|232:273,1,150,4|0,0:2|0:0,0:0:0:0:
294,217,176339,1,0,0:0:0:0:
313,219,176416,1,8,2:3:0:0:
332,221,176493,1,8,2:3:0:0:
351,222,176570,1,8,2:3:0:0:
372,224,176647,5,8,0:0:0:0:
363,212,176718,1,8,2:3:0:0:
355,199,176789,1,8,2:3:0:0:
347,185,176861,1,8,2:3:0:0:
340,171,176936,5,8,0:0:0:0:
311,205,177012,1,8,2:0:0:0:
285,241,177089,1,8,2:0:0:0:
260,278,177166,1,8,2:0:0:0:
233,314,177243,5,8,0:0:0:0:
242,312,177320,1,8,2:3:0:0:
251,310,177397,1,8,2:3:0:0:
260,308,177474,1,8,2:3:0:0:
269,307,177551,5,8,0:0:0:0:
264,297,177632,1,8,2:3:0:0:
260,287,177713,1,8,2:3:0:0:
256,277,177794,1,8,2:3:0:0:
251,266,177878,6,0,B|165:255|165:255|161:256|161:256|96:248,1,150,4|0,0:2|0:0,0:0:0:0:
153,151,178185,2,0,P|195:62|243:35,1,150,2|0,2:3|0:0,0:0:0:0:
258,48,178523,2,0,P|271:115|224:80,1,150,2|0,0:0|0:0,0:0:0:0:
408,77,178782,6,0,B|488:86|514:185|421:251|361:197|361:197|388:205|413:189,1,300,10|8,0:0|2:0,0:0:0:0:
326,126,179416,1,2,2:3:0:0:
234,252,179569,1,8,2:0:0:0:
139,98,179723,6,0,B|177:74|236:96|197:145|266:158|306:153|339:131,1,200,2|2,0:0|2:3,0:0:0:0:
129,90,180185,2,0,B|117:203|117:203|120:204|120:204|109:297,1,200,8|0,2:3|0:0,0:0:0:0:
233,362,180647,6,0,B|255:377|255:377|331:339|331:339|241:315|241:315|230:339,1,225.000008583069,10|0,0:0|0:0,0:0:0:0:
251,310,180954,2,0,B|336:331|336:331|337:337|337:337|339:333|339:333|397:309,1,150,2|0,0:0|0:0,0:0:0:0:
446,219,181262,6,0,B|380:197|416:244|345:228,1,100,2|8,2:3|2:0,0:0:0:0:
172,140,181570,1,2,0:0:0:0:
344,122,181724,1,0,2:0:0:0:
263,179,181877,1,2,2:3:0:0:
347,222,182031,2,0,P|380:261|405:308,1,100,10|2,2:3|2:3,0:0:0:0:
256,171,182339,1,0,0:0:0:0:
331,62,182493,6,0,P|384:44|443:41,1,100,10|0,2:3|0:0,0:0:0:0:
226,41,182800,2,0,B|183:17|122:43|161:93|66:94|42:68,1,200,2|0,0:0|0:0,0:0:0:0:
121,170,183262,1,10,2:3:0:0:
18,266,183416,6,0,P|54:284|103:334,1,100,4|8,0:2|2:0,0:0:0:0:
174,222,183714,2,0,P|200:195|259:161,1,100,2|8,2:3|2:0,0:0:0:0:
299,308,184013,6,0,P|299:268|319:300,1,100,0|0,2:0|0:0,0:0:0:0:
439,206,184320,6,0,P|419:155|335:22,1,200,12|2,2:2|0:0,0:0:0:0:
162,26,184781,1,0,2:0:0:0:
304,96,184935,1,2,2:3:0:0:
156,15,185089,1,8,2:0:0:0:
77,226,185243,6,0,P|118:184|294:89,1,250,4|0,0:2|0:2,0:2:0:0:
191,278,185723,2,0,P|225:296|241:316,1,50,8|0,2:0|0:0,0:0:0:0:
291,249,185876,2,0,P|328:231|389:217,1,100,2|0,2:3|0:0,0:0:0:0:
425,41,186165,6,0,B|374:10|315:35|348:100|252:97|227:67,1,200,10|2,2:3|0:0,0:0:0:0:
135,3,186624,1,0,2:0:0:0:
229,84,186778,2,0,P|244:127|258:191,1,100,2|8,2:3|2:0,0:0:0:0:
55,191,187087,6,0,P|101:187|50:273,1,200,2|0,0:0|0:0,0:0:0:0:
203,362,187568,1,8,2:0:0:0:
298,242,187721,2,0,P|330:216|383:185,1,100,0|0,2:0|0:0,0:0:0:0:
462,69,188010,6,0,B|357:74|260:44,1,200,10|2,2:3|0:0,0:0:0:0:
202,110,188471,1,8,2:0:0:0:
264,38,188625,1,2,2:3:0:0:
91,142,188789,5,8,2:0:0:0:
219,235,188942,2,0,P|182:248|38:334,1,200,4|2,0:2|2:3,0:0:0:0:
294,305,189416,2,0,P|275:274|230:222,1,100,8|2,2:0|2:3,0:0:0:0:
184,346,189704,1,0,0:0:0:0:
323,206,189857,6,0,P|359:182|422:167,1,100,10|0,2:3|0:0,0:0:0:0:
434,265,190164,1,2,0:0:0:0:
296,113,190318,1,8,2:0:0:0:
463,56,190472,1,8,2:0:0:0:
423,86,190549,1,8,2:0:0:0:
372,87,190626,1,8,2:0:0:0:
337,50,190703,1,8,2:0:0:0:
343,0,190780,5,8,2:0:0:0:
486,127,190933,1,8,2:0:0:0:
317,201,191087,1,8,2:0:0:0:
460,8,191241,5,8,2:0:0:0:
428,266,191395,1,8,2:0:0:0:
250,82,191549,1,8,2:0:0:0:
482,199,191703,5,8,0:0:0:0:
353,263,191857,1,8,2:3:0:0:
393,190,192010,1,8,0:0:0:0:
410,341,192164,1,8,2:3:0:0:
274,246,192318,1,8,0:0:0:0:
350,283,192480,1,8,2:3:0:0:
201,179,192646,6,0,B|180:164|180:164|207:313|207:313|185:298,1,200,4|2,0:1|2:3,0:0:0:0:
80,212,193107,1,0,2:0:0:0:
236,114,193261,2,0,P|277:126|331:157,1,100,2|0,0:0|0:0,0:0:0:0:
69,102,193569,6,0,P|87:52|120:110,1,150,10|0,2:3|0:0,0:0:0:0:
205,39,193876,2,0,P|246:24|305:11,1,100,2|0,2:3|0:0,0:0:0:0:
312,198,194184,2,0,P|283:165|250:114,1,100,2|0,0:0|0:0,0:0:0:0:
417,30,194492,6,0,P|402:71|375:125,1,100,2|0,0:0|0:0,0:0:0:0:
231,232,194799,5,2,2:3:0:0:
324,298,194953,1,0,0:0:0:0:
224,242,195107,1,2,2:3:0:0:
338,301,195261,1,0,0:0:0:0:
295,164,195415,6,0,P|257:191|216:238,1,100,10|0,2:3|0:0,0:0:0:0:
353,359,195722,2,0,P|348:312|328:253,1,100,2|0,0:3|0:0,0:0:0:0:
158,301,196030,2,0,P|200:320|261:332,1,100,2|0,2:3|0:0,0:0:0:0:
496,245,196338,5,4,0:2:0:0:
352,303,196492,1,0,2:0:0:0:
332,148,196646,1,2,2:3:0:0:
413,214,196799,1,0,0:0:0:0:
272,234,196953,2,0,P|229:265|191:308,1,100,2|0,2:3|0:0,0:0:0:0:
62,205,197261,6,0,B|58:197|45:198|45:198|73:167|88:114|88:114|89:171|115:200|115:200|95:206|80:217,1,225.000008583069,12|0,2:1|0:0,0:0:0:0:
51,200,197569,2,0,P|66:178|76:156,1,37.5000014305115
183,22,197722,6,0,B|202:35|215:36|215:36|187:67|172:120|172:120|171:63|145:34|145:34|161:31|172:20,1,225.000008583069,12|0,2:1|0:0,0:0:0:0:
209,34,198030,2,0,P|194:56|179:82,1,37.5000014305115,8|0,2:0|0:0,0:0:0:0:
297,107,198184,6,0,P|341:79|393:56,1,100,4|0,0:2|0:0,0:0:0:0:
376,204,198492,2,0,P|402:234|434:290,1,100,2|8,0:0|2:0,0:0:0:0:
302,327,198799,1,2,2:3:0:0:
364,209,198937,1,0,0:0:0:0:
290,334,199110,6,0,B|255:345|255:345|251:249|251:249|318:301|318:301|306:326,1,225.000008583069,12|0,2:1|0:0,0:0:0:0:
314,300,199417,2,0,L|264:260,1,37.5000014305115
121,274,199571,6,0,B|156:285|156:285|160:189|160:189|93:241|93:241|105:266,1,225.000008583069,12|0,2:1|0:0,0:0:0:0:
97,240,199879,2,0,L|138:207,1,37.5000014305115,8|0,2:0|0:0,0:0:0:0:
204,70,200033,6,0,P|237:99|278:147,1,100,4|8,0:2|2:0,0:0:0:0:
119,101,200340,1,2,2:3:0:0:
293,33,200494,1,8,2:0:0:0:
130,15,200648,1,2,2:3:0:0:
212,76,200802,1,0,0:0:0:0:
393,56,200956,6,0,P|416:92|445:154,1,100,10|0,2:3|0:0,0:0:0:0:
289,271,201263,2,0,P|310:225|336:183,1,100,2|0,0:0|0:0,0:0:0:0:
309,365,201571,1,2,2:3:0:0:
202,223,201725,1,8,2:0:0:0:
33,260,201879,6,0,P|41:203|57:152,1,100,2|8,0:0|2:0,0:0:0:0:
195,240,202186,2,0,P|208:288|215:337,1,100,2|8,2:3|2:0,0:0:0:0:
140,96,202494,2,0,P|186:73|248:57,1,100,2|0,2:3|0:0,0:0:0:0:
422,166,202802,6,0,P|395:143|356:90,1,100,10|0,2:3|0:0,0:0:0:0:
304,211,203110,2,0,P|292:256|263:317,1,100,2|0,0:0|0:0,0:0:0:0:
487,305,203417,2,0,P|448:290|386:282,1,100,2|8,2:3|2:0,0:0:0:0:
191,358,203725,5,2,0:0:0:0:
222,230,203879,1,8,2:0:0:0:
78,160,204033,1,2,2:3:0:0:
104,249,204186,1,8,2:0:0:0:
138,94,204340,2,0,P|184:71|243:59,1,100,2|0,2:3|0:0,0:0:0:0:
413,225,204648,6,0,P|392:186|351:135,1,100,10|0,2:3|0:0,0:0:0:0:
228,308,204956,5,2,0:0:0:0:
339,233,205110,1,8,2:0:0:0:
404,369,205263,1,8,2:0:0:0:
384,366,205340,1,8,2:0:0:0:
364,363,205417,1,8,2:0:0:0:
344,360,205494,1,8,2:0:0:0:
324,356,205571,5,8,0:0:0:0:
427,238,205725,1,8,2:0:0:0:
493,373,205879,1,8,2:0:0:0:
304,253,206033,5,8,2:0:0:0:
508,285,206186,1,8,2:0:0:0:
243,381,206328,1,8,2:0:0:0:
283,173,206475,5,8,2:3:0:0:
364,192,206648,1,8,2:3:0:0:
304,253,206801,1,8,2:3:0:0:
301,177,206954,5,8,2:3:0:0:
350,206,207108,1,8,2:3:0:0:
298,234,207262,1,8,2:3:0:0:
411,82,207416,5,4,0:1:0:0:
424,91,207519,2,0,P|436:133|424:172,1,79.9999975585938,0|0,2:0|2:0,2:0:0:0:
345,196,207724,5,4,0:2:0:0:
327,196,207827,2,0,P|302:230|302:264,1,66.6666666666667,0|0,2:0|2:0,2:0:0:0:
411,336,208032,5,4,0:2:0:0:
399,327,208134,2,0,P|362:322|327:345,1,59.9999981689454,0|0,2:0|2:0,2:0:0:0:
234,375,208340,5,12,0:2:0:0:
218,376,208442,2,0,P|187:379|158:350,1,53.3333333333333,0|0,2:0|2:0,2:0:0:0:
177,229,208647,5,4,0:2:0:0:
196,227,208750,2,0,P|197:253|178:275,1,46.6666652425131,0|0,2:0|2:0,2:0:0:0:
97,228,208955,5,4,0:2:0:0:
78,219,209058,2,0,P|78:192|97:169,1,46.6666652425131,0|0,2:0|2:0,2:0:0:0:
192,104,209263,5,4,0:2:0:0:
202,82,209365,2,0,P|209:49|194:17,1,66.6666666666667,0|0,2:0|2:0,2:0:0:0:
102,101,209570,5,4,0:2:0:0:
88,116,209673,2,0,P|73:156|84:179,1,59.9999981689454,0|0,2:0|2:0,2:0:0:0:
194,182,209878,5,4,0:2:0:0:
208,169,209981,2,0,P|234:152|265:154,1,53.3333333333333,0|0,2:0|2:0,2:0:0:0:
293,228,210186,5,12,0:2:0:0:
304,244,210288,2,0,P|331:260|356:259,1,46.6666652425131,0|0,2:0|2:0,2:0:0:0:
317,121,210493,5,4,0:2:0:0:
301,126,210596,2,0,P|287:149|291:159,1,33.3333333333333,0|0,2:0|2:0,2:0:0:0:
412,178,210801,5,4,0:2:0:0:
417,157,210904,2,0,P|401:144|386:144,1,33.3333333333333,0|0,2:0|2:0,2:0:0:0:
348,226,211109,6,0,B|387:215|422:231|395:297|341:327|369:376,1,179.999994506836,4|0,0:2|0:0,0:0:0:0:
460,360,211417,1,0,2:0:0:0:
442,342,211493,1,0,2:0:0:0:
436,364,211570,1,0,2:0:0:0:
284,266,211724,5,2,0:0:0:0:
266,284,211800,1,0,2:0:0:0:
260,262,211877,1,0,2:0:0:0:
348,112,212032,6,0,P|410:170|470:243,1,179.999994506836,10|0,2:3|0:0,0:0:0:0:
426,159,212340,1,2,2:0:0:0:
429,141,212417,1,2,2:0:0:0:
432,123,212493,1,2,2:0:0:0:
435,105,212570,1,2,2:0:0:0:
454,90,212647,1,2,2:0:0:0:
451,72,212724,1,2,2:0:0:0:
448,54,212800,1,2,2:0:0:0:
445,36,212877,1,2,2:0:0:0:
425,20,212955,6,0,B|371:7|332:28|358:75|290:85|247:66,1,179.999994506836,2|0,0:0|0:0,0:0:0:0:
242,57,213263,1,2,2:3:0:0:
341,166,213417,1,4,2:1:0:0:
360,17,213570,1,0,2:0:0:0:
238,158,213724,1,0,0:0:0:0:
238,158,213801,1,0,0:0:0:0:
238,158,213878,6,0,L|57:186,1,179.999994506836,10|0,2:3|0:0,0:0:0:0:
93,104,214186,1,8,2:3:0:0:
158,82,214288,1,8,2:3:0:0:
208,109,214391,1,8,2:3:0:0:
227,143,214493,1,8,2:3:0:0:
262,148,214596,1,8,2:3:0:0:
275,127,214699,1,8,2:3:0:0:
264,108,214801,5,4,0:2:0:0:
6,23,215006,6,0,P|18:70|15:130,1,79.9999975585938,0|0,2:0|2:0,0:0:0:0:
150,156,215263,5,8,2:0:0:0:
228,17,215417,5,2,2:3:0:0:
304,140,215570,1,0,0:0:0:0:
416,11,215724,1,10,2:3:0:0:
236,98,215878,1,0,2:0:0:0:
392,209,216032,1,2,0:0:0:0:
359,85,216186,1,0,2:0:0:0:
283,235,216340,5,2,2:3:0:0:
428,286,216475,1,8,2:0:0:0:
284,369,216608,6,0,P|247:338|215:291,1,100,2|0,0:0|0:0,0:0:0:0:
224,276,216858,1,0,2:0:0:0:
242,267,216935,1,2,2:3:0:0:
267,267,217012,1,0,2:0:0:0:
291,284,217089,1,8,2:0:0:0:
314,310,217164,1,0,2:0:0:0:
350,327,217241,1,2,2:3:0:0:
394,323,217318,1,0,2:0:0:0:
428,286,217395,1,0,0:0:0:0:
231,180,217552,6,0,B|162:191|162:191|166:195|166:195|135:214|135:214|134:214|132:212|132:212|58:222,1,179.999994506836,10|0,2:3|0:0,0:0:0:0:
56,233,217859,2,0,P|108:286|38:279,1,179.999994506836,2|0,0:0|0:0,0:0:0:0:
57,279,218167,1,0,2:0:0:0:
185,360,218330,1,8,2:0:0:0:
68,203,218495,6,0,P|208:156|360:131,1,299.999990844727,2|0,0:0|0:0,0:0:0:0:
345,151,218956,2,0,P|310:223|283:339,1,179.999994506836,8|0,2:0|0:0,0:0:0:0:
298,336,219264,1,0,0:0:0:0:
492,187,219418,6,0,B|435:165|408:207|413:266|338:247|331:229,1,179.999994506836,10|0,2:3|0:0,0:0:0:0:
331,226,219725,1,2,0:0:0:0:
321,0,219879,5,8,2:0:0:0:
449,92,220033,1,2,2:3:0:0:
300,156,220175,1,8,2:0:0:0:
321,0,220321,5,8,0:0:0:0:
356,34,220397,1,8,2:0:0:0:
363,83,220474,1,8,2:0:0:0:
342,128,220551,1,8,2:0:0:0:
300,156,220628,1,8,0:0:0:0:
287,204,220705,1,8,2:0:0:0:
293,253,220782,1,8,2:0:0:0:
329,287,220859,1,8,2:0:0:0:
377,297,220936,5,8,0:0:0:0:
383,283,221013,1,8,2:3:0:0:
384,268,221090,1,8,2:3:0:0:
382,253,221167,1,8,2:3:0:0:
373,237,221244,6,0,P|350:227|333:229,3,37.5000014305115,8|8|8|8,0:0|2:3|2:3|2:3,0:0:0:0:
274,333,221551,5,8,0:0:0:0:
202,230,221705,2,0,L|197:278,1,37.5000014305115,8|8,2:3|2:3,0:0:0:0:
122,361,221859,1,8,2:3:0:0:
121,356,221945,1,8,2:3:0:0:
120,351,222032,1,8,2:3:0:0:
119,345,222119,1,8,2:3:0:0:
116,333,222207,6,0,B|95:204|95:204|92:204|92:204|58:158|58:158|61:154|61:154|49:72|49:72|60:92|83:103|83:103|68:114|64:146|64:146,1,350,4|0,0:1|0:0,0:0:0:0:
112,39,222828,2,0,L|271:17,1,150,4|0,0:2|0:0,0:0:0:0:
322,67,223110,2,0,B|369:98|364:194|304:212|304:212|314:211|314:211|281:246|289:298|301:335|301:335|302:307|314:290,1,350,10|0,2:3|0:0,0:0:0:0:
332,293,223707,2,0,P|357:251|417:317,1,150,2|0,0:0|0:0,0:0:0:0:
428,308,224032,2,0,L|447:74,1,200,2|2,0:0|2:3,0:0:0:0:
308,20,224513,1,0,0:0:0:0:
353,190,224666,1,2,2:3:0:0:
296,22,224820,1,0,0:0:0:0:
247,236,224956,6,0,P|209:199|102:116,1,179.999994506836,10|0,2:3|0:0,0:0:0:0:
95,128,225263,2,0,P|57:164|141:179,1,179.999994506836,2|0,0:0|0:0,0:0:0:0:
61,226,225571,2,0,B|90:327|90:327|161:281,1,179.999994506836,2|0,2:3|0:0,0:0:0:0:
206,230,225879,6,0,L|397:255,1,179.999994506836,4|0,0:2|0:0,0:0:0:0:
396,271,226186,1,2,2:3:0:0:
248,359,226340,1,0,0:0:0:0:
288,160,226494,2,0,P|337:194|382:251,1,119.999996337891,2|0,2:3|0:0,0:0:0:0:
190,236,226782,6,0,B|170:215|165:214|165:214|195:187|212:149|212:149|215:184|236:229|236:229|218:229|200:240,1,225.000008583069,12|0,2:1|0:0,0:0:0:0:
168,213,227109,2,0,P|185:201|193:182,1,37.5000014305115
99,59,227262,6,0,B|79:80|74:81|74:81|104:108|121:146|121:146|124:111|145:66|145:66|127:66|109:55,1,225.000008583069,12|0,2:1|0:0,0:0:0:0:
77,82,227570,2,0,P|94:94|102:113,1,37.5000014305115,8|0,2:0|0:0,0:0:0:0:
239,98,227724,6,0,P|294:74|420:47,1,179.999994506836,4|0,0:2|0:0,0:0:0:0:
426,62,228031,1,2,2:3:0:0:
374,177,228185,2,0,P|350:231|331:298,1,119.999996337891,8|2,2:0|2:3,0:0:0:0:
430,379,228493,1,0,0:0:0:0:
232,246,228629,6,0,B|205:224|205:224|138:268|138:268|210:293|210:293|237:269,1,225.000008583069,12|0,2:1|0:0,0:0:0:0:
204,228,228956,2,0,L|171:248,1,37.5000014305115
254,132,229109,6,0,B|281:110|281:110|348:154|348:154|276:179|276:179|249:155,1,225.000008583069,12|0,2:1|0:0,0:0:0:0:
282,114,229417,2,0,L|315:134,1,37.5000014305115,8|0,2:0|0:0,0:0:0:0:
156,157,229571,6,0,B|124:125|115:60|138:18|138:18|149:63|121:123|67:147,1,299.999990844727,4|0,0:2|0:0,0:0:0:0:
17,212,230032,2,0,P|54:237|126:349,1,179.999994506836,8|0,2:0|0:0,0:0:0:0:
112,367,230340,1,0,0:0:0:0:
240,253,230494,6,0,P|294:222|420:186,1,179.999994506836,10|0,2:3|0:0,0:0:0:0:
413,206,230801,2,0,P|351:121|326:22,1,179.999994506836,2|0,0:0|0:0,0:0:0:0:
338,33,231109,1,2,2:3:0:0:
413,221,231263,1,8,2:0:0:0:
251,148,231417,1,2,0:0:0:0:
432,64,231571,1,0,2:0:0:0:
299,264,231724,5,0,2:0:0:0:
282,272,231801,1,0,2:0:0:0:
257,272,231878,1,10,2:3:0:0:
231,256,231955,1,0,2:0:0:0:
208,228,232032,1,0,2:0:0:0:
168,215,232109,1,0,2:0:0:0:
124,231,232186,6,0,L|126:279,1,37.5000014305115
275,185,232320,6,0,P|263:116|168:117,1,179.999994506836,10|2,2:3|0:0,0:0:0:0:
373,307,232772,2,0,B|400:246|400:246|358:117,1,179.999994506836
449,95,233079,2,0,L|446:136,1,37.5000014305115,8|0,2:3|0:0,0:0:0:0:
357,125,233263,6,0,P|307:89|193:48,1,179.999994506836,2|2,0:0|0:0,0:0:0:0:
177,57,233570,1,2,2:3:0:0:
208,228,233724,1,8,2:0:0:0:
167,62,233878,1,2,2:3:0:0:
56,189,234032,1,0,0:0:0:0:
295,122,234186,6,0,P|344:102|475:74,1,179.999994506836,10|0,2:3|0:0,0:0:0:0:
469,93,234493,1,2,0:0:0:0:
434,277,234637,1,8,2:0:0:0:
381,161,234782,1,8,2:0:0:0:
512,213,234935,1,8,2:0:0:0:
512,213,235012,1,8,2:0:0:0:
512,213,235089,5,8,0:0:0:0:
295,134,235243,1,8,2:0:0:0:
369,327,235397,1,8,2:0:0:0:
472,109,235551,5,8,2:0:0:0:
296,248,235705,1,8,2:0:0:0:
512,316,235858,1,8,2:0:0:0:
368,205,236012,5,8,0:0:0:0:
223,277,236166,1,8,2:3:0:0:
369,327,236320,1,8,2:3:0:0:
256,186,236474,5,8,2:3:0:0:
279,341,236628,1,8,2:3:0:0:
416,267,236790,1,8,2:3:0:0:
199,115,236955,5,4,0:1:0:0:
175,126,237057,2,0,P|149:160|146:211,1,79.9999975585938,0|0,2:0|2:0,2:0:0:0:
236,261,237262,5,4,0:2:0:0:
255,269,237365,2,0,P|268:307|264:343,1,66.6666666666667,0|0,2:0|2:0,2:0:0:0:
121,335,237570,5,4,0:2:0:0:
126,318,237672,2,0,P|153:304|186:310,1,59.9999981689454,0|0,2:0|2:0,2:0:0:0:
290,370,237878,5,12,0:2:0:0:
307,378,237980,2,0,P|339:385|364:372,1,53.3333333333333,0|0,2:0|2:0,2:0:0:0:
345,238,238185,5,4,0:2:0:0:
326,249,238288,2,0,P|316:288|325:310,1,46.6666652425131,0|0,2:0|2:0,2:0:0:0:
421,248,238493,5,4,0:2:0:0:
436,232,238596,2,0,P|446:204|443:183,1,39.9999987792969,0|0,2:0|2:0,2:0:0:0:
329,130,238801,5,4,0:2:0:0:
309,119,238903,2,0,P|283:93|280:59,1,59.9999981689454,0|0,2:0|2:0,2:0:0:0:
367,8,239108,5,4,0:2:0:0:
382,17,239211,2,0,P|397:46|393:73,1,53.3333333333333,0|0,2:0|2:0,2:0:0:0:
278,31,239416,5,4,0:2:0:0:
258,17,239519,2,0,P|227:10|200:21,1,46.6666652425131,0|0,2:0|2:0,2:0:0:0:
249,135,239724,5,12,0:2:0:0:
256,151,239826,2,0,P|276:167|301:169,1,39.9999987792969,0|0,2:0|2:0,2:0:0:0:
365,62,240031,5,2,0:2:0:0:
380,52,240134,2,0,P|409:45|431:50,1,39.9999987792969,0|0,2:0|2:0,2:0:0:0:
367,183,240339,5,2,0:2:0:0:
353,195,240442,2,0,P|326:200|308:185,1,39.9999987792969,0|0,2:0|2:0,2:0:0:0:
361,75,240647,6,0,L|486:55,1,119.999996337891,4|0,0:2|0:0,0:0:0:0:
466,195,240878,1,0,2:0:0:0:
451,185,240955,1,0,2:0:0:0:
427,185,241031,1,0,2:0:0:0:
401,200,241108,1,0,2:0:0:0:
390,234,241185,2,0,L|426:240,1,29.9999990844727,0|2,2:0|0:0,0:0:0:0:
401,274,241262,1,0,2:0:0:0:
430,311,241339,1,0,2:0:0:0:
413,362,241416,1,0,2:0:0:0:
355,377,241493,1,0,2:0:0:0:
300,352,241570,6,0,B|268:306|268:306|306:167,1,179.999994506836,10|0,2:3|0:0,0:0:0:0:
292,177,241878,1,2,2:0:0:0:
274,179,241955,1,2,2:0:0:0:
256,181,242031,1,2,2:0:0:0:
238,183,242108,1,2,2:0:0:0:
223,185,242185,6,0,L|219:217,1,30,2|0,2:0|0:0,0:0:0:0:
115,221,242455,6,0,B|166:212|206:274|72:330|15:268|33:214|160:183|52:80|2:119|2:119|22:113|38:119,1,359.999989013672,4|0,0:2|0:0,0:0:0:0:
35,124,242912,2,0,L|220:87,1,179.999994506836,4|0,2:1|0:0,0:0:0:0:
266,31,243251,1,0,0:0:0:0:
266,31,243332,1,0,0:0:0:0:
266,31,243414,6,0,B|306:14|374:41|306:86|360:120|414:120,1,179.999994506836,12|0,2:2|0:0,0:0:0:0:
414,107,243721,5,8,2:3:0:0:
450,159,243824,1,8,2:3:0:0:
442,214,243926,1,8,2:3:0:0:
405,243,244029,1,8,2:3:0:0:
381,275,244131,1,8,2:3:0:0:
384,306,244234,1,8,2:3:0:0:
403,322,244337,6,0,B|460:296|460:296|212:272,1,299.999990844727,4|0,0:2|0:0,0:0:0:0:
159,336,244798,2,0,B|133:283|133:283|167:162,1,179.999994506836,8|0,2:0|0:0,0:0:0:0:
251,133,245106,1,0,0:0:0:0:
251,133,245183,1,0,0:0:0:0:
251,133,245260,6,0,B|320:140|320:140|321:145|321:145|371:124|371:124|375:128|375:128|437:134,1,179.999994506836,10|0,2:3|0:0,0:0:0:0:
429,142,245567,2,0,P|499:89|436:32,1,179.999994506836,2|0,0:0|0:0,0:0:0:0:
443,39,245875,1,2,2:3:0:0:
325,144,246019,1,8,2:0:0:0:
427,270,246166,5,4,0:2:0:0:
278,223,246326,1,8,2:0:0:0:
153,351,246486,5,2,2:3:0:0:
289,305,246646,1,8,2:0:0:0:
177,92,246788,5,2,2:3:0:0:
219,276,246935,1,0,0:0:0:0:
0,190,247088,6,0,L|36:178,1,25,8|8,2:0|2:0,0:0:0:0:
275,70,247416,1,8,0:0:0:0:
15,22,247704,1,8,0:0:0:0:
64,87,247857,1,8,0:0:0:0:
311,0,248030,5,4,0:2:0:0:
256,192,248106,12,2,251722,2:1:0:0:
31,352,255413,5,4,2:1:0:0:
31,352,255487,1,2,0:0:0:0:
31,352,255561,1,2,0:0:0:0:
31,352,255635,6,0,B|53:349|68:326|68:326|108:306|172:343,1,129.999994049073,2|0,0:0|0:0,0:0:0:0:
456,356,256690,5,2,0:0:0:0:
456,356,256746,1,2,0:0:0:0:
456,356,256801,1,2,0:0:0:0:
456,356,256857,2,0,B|416:314|405:237|434:194|439:162|439:162|434:194|444:244|391:236|348:198|339:181|339:181|352:201|379:203,1,400
40,150,258223,5,2,0:0:0:0:
55,234,258399,1,2,0:0:0:0:
134,207,258579,1,2,0:0:0:0:
119,291,258772,1,2,0:0:0:0:
203,137,258931,1,2,0:0:0:0:
218,221,259124,1,2,0:0:0:0:
360,201,259326,5,2,0:0:0:0:
349,190,259422,1,2,0:0:0:0:
344,175,259519,1,2,0:0:0:0:
345,160,259616,1,2,0:0:0:0:
354,148,259713,5,2,0:0:0:0:
364,137,259809,1,2,0:0:0:0:
367,122,259906,1,2,0:0:0:0:
363,107,260003,1,2,0:0:0:0:
353,96,260100,5,2,0:0:0:0:
338,91,260200,1,2,0:0:0:0:
324,97,260300,1,2,0:0:0:0:
315,109,260400,1,2,0:0:0:0:
315,123,260502,1,2,0:0:0:0:
490,318,261175,5,2,0:0:0:0:
394,267,261403,1,2,0:0:0:0:
68,370,261673,5,2,0:0:0:0:
68,370,261740,1,2,0:0:0:0:
68,370,261810,6,0,B|93:338|118:270|92:208|92:208|89:271|124:338|176:363,1,350,2|0,0:0|0:0,0:0:0:0:
43,243,266081,5,2,0:0:0:0:
49,247,266138,1,2,0:0:0:0:
52,253,266196,1,2,0:0:0:0:
54,260,266254,1,2,0:0:0:0:
54,260,266311,6,0,B|119:267|151:219|151:219|270:218|319:321,1,300,2|0,0:0|0:0,0:0:0:0:
42,78,267350,5,2,0:0:0:0:
49,77,267407,1,2,0:0:0:0:
56,76,267465,1,2,0:0:0:0:
56,76,267521,6,0,B|122:30|191:79|191:79|143:202|279:286,1,375,2|0,0:0|0:0,0:0:0:0:
471,205,268821,5,2,0:0:0:0:
382,186,269029,1,2,0:0:0:0:
322,288,269236,1,2,0:0:0:0:
413,271,269415,1,2,0:0:0:0:
268,208,269598,1,2,0:0:0:0:
223,294,269787,1,2,0:0:0:0:
99,202,269979,5,2,0:0:0:0:
89,190,270075,1,2,0:0:0:0:
86,175,270172,1,2,0:0:0:0:
90,160,270269,1,2,0:0:0:0:
102,151,270366,5,2,0:0:0:0:
114,158,270462,1,2,0:0:0:0:
121,170,270559,1,2,0:0:0:0:
122,184,270656,1,2,0:0:0:0:
116,198,270753,5,2,0:0:0:0:
101,197,270849,1,2,0:0:0:0:
93,183,270946,1,2,0:0:0:0:
95,168,271043,1,2,0:0:0:0:
108,162,271140,1,2,2:1:0:0:
227,254,271732,5,2,0:0:0:0:
103,351,271999,1,2,0:0:0:0:
180,147,272313,5,2,0:0:0:0:
189,148,272392,1,2,0:0:0:0:
198,149,272471,2,0,B|235:157|259:123|259:123|248:47|248:47|253:12|293:7|293:7|410:30|410:30|383:36|366:56,1,350,2|0,0:0|0:0,0:0:0:0:
384,45,273424,1,0,0:0:0:0:
247,92,273878,1,0,0:0:0:0:
471,295,276608,5,4,2:2:0:0:
469,285,276665,1,2,0:0:0:0:
467,275,276722,1,2,0:0:0:0:
465,265,276784,6,0,B|429:220|449:155|449:155|389:189|331:166|331:166|371:221|344:273|344:273|377:255|410:268,1,400,2|0,0:0|0:0,0:0:0:0:
315,163,277672,5,0,0:0:0:0:
300,166,277770,1,0,0:0:0:0:
285,169,277869,1,0,0:0:0:0:
270,172,277968,1,0,0:0:0:0:
65,319,278856,5,0,0:0:0:0:
75,308,278955,1,0,0:0:0:0:
78,293,279053,1,0,0:0:0:0:
71,282,279160,2,0,B|104:312|178:315|229:251|220:218|220:218|259:292|335:250|335:250|260:292|266:358|314:355|331:333|316:311|295:307,1,500
105,83,280718,5,2,0:0:0:0:
222,170,280941,5,2,0:0:0:0:
240,30,281163,5,2,0:0:0:0:
185,95,281385,5,2,0:0:0:0:
353,32,281552,5,2,0:0:0:0:
360,48,281661,2,0,B|411:81|463:70|482:17|482:17|432:31|424:101|473:163|491:195|491:195|469:174|428:166,1,400,2|2,0:0|0:0,0:0:0:0:
395,264,282661,5,2,0:0:0:0:
404,261,282723,1,2,0:0:0:0:
413,257,282784,2,0,L|425:299,1,33.3333333333333,4|2,0:2|0:0,0:0:0:0:
85,377,283671,5,2,0:0:0:0:
164,308,283924,1,2,0:0:0:0:
83,222,284188,1,2,0:0:0:0:
437,317,285467,5,2,0:0:0:0:
422,336,285586,1,2,0:0:0:0:
360,291,285754,1,2,0:0:0:0:
289,326,285923,1,2,0:0:0:0:
219,273,286094,6,0,L|231:111,1,133.333333333333,2|0,0:0|0:0,0:0:0:0:
349,120,286627,6,0,B|315:97|287:49|309:7|357:32|374:60|351:105|311:123|303:198|329:247|381:258|419:227|377:193,1,350,6|0,0:2|0:0,0:0:0:0:
219,89,287597,5,2,0:0:0:0:
224,166,287819,1,2,0:0:0:0:
159,210,288041,1,2,0:0:0:0:
89,176,288263,1,2,0:0:0:0:
84,98,288491,1,2,0:0:0:0:
148,55,288729,1,2,0:0:0:0:
25,251,288967,5,2,0:0:0:0:
38,241,289017,1,2,0:0:0:0:
53,240,289067,6,0,B|75:261|109:250|109:250|153:275|163:331,1,150,2|0,0:0|0:0,0:0:0:0:
246,224,289662,5,2,0:0:0:0:
246,224,289721,1,2,0:0:0:0:
246,224,289780,2,0,L|275:228,2,25,2|2|2,0:0|0:0|0:0,0:0:0:0:
331,332,290016,1,2,0:0:0:0:
375,177,290193,1,2,0:0:0:0:
308,141,290634,5,2,0:0:0:0:
397,295,290989,1,2,0:0:0:0:
330,248,291385,5,4,2:1:0:0:
285,360,291564,1,2,0:0:0:0:
206,264,291744,2,0,P|172:264|133:277,1,66.6666666666667,2|2,0:0|0:0,0:0:0:0:
86,365,292103,5,0,0:0:0:0:
17,257,292283,5,2,0:0:0:0:
26,253,292343,1,2,0:0:0:0:
33,246,292402,1,2,0:0:0:0:
34,235,292462,2,0,L|22:26,1,200,4|2,2:1|0:0,0:0:0:0:
133,139,293132,1,2,0:0:0:0:
229,37,293355,5,2,0:0:0:0:
229,37,293415,1,2,0:0:0:0:
229,37,293477,2,0,L|261:44,1,33.3333333333333,4|2,2:1|0:0,0:0:0:0:
315,184,293792,1,2,0:0:0:0:
438,61,294138,1,2,0:0:0:0:
350,88,294333,5,2,0:0:0:0:
350,88,294381,1,2,0:0:0:0:
350,88,294431,2,0,B|333:131|316:82|250:135|250:135|270:63|352:87,1,225.000008583069,4|0,2:1|0:0,0:0:0:0:
409,165,294750,1,8,2:0:0:0:
222,274,295067,5,8,0:0:0:0:
312,362,295230,1,8,0:0:0:0:
89,317,295397,6,0,B|99:233|99:233|96:234|96:234|112:104|112:104|108:152|70:195,1,299.999990844727,4|0,0:2|0:0,0:0:0:0:
65,187,295858,2,0,B|86:164|90:132|96:88|69:59|69:59|86:87|78:112,1,179.999994506836,2|0,0:0|0:0,0:0:0:0:
67,116,296166,1,0,0:0:0:0:
191,31,296320,6,0,B|257:24|257:24|254:23|254:23|292:51|292:51|291:51|291:51|363:41,1,179.999994506836,10|0,2:3|0:0,0:0:0:0:
368,39,296627,1,2,2:3:0:0:
287,132,296781,1,0,2:0:0:0:
427,222,296935,6,0,B|354:213|354:213|337:231|337:231|245:220,1,179.999994506836,2|0,0:0|0:0,0:0:0:0:
242,227,297243,1,2,0:0:0:0:
277,362,297397,1,0,0:0:0:0:
14,125,297704,6,0,B|59:98|122:131|75:174|155:188|201:163,1,179.999994506836,2|0,0:0|0:0,0:0:0:0:
184,157,298012,1,2,0:0:0:0:
95,32,298166,6,0,P|44:61|6:113,1,119.999996337891,10|0,2:3|0:0,0:0:0:0:
278,180,298473,2,0,P|259:131|208:79,1,119.999996337891,2|0,2:3|0:0,0:0:0:0:
108,181,298781,2,0,P|86:238|82:297,1,119.999996337891,2|0,0:0|0:0,0:0:0:0:
248,362,299089,5,2,0:0:0:0:
211,248,299243,1,0,0:0:0:0:
393,366,299550,1,2,0:0:0:0:
475,184,299858,5,0,0:0:0:0:
348,33,300012,1,10,2:3:0:0:
258,168,300166,2,0,P|188:166|149:136,1,119.999996337891,0|2,0:0|2:3,0:0:0:0:
135,0,300473,2,0,P|171:32|213:92,1,119.999996337891,2|0,0:0|2:0,0:0:0:0:
83,180,300781,1,0,0:0:0:0:
247,286,300935,2,0,B|198:272|152:299|201:352|97:355|76:330,1,179.999994506836,2|0,0:0|0:0,0:0:0:0:
76,326,301243,1,2,0:0:0:0:
430,274,301550,5,2,0:0:0:0:
403,368,301704,1,0,0:0:0:0:
296,156,301858,1,10,2:3:0:0:
327,266,302012,1,0,0:0:0:0:
409,125,302166,2,0,P|368:92|292:63,1,119.999996337891,2|0,2:3|0:0,0:0:0:0:
160,137,302473,2,0,P|144:186|143:270,1,119.999996337891,2|0,2:3|0:0,0:0:0:0:
228,72,302762,6,0,B|173:45|173:45|81:77|81:77|81:69|81:69|82:87|82:87|79:77|79:77|-3:104|-3:104|21:103,1,299.999990844727,4|0,0:2|0:0,0:0:0:0:
23,93,303223,1,2,0:0:0:0:
84,3,303377,1,0,2:0:0:0:
146,145,303531,1,0,0:0:0:0:
18,278,303685,6,0,P|52:252|129:241,1,119.999996337891,14|0,2:3|0:0,0:0:0:0:
277,383,303992,2,0,P|237:366|189:305,1,119.999996337891,2|0,2:3|0:0,0:0:0:0:
239,107,304300,2,0,P|244:149|215:221,1,119.999996337891,2|0,0:3|0:0,0:0:0:0:
197,39,304608,6,0,B|251:11|315:36|290:88|374:110|436:77,1,239.999992675781,2|0,0:0|0:0,0:0:0:0:
430,69,305003,1,2,2:3:0:0:
422,56,305089,2,0,P|399:110|387:175,1,119.999996337891,0|2,0:0|2:3,0:0:0:0:
475,277,305396,1,0,0:0:0:0:
362,364,305550,6,0,P|321:328|244:281,1,119.999996337891,10|0,2:3|0:0,0:0:0:0:
101,377,305857,2,0,P|159:343|77:294,1,179.999994506836,2|0,2:3|0:0,0:0:0:0:
90,297,306146,2,0,B|166:280|166:280|193:301|193:301|284:281,1,179.999994506836,2|0,0:0|0:0,0:0:0:0:
271,278,306473,6,0,P|321:228|204:248,1,299.999990844727,2|0,0:0|0:0,0:0:0:0:
210,238,306934,1,0,0:0:0:0:
225,228,307011,1,0,2:0:0:0:
228,210,307088,1,0,2:0:0:0:
223,192,307165,1,0,2:0:0:0:
209,180,307242,2,0,L|142:198,1,59.9999981689454
14,303,307396,6,0,B|61:242|46:171|7:136|7:136|25:191|63:242|163:175,1,359.999989013672,10|2,2:3|2:3,0:0:0:0:
117,31,307992,2,0,L|5:45,1,112.500004291535,2|0,0:0|0:0,0:0:0:0:
201,119,308299,5,8,0:0:0:0:
244,166,308375,1,8,2:0:0:0:
309,168,308452,1,8,2:0:0:0:
357,124,308529,1,8,2:0:0:0:
368,60,308606,5,8,0:0:0:0:
345,50,308683,1,8,2:3:0:0:
324,63,308760,1,8,2:3:0:0:
319,87,308837,1,8,2:3:0:0:
335,105,308914,5,8,0:0:0:0:
384,146,308991,1,8,2:0:0:0:
392,210,309068,1,8,2:0:0:0:
350,260,309145,1,8,2:0:0:0:
284,260,309222,1,8,0:0:0:0:
229,208,309299,1,8,2:0:0:0:
155,201,309375,1,8,2:0:0:0:
100,252,309452,1,8,2:0:0:0:
114,325,309529,5,8,0:0:0:0:
124,335,309606,1,8,2:3:0:0:
138,331,309683,1,8,2:3:0:0:
148,320,309760,1,8,2:3:0:0:
149,305,309837,5,8,0:0:0:0:
139,293,309914,1,8,2:3:0:0:
124,289,309991,1,8,2:3:0:0:
112,298,310068,1,8,2:3:0:0:
105,311,310145,6,0,B|161:369|227:332|249:269|249:269|251:337|310:368|378:355,1,350,4|0,0:2|0:0,0:0:0:0:
368,341,310760,2,0,P|316:338|265:254,1,150,2|0,0:0|0:0,0:0:0:0:
355,114,311088,6,0,B|378:158|373:212|339:269|339:269|369:202|438:165|514:188|514:188|487:187|452:212,1,419.999987182618,12|0,2:1|0:0,0:0:0:0:
457,208,311703,2,0,P|431:247|431:327,1,119.999996337891,2|0,0:0|0:0,0:0:0:0:
351,128,312011,6,0,B|300:113|231:138|270:223|180:236|130:219|120:205,1,239.999992675781,2|2,0:0|2:3,0:0:0:0:
219,62,312472,2,0,P|255:92|289:169,1,119.999996337891,0|2,0:0|2:3,0:0:0:0:
138,100,312780,1,0,0:0:0:0:
370,31,312934,6,0,P|402:69|407:144,1,119.999996337891,10|0,2:3|0:0,0:0:0:0:
260,195,313241,2,0,P|276:148|339:106,1,119.999996337891,2|0,0:0|0:0,0:0:0:0:
458,203,313549,2,0,P|409:211|341:178,1,119.999996337891,2|0,2:3|0:0,0:0:0:0:
440,360,313857,5,4,0:2:0:0:
351,302,314011,2,0,B|323:318|280:320|245:283|245:283|237:327|199:346|142:344,1,239.999992675781
106,205,314472,2,0,P|137:213|96:218,1,119.999996337891,2|0,2:3|0:0,0:0:0:0:
71,83,314780,6,0,B|43:99|43:99|66:55|65:19|65:19|72:55|103:98|103:98|70:84,1,225.000008583069,12|0,2:1|0:0,0:0:0:0:
44,98,315088,2,0,P|57:77|62:59,1,37.5000014305115
224,92,315241,6,0,B|196:75|196:75|219:120|218:156|218:156|225:120|256:77|256:77|223:91,1,225.000008583069,12|0,2:1|0:0,0:0:0:0:
197,77,315549,2,0,P|210:98|215:116,1,37.5000014305115,8|0,2:0|0:0,0:0:0:0:
296,22,315703,6,0,B|342:2|408:39|368:97|397:149|454:150|493:134,1,239.999992675781,4|2,0:2|2:3,0:0:0:0:
305,99,316164,2,0,P|334:134|345:213,1,119.999996337891,8|2,0:0|2:3,0:0:0:0:
241,259,316472,1,0,0:0:0:0:
88,220,316626,6,0,B|65:196|65:196|96:175|105:127|105:127|106:174|134:205|134:205|104:222,1,225.000008583069,12|0,2:1|0:0,0:0:0:0:
54,192,316934,2,0,P|73:179|81:149,1,37.5000014305115
202,267,317088,6,0,B|179:291|179:291|210:300|217:328|217:328|213:300|233:274|233:274|207:266,1,150.000005722046,12|0,2:1|0:0,0:0:0:0:
139,360,317396,2,0,P|120:347|112:317,1,37.5000014305115,8|0,2:0|0:0,0:0:0:0:
218,187,317549,6,0,B|264:159|324:190|311:252|358:274|398:275|442:253,1,239.999992675781,4|2,0:2|2:3,0:0:0:0:
360,126,318011,1,8,0:0:0:0:
253,259,318164,2,0,P|275:308|333:346,1,119.999996337891,2|0,2:3|0:0,0:0:0:0:
216,175,318472,6,0,B|165:158|119:191|138:238|70:244|41:219,1,179.999994506836,10|0,2:3|0:0,0:0:0:0:
46,206,318780,2,0,P|94:205|154:156,1,119.999996337891,2|0,2:3|0:0,0:0:0:0:
0,66,319088,6,0,P|33:93|2:43,1,179.999994506836,2|0,0:0|0:0,0:0:0:0:
3,86,319395,6,0,B|52:50|118:65|98:154|184:160|239:133,1,239.999992675781,2|2,0:0|2:3,0:0:0:0:
182,3,319857,1,8,0:0:0:0:
320,18,320011,2,0,B|269:10|236:37|248:89|173:77,1,159.999995117188,2|0,2:3|0:0,0:0:0:0:
277,73,320318,6,0,P|315:132|347:242,1,179.999994506836,14|0,2:3|0:0,0:0:0:0:
283,271,320626,2,0,P|328:217|377:202,1,119.999996337891,2|0,0:0|0:0,0:0:0:0:
388,222,320934,2,0,P|332:243|297:290,1,119.999996337891,2|8,2:3|2:0,0:0:0:0:
206,190,321241,6,0,B|190:174|152:164|120:196|141:238|74:252|41:227,1,179.999994506836,4|0,0:2|0:0,0:0:0:0:
64,248,321549,2,0,P|96:304|112:365,1,119.999996337891,2|8,2:3|0:0,0:0:0:0:
71,152,321857,2,0,P|104:97|153:61,1,119.999996337891,2|0,2:3|0:0,0:0:0:0:
168,63,322164,6,0,P|121:99|91:151,1,119.999996337891,10|0,2:3|0:0,0:0:0:0:
241,184,322472,1,2,0:0:0:0:
180,45,322626,1,8,2:0:0:0:
331,128,322780,1,2,2:3:0:0:
445,0,322934,1,8,2:0:0:0:
496,191,323088,5,8,0:0:0:0:
447,157,323164,1,8,2:0:0:0:
387,163,323241,1,8,2:0:0:0:
348,209,323318,1,8,2:0:0:0:
354,268,323395,5,8,0:0:0:0:
377,274,323472,1,8,2:3:0:0:
396,260,323549,1,8,2:3:0:0:
404,237,323626,1,8,2:3:0:0:
393,215,323703,5,8,0:0:0:0:
347,176,323780,1,8,2:0:0:0:
287,186,323857,1,8,2:0:0:0:
258,238,323934,1,8,2:0:0:0:
212,277,324011,5,8,0:0:0:0:
145,279,324088,1,8,2:0:0:0:
91,241,324164,1,8,2:0:0:0:
77,176,324241,1,8,2:0:0:0:
115,122,324318,5,8,0:0:0:0:
132,119,324395,1,8,2:3:0:0:
147,128,324472,1,8,2:3:0:0:
155,143,324549,1,8,2:3:0:0:
153,160,324626,5,8,0:0:0:0:
142,153,324703,1,8,2:3:0:0:
137,141,324780,1,8,2:3:0:0:
137,128,324857,1,8,2:3:0:0:
144,118,324934,5,4,0:2:0:0:
197,108,325011,1,0,0:0:0:0:
244,133,325088,1,0,0:0:0:0:
257,184,325164,1,0,0:0:0:0:
243,236,325241,1,2,0:0:0:0:
195,262,325318,1,0,0:0:0:0:
185,315,325395,1,0,0:0:0:0:
208,363,325472,1,0,0:0:0:0:
260,373,325549,1,2,0:0:0:0:
309,350,325626,1,0,0:0:0:0:
320,297,325703,1,0,0:0:0:0:
290,251,325780,1,0,0:0:0:0:
239,231,325857,5,10,0:0:0:0:
240,285,325934,1,0,0:0:0:0:
287,310,326011,1,0,0:0:0:0:
339,297,326088,1,0,0:0:0:0:
360,248,326164,1,2,0:0:0:0:
341,197,326241,1,0,0:0:0:0:
293,171,326318,1,0,0:0:0:0:
262,126,326395,1,0,0:0:0:0:
257,72,326472,1,2,0:0:0:0:
283,25,326549,1,0,0:0:0:0:
333,7,326626,1,0,0:0:0:0:
386,16,326703,1,0,0:0:0:0:
423,54,326780,5,2,0:0:0:0:
426,107,326857,1,0,0:0:0:0:
401,155,326934,1,0,0:0:0:0:
351,177,327011,1,0,0:0:0:0:
298,164,327088,1,2,0:0:0:0:
266,120,327164,1,0,0:0:0:0:
221,89,327241,1,0,0:0:0:0:
167,92,327318,1,0,0:0:0:0:
128,129,327395,1,2,0:0:0:0:
114,180,327472,1,0,0:0:0:0:
135,230,327549,1,0,0:0:0:0:
184,253,327626,1,0,0:0:0:0:
237,247,327703,5,10,0:0:0:0:
212,193,327779,1,0,0:0:0:0:
160,165,327856,1,0,0:0:0:0:
102,176,327933,1,0,0:0:0:0:
62,219,328011,1,2,0:0:0:0:
58,278,328087,1,0,0:0:0:0:
90,327,328164,1,0,0:0:0:0:
146,346,328241,1,0,0:0:0:0:
201,327,328318,1,2,0:0:0:0:
237,287,328395,1,0,0:0:0:0:
288,269,328472,1,0,0:0:0:0:
341,274,328549,1,0,0:0:0:0:
382,308,328626,5,2,0:0:0:0:
352,311,328703,1,0,0:0:0:0:
329,290,328780,1,0,0:0:0:0:
325,260,328857,1,0,0:0:0:0:
343,236,328934,1,2,0:0:0:0:
372,230,329011,1,0,0:0:0:0:
392,242,329088,2,0,P|408:273|403:302,1,59.9999981689454
266,198,329241,2,0,P|275:153|290:138,3,59.9999981689454,2|0|0|0,0:0|0:0|0:0|0:0,0:0:0:0:
305,370,329549,5,10,0:0:0:0:
251,377,329626,1,0,0:0:0:0:
201,355,329703,1,0,0:0:0:0:
178,305,329780,1,0,0:0:0:0:
186,251,329857,1,2,0:0:0:0:
227,216,329934,1,0,0:0:0:0:
280,212,330011,2,0,P|315:231|331:253,1,59.9999981689454
104,263,330164,2,0,P|114:224|128:201,3,59.9999981689454,2|0|0|0,0:0|0:0|0:0|0:0,0:0:0:0:
201,61,330472,5,4,0:2:0:0:
251,28,330549,1,0,0:0:0:0:
310,36,330626,1,0,0:0:0:0:
350,80,330703,1,0,0:0:0:0:
346,139,330780,1,2,0:0:0:0:
302,180,330857,1,0,0:0:0:0:
259,222,330934,1,0,0:0:0:0:
251,281,331011,1,0,0:0:0:0:
274,336,331088,1,2,0:0:0:0:
330,355,331164,1,0,0:0:0:0:
386,335,331241,1,0,0:0:0:0:
403,277,331318,1,0,0:0:0:0:
373,224,331395,5,8,0:0:0:0:
349,225,331472,1,8,2:3:0:0:
326,234,331549,1,8,2:3:0:0:
311,252,331626,1,8,2:3:0:0:
308,275,331703,5,8,2:3:0:0:
301,258,331780,1,8,2:3:0:0:
287,246,331857,1,8,2:3:0:0:
270,238,331934,1,8,2:3:0:0:
252,241,332011,5,8,0:0:0:0:
259,231,332088,1,8,2:3:0:0:
261,219,332164,1,8,2:3:0:0:
259,207,332241,1,8,2:3:0:0:
252,196,332318,5,4,0:2:0:0:
211,169,332395,1,0,0:0:0:0:
165,184,332472,1,0,0:0:0:0:
145,227,332549,1,0,0:0:0:0:
160,272,332626,1,2,0:0:0:0:
202,293,332703,1,0,0:0:0:0:
249,284,332780,1,0,0:0:0:0:
280,247,332857,1,0,0:0:0:0:
324,229,332934,1,2,0:0:0:0:
371,238,333011,1,0,0:0:0:0:
405,271,333088,1,0,0:0:0:0:
413,317,333164,1,0,0:0:0:0:
388,358,333241,5,10,0:0:0:0:
346,323,333318,1,0,0:0:0:0:
339,269,333395,1,0,0:0:0:0:
375,228,333472,1,0,0:0:0:0:
422,201,333549,1,2,0:0:0:0:
448,154,333626,1,0,0:0:0:0:
437,101,333703,1,0,0:0:0:0:
394,67,333780,1,0,0:0:0:0:
340,69,333857,1,2,0:0:0:0:
300,105,333934,1,0,0:0:0:0:
278,154,334011,1,0,0:0:0:0:
228,175,334088,1,0,0:0:0:0:
174,174,334164,5,2,0:0:0:0:
130,141,334241,1,0,0:0:0:0:
116,88,334318,1,0,0:0:0:0:
135,36,334395,1,0,0:0:0:0:
183,11,334472,1,2,0:0:0:0:
236,16,334549,1,0,0:0:0:0:
277,50,334626,1,0,0:0:0:0:
289,102,334703,1,0,0:0:0:0:
264,150,334780,1,2,0:0:0:0:
222,184,334857,1,0,0:0:0:0:
204,235,334934,1,0,0:0:0:0:
215,287,335011,1,0,0:0:0:0:
260,315,335088,5,10,0:0:0:0:
279,259,335164,1,0,0:0:0:0:
243,210,335241,1,0,0:0:0:0:
184,198,335318,1,0,0:0:0:0:
132,229,335395,2,0,P|104:271|99:290,3,59.9999981689454,2|0|0|0,0:0|0:0|0:0|0:0,0:0:0:0:
315,174,335703,2,0,P|302:134|289:115,3,59.9999981689454,2|0|0|0,0:0|0:0|0:0|0:0,0:0:0:0:
338,336,336011,5,2,0:0:0:0:
396,349,336088,1,0,0:0:0:0:
447,320,336164,1,0,0:0:0:0:
455,260,336241,1,0,0:0:0:0:
417,212,336318,1,2,0:0:0:0:
368,176,336395,1,0,0:0:0:0:
368,115,336472,1,0,0:0:0:0:
413,76,336549,1,0,0:0:0:0:
471,89,336626,2,0,P|496:126|501:150,3,59.9999981689454,2|0|0|0,0:0|0:0|0:0|0:0,0:0:0:0:
353,250,336934,5,10,0:0:0:0:
301,278,337010,1,0,0:0:0:0:
243,269,337087,1,0,0:0:0:0:
202,226,337164,1,0,0:0:0:0:
197,167,337241,1,2,0:0:0:0:
228,117,337318,1,0,0:0:0:0:
284,97,337395,1,0,0:0:0:0:
340,115,337472,1,0,0:0:0:0:
373,164,337549,2,0,P|373:205|360:233,3,59.9999981689454,2|0|0|0,0:0|0:0|0:0|0:0,0:0:0:0:
107,162,337857,5,8,0:0:0:0:
159,112,337934,1,8,2:0:0:0:
230,101,338011,1,8,2:0:0:0:
287,144,338088,1,8,2:0:0:0:
325,203,338164,1,8,2:0:0:0:
388,236,338241,1,8,2:0:0:0:
458,221,338318,1,8,2:0:0:0:
494,158,338395,1,8,2:0:0:0:
459,94,338472,5,0,0:0:0:0:
429,89,338549,1,0,0:0:0:0:
400,99,338626,1,0,0:0:0:0:
385,125,338703,1,0,0:0:0:0:
390,154,338780,5,8,0:0:0:0:
405,145,338857,1,8,0:0:0:0:
408,127,338934,1,8,0:0:0:0:
399,111,339011,1,8,0:0:0:0:
382,103,339088,1,8,0:0:0:0:
364,105,339164,1,8,0:0:0:0:
353,119,339241,1,8,0:0:0:0:
351,136,339318,1,8,0:0:0:0:
358,152,339395,1,8,0:0:0:0:
372,162,339472,1,8,0:0:0:0:
382,176,339549,1,8,0:0:0:0:
387,193,339626,1,8,0:0:0:0:
381,206,339703,5,4,0:1:0:0:
327,240,339805,1,0,2:0:0:0:
264,224,339908,1,0,2:0:0:0:
196,161,340011,5,2,0:0:0:0:
142,127,340113,1,0,2:0:0:0:
79,143,340216,1,0,2:0:0:0:
59,229,340318,5,2,0:0:0:0:
97,280,340421,1,0,2:0:0:0:
160,283,340523,1,0,2:0:0:0:
248,223,340626,5,10,0:0:0:0:
307,198,340729,1,0,2:0:0:0:
366,221,340831,1,0,2:0:0:0:
386,303,340934,6,0,L|378:365,1,59.9999981689454,2|0,0:2|0:0,0:0:0:0:
393,318,341088,2,0,L|385:380,1,59.9999981689454,2|0,0:2|0:0,0:0:0:0:
477,239,341241,6,0,L|469:177,1,59.9999981689454,2|0,0:2|0:0,0:0:0:0:
484,224,341395,2,0,L|476:162,1,59.9999981689454,2|0,0:2|0:0,0:0:0:0:
366,31,341549,5,4,0:2:0:0:
320,15,341652,1,0,2:0:0:0:
277,37,341754,1,0,2:0:0:0:
240,104,341857,5,2,0:0:0:0:
194,120,341960,1,0,2:0:0:0:
151,98,342062,1,0,2:0:0:0:
111,37,342164,5,2,0:0:0:0:
65,21,342267,1,0,2:0:0:0:
22,43,342369,1,0,2:0:0:0:
5,134,342472,5,10,0:0:0:0:
42,164,342575,1,0,2:0:0:0:
89,161,342677,1,0,2:0:0:0:
151,98,342780,6,0,L|141:27,1,59.9999981689454,2|0,0:2|0:0,0:0:0:0:
159,90,342934,2,0,L|149:19,1,59.9999981689454,2|0,0:2|0:0,0:0:0:0:
211,193,343088,6,0,L|201:264,1,59.9999981689454,2|0,0:2|0:0,0:0:0:0:
219,201,343242,2,0,L|209:272,1,59.9999981689454,2|0,0:2|0:0,0:0:0:0:
0,349,343395,5,4,0:1:0:0:
11,334,343472,1,0,0:0:0:0:
31,321,343549,1,0,0:0:0:0:
60,314,343626,1,0,0:0:0:0:
95,318,343703,1,2,0:0:0:0:
123,348,343780,1,0,0:0:0:0:
165,370,343857,1,0,0:0:0:0:
218,373,343934,1,0,0:0:0:0:
269,341,344011,1,2,0:0:0:0:
303,284,344088,1,0,0:0:0:0:
287,214,344164,2,0,P|265:178|244:166,1,59.9999981689454
119,225,344318,5,10,0:0:0:0:
82,177,344395,1,0,0:0:0:0:
94,118,344472,1,0,0:0:0:0:
147,90,344549,1,0,0:0:0:0:
204,107,344626,5,2,0:2:0:0:
207,130,344703,1,0,0:0:0:0:
193,149,344780,1,0,0:0:0:0:
169,154,344857,1,0,0:0:0:0:
145,147,344934,2,0,P|141:111|155:82,1,59.9999981689454
286,8,345088,2,0,P|333:22|351:32,1,59.9999981689454,4|0,0:1|0:0,0:0:0:0:
464,173,345241,5,4,0:1:0:0:
421,139,345318,1,0,0:0:0:0:
367,142,345395,1,0,0:0:0:0:
326,177,345472,1,0,0:0:0:0:
310,228,345549,2,0,P|317:263|331:291,1,59.9999981689454,2|0,0:0|0:0,0:0:0:0:
226,170,345703,5,0,0:0:0:0:
178,146,345779,1,0,0:0:0:0:
127,158,345857,1,2,0:0:0:0:
96,201,345933,1,0,0:0:0:0:
100,254,346010,1,0,0:0:0:0:
137,291,346087,1,0,0:0:0:0:
189,296,346164,5,14,0:2:0:0:
178,243,346241,1,2,0:2:0:0:
168,189,346318,1,2,0:2:0:0:
157,135,346395,1,2,0:2:0:0:
143,82,346472,5,8,0:0:0:0:
127,91,346549,1,8,0:0:0:0:
112,101,346626,1,8,0:0:0:0:
97,111,346703,1,8,0:0:0:0:
82,121,346780,5,8,0:0:0:0:
93,125,346857,1,8,0:0:0:0:
104,129,346934,1,8,0:0:0:0:
115,133,347011,1,8,0:0:0:0:
125,137,347088,5,4,0:2:0:0:
164,124,347164,1,0,0:0:0:0:
177,84,347241,1,0,0:0:0:0:
152,49,347318,1,0,0:0:0:0:
110,42,347395,1,2,0:0:0:0:
77,68,347472,1,0,0:0:0:0:
74,109,347549,1,0,0:0:0:0:
100,141,347626,1,0,0:0:0:0:
139,155,347703,1,2,0:0:0:0:
166,186,347780,1,0,0:0:0:0:
169,227,347857,1,0,0:0:0:0:
151,265,347934,1,0,0:0:0:0:
113,284,348011,5,10,0:0:0:0:
127,238,348088,1,0,0:0:0:0:
165,209,348164,1,0,0:0:0:0:
212,206,348241,1,0,0:0:0:0:
254,228,348318,1,2,0:0:0:0:
276,270,348395,1,0,0:0:0:0:
302,310,348472,1,0,0:0:0:0:
347,326,348549,1,0,0:0:0:0:
394,318,348626,1,2,0:0:0:0:
427,283,348703,1,0,0:0:0:0:
433,235,348780,1,0,0:0:0:0:
410,192,348857,1,0,0:0:0:0:
366,171,348934,5,4,0:2:0:0:
347,221,349011,1,0,0:0:0:0:
366,271,349088,1,0,0:0:0:0:
415,290,349164,1,0,0:0:0:0:
468,280,349241,1,2,0:0:0:0:
498,235,349318,1,0,0:0:0:0:
494,181,349395,1,0,0:0:0:0:
457,140,349472,1,0,0:0:0:0:
405,124,349549,1,2,0:0:0:0:
380,75,349626,1,0,0:0:0:0:
403,26,349703,1,0,0:0:0:0:
456,18,349780,1,0,0:0:0:0:
500,46,349857,5,12,0:1:0:0:
504,67,349934,1,0,0:0:0:0:
493,86,350011,2,0,P|455:116|417:115,1,75.0000028610231
184,18,350164,5,12,0:1:0:0:
201,3,350241,1,0,0:0:0:0:
223,3,350318,2,0,P|267:20|286:54,1,75.0000028610231
281,270,350472,5,12,0:1:0:0:
259,262,350549,1,0,0:0:0:0:
248,243,350626,2,0,P|241:195|260:162,1,75.0000028610231
486,187,350780,5,12,0:2:0:0:
435,159,350857,1,0,0:0:0:0:
379,174,350934,1,0,0:0:0:0:
349,224,351011,1,0,0:0:0:0:
351,282,351088,1,2,0:0:0:0:
336,337,351164,1,0,0:0:0:0:
301,382,351241,1,0,0:0:0:0:
245,376,351318,1,0,0:0:0:0:
207,342,351395,1,2,0:0:0:0:
207,297,351472,1,0,0:0:0:0:
230,269,351549,1,0,0:0:0:0:
260,260,351626,1,0,0:0:0:0:
273,273,351703,5,14,0:0:0:0:
240,321,351780,1,0,0:0:0:0:
183,333,351857,1,0,0:0:0:0:
127,317,351934,1,0,0:0:0:0:
91,271,352011,1,2,0:0:0:0:
95,212,352088,1,0,0:0:0:0:
132,166,352164,1,0,0:0:0:0:
180,131,352241,1,0,0:0:0:0:
197,74,352318,1,2,0:0:0:0:
176,19,352395,1,0,0:0:0:0:
120,3,352472,1,0,0:0:0:0:
64,18,352549,1,0,0:0:0:0:
37,69,352626,5,8,0:0:0:0:
86,121,352703,1,8,0:0:0:0:
157,133,352780,1,8,0:0:0:0:
215,90,352857,1,8,0:0:0:0:
265,38,352934,1,8,0:0:0:0:
333,15,353011,1,8,0:0:0:0:
402,34,353088,1,8,0:0:0:0:
444,91,353164,1,8,0:0:0:0:
444,162,353241,5,8,0:0:0:0:
427,189,353318,1,8,0:0:0:0:
395,192,353395,1,8,0:0:0:0:
368,174,353472,1,8,0:0:0:0:
365,141,353549,5,8,0:0:0:0:
376,157,353626,1,8,0:0:0:0:
373,176,353703,1,8,0:0:0:0:
358,187,353780,1,8,0:0:0:0:
339,189,353857,1,8,0:0:0:0:
320,184,353934,1,8,0:0:0:0:
306,170,354011,1,8,0:0:0:0:
304,150,354088,1,8,0:0:0:0:
313,132,354164,5,8,0:0:0:0:
320,143,354241,1,8,0:0:0:0:
323,155,354318,1,8,0:0:0:0:
323,168,354395,1,8,0:0:0:0:
317,179,354472,5,4,0:2:0:0:
262,197,354549,1,0,0:0:0:0:
209,174,354626,1,0,0:0:0:0:
191,118,354703,1,0,0:0:0:0:
213,63,354780,1,2,0:0:0:0:
267,39,354857,1,0,0:0:0:0:
323,58,354934,1,0,0:0:0:0:
352,109,355011,1,0,0:0:0:0:
336,165,355088,1,2,0:0:0:0:
293,202,355164,1,0,0:0:0:0:
287,260,355241,1,0,0:0:0:0:
321,308,355318,1,0,0:0:0:0:
377,325,355395,5,10,0:0:0:0:
348,274,355472,1,0,0:0:0:0:
292,260,355549,1,0,0:0:0:0:
235,273,355626,1,0,0:0:0:0:
200,319,355703,1,2,0:0:0:0:
157,358,355780,1,0,0:0:0:0:
99,361,355857,1,0,0:0:0:0:
46,337,355934,1,0,0:0:0:0:
26,282,356011,1,2,0:2:0:0:
45,226,356088,1,2,0:2:0:0:
93,192,356164,1,2,0:2:0:0:
113,136,356241,1,2,0:2:0:0:
97,84,356318,6,0,P|71:55|38:44,1,59.9999981689454,4|0,0:1|0:0,0:0:0:0:
113,265,356472,2,0,P|153:271|180:257,1,59.9999981689454
117,274,356626,2,0,P|157:280|184:266,1,59.9999981689454
281,137,356780,1,10,0:0:0:0:
329,110,356857,1,0,0:0:0:0:
383,118,356934,1,0,0:0:0:0:
418,159,357011,1,0,0:0:0:0:
418,213,357088,1,0,0:0:0:0:
387,256,357164,1,0,0:0:0:0:
393,309,357241,6,0,P|425:350|455:360,1,59.9999981689454,4|0,0:1|0:0,0:0:0:0:
345,194,357395,2,0,P|311:202|287:223,1,59.9999981689454
338,186,357549,2,0,P|304:194|280:215,1,59.9999981689454
417,66,357703,1,10,0:0:0:0:
376,30,357780,1,0,0:0:0:0:
329,20,357857,1,0,0:0:0:0:
292,39,357934,1,0,0:0:0:0:
282,73,358011,1,0,0:0:0:0:
298,98,358088,1,0,0:0:0:0:
326,96,358164,5,6,0:0:0:0:
294,54,358240,1,0,0:0:0:0:
242,44,358317,1,0,0:0:0:0:
197,70,358394,1,0,0:0:0:0:
180,120,358471,1,2,0:0:0:0:
200,169,358548,1,0,0:0:0:0:
247,192,358626,2,0,P|288:180|306:163,1,59.9999981689454,2|0,0:0|0:0,0:0:0:0:
108,83,358780,2,0,P|104:125|108:147,3,59.9999981689454,2|0|0|0,0:0|0:0|0:0|0:0,0:0:0:0:
188,274,359088,5,10,0:0:0:0:
229,308,359164,1,0,0:0:0:0:
283,301,359241,1,0,0:0:0:0:
324,265,359318,1,0,0:0:0:0:
330,211,359395,1,2,0:0:0:0:
296,169,359472,1,0,0:0:0:0:
256,132,359549,1,0,0:0:0:0:
245,79,359626,1,0,0:0:0:0:
273,32,359703,1,2,0:0:0:0:
326,17,359780,1,0,0:0:0:0:
375,41,359857,1,0,0:0:0:0:
397,90,359934,1,0,0:0:0:0:
379,140,360011,6,0,P|338:147|304:140,1,59.9999981689454,10|0,0:2|0:0,0:0:0:0:
459,46,360164,2,0,P|493:58|520:79,1,59.9999981689454,2|0,0:2|0:0,0:0:0:0:
459,36,360318,2,0,P|493:48|520:69,1,59.9999981689454,2|0,0:2|0:0,0:0:0:0:
316,162,360472,6,0,P|357:169|391:162,1,59.9999981689454,10|0,0:2|0:0,0:0:0:0:
236,68,360625,2,0,P|202:80|175:101,1,59.9999981689454,2|0,0:2|0:0,0:0:0:0:
236,58,360779,2,0,P|202:70|175:91,1,59.9999981689454,2|0,0:2|0:0,0:0:0:0:
395,231,360934,5,8,0:0:0:0:
430,280,361011,1,8,0:0:0:0:
418,338,361088,1,8,0:0:0:0:
370,371,361164,1,8,0:0:0:0:
312,358,361241,5,8,0:0:0:0:
305,341,361318,1,8,0:0:0:0:
306,322,361395,1,8,0:0:0:0:
313,305,361472,1,8,0:0:0:0:
327,293,361549,5,8,0:0:0:0:
334,303,361626,1,8,0:0:0:0:
336,314,361703,1,8,0:0:0:0:
332,325,361780,1,0,0:0:0:0:
322,330,361857,5,4,0:2:0:0:
269,335,361934,1,0,0:0:0:0:
227,301,362011,1,0,0:0:0:0:
217,247,362088,1,0,0:0:0:0:
238,197,362164,1,2,0:0:0:0:
284,168,362241,1,0,0:0:0:0:
306,118,362318,1,0,0:0:0:0:
296,64,362395,1,0,0:0:0:0:
252,32,362472,1,2,0:0:0:0:
199,35,362549,1,0,0:0:0:0:
158,69,362626,1,0,0:0:0:0:
147,121,362703,1,0,0:0:0:0:
183,162,362780,5,10,0:0:0:0:
213,116,362857,1,0,0:0:0:0:
206,62,362934,1,0,0:0:0:0:
165,27,363011,1,0,0:0:0:0:
112,17,363088,1,2,0:0:0:0:
63,37,363164,1,0,0:0:0:0:
35,82,363241,1,0,0:0:0:0:
33,135,363318,1,0,0:0:0:0:
61,181,363395,1,2,0:0:0:0:
112,200,363472,1,0,0:0:0:0:
147,241,363549,1,0,0:0:0:0:
156,294,363626,1,0,0:0:0:0:
131,341,363703,5,2,0:2:0:0:
107,337,363780,1,0,0:0:0:0:
91,318,363857,1,0,0:0:0:0:
89,294,363934,1,0,0:0:0:0:
105,276,364011,1,2,0:2:0:0:
128,272,364088,1,0,0:0:0:0:
149,281,364164,2,0,P|144:321|136:345,1,59.9999981689454,2|0,0:2|0:0,0:0:0:0:
254,239,364318,2,0,P|269:212|292:195,3,59.9999981689454,2|0|0|0,0:0|0:0|0:0|0:0,0:0:0:0:
462,357,364626,5,10,0:0:0:0:
489,309,364703,1,0,0:0:0:0:
480,255,364780,1,0,0:0:0:0:
435,225,364857,1,0,0:0:0:0:
382,228,364934,6,0,L|368:300,1,59.9999981689454,2|0,0:2|0:0,0:0:0:0:
393,242,365088,2,0,L|379:314,1,59.9999981689454,2|0,0:2|0:0,0:0:0:0:
295,170,365241,6,0,L|281:98,1,59.9999981689454,2|0,0:2|0:0,0:0:0:0:
306,156,365395,2,0,L|292:84,1,59.9999981689454,2|0,0:2|0:0,0:0:0:0:
219,271,365549,5,4,0:1:0:0:
174,299,365626,1,0,0:0:0:0:
121,291,365703,1,0,0:0:0:0:
86,249,365780,1,0,0:0:0:0:
87,194,365857,1,2,0:0:0:0:
123,153,365934,1,0,0:0:0:0:
174,132,366011,1,0,0:0:0:0:
204,86,366088,1,0,0:0:0:0:
193,33,366164,1,2,0:0:0:0:
146,7,366241,1,0,0:0:0:0:
93,17,366318,1,0,0:0:0:0:
62,60,366395,1,0,0:0:0:0:
68,113,366472,5,10,0:0:0:0:
92,64,366549,1,0,0:0:0:0:
140,38,366626,1,0,0:0:0:0:
194,47,366703,1,0,0:0:0:0:
231,87,366780,1,2,0:0:0:0:
255,135,366857,1,0,0:0:0:0:
303,160,366934,1,0,0:0:0:0:
357,151,367011,1,0,0:0:0:0:
387,105,367088,1,2,0:0:0:0:
384,51,367164,1,0,0:0:0:0:
348,10,367241,1,0,0:0:0:0:
295,5,367318,1,0,0:0:0:0:
250,33,367395,5,6,0:0:0:0:
236,85,367472,1,0,0:0:0:0:
251,137,367549,1,0,0:0:0:0:
299,163,367626,1,0,0:0:0:0:
348,186,367703,1,2,0:0:0:0:
371,235,367780,1,0,0:0:0:0:
371,289,367857,1,0,0:0:0:0:
343,334,367934,1,0,0:0:0:0:
292,351,368011,1,2,0:0:0:0:
240,338,368088,1,0,0:0:0:0:
203,299,368164,1,0,0:0:0:0:
201,245,368241,1,0,0:0:0:0:
230,199,368318,5,0,0:0:0:0:
239,221,368395,1,0,0:0:0:0:
231,243,368472,1,0,0:0:0:0:
211,255,368549,1,0,0:0:0:0:
188,256,368626,5,0,0:0:0:0:
206,260,368703,1,0,0:0:0:0:
221,271,368780,1,0,0:0:0:0:
232,285,368857,1,0,0:0:0:0:
232,303,368934,5,0,0:0:0:0:
241,294,369011,1,0,0:0:0:0:
252,287,369088,1,0,0:0:0:0:
264,283,369164,1,0,0:0:0:0:
276,285,369241,5,4,0:2:0:0:
253,333,369318,1,0,0:0:0:0:
200,338,369395,1,0,0:0:0:0:
154,311,369472,1,0,0:0:0:0:
144,258,369549,1,2,0:0:0:0:
173,212,369626,1,0,0:0:0:0:
225,194,369703,1,0,0:0:0:0:
278,206,369780,1,0,0:0:0:0:
311,249,369857,1,2,0:0:0:0:
360,272,369934,1,0,0:0:0:0:
414,267,370011,1,0,0:0:0:0:
457,233,370088,1,0,0:0:0:0:
466,180,370164,5,10,0:0:0:0:
412,180,370241,1,0,0:0:0:0:
373,217,370318,1,0,0:0:0:0:
362,269,370395,1,0,0:0:0:0:
359,322,370472,1,2,0:0:0:0:
327,365,370549,1,0,0:0:0:0:
275,377,370626,1,0,0:0:0:0:
222,368,370703,1,0,0:0:0:0:
193,322,370780,1,2,0:2:0:0:
192,267,370857,1,2,0:2:0:0:
225,223,370934,1,2,0:2:0:0:
278,209,371011,1,2,0:2:0:0:
328,231,371088,6,0,P|361:257|371:273,1,59.9999981689454,4|0,0:1|0:0,0:0:0:0:
139,213,371241,2,0,P|106:235|84:260,1,59.9999981689454
125,212,371395,2,0,P|92:234|70:259,1,59.9999981689454
337,219,371549,5,12,0:1:0:0:
372,177,371626,1,0,0:0:0:0:
362,124,371703,1,0,0:0:0:0:
321,89,371780,1,0,0:0:0:0:
268,91,371857,1,0,0:0:0:0:
230,128,371934,1,0,0:0:0:0:
225,181,372011,6,0,P|242:216|261:233,1,59.9999981689454,4|0,0:1|0:0,0:0:0:0:
190,56,372164,2,0,P|154:44|125:42,1,59.9999981689454
185,41,372318,2,0,P|149:29|120:27,1,59.9999981689454
236,185,372472,5,12,0:1:0:0:
289,197,372549,1,0,0:0:0:0:
326,166,372626,1,0,0:0:0:0:
335,124,372703,1,0,0:0:0:0:
314,95,372780,1,0,0:0:0:0:
285,92,372857,1,0,0:0:0:0:
270,110,372934,5,6,0:0:0:0:
307,149,373011,1,0,0:0:0:0:
361,154,373088,1,0,0:0:0:0:
402,119,373164,1,0,0:0:0:0:
414,66,373241,1,2,0:0:0:0:
384,21,373318,1,0,0:0:0:0:
334,2,373395,1,0,0:0:0:0:
283,18,373472,1,0,0:0:0:0:
250,60,373549,1,2,0:0:0:0:
203,86,373626,1,0,0:0:0:0:
150,92,373703,1,0,0:0:0:0:
102,69,373780,1,0,0:0:0:0:
73,23,373857,5,10,0:0:0:0:
127,32,373934,1,0,0:0:0:0:
160,74,374011,1,0,0:0:0:0:
156,127,374088,1,0,0:0:0:0:
131,174,374164,1,2,0:0:0:0:
86,203,374241,1,0,0:0:0:0:
66,253,374318,1,0,0:0:0:0:
81,304,374395,1,0,0:0:0:0:
123,336,374472,1,2,0:0:0:0:
177,335,374549,1,0,0:0:0:0:
217,299,374626,1,0,0:0:0:0:
225,245,374703,1,0,0:0:0:0:
214,192,374780,6,0,P|187:175|153:169,1,59.9999981689454,10|0,0:2|0:0,0:0:0:0:
264,361,374934,2,0,P|302:366|331:361,1,59.9999981689454,2|0,0:2|0:0,0:0:0:0:
272,369,375088,2,0,P|310:374|339:369,1,59.9999981689454,2|0,0:2|0:0,0:0:0:0:
396,210,375241,6,0,P|376:252|375:272,1,59.9999981689454,10|0,0:2|0:0,0:0:0:0:
512,171,375395,2,0,P|494:130|481:111,1,59.9999981689454,2|0,0:2|0:0,0:0:0:0:
501,170,375549,2,0,P|483:129|470:110,1,59.9999981689454,2|0,0:2|0:0,0:0:0:0:
344,49,375703,5,8,0:0:0:0:
279,40,375780,1,8,0:0:0:0:
214,32,375857,1,8,0:0:0:0:
149,24,375934,1,8,0:0:0:0:
84,16,376011,5,8,0:0:0:0:
86,33,376088,1,8,0:0:0:0:
88,50,376164,1,8,0:0:0:0:
89,68,376241,1,8,0:0:0:0:
101,87,376318,5,8,0:0:0:0:
100,101,376395,1,8,0:0:0:0:
98,115,376471,1,8,0:0:0:0:
97,131,376548,1,8,0:0:0:0:
95,146,376626,5,4,0:2:0:0:
132,185,376703,1,0,0:0:0:0:
187,185,376780,1,0,0:0:0:0:
231,152,376857,1,0,0:0:0:0:
250,101,376934,1,2,0:0:0:0:
297,73,377011,1,0,0:0:0:0:
351,75,377088,1,0,0:0:0:0:
387,114,377164,1,0,0:0:0:0:
385,167,377241,1,2,0:0:0:0:
354,210,377318,1,0,0:0:0:0:
302,223,377395,1,0,0:0:0:0:
253,200,377472,1,0,0:0:0:0:
222,155,377549,5,10,0:0:0:0:
267,124,377626,1,0,0:0:0:0:
322,126,377703,1,0,0:0:0:0:
366,158,377780,1,0,0:0:0:0:
386,208,377857,1,2,0:0:0:0:
431,238,377934,1,0,0:0:0:0:
485,230,378011,1,0,0:0:0:0:
511,182,378088,1,0,0:0:0:0:
500,129,378164,1,2,0:2:0:0:
454,101,378241,1,2,0:2:0:0:
402,113,378318,1,2,0:2:0:0:
369,155,378395,1,2,0:2:0:0:
379,208,378472,5,2,0:2:0:0:
402,202,378549,1,0,0:0:0:0:
416,182,378626,1,0,0:0:0:0:
411,158,378703,1,0,0:0:0:0:
396,138,378780,1,2,0:2:0:0:
374,127,378857,1,0,0:0:0:0:
350,128,378934,2,0,P|312:133|284:147,1,59.9999981689454,2|0,0:2|0:0,0:0:0:0:
200,230,379088,2,0,P|168:229|138:209,3,59.9999981689454,2|0|0|0,0:0|0:0|0:0|0:0,0:0:0:0:
376,217,379395,5,14,0:0:0:0:
410,259,379472,1,0,0:0:0:0:
402,312,379549,1,0,0:0:0:0:
359,344,379626,1,0,0:0:0:0:
305,342,379703,6,0,P|281:313|272:289,3,59.9999981689454,2|0|2|0,0:2|0:0|0:2|0:0,0:0:0:0:
482,311,380011,2,0,P|462:351|442:368,3,59.9999981689454,2|0|2|0,0:2|0:0|0:2|0:0,0:0:0:0:
291,203,380318,5,4,0:1:0:0:
244,177,380395,1,0,0:0:0:0:
192,190,380472,1,0,0:0:0:0:
172,240,380549,1,0,0:0:0:0:
197,288,380626,1,2,0:0:0:0:
249,304,380703,1,0,0:0:0:0:
295,275,380780,1,0,0:0:0:0:
303,221,380857,1,0,0:0:0:0:
267,180,380934,1,2,0:0:0:0:
244,131,381011,1,0,0:0:0:0:
244,76,381088,1,0,0:0:0:0:
281,36,381164,1,0,0:0:0:0:
336,36,381241,5,10,0:0:0:0:
345,89,381318,1,0,0:0:0:0:
312,131,381395,1,0,0:0:0:0:
259,133,381472,1,0,0:0:0:0:
214,103,381549,1,2,0:0:0:0:
184,58,381626,1,0,0:0:0:0:
134,38,381703,1,0,0:0:0:0:
81,46,381780,1,0,0:0:0:0:
49,89,381857,1,2,0:0:0:0:
51,143,381934,1,0,0:0:0:0:
89,181,382011,1,0,0:0:0:0:
143,185,382088,1,0,0:0:0:0:
188,156,382164,5,2,0:0:0:0:
178,150,382241,1,0,0:0:0:0:
167,151,382318,1,0,0:0:0:0:
157,156,382395,1,0,0:0:0:0:
149,164,382472,1,2,0:0:0:0:
142,173,382549,1,0,0:0:0:0:
138,184,382626,1,0,0:0:0:0:
135,195,382703,1,0,0:0:0:0:
135,206,382780,1,2,0:0:0:0:
137,217,382857,1,0,0:0:0:0:
142,228,382934,1,0,0:0:0:0:
150,237,383011,1,0,0:0:0:0:
160,243,383088,5,10,0:0:0:0:
203,211,383164,1,0,0:0:0:0:
257,201,383241,1,0,0:0:0:0:
309,218,383318,1,0,0:0:0:0:
348,256,383395,1,2,0:0:0:0:
383,297,383472,1,0,0:0:0:0:
436,299,383549,1,0,0:0:0:0:
481,269,383626,1,0,0:0:0:0:
495,217,383703,1,2,0:0:0:0:
474,167,383780,1,0,0:0:0:0:
425,143,383857,1,0,0:0:0:0:
371,152,383934,1,0,0:0:0:0:
335,201,384011,5,4,0:2:0:0:
384,219,384088,1,0,0:0:0:0:
427,186,384164,1,0,0:0:0:0:
431,132,384241,1,0,0:0:0:0:
392,94,384318,1,4,0:2:0:0:
339,84,384395,1,0,0:0:0:0:
291,107,384472,1,0,0:0:0:0:
257,148,384549,1,0,0:0:0:0:
232,195,384626,1,4,0:2:0:0:
180,209,384703,1,0,0:0:0:0:
128,195,384780,1,0,0:0:0:0:
94,153,384857,1,0,0:0:0:0:
99,99,384934,5,12,0:2:0:0:
153,106,385011,1,0,0:0:0:0:
180,153,385088,1,0,0:0:0:0:
164,203,385164,1,0,0:0:0:0:
120,233,385241,1,4,0:2:0:0:
79,267,385318,1,0,0:0:0:0:
71,320,385395,1,0,0:0:0:0:
98,367,385472,1,0,0:0:0:0:
152,375,385549,1,4,0:2:0:0:
203,354,385626,1,0,0:0:0:0:
217,301,385703,1,0,0:0:0:0:
195,252,385780,1,0,0:0:0:0:
147,235,385857,6,0,P|118:241|77:263,1,59.9999981689454,4|0,0:1|0:1,0:0:0:0:
282,356,386011,2,0,P|316:368|348:366,1,59.9999981689454
138,230,386164,6,0,P|109:236|68:258,1,59.9999981689454,0|0,0:0|0:1,0:0:0:0:
292,368,386318,1,4,0:2:0:0:
347,365,386395,1,0,0:0:0:0:
384,325,386472,1,0,0:0:0:0:
378,271,386549,1,0,0:0:0:0:
336,237,386626,1,0,0:0:0:0:
310,189,386703,1,0,0:0:0:0:
328,137,386780,6,0,P|362:114|385:107,1,59.9999981689454,12|0,0:2|0:0,0:0:0:0:
260,255,386934,2,0,P|221:256|196:245,1,59.9999981689454
325,126,387088,6,0,P|359:103|382:96,3,59.9999981689454,4|0|0|0,0:2|0:0|0:0|0:0,0:0:0:0:
255,268,387395,2,0,P|216:269|191:258,1,59.9999981689454,4|0,0:2|0:0,0:0:0:0:
400,192,387549,2,0,P|434:214|449:232,1,59.9999981689454,4|0,0:2|0:0,0:0:0:0:
205,89,387703,5,4,0:1:0:0:
246,53,387780,1,0,0:0:0:0:
300,49,387857,1,0,0:0:0:0:
345,80,387934,1,0,0:0:0:0:
353,133,388011,1,2,0:0:0:0:
327,180,388088,1,0,0:0:0:0:
286,213,388164,1,0,0:0:0:0:
265,262,388241,1,0,0:0:0:0:
283,313,388318,1,2,0:0:0:0:
330,340,388395,1,0,0:0:0:0:
384,332,388472,1,0,0:0:0:0:
421,291,388549,1,0,0:0:0:0:
421,236,388626,5,10,0:0:0:0:
385,205,388703,1,0,0:0:0:0:
338,200,388780,1,0,0:0:0:0:
298,226,388857,1,0,0:0:0:0:
276,268,388934,1,2,0:0:0:0:
244,303,389011,1,0,0:0:0:0:
199,319,389088,1,0,0:0:0:0:
153,310,389164,1,0,0:0:0:0:
117,278,389241,1,2,0:0:0:0:
112,230,389318,1,0,0:0:0:0:
134,187,389395,1,0,0:0:0:0:
177,165,389472,1,0,0:0:0:0:
225,171,389549,5,2,0:0:0:0:
219,187,389626,1,0,0:0:0:0:
206,198,389703,1,0,0:0:0:0:
189,195,389780,1,0,0:0:0:0:
173,186,389857,1,2,0:0:0:0:
161,172,389934,1,0,0:0:0:0:
155,155,390011,1,0,0:0:0:0:
153,137,390088,1,0,0:0:0:0:
156,119,390164,1,2,0:0:0:0:
164,102,390241,1,0,0:0:0:0:
175,87,390318,1,0,0:0:0:0:
188,74,390395,1,0,0:0:0:0:
205,66,390472,6,0,P|250:69|274:82,1,59.9999981689454,10|0,0:0|0:0,0:0:0:0:
280,204,390626,1,4,0:2:0:0:
303,222,390703,1,0,0:2:0:0:
333,223,390780,1,0,0:2:0:0:
357,205,390857,1,0,0:2:0:0:
365,176,390934,1,0,0:2:0:0:
355,147,391011,1,0,0:2:0:0:
331,128,391088,2,0,P|303:118|273:119,1,59.9999981689454,4|0,0:1|0:0,0:0:0:0:
175,256,391241,2,0,P|213:262|253:250,1,59.9999981689454,4|0,0:2|0:0,0:0:0:0:
114,124,391395,5,0,0:0:0:0:
72,157,391472,1,0,0:0:0:0:
54,207,391549,1,0,0:0:0:0:
69,259,391626,1,0,0:0:0:0:
111,293,391703,1,2,0:0:0:0:
166,292,391780,1,0,0:0:0:0:
208,256,391857,1,0,0:0:0:0:
253,224,391934,1,0,0:0:0:0:
307,220,392011,1,2,0:0:0:0:
355,245,392088,1,0,0:0:0:0:
379,293,392164,1,0,0:0:0:0:
370,346,392241,1,0,0:0:0:0:
328,379,392318,5,10,0:0:0:0:
288,335,392395,1,0,0:0:0:0:
281,275,392472,1,0,0:0:0:0:
305,219,392549,1,0,0:0:0:0:
361,194,392626,1,2,0:0:0:0:
392,142,392703,1,0,0:0:0:0:
383,82,392780,1,0,0:0:0:0:
334,47,392857,1,0,0:0:0:0:
274,47,392934,1,2,0:0:0:0:
227,84,393011,1,0,0:0:0:0:
218,148,393088,1,0,0:0:0:0:
252,196,393164,1,0,0:0:0:0:
310,212,393241,5,8,0:0:0:0:
302,189,393318,1,8,0:0:0:0:
282,175,393395,1,8,0:0:0:0:
259,168,393472,1,8,0:0:0:0:
235,168,393549,1,8,0:0:0:0:
220,177,393626,1,8,0:0:0:0:
210,191,393703,1,8,0:0:0:0:
203,207,393780,1,8,0:0:0:0:
200,224,393857,1,8,0:0:0:0:
202,235,393934,1,8,0:0:0:0:
208,245,394011,1,8,0:0:0:0:
217,253,394088,1,8,0:0:0:0:
228,258,394164,5,0,0:0:0:0:
234,256,394241,1,0,0:0:0:0:
239,252,394318,1,0,0:0:0:0:
243,247,394395,1,0,0:0:0:0:
247,241,394472,1,0,0:0:0:0:
250,235,394549,1,0,0:0:0:0:
253,229,394626,1,0,0:0:0:0:
255,223,394703,1,0,0:0:0:0:
256,217,394780,1,0,0:0:0:0:
256,210,394857,1,0,0:0:0:0:
255,204,394934,1,0,0:0:0:0:
253,198,395011,1,0,0:0:0:0:
250,193,395088,5,4,0:2:0:0:
197,167,395164,1,0,0:0:0:0:
138,177,395241,1,0,0:0:0:0:
94,217,395318,1,0,0:0:0:0:
81,275,395395,2,0,P|87:312|101:339,1,59.9999981689454,2|0,0:2|0:0,0:0:0:0:
276,281,395549,5,2,0:2:0:0:
322,241,395626,1,0,0:0:0:0:
331,181,395703,1,0,0:0:0:0:
301,129,395780,1,0,0:0:0:0:
245,108,395857,1,0,0:0:0:0:
190,129,395934,1,0,0:0:0:0:
161,181,396011,5,10,0:0:0:0:
213,211,396088,1,0,0:0:0:0:
270,193,396164,1,0,0:0:0:0:
293,137,396241,1,0,0:0:0:0:
314,80,396318,1,2,0:0:0:0:
363,45,396395,1,0,0:0:0:0:
423,48,396472,1,0,0:0:0:0:
464,92,396549,1,0,0:0:0:0:
461,151,396626,1,2,0:0:0:0:
416,190,396703,1,0,0:0:0:0:
356,192,396780,1,0,0:0:0:0:
311,152,396857,1,0,0:0:0:0:
261,119,396934,1,2,0:0:0:0:
202,122,397011,1,0,0:0:0:0:
159,163,397088,1,0,0:0:0:0:
144,220,397164,1,0,0:0:0:0:
170,274,397241,1,2,0:0:0:0:
227,293,397318,1,0,0:0:0:0:
284,271,397395,1,0,0:0:0:0:
320,222,397472,1,0,0:0:0:0:
317,162,397549,1,2,0:0:0:0:
273,122,397626,1,0,0:0:0:0:
251,66,397703,1,0,0:0:0:0:
282,14,397780,1,0,0:0:0:0:
342,4,397857,1,2,0:0:0:0:
388,42,397934,1,0,0:0:0:0:
392,101,398011,1,0,0:0:0:0:
347,140,398088,1,0,0:0:0:0:
288,140,398164,1,2,0:0:0:0:
243,100,398241,1,0,0:0:0:0:
185,84,398318,1,0,0:0:0:0:
127,97,398395,1,0,0:0:0:0:
89,142,398472,1,2,0:0:0:0:
70,198,398549,1,0,0:0:0:0:
76,257,398626,1,0,0:0:0:0:
110,306,398703,1,0,0:0:0:0:
165,330,398780,5,6,0:0:0:0:
207,305,398857,1,0,0:0:0:0:
230,262,398934,1,0,0:0:0:0:
229,213,399011,1,0,0:0:0:0:
203,173,399088,1,2,0:0:0:0:
178,132,399164,1,0,0:0:0:0:
170,84,399241,1,0,0:0:0:0:
185,38,399318,1,0,0:0:0:0:
226,12,399395,1,2,0:0:0:0:
275,10,399472,1,0,0:0:0:0:
316,35,399549,1,0,0:0:0:0:
331,80,399626,1,0,0:0:0:0:
323,127,399703,5,10,0:0:0:0:
285,143,399780,1,0,0:0:0:0:
244,135,399857,1,0,0:0:0:0:
214,106,399934,1,0,0:0:0:0:
181,81,400011,1,2,0:0:0:0:
140,72,400088,1,0,0:0:0:0:
100,78,400164,1,0,0:0:0:0:
66,101,400241,1,0,0:0:0:0:
48,138,400318,1,2,0:2:0:0:
42,179,400395,1,2,0:2:0:0:
54,219,400472,1,2,0:2:0:0:
90,241,400549,1,2,0:2:0:0:
131,246,400626,5,4,0:1:0:0:
165,204,400703,1,0,0:0:0:0:
174,150,400780,1,0,0:0:0:0:
150,101,400857,1,0,0:0:0:0:
97,87,400934,1,0,0:0:0:0:
45,103,401011,1,0,0:0:0:0:
10,144,401088,5,12,0:1:0:0:
54,174,401164,1,0,0:0:0:0:
107,171,401241,1,0,0:0:0:0:
147,135,401318,1,0,0:0:0:0:
169,85,401395,1,0,0:0:0:0:
215,58,401472,1,0,0:0:0:0:
268,53,401549,5,4,0:1:0:0:
268,107,401626,1,0,0:0:0:0:
229,144,401703,1,0,0:0:0:0:
174,143,401780,1,0,0:0:0:0:
137,103,401857,1,0,0:0:0:0:
133,49,401934,1,0,0:0:0:0:
171,10,402011,5,12,0:1:0:0:
216,38,402088,1,0,0:0:0:0:
230,89,402164,1,0,0:0:0:0:
219,142,402241,1,0,0:0:0:0:
182,181,402318,2,0,P|153:190|123:191,1,59.9999981689454
306,58,402472,5,6,0:0:0:0:
359,61,402549,1,0,0:0:0:0:
404,89,402626,1,0,0:0:0:0:
428,137,402703,1,0,0:0:0:0:
423,190,402780,1,2,0:0:0:0:
386,229,402857,1,0,0:0:0:0:
341,259,402934,1,0,0:0:0:0:
327,311,403011,1,0,0:0:0:0:
346,361,403088,1,2,0:0:0:0:
395,381,403164,1,0,0:0:0:0:
449,378,403241,1,0,0:0:0:0:
488,341,403318,1,0,0:0:0:0:
482,287,403395,5,10,0:0:0:0:
432,266,403472,1,0,0:0:0:0:
382,286,403549,1,0,0:0:0:0:
347,327,403626,1,0,0:0:0:0:
306,362,403703,1,2,0:0:0:0:
251,359,403780,1,0,0:0:0:0:
209,324,403857,1,0,0:0:0:0:
205,270,403934,1,0,0:0:0:0:
238,227,404011,1,2,0:0:0:0:
290,212,404088,1,0,0:0:0:0:
338,233,404164,1,0,0:0:0:0:
366,278,404241,1,0,0:0:0:0:
350,329,404318,6,0,P|313:357|289:363,1,59.9999981689454,10|0,0:2|0:0,0:0:0:0:
361,162,404472,2,0,P|407:168|427:182,1,59.9999981689454,2|0,0:2|0:0,0:0:0:0:
375,155,404626,2,0,P|421:161|441:175,1,59.9999981689454,2|0,0:2|0:0,0:0:0:0:
237,234,404780,6,0,P|200:262|176:268,1,59.9999981689454,10|0,0:2|0:0,0:0:0:0:
248,67,404934,2,0,P|294:73|314:87,1,59.9999981689454,2|0,0:2|0:0,0:0:0:0:
262,60,405088,2,0,P|308:66|328:80,1,59.9999981689454,2|0,0:2|0:0,0:0:0:0:
54,180,405241,5,8,0:0:0:0:
106,140,405318,1,8,0:0:0:0:
171,144,405395,1,8,0:0:0:0:
220,188,405472,1,8,0:0:0:0:
244,249,405549,5,8,0:0:0:0:
283,276,405626,1,8,0:0:0:0:
318,271,405703,1,8,0:0:0:0:
332,251,405780,1,8,0:0:0:0:
331,232,405857,1,8,0:0:0:0:
320,217,405934,1,8,0:0:0:0:
303,210,406011,1,8,0:0:0:0:
286,217,406088,1,8,0:0:0:0:
277,232,406164,5,4,0:2:0:0:
298,267,406241,1,0,0:0:0:0:
339,274,406318,1,0,0:0:0:0:
376,255,406395,1,0,0:0:0:0:
391,215,406472,1,2,0:0:0:0:
386,173,406549,1,0,0:0:0:0:
352,147,406626,1,0,0:0:0:0:
313,129,406703,1,0,0:0:0:0:
297,89,406780,1,2,0:0:0:0:
304,47,406857,1,0,0:0:0:0:
337,21,406934,1,0,0:0:0:0:
378,12,407011,1,0,0:0:0:0:
416,28,407088,5,10,0:0:0:0:
383,70,407164,1,0,0:0:0:0:
332,89,407241,1,0,0:0:0:0:
277,87,407318,1,0,0:0:0:0:
238,49,407395,1,2,0:0:0:0:
195,15,407472,1,0,0:0:0:0:
141,12,407549,1,0,0:0:0:0:
98,45,407626,1,0,0:0:0:0:
91,98,407703,1,2,0:0:0:0:
119,143,407780,1,0,0:0:0:0:
171,155,407857,1,0,0:0:0:0:
219,131,407934,1,0,0:0:0:0:
238,80,408011,5,0,0:0:0:0:
220,81,408088,1,0,0:0:0:0:
205,91,408164,1,0,0:0:0:0:
194,105,408241,1,0,0:0:0:0:
186,121,408318,1,0,0:0:0:0:
181,138,408395,1,0,0:0:0:0:
183,155,408472,2,0,P|208:191|229:199,1,59.9999981689454,2|0,0:0|0:0,0:0:0:0:
372,107,408626,2,0,P|335:118|310:133,3,59.9999981689454,2|0|0|0,0:0|0:0|0:0|0:0,0:0:0:0:
429,274,408934,5,12,0:1:0:0:
391,235,409011,1,0,0:0:0:0:
337,229,409088,1,0,0:0:0:0:
292,257,409164,1,0,0:0:0:0:
277,309,409241,6,0,P|287:351|299:365,3,59.9999981689454,2|2|2|2,0:2|0:2|0:2|0:2,0:0:0:0:
396,219,409549,2,0,P|386:177|374:163,3,59.9999981689454,2|2|2|2,0:2|0:2|0:2|0:2,0:0:0:0:
239,53,409857,5,4,0:1:0:0:
186,39,409934,1,0,0:0:0:0:
136,59,410011,1,0,0:0:0:0:
113,108,410088,1,0,0:0:0:0:
129,158,410164,1,2,0:0:0:0:
164,198,410241,1,0,0:0:0:0:
194,242,410318,1,0,0:0:0:0:
195,296,410395,1,0,0:0:0:0:
165,340,410472,1,2,0:0:0:0:
112,351,410549,1,0,0:0:0:0:
65,323,410626,1,0,0:0:0:0:
47,271,410703,1,0,0:0:0:0:
71,222,410780,5,10,0:0:0:0:
85,232,410857,1,0,0:0:0:0:
94,247,410934,1,0,0:0:0:0:
96,264,411011,1,0,0:0:0:0:
93,281,411088,1,2,0:0:0:0:
83,295,411164,1,0,0:0:0:0:
68,306,411241,1,0,0:0:0:0:
50,311,411318,1,0,0:0:0:0:
32,308,411395,1,2,0:0:0:0:
16,299,411472,1,0,0:0:0:0:
7,282,411549,1,0,0:0:0:0:
7,263,411626,1,0,0:0:0:0:
12,245,411703,5,2,0:0:0:0:
17,247,411780,1,0,0:0:0:0:
21,250,411857,1,0,0:0:0:0:
25,254,411934,1,0,0:0:0:0:
28,259,412011,1,2,0:0:0:0:
30,264,412088,1,0,0:0:0:0:
31,269,412164,1,0,0:0:0:0:
31,274,412241,1,0,0:0:0:0:
29,279,412318,5,2,0:0:0:0:
59,259,412395,1,0,0:0:0:0:
94,262,412472,1,0,0:0:0:0:
122,284,412549,1,0,0:0:0:0:
124,319,412626,5,10,0:0:0:0:
87,278,412703,1,0,0:0:0:0:
95,224,412780,1,0,0:0:0:0:
134,187,412857,1,0,0:0:0:0:
186,175,412934,1,2,0:0:0:0:
222,135,413011,1,0,0:0:0:0:
227,81,413088,1,0,0:0:0:0:
202,33,413164,1,0,0:0:0:0:
151,12,413241,1,2,0:0:0:0:
99,29,413318,1,0,0:0:0:0:
72,75,413395,1,0,0:0:0:0:
83,127,413472,1,0,0:0:0:0:
120,165,413549,5,4,0:2:0:0:
173,169,413626,1,0,0:0:0:0:
216,137,413703,1,0,0:0:0:0:
243,90,413780,1,0,0:0:0:0:
287,59,413857,1,4,0:2:0:0:
340,55,413934,1,0,0:0:0:0:
384,85,414011,1,0,0:0:0:0:
406,134,414088,1,0,0:0:0:0:
392,185,414164,1,4,0:2:0:0:
346,214,414241,1,0,0:0:0:0:
292,221,414318,1,0,0:0:0:0:
248,188,414395,1,0,0:0:0:0:
235,135,414472,5,12,0:2:0:0:
294,145,414549,1,0,0:0:0:0:
318,199,414626,1,0,0:0:0:0:
299,256,414703,1,0,0:0:0:0:
243,279,414780,1,4,0:2:0:0:
186,260,414857,1,0,0:0:0:0:
161,205,414934,1,0,0:0:0:0:
172,146,415011,1,0,0:0:0:0:
210,99,415088,1,4,0:2:0:0:
200,40,415164,1,0,0:0:0:0:
151,5,415241,1,0,0:0:0:0:
91,8,415318,1,0,0:0:0:0:
44,46,415395,6,0,P|35:86|30:116,1,59.9999981689454,4|0,0:2|0:0,0:0:0:0:
169,205,415549,2,0,P|163:175|156:146,1,59.9999981689454
36,44,415703,2,0,P|27:84|22:114,1,59.9999981689454,4|0,0:2|0:0,0:0:0:0:
227,141,415857,2,0,P|221:111|214:82,3,59.9999981689454,0|0|4|0,0:0|0:0|0:2|0:0,0:0:0:0:
29,42,416164,2,0,P|20:82|15:112,1,59.9999981689454
8,262,416318,6,0,P|48:271|78:276,1,59.9999981689454,12|0,0:2|0:0,0:0:0:0:
167,137,416472,2,0,P|137:142|108:149,1,59.9999981689454
77,347,416626,2,0,P|117:356|147:361,3,59.9999981689454,4|0|0|0,0:2|0:0|0:0|0:0,0:0:0:0:
206,203,416934,2,0,P|176:208|147:215,3,59.9999981689454,4|0|0|0,0:2|0:0|0:0|0:0,0:0:0:0:
218,298,417241,5,4,0:1:0:0:
260,331,417318,1,0,0:0:0:0:
313,334,417395,1,0,0:0:0:0:
360,309,417472,1,0,0:0:0:0:
377,257,417549,1,2,0:0:0:0:
361,205,417626,1,0,0:0:0:0:
312,180,417703,1,0,0:0:0:0:
280,136,417780,1,0,0:0:0:0:
274,82,417857,1,2,0:0:0:0:
297,33,417934,1,0,0:0:0:0:
347,13,418011,1,0,0:0:0:0:
400,18,418088,1,0,0:0:0:0:
441,51,418164,5,10,0:0:0:0:
412,73,418241,1,0,0:0:0:0:
376,80,418318,1,0,0:0:0:0:
341,68,418395,1,0,0:0:0:0:
315,42,418472,1,2,0:0:0:0:
283,23,418549,1,0,0:0:0:0:
247,18,418626,1,0,0:0:0:0:
212,26,418703,1,0,0:0:0:0:
189,53,418780,1,2,0:0:0:0:
185,82,418857,1,0,0:0:0:0:
194,104,418934,1,0,0:0:0:0:
209,113,419011,1,0,0:0:0:0:
220,113,419088,5,2,0:0:0:0:
249,113,419164,1,0,0:0:0:0:
274,97,419241,1,0,0:0:0:0:
296,76,419318,1,0,0:0:0:0:
324,65,419395,1,2,0:0:0:0:
354,65,419472,1,0,0:0:0:0:
381,77,419549,1,0,0:0:0:0:
401,98,419626,1,0,0:0:0:0:
410,126,419703,1,2,0:0:0:0:
410,156,419780,1,0,0:0:0:0:
393,180,419857,1,0,0:0:0:0:
367,195,419934,1,0,0:0:0:0:
336,195,420011,6,0,P|309:169|301:143,1,59.9999981689454,10|0,0:0|0:0,0:0:0:0:
450,259,420164,1,4,0:1:0:0:
423,306,420241,1,0,0:0:0:0:
370,317,420318,1,0,0:0:0:0:
319,297,420395,1,0,0:0:0:0:
283,256,420472,1,0,0:0:0:0:
231,238,420549,1,0,0:0:0:0:
177,246,420626,2,0,P|156:285|151:308,1,59.9999981689454,4|0,0:2|0:0,0:0:0:0:
301,137,420780,2,0,P|287:104|268:77,1,59.9999981689454,4|0,0:2|0:0,0:0:0:0:
141,15,420934,5,4,0:1:0:0:
99,23,421011,1,0,0:0:0:0:
74,57,421088,1,0,0:0:0:0:
83,97,421164,1,0,0:0:0:0:
118,119,421241,5,2,0:0:0:0:
136,163,421318,1,0,0:0:0:0:
108,202,421395,1,0,0:0:0:0:
59,200,421472,1,0,0:0:0:0:
33,159,421549,1,0,0:0:0:0:
54,115,421626,1,0,0:0:0:0:
101,106,421703,1,0,0:0:0:0:
136,138,421780,1,0,0:0:0:0:
129,185,421857,5,10,0:0:0:0:
87,141,421934,1,0,0:0:0:0:
84,80,422011,1,0,0:0:0:0:
125,36,422088,1,0,0:0:0:0:
184,33,422164,1,2,0:0:0:0:
231,70,422241,1,0,0:0:0:0:
240,129,422318,1,0,0:0:0:0:
280,173,422395,1,0,0:0:0:0:
339,179,422472,1,2,0:0:0:0:
393,153,422549,1,0,0:0:0:0:
414,96,422626,1,0,0:0:0:0:
402,37,422703,1,0,0:0:0:0:
351,4,422780,5,8,0:0:0:0:
349,27,422857,1,8,0:0:0:0:
347,50,422934,1,8,0:0:0:0:
345,73,423011,1,8,0:0:0:0:
328,92,423088,5,8,0:0:0:0:
330,109,423164,1,8,0:0:0:0:
331,127,423242,1,8,0:0:0:0:
334,144,423319,1,8,0:0:0:0:
343,161,423395,5,8,0:0:0:0:
341,174,423471,1,8,0:0:0:0:
340,189,423549,1,8,0:0:0:0:
338,202,423626,1,8,0:0:0:0:
314,222,423703,5,8,0:0:0:0:
304,229,423780,1,8,0:0:0:0:
292,228,423857,1,8,0:0:0:0:
281,222,423934,1,8,0:0:0:0:
273,212,424011,1,8,0:0:0:0:
268,200,424088,1,8,0:0:0:0:
266,188,424164,1,8,0:0:0:0:
269,176,424241,1,8,0:0:0:0:
276,166,424318,1,8,0:0:0:0:
287,161,424395,1,8,0:0:0:0:
298,159,424472,1,8,0:0:0:0:
309,161,424549,1,8,0:0:0:0:
319,167,424626,5,4,0:1:0:0:
275,207,424703,1,0,0:0:0:0:
214,206,424780,1,0,0:0:0:0:
175,160,424857,1,0,0:0:0:0:
178,100,424934,1,2,0:0:0:0:
165,41,425011,1,0,0:0:0:0:
110,15,425088,1,0,0:0:0:0:
51,23,425164,1,0,0:0:0:0:
23,76,425241,1,2,0:0:0:0:
37,134,425318,1,0,0:0:0:0:
87,166,425395,1,0,0:0:0:0:
146,162,425472,1,0,0:0:0:0:
189,120,425549,5,10,0:0:0:0:
131,104,425626,1,0,0:0:0:0:
85,142,425703,1,0,0:0:0:0:
78,201,425780,1,0,0:0:0:0:
112,249,425857,1,2,0:0:0:0:
170,262,425934,1,0,0:0:0:0:
226,241,426011,1,0,0:0:0:0:
266,196,426088,1,0,0:0:0:0:
319,170,426164,1,2,0:0:0:0:
378,179,426241,1,0,0:0:0:0:
426,214,426318,1,0,0:0:0:0:
443,271,426395,1,0,0:0:0:0:
413,323,426472,5,2,0:2:0:0:
353,330,426549,1,0,0:0:0:0:
307,290,426626,1,2,0:2:0:0:
297,230,426703,1,0,0:0:0:0:
319,174,426780,1,2,0:2:0:0:
361,131,426857,1,0,0:0:0:0:
374,72,426934,1,2,0:2:0:0:
337,24,427011,1,0,0:0:0:0:
278,10,427088,1,2,0:2:0:0:
229,43,427164,1,0,0:0:0:0:
217,101,427241,1,2,0:2:0:0:
242,155,427318,1,0,0:0:0:0:
298,176,427395,5,4,0:1:0:0:
295,109,427472,1,0,0:0:0:0:
240,71,427549,1,0,0:0:0:0:
175,84,427626,1,0,0:0:0:0:
143,141,427703,1,2,0:0:0:0:
158,205,427780,1,0,0:0:0:0:
209,246,427857,1,0,0:0:0:0:
219,311,427934,1,0,0:0:0:0:
172,357,428011,1,2,0:0:0:0:
105,358,428088,1,0,0:0:0:0:
60,310,428164,1,0,0:0:0:0:
64,244,428241,1,0,0:0:0:0:
116,204,428318,5,4,0:2:0:0:
163,211,428395,1,0,0:0:0:0:
196,246,428472,1,0,0:0:0:0:
212,290,428549,1,0,0:0:0:0:
234,333,428626,1,2,0:0:0:0:
278,353,428703,1,0,0:0:0:0:
325,344,428780,1,0,0:0:0:0:
360,310,428857,1,0,0:0:0:0:
366,262,428934,1,2,0:0:0:0:
344,218,429011,1,0,0:0:0:0:
300,195,429088,1,0,0:0:0:0:
275,154,429164,1,0,0:0:0:0:
289,107,429241,5,10,0:0:0:0:
337,102,429318,1,0,0:0:0:0:
367,139,429395,1,0,0:0:0:0:
354,186,429472,1,0,0:0:0:0:
306,197,429549,1,2,0:0:0:0:
265,170,429626,1,0,0:0:0:0:
239,128,429703,1,0,0:0:0:0:
195,105,429780,1,0,0:0:0:0:
146,113,429857,1,2,0:2:0:0:
118,153,429934,1,2,0:2:0:0:
124,201,430011,1,2,0:2:0:0:
160,233,430088,1,2,0:2:0:0:
207,236,430164,5,4,0:1:0:0:
244,196,430241,1,0,0:0:0:0:
243,141,430318,1,0,0:0:0:0:
208,99,430395,1,0,0:0:0:0:
153,99,430472,1,0,0:0:0:0:
112,134,430549,1,0,0:0:0:0:
106,187,430626,5,12,0:1:0:0:
156,206,430703,1,0,0:0:0:0:
206,187,430780,1,0,0:0:0:0:
236,142,430857,1,0,0:0:0:0:
282,113,430934,1,0,0:0:0:0:
335,110,431011,1,0,0:0:0:0:
376,144,431088,5,4,0:1:0:0:
338,182,431164,1,0,0:0:0:0:
284,171,431241,1,0,0:0:0:0:
257,124,431318,1,0,0:0:0:0:
264,70,431395,1,0,0:0:0:0:
313,48,431472,1,0,0:0:0:0:
364,64,431549,5,12,0:1:0:0:
335,110,431626,1,0,0:0:0:0:
282,124,431703,1,0,0:0:0:0:
234,97,431780,1,0,0:0:0:0:
197,57,431857,1,0,0:0:0:0:
144,43,431934,1,0,0:0:0:0:
92,58,432011,5,6,0:0:0:0:
68,106,432088,1,0,0:0:0:0:
78,158,432164,1,0,0:0:0:0:
115,197,432241,1,0,0:0:0:0:
168,205,432318,1,2,0:0:0:0:
216,180,432395,1,0,0:0:0:0:
267,164,432472,1,0,0:0:0:0:
319,176,432549,1,0,0:0:0:0:
352,218,432626,1,2,0:0:0:0:
358,271,432703,1,0,0:0:0:0:
329,316,432780,1,0,0:0:0:0:
277,332,432857,1,0,0:0:0:0:
227,309,432934,5,10,0:0:0:0:
271,277,433011,1,0,0:0:0:0:
324,272,433088,1,0,0:0:0:0:
368,301,433164,1,0,0:0:0:0:
411,333,433241,1,2,0:0:0:0:
465,333,433318,1,0,0:0:0:0:
498,290,433395,1,0,0:0:0:0:
500,236,433472,1,0,0:0:0:0:
452,209,433549,1,2,0:0:0:0:
400,226,433626,1,0,0:0:0:0:
371,271,433703,1,0,0:0:0:0:
380,324,433780,1,0,0:0:0:0:
425,350,433857,6,0,P|434:313|431:287,1,59.9999981689454,10|0,0:2|0:0,0:0:0:0:
333,165,434011,2,0,P|318:204|314:228,1,59.9999981689454,2|0,0:2|0:0,0:0:0:0:
326,160,434164,2,0,P|311:199|307:223,1,59.9999981689454,2|0,0:2|0:0,0:0:0:0:
256,360,434318,6,0,P|265:323|262:297,1,59.9999981689454,10|0,0:2|0:0,0:0:0:0:
164,175,434472,2,0,P|149:214|145:238,1,59.9999981689454,2|0,0:2|0:0,0:0:0:0:
157,170,434626,2,0,P|142:209|138:233,1,59.9999981689454,2|0,0:2|0:0,0:0:0:0:
14,266,434780,5,8,0:0:0:0:
58,322,434857,1,8,0:0:0:0:
129,329,434934,1,8,0:0:0:0:
193,296,435011,1,8,0:0:0:0:
216,227,435088,5,8,0:0:0:0:
183,170,435164,1,8,0:0:0:0:
141,167,435241,1,8,0:0:0:0:
122,190,435318,1,8,0:0:0:0:
128,206,435395,5,8,0:0:0:0:
145,210,435472,1,8,0:0:0:0:
161,204,435549,1,8,0:0:0:0:
170,188,435626,1,8,0:0:0:0:
166,170,435703,5,4,0:2:0:0:
113,175,435779,1,0,0:0:0:0:
76,213,435856,1,0,0:0:0:0:
72,266,435933,1,0,0:0:0:0:
102,309,436010,1,2,0:0:0:0:
154,323,436087,1,0,0:0:0:0:
202,300,436164,1,0,0:0:0:0:
227,253,436241,1,0,0:0:0:0:
263,215,436317,1,2,0:0:0:0:
316,211,436394,1,0,0:0:0:0:
358,242,436471,1,0,0:0:0:0:
369,294,436548,1,0,0:0:0:0:
343,340,436626,5,10,0:0:0:0:
314,293,436703,1,0,0:0:0:0:
315,238,436780,1,0,0:0:0:0:
350,197,436857,1,0,0:0:0:0:
396,169,436934,1,2,0:0:0:0:
422,121,437011,1,0,0:0:0:0:
416,67,437088,1,0,0:0:0:0:
372,36,437164,1,0,0:0:0:0:
318,38,437241,1,2,0:0:0:0:
276,72,437318,1,0,0:0:0:0:
272,125,437395,1,0,0:0:0:0:
302,171,437472,1,0,0:0:0:0:
353,187,437549,5,2,0:0:0:0:
346,163,437626,1,0,0:0:0:0:
327,147,437703,1,0,0:0:0:0:
303,141,437780,1,0,0:0:0:0:
280,150,437857,1,0,0:0:0:0:
265,169,437934,1,0,0:0:0:0:
266,192,438011,1,0,0:0:0:0:
277,212,438088,1,0,0:0:0:0:
296,226,438164,1,2,0:0:0:0:
309,245,438241,1,0,0:0:0:0:
313,268,438318,1,0,0:0:0:0:
305,290,438395,1,0,0:0:0:0:
286,305,438472,6,0,L|224:299,1,59.9999981689454,10|0,0:0|0:0,0:0:0:0:
279,313,438626,2,0,L|217:307,1,59.9999981689454,2|0,0:2|0:0,0:0:0:0:
98,223,438780,6,0,L|160:217,1,59.9999981689454,2|0,0:2|0:0,0:0:0:0:
105,231,438934,2,0,L|167:225,1,59.9999981689454,2|0,0:2|0:0,0:0:0:0:
309,143,439088,6,0,L|247:137,1,59.9999981689454,2|0,0:2|0:0,0:0:0:0:
302,151,439242,2,0,L|240:145,1,59.9999981689454,2|0,0:2|0:0,0:0:0:0:
136,94,439395,5,4,0:1:0:0:
181,55,439472,1,0,0:0:0:0:
240,49,439549,1,0,0:0:0:0:
291,80,439626,1,0,0:0:0:0:
312,136,439703,1,2,0:0:0:0:
293,193,439780,1,0,0:0:0:0:
243,229,439857,1,0,0:0:0:0:
218,283,439934,1,0,0:0:0:0:
232,341,440011,1,2,0:0:0:0:
281,375,440088,1,0,0:0:0:0:
339,369,440164,1,0,0:0:0:0:
386,332,440241,1,0,0:0:0:0:
393,272,440318,5,10,0:0:0:0:
339,245,440395,1,0,0:0:0:0:
280,259,440472,1,0,0:0:0:0:
248,310,440549,1,0,0:0:0:0:
196,340,440626,1,2,0:0:0:0:
136,329,440703,1,0,0:0:0:0:
104,277,440780,1,0,0:0:0:0:
111,217,440857,1,0,0:0:0:0:
158,180,440934,1,2,0:0:0:0:
185,126,441011,1,0,0:0:0:0:
176,66,441088,1,0,0:0:0:0:
132,26,441164,1,0,0:0:0:0:
71,26,441241,5,2,0:0:0:0:
25,65,441318,1,0,0:0:0:0:
16,124,441395,1,0,0:0:0:0:
45,176,441472,1,0,0:0:0:0:
100,199,441549,1,2,0:0:0:0:
156,178,441626,1,0,0:0:0:0:
201,138,441703,1,0,0:0:0:0:
259,122,441780,1,0,0:0:0:0:
317,135,441857,1,2,0:0:0:0:
353,182,441934,1,0,0:0:0:0:
349,241,442011,1,0,0:0:0:0:
311,288,442088,1,0,0:0:0:0:
251,292,442164,5,8,0:0:0:0:
235,273,442241,1,8,0:0:0:0:
231,249,442318,1,8,0:0:0:0:
237,225,442395,1,8,0:0:0:0:
256,211,442472,6,0,P|279:222|291:240,3,37.5000014305115,8|8|8|8,0:0|0:0|0:0|0:0,0:0:0:0:
299,141,442780,2,0,P|312:127|329:121,3,37.5000014305115,8|8|8|8,0:0|0:0|0:0|0:0,0:0:0:0:
349,204,443088,5,4,0:2:0:0:
390,209,443164,1,0,0:0:0:0:
419,178,443241,1,0,0:0:0:0:
419,135,443318,1,0,0:0:0:0:
392,102,443395,1,2,0:0:0:0:
350,93,443472,1,0,0:0:0:0:
309,104,443549,1,0,0:0:0:0:
280,135,443626,1,0,0:0:0:0:
263,173,443703,1,2,0:0:0:0:
232,201,443780,1,0,0:0:0:0:
194,219,443857,1,0,0:0:0:0:
152,221,443934,1,0,0:0:0:0:
113,203,444011,5,10,0:0:0:0:
136,168,444088,1,0,0:0:0:0:
176,160,444164,1,0,0:0:0:0:
210,183,444241,1,0,0:0:0:0:
229,220,444318,1,2,0:0:0:0:
242,259,444395,1,0,0:0:0:0:
268,291,444472,1,0,0:0:0:0:
307,305,444549,1,0,0:0:0:0:
349,305,444626,1,2,0:0:0:0:
383,281,444703,1,0,0:0:0:0:
397,241,444780,1,0,0:0:0:0:
393,199,444857,1,0,0:0:0:0:
359,173,444934,6,0,L|292:166,1,59.9999981689454,4|0,0:1|0:0,0:0:0:0:
431,342,445088,2,0,L|492:336,1,59.9999981689454,2|0,0:2|0:0,0:0:0:0:
357,164,445241,2,0,L|290:157,1,59.9999981689454,2|0,0:2|0:0,0:0:0:0:
444,325,445395,5,10,0:2:0:0:
476,274,445472,1,0,0:0:0:0:
456,217,445549,1,2,0:2:0:0:
404,186,445626,1,0,0:0:0:0:
360,144,445703,1,0,0:0:0:0:
357,84,445780,1,0,0:0:0:0:
400,42,445857,5,4,0:1:0:0:
418,99,445934,1,0,0:0:0:0:
388,151,446011,1,0,0:0:0:0:
328,159,446088,1,2,0:1:0:0:
271,140,446164,2,0,P|255:100|257:74,1,59.9999981689454
505,82,446318,5,10,0:2:0:0:
496,135,446395,1,0,0:0:0:0:
452,167,446472,1,0,0:0:0:0:
398,162,446549,1,0,0:0:0:0:
362,121,446626,1,2,0:2:0:0:
309,107,446703,1,0,0:0:0:0:
263,136,446780,5,6,0:0:0:0:
298,176,446857,1,0,0:0:0:0:
351,180,446934,1,0,0:0:0:0:
389,141,447011,1,0,0:0:0:0:
389,86,447088,1,2,0:0:0:0:
350,49,447164,1,0,0:0:0:0:
295,50,447241,1,0,0:0:0:0:
252,84,447318,1,0,0:0:0:0:
227,132,447395,1,2,0:0:0:0:
180,159,447472,1,0,0:0:0:0:
126,154,447549,1,0,0:0:0:0:
87,116,447626,1,0,0:0:0:0:
90,62,447703,5,10,0:0:0:0:
130,97,447780,1,0,0:0:0:0:
125,150,447857,1,0,0:0:0:0:
92,193,447934,1,0,0:0:0:0:
49,226,448011,1,2,0:0:0:0:
40,279,448088,1,0,0:0:0:0:
60,328,448164,1,0,0:0:0:0:
111,345,448241,1,0,0:0:0:0:
159,320,448318,1,2,0:0:0:0:
191,276,448395,1,0,0:0:0:0:
241,257,448472,1,0,0:0:0:0:
293,271,448549,1,0,0:0:0:0:
323,315,448626,6,0,P|323:342|315:379,1,59.9999981689454,10|0,0:2|0:0,0:0:0:0:
231,241,448780,2,0,P|231:214|239:177,1,59.9999981689454,2|0,0:2|0:0,0:0:0:0:
224,233,448934,2,0,P|224:206|232:169,1,59.9999981689454,2|0,0:2|0:0,0:0:0:0:
342,120,449088,6,0,P|350:145|354:183,1,59.9999981689454,10|0,0:2|0:0,0:0:0:0:
246,79,449242,2,0,P|255:53|275:21,1,59.9999981689454,2|0,0:2|0:0,0:0:0:0:
242,68,449396,2,0,P|251:42|271:10,1,59.9999981689454,2|0,0:2|0:0,0:0:0:0:
417,40,449549,5,8,0:0:0:0:
458,91,449626,1,8,0:0:0:0:
461,156,449703,1,8,0:0:0:0:
432,215,449780,1,8,0:0:0:0:
372,244,449857,1,8,0:0:0:0:
348,299,449934,1,8,0:0:0:0:
359,351,450011,1,8,0:0:0:0:
401,373,450088,1,8,0:0:0:0:
437,353,450164,1,8,0:0:0:0:
436,316,450241,1,8,0:0:0:0:
410,299,450318,1,8,0:0:0:0:
386,305,450395,1,8,0:0:0:0:
378,321,450472,5,4,0:2:0:0:
425,346,450549,1,0,0:0:0:0:
471,318,450626,1,0,0:0:0:0:
479,264,450703,1,0,0:0:0:0:
455,215,450780,1,2,0:0:0:0:
406,190,450857,1,0,0:0:0:0:
371,148,450934,1,0,0:0:0:0:
361,94,451011,1,0,0:0:0:0:
383,44,451088,1,2,0:0:0:0:
433,25,451164,1,0,0:0:0:0:
481,48,451241,1,0,0:0:0:0:
503,97,451318,1,0,0:0:0:0:
486,148,451395,5,10,0:0:0:0:
446,111,451472,1,0,0:0:0:0:
392,113,451549,1,0,0:0:0:0:
363,158,451626,1,0,0:0:0:0:
350,210,451703,1,2,0:0:0:0:
316,252,451780,1,0,0:0:0:0:
265,269,451857,1,0,0:0:0:0:
213,253,451934,1,0,0:0:0:0:
190,203,452011,1,2,0:0:0:0:
208,152,452088,1,0,0:0:0:0:
253,123,452164,1,0,0:0:0:0:
303,143,452241,1,0,0:0:0:0:
315,195,452318,5,2,0:0:0:0:
296,194,452395,1,0,0:0:0:0:
282,181,452472,1,0,0:0:0:0:
273,165,452549,1,0,0:0:0:0:
271,147,452626,1,0,0:0:0:0:
275,129,452703,1,0,0:0:0:0:
280,111,452780,2,0,P|319:95|343:95,1,59.9999981689454,2|0,0:2|0:0,0:0:0:0:
441,205,452934,2,0,P|405:192|385:172,3,59.9999981689454,2|0|0|0,0:0|0:0|0:0|0:0,0:0:0:0:
296,21,453241,5,10,0:0:0:0:
242,12,453318,1,0,0:0:0:0:
197,43,453395,1,0,0:0:0:0:
191,96,453472,1,0,0:0:0:0:
207,147,453549,6,0,P|253:162|270:160,3,59.9999981689454,2|0|2|0,0:2|0:0|0:2|0:0,0:0:0:0:
160,234,453857,2,0,P|125:240|94:260,3,59.9999981689454,2|0|2|0,0:2|0:0|0:2|0:0,0:0:0:0:
216,335,454164,5,4,0:1:0:0:
261,363,454241,1,0,0:0:0:0:
314,356,454318,1,0,0:0:0:0:
342,309,454395,1,0,0:0:0:0:
328,256,454472,1,2,0:0:0:0:
283,225,454549,1,0,0:0:0:0:
253,180,454626,1,0,0:0:0:0:
254,125,454703,1,0,0:0:0:0:
287,82,454780,1,2,0:0:0:0:
340,75,454857,1,0,0:0:0:0:
391,89,454934,1,0,0:0:0:0:
415,137,455011,1,0,0:0:0:0:
411,190,455088,5,10,0:0:0:0:
382,144,455164,1,0,0:0:0:0:
334,119,455241,1,0,0:0:0:0:
280,123,455318,1,0,0:0:0:0:
236,155,455395,1,2,0:0:0:0:
216,205,455472,1,0,0:0:0:0:
173,238,455549,1,0,0:0:0:0:
121,254,455626,1,0,0:0:0:0:
71,232,455703,1,2,0:0:0:0:
51,181,455780,1,0,0:0:0:0:
65,128,455857,1,0,0:0:0:0:
113,104,455934,1,0,0:0:0:0:
165,117,456011,5,2,0:0:0:0:
153,130,456088,1,0,0:0:0:0:
135,127,456164,1,0,0:0:0:0:
125,111,456241,1,0,0:0:0:0:
123,93,456318,1,2,0:0:0:0:
131,77,456395,1,0,0:0:0:0:
145,66,456472,1,0,0:0:0:0:
162,61,456549,1,0,0:0:0:0:
180,61,456626,5,2,0:0:0:0:
206,100,456703,1,0,0:0:0:0:
192,146,456780,1,0,0:0:0:0:
147,165,456857,1,0,0:0:0:0:
99,157,456934,5,10,0:0:0:0:
139,121,457011,1,0,0:0:0:0:
192,125,457088,1,0,0:0:0:0:
231,160,457164,1,0,0:0:0:0:
234,213,457241,5,2,0:0:0:0:
238,266,457317,1,0,0:0:0:0:
270,308,457394,1,0,0:0:0:0:
320,326,457471,1,0,0:0:0:0:
372,313,457548,1,2,0:0:0:0:
409,275,457625,1,0,0:0:0:0:
419,222,457702,1,0,0:0:0:0:
398,173,457779,1,0,0:0:0:0:
354,143,457857,5,4,0:2:0:0:
331,191,457934,1,0,0:0:0:0:
347,242,458011,1,0,0:0:0:0:
390,273,458088,1,0,0:0:0:0:
443,270,458164,1,4,0:2:0:0:
482,232,458241,1,0,0:0:0:0:
483,177,458318,1,0,0:0:0:0:
449,134,458395,1,0,0:0:0:0:
398,114,458472,1,4,0:2:0:0:
346,131,458549,1,0,0:0:0:0:
327,181,458626,1,0,0:0:0:0:
334,234,458703,1,0,0:0:0:0:
374,269,458780,5,10,0:2:0:0:
400,222,458857,1,0,0:0:0:0:
377,172,458934,1,2,0:2:0:0:
326,152,459011,1,0,0:0:0:0:
282,183,459088,1,4,0:2:0:0:
266,233,459164,1,0,0:0:0:0:
236,278,459241,1,0,0:0:0:0:
187,302,459318,1,0,0:0:0:0:
133,293,459395,1,4,0:2:0:0:
102,248,459472,1,0,0:0:0:0:
102,193,459549,1,0,0:0:0:0:
136,151,459626,1,0,0:0:0:0:
189,154,459703,6,0,P|204:184|207:221,1,59.9999981689454,4|0,0:2|0:0,0:0:0:0:
47,123,459857,2,0,P|52:86|63:58,1,59.9999981689454
197,157,460011,2,0,P|212:187|215:224,1,59.9999981689454,4|0,0:2|0:0,0:0:0:0:
133,73,460164,2,0,P|138:36|149:8,3,59.9999981689454
261,100,460472,2,0,P|276:130|279:167,1,59.9999981689454
154,264,460626,6,0,P|136:232|135:194,1,59.9999981689454,10|0,0:2|0:0,0:0:0:0:
284,288,460780,2,0,P|279:317|265:343,1,59.9999981689454
97,320,460934,6,0,P|79:288|78:250,3,59.9999981689454,4|0|0|0,0:2|0:0|0:0|0:0,0:0:0:0:
209,297,461241,2,0,P|180:288|156:270,1,59.9999981689454,4|0,0:2|0:0,0:0:0:0:
2,245,461395,2,0,P|20:213|53:193,1,59.9999981689454,4|0,0:2|0:0,0:0:0:0:
296,129,461549,5,4,0:1:0:0:
349,131,461626,1,0,0:0:0:0:
392,163,461703,1,0,0:0:0:0:
410,213,461780,1,0,0:0:0:0:
392,264,461857,1,2,0:0:0:0:
350,298,461934,1,0,0:0:0:0:
295,297,462011,1,0,0:0:0:0:
251,264,462088,1,0,0:0:0:0:
201,243,462164,1,2,0:0:0:0:
147,247,462241,1,0,0:0:0:0:
102,278,462318,1,0,0:0:0:0:
90,330,462395,1,0,0:0:0:0:
111,379,462472,5,10,0:0:0:0:
143,343,462549,1,0,0:0:0:0:
156,296,462626,1,0,0:0:0:0:
144,249,462703,1,0,0:0:0:0:
105,220,462780,1,2,0:0:0:0:
65,192,462857,1,0,0:0:0:0:
47,147,462934,1,0,0:0:0:0:
52,99,463011,1,0,0:0:0:0:
83,62,463088,1,2,0:0:0:0:
129,53,463164,1,0,0:0:0:0:
172,72,463241,1,0,0:0:0:0:
192,115,463318,1,0,0:0:0:0:
175,160,463395,5,2,0:0:0:0:
169,149,463472,1,0,0:0:0:0:
169,136,463549,1,0,0:0:0:0:
172,124,463626,1,0,0:0:0:0:
180,115,463703,1,2,0:0:0:0:
190,108,463780,1,0,0:0:0:0:
201,105,463857,1,0,0:0:0:0:
212,106,463934,1,0,0:0:0:0:
223,109,464011,1,2,0:0:0:0:
232,116,464088,1,0,0:0:0:0:
239,125,464164,1,0,0:0:0:0:
241,136,464241,1,0,0:0:0:0:
239,154,464318,5,12,0:1:0:0:
244,177,464395,1,0,0:0:0:0:
263,190,464472,1,4,0:2:0:0:
286,192,464549,1,0,0:0:0:0:
311,176,464626,1,2,0:0:0:0:
327,144,464703,1,0,0:0:0:0:
359,117,464780,1,0,0:0:0:0:
400,113,464857,1,0,0:0:0:0:
434,136,464934,1,2,0:0:0:0:
445,176,465011,1,0,0:0:0:0:
424,219,465088,1,4,0:2:0:0:
371,227,465164,1,0,0:0:0:0:
326,186,465241,1,6,0:0:0:0:
326,119,465318,1,0,0:0:0:0:
371,70,465395,1,0,0:0:0:0:
436,63,465472,1,0,0:0:0:0:
492,97,465549,5,2,0:0:0:0:
445,125,465626,1,0,0:0:0:0:
392,111,465703,1,0,0:0:0:0:
367,63,465780,1,0,0:0:0:0:
323,31,465857,1,2,0:0:0:0:
269,25,465934,1,0,0:0:0:0:
226,58,466011,1,0,0:0:0:0:
216,111,466088,1,0,0:0:0:0:
254,163,466164,5,10,0:0:0:0:
265,176,466241,1,0,0:0:0:0:
272,192,466318,1,0,0:0:0:0:
275,209,466395,1,0,0:0:0:0:
275,227,466472,1,2,0:0:0:0:
268,250,466549,1,0,0:0:0:0:
246,271,466626,1,0,0:0:0:0:
210,279,466703,1,0,0:0:0:0:
174,270,466780,1,2,0:0:0:0:
150,235,466857,1,0,0:0:0:0:
152,187,466934,1,0,0:0:0:0:
184,152,467011,1,0,0:0:0:0:
254,152,467088,5,8,0:0:0:0:
294,143,467164,1,8,0:0:0:0:
320,118,467241,1,8,0:0:0:0:
325,82,467318,1,8,0:0:0:0:
317,52,467395,1,8,0:0:0:0:
294,31,467472,1,8,0:0:0:0:
271,23,467549,1,8,0:0:0:0:
247,25,467626,1,8,0:0:0:0:
226,38,467703,5,8,0:0:0:0:
213,58,467780,1,8,0:0:0:0:
198,68,467857,1,8,0:0:0:0:
180,70,467934,1,8,0:0:0:0:
163,63,468011,1,0,0:0:0:0:
153,55,468088,1,0,0:0:0:0:
147,44,468164,1,0,0:0:0:0:
145,32,468241,1,0,0:0:0:0:
150,21,468318,5,0,0:0:0:0:
160,14,468395,1,0,0:0:0:0:
171,17,468472,1,0,0:0:0:0:
178,26,468549,1,0,0:0:0:0:
179,31,468626,1,0,0:0:0:0:
177,36,468703,1,0,0:0:0:0:
173,40,468780,1,0,0:0:0:0:
167,42,468857,1,0,0:0:0:0:
155,39,468934,5,4,0:2:0:0:
98,18,469011,1,0,0:0:0:0:
49,52,469088,1,0,0:0:0:0:
35,109,469164,1,0,0:0:0:0:
65,160,469241,1,2,0:0:0:0:
120,181,469318,1,0,0:0:0:0:
176,161,469395,1,0,0:0:0:0:
234,176,469472,1,0,0:0:0:0:
261,229,469549,1,2,0:0:0:0:
246,287,469626,1,0,0:0:0:0:
193,316,469703,1,0,0:0:0:0:
138,290,469780,1,0,0:0:0:0:
126,231,469857,5,10,0:0:0:0:
169,189,469934,1,0,0:0:0:0:
228,195,470011,1,0,0:0:0:0:
262,244,470088,1,0,0:0:0:0:
277,301,470164,1,2,0:0:0:0:
314,347,470241,1,0,0:0:0:0:
373,352,470318,1,0,0:0:0:0:
421,315,470395,1,0,0:0:0:0:
439,257,470472,1,2,0:0:0:0:
409,204,470549,1,0,0:0:0:0:
353,180,470626,1,0,0:0:0:0:
315,133,470703,1,0,0:0:0:0:
325,73,470780,5,2,0:0:0:0:
384,69,470857,1,0,0:0:0:0:
427,110,470934,1,0,0:0:0:0:
439,168,471011,1,0,0:0:0:0:
415,223,471088,1,2,0:0:0:0:
360,245,471164,1,0,0:0:0:0:
304,222,471241,1,0,0:0:0:0:
264,176,471318,1,0,0:0:0:0:
208,153,471395,1,2,0:0:0:0:
148,163,471472,1,0,0:0:0:0:
109,209,471549,1,0,0:0:0:0:
99,268,471626,1,0,0:0:0:0:
128,320,471703,5,2,0:0:0:0:
187,317,471780,1,0,0:0:0:0:
224,269,471857,1,0,0:0:0:0:
226,208,471934,1,0,0:0:0:0:
185,163,472011,1,2,0:0:0:0:
170,104,472088,1,0,0:0:0:0:
195,50,472164,1,0,0:0:0:0:
253,34,472241,1,0,0:0:0:0:
308,58,472318,1,2,0:0:0:0:
333,112,472395,1,0,0:0:0:0:
317,170,472472,1,0,0:0:0:0:
268,205,472549,1,0,0:0:0:0:
208,193,472626,5,4,0:2:0:0:
223,167,472703,1,0,0:0:0:0:
251,156,472780,1,0,0:0:0:0:
281,156,472857,1,0,0:0:0:0:
305,173,472934,1,2,0:0:0:0:
318,199,473011,1,0,0:0:0:0:
317,229,473088,1,0,0:0:0:0:
301,254,473164,1,0,0:0:0:0:
278,274,473241,1,2,0:0:0:0:
266,301,473318,1,0,0:0:0:0:
266,331,473395,1,0,0:0:0:0:
271,360,473472,1,0,0:0:0:0:
292,380,473549,5,10,0:0:0:0:
332,344,473626,1,0,0:0:0:0:
332,289,473703,1,0,0:0:0:0:
292,251,473780,1,0,0:0:0:0:
237,250,473857,1,2,0:0:0:0:
201,290,473934,1,0,0:0:0:0:
175,337,474011,1,0,0:0:0:0:
127,362,474088,1,0,0:0:0:0:
73,356,474164,1,2,0:2:0:0:
33,319,474241,1,2,0:2:0:0:
27,265,474318,1,2,0:2:0:0:
55,219,474395,1,2,0:2:0:0:
102,193,474472,6,0,P|138:198|163:220,1,59.9999981689454,4|0,0:1|0:0,0:0:0:0:
66,48,474626,2,0,P|25:71|12:91,1,59.9999981689454,2|0,0:2|0:0,0:0:0:0:
66,34,474780,2,0,P|25:57|12:77,1,59.9999981689454,2|0,0:2|0:0,0:0:0:0:
214,61,474934,5,10,0:0:0:0:
272,68,475011,1,0,0:0:0:0:
308,115,475088,1,2,0:2:0:0:
313,174,475164,1,0,0:0:0:0:
274,219,475241,1,2,0:2:0:0:
253,275,475318,1,0,0:0:0:0:
270,332,475395,6,0,P|300:351|326:356,1,59.9999981689454,4|0,0:1|0:0,0:0:0:0:
197,217,475549,2,0,P|156:225|133:239,1,59.9999981689454,2|0,0:2|0:0,0:0:0:0:
189,208,475703,2,0,P|148:216|125:230,1,59.9999981689454,2|0,0:2|0:0,0:0:0:0:
374,260,475857,5,10,0:0:0:0:
420,221,475934,1,0,0:0:0:0:
414,167,476011,1,2,0:2:0:0:
379,133,476088,1,0,0:0:0:0:
364,94,476164,1,2,0:2:0:0:
374,59,476241,1,0,0:0:0:0:
400,44,476318,5,6,0:0:0:0:
382,101,476395,1,0,0:0:0:0:
323,114,476472,1,0,0:0:0:0:
269,87,476549,1,0,0:0:0:0:
230,41,476626,1,2,0:0:0:0:
175,16,476703,1,0,0:0:0:0:
116,29,476780,1,0,0:0:0:0:
79,76,476857,1,0,0:0:0:0:
73,135,476934,1,2,0:0:0:0:
104,186,477011,1,0,0:0:0:0:
160,206,477088,1,0,0:0:0:0:
217,190,477164,1,0,0:0:0:0:
255,143,477241,5,10,0:0:0:0:
195,139,477318,1,0,0:0:0:0:
165,191,477395,1,0,0:0:0:0:
178,249,477472,1,0,0:0:0:0:
227,283,477549,1,2,0:0:0:0:
286,272,477626,1,0,0:0:0:0:
328,229,477703,1,0,0:0:0:0:
383,207,477780,1,0,0:0:0:0:
441,220,477857,1,2,0:0:0:0:
472,271,477934,1,0,0:0:0:0:
478,330,478011,1,0,0:0:0:0:
441,377,478088,1,0,0:0:0:0:
381,378,478164,6,0,L|369:318,1,59.9999981689454,10|0,0:2|0:0,0:0:0:0:
303,162,478318,2,0,L|299:228,1,59.9999981689454,2|0,0:2|0:0,0:0:0:0:
294,154,478472,2,0,L|290:220,1,59.9999981689454,2|0,0:2|0:0,0:0:0:0:
252,384,478626,6,0,L|240:324,1,59.9999981689454,10|0,0:2|0:0,0:0:0:0:
164,163,478780,2,0,L|160:229,1,59.9999981689454,2|0,0:2|0:0,0:0:0:0:
155,155,478934,2,0,L|151:221,1,59.9999981689454,2|0,0:2|0:0,0:0:0:0:
61,343,479088,5,8,0:0:0:0:
23,289,479164,1,8,0:0:0:0:
15,223,479241,1,8,0:0:0:0:
50,167,479318,1,8,0:0:0:0:
104,129,479395,1,8,0:0:0:0:
129,74,479472,1,8,0:0:0:0:
111,22,479549,1,8,0:0:0:0:
65,7,479626,1,8,0:0:0:0:
27,26,479703,1,8,0:0:0:0:
20,61,479780,1,8,0:0:0:0:
36,85,479857,1,8,0:0:0:0:
59,87,479934,1,8,0:0:0:0:
68,71,480011,5,4,0:2:0:0:
103,30,480088,1,0,0:0:0:0:
156,25,480164,1,0,0:0:0:0:
203,50,480241,1,0,0:0:0:0:
217,101,480318,1,2,0:0:0:0:
200,152,480395,1,0,0:0:0:0:
160,189,480472,1,0,0:0:0:0:
139,238,480549,1,0,0:0:0:0:
153,290,480626,1,2,0:0:0:0:
193,325,480703,1,0,0:0:0:0:
246,327,480780,1,0,0:0:0:0:
289,301,480857,1,0,0:0:0:0:
311,247,480934,5,10,0:0:0:0:
263,222,481011,1,0,0:0:0:0:
208,223,481088,1,0,0:0:0:0:
167,258,481164,1,0,0:0:0:0:
145,307,481241,1,2,0:0:0:0:
98,334,481318,1,0,0:0:0:0:
44,329,481395,1,0,0:0:0:0:
6,290,481472,1,0,0:0:0:0:
4,235,481549,1,2,0:0:0:0:
32,189,481626,1,0,0:0:0:0:
84,175,481703,1,0,0:0:0:0:
135,192,481780,1,0,0:0:0:0:
161,239,481857,5,2,0:2:0:0:
137,242,481934,1,0,0:0:0:0:
115,230,482011,1,0,0:0:0:0:
106,207,482088,1,0,0:0:0:0:
110,183,482164,1,2,0:2:0:0:
127,166,482241,1,0,0:0:0:0:
151,165,482318,2,0,P|182:196|192:220,1,59.9999981689454,2|0,0:2|0:0,0:0:0:0:
76,87,482472,6,0,P|86:57|105:34,3,59.9999981689454,2|0|0|0,0:0|0:0|0:0|0:0,0:0:0:0:
222,67,482780,5,10,0:0:0:0:
281,62,482857,1,0,0:0:0:0:
333,91,482934,1,0,0:0:0:0:
349,148,483011,1,0,0:0:0:0:
323,202,483088,6,0,P|291:233|270:241,1,59.9999981689454,2|0,0:2|0:0,0:0:0:0:
412,91,483241,2,0,P|446:94|475:114,1,59.9999981689454,2|0,0:2|0:0,0:0:0:0:
322,214,483395,6,0,P|290:245|269:253,1,59.9999981689454,2|0,0:2|0:0,0:0:0:0:
419,81,483549,2,0,P|453:84|482:104,1,59.9999981689454,2|0,0:2|0:0,0:0:0:0:
434,291,483703,5,4,0:1:0:0:
386,327,483780,1,0,0:0:0:0:
326,331,483857,1,0,0:0:0:0:
280,291,483934,1,0,0:0:0:0:
273,231,484011,1,2,0:0:0:0:
308,182,484088,1,0,0:0:0:0:
346,136,484164,1,0,0:0:0:0:
349,76,484241,1,0,0:0:0:0:
307,32,484318,1,2,0:0:0:0:
247,27,484395,1,0,0:0:0:0:
202,67,484472,1,0,0:0:0:0:
201,127,484549,1,0,0:0:0:0:
236,175,484626,5,10,0:0:0:0:
274,128,484703,1,0,0:0:0:0:
262,69,484780,1,0,0:0:0:0:
218,27,484857,1,0,0:0:0:0:
157,29,484934,1,2,0:0:0:0:
112,69,485011,1,0,0:0:0:0:
112,129,485088,1,0,0:0:0:0:
151,173,485164,1,0,0:0:0:0:
191,217,485241,1,2,0:0:0:0:
192,277,485318,1,0,0:0:0:0:
151,320,485395,1,0,0:0:0:0:
91,327,485472,1,0,0:0:0:0:
44,289,485549,5,2,0:0:0:0:
68,234,485626,1,0,0:0:0:0:
124,213,485703,1,0,0:0:0:0:
183,217,485780,1,0,0:0:0:0:
223,261,485857,1,2,0:0:0:0:
271,296,485934,1,0,0:0:0:0:
330,301,486011,1,0,0:0:0:0:
384,275,486088,1,0,0:0:0:0:
405,219,486164,1,2,0:0:0:0:
387,161,486241,1,0,0:0:0:0:
336,128,486318,1,0,0:0:0:0:
312,72,486395,1,0,0:0:0:0:
338,18,486472,5,10,0:0:0:0:
381,50,486549,1,0,0:0:0:0:
398,101,486626,1,0,0:0:0:0:
377,151,486703,1,0,0:0:0:0:
327,173,486780,1,2,0:0:0:0:
274,161,486857,1,0,0:0:0:0:
239,119,486934,1,0,0:0:0:0:
187,101,487011,1,0,0:0:0:0:
135,118,487088,1,2,0:0:0:0:
108,164,487164,1,0,0:0:0:0:
116,217,487241,1,0,0:0:0:0:
154,255,487318,1,0,0:0:0:0:
208,255,487395,5,4,0:2:0:0:
214,238,487472,1,0,0:0:0:0:
215,220,487549,1,0,0:0:0:0:
213,202,487626,1,0,0:0:0:0:
206,185,487703,1,2,0:0:0:0:
196,169,487780,1,0,0:0:0:0:
183,155,487857,1,0,0:0:0:0:
167,145,487934,1,0,0:0:0:0:
149,139,488011,1,2,0:0:0:0:
131,136,488088,1,0,0:0:0:0:
113,140,488164,1,0,0:0:0:0:
97,148,488241,1,0,0:0:0:0:
83,160,488318,5,10,0:0:0:0:
98,178,488395,1,0,0:0:0:0:
121,182,488472,1,0,0:0:0:0:
144,176,488549,1,0,0:0:0:0:
161,159,488626,1,2,0:0:0:0:
169,136,488703,1,0,0:0:0:0:
164,112,488780,1,0,0:0:0:0:
151,91,488857,1,0,0:0:0:0:
140,69,488934,1,2,0:0:0:0:
136,45,489011,1,0,0:0:0:0:
145,22,489088,1,0,0:0:0:0:
162,5,489164,1,0,0:0:0:0:
186,0,489241,6,0,P|197:32|193:70,1,59.9999981689454,4|0,0:1|0:0,0:0:0:0:
74,208,489395,2,0,P|68:164|72:137,1,59.9999981689454,2|0,0:2|0:0,0:0:0:0:
65,207,489549,2,0,P|59:163|63:136,1,59.9999981689454,2|0,0:2|0:0,0:0:0:0:
230,188,489703,5,12,0:1:0:0:
275,158,489780,1,0,0:0:0:0:
327,171,489857,1,0,0:0:0:0:
347,220,489934,1,0,0:0:0:0:
339,273,490011,1,0,0:0:0:0:
354,324,490088,1,0,0:0:0:0:
395,357,490164,6,0,P|424:338|436:314,1,59.9999981689454,4|0,0:1|0:0,0:0:0:0:
262,258,490318,2,0,P|216:271|198:288,1,59.9999981689454,2|0,0:2|0:0,0:0:0:0:
254,257,490472,2,0,P|208:270|190:287,1,59.9999981689454,2|0,0:2|0:0,0:0:0:0:
401,214,490626,5,12,0:1:0:0:
453,200,490703,1,0,0:0:0:0:
470,155,490780,1,0,0:0:0:0:
449,118,490857,1,0,0:0:0:0:
413,121,490934,1,0,0:0:0:0:
401,148,491011,1,0,0:0:0:0:
428,162,491088,5,6,0:0:0:0:
475,125,491164,1,0,0:0:0:0:
464,64,491241,1,0,0:0:0:0:
413,28,491318,1,0,0:0:0:0:
351,34,491395,1,2,0:0:0:0:
307,77,491472,1,0,0:0:0:0:
273,128,491549,1,0,0:0:0:0:
224,166,491626,1,0,0:0:0:0:
162,176,491703,1,2,0:0:0:0:
102,163,491780,1,0,0:0:0:0:
58,119,491857,1,0,0:0:0:0:
37,60,491934,1,0,0:0:0:0:
55,0,492011,5,10,0:0:0:0:
104,35,492088,1,0,0:0:0:0:
117,94,492164,1,0,0:0:0:0:
96,152,492241,1,0,0:0:0:0:
55,198,492318,1,2,0:0:0:0:
24,250,492395,1,0,0:0:0:0:
27,311,492472,1,0,0:0:0:0:
66,357,492549,1,0,0:0:0:0:
124,374,492626,1,2,0:0:0:0:
183,357,492703,1,0,0:0:0:0:
216,306,492780,1,0,0:0:0:0:
210,245,492857,1,0,0:0:0:0:
167,194,492934,6,0,L|103:201,1,59.9999981689454,10|0,0:2|0:0,0:0:0:0:
268,63,493088,2,0,L|332:66,1,59.9999981689454,2|0,0:2|0:0,0:0:0:0:
275,57,493241,2,0,L|339:60,1,59.9999981689454,2|0,0:2|0:0,0:0:0:0:
357,190,493395,6,0,L|293:197,1,59.9999981689454,10|0,0:2|0:0,0:0:0:0:
446,85,493549,2,0,L|510:88,1,59.9999981689454,2|0,0:2|0:0,0:0:0:0:
453,79,493702,2,0,L|517:82,1,59.9999981689454,2|0,0:2|0:0,0:0:0:0:
483,303,493857,5,8,0:0:0:0:
428,264,493934,1,8,0:0:0:0:
362,260,494011,1,8,0:0:0:0:
302,288,494088,1,8,0:0:0:0:
261,339,494164,5,8,0:0:0:0:
203,356,494241,1,8,0:0:0:0:
150,344,494318,1,8,0:0:0:0:
126,301,494395,1,8,0:0:0:0:
134,259,494472,1,8,0:0:0:0:
166,243,494549,1,8,0:0:0:0:
195,249,494626,1,8,0:0:0:0:
205,270,494703,1,8,0:0:0:0:
198,286,494780,5,4,0:2:0:0:
151,258,494857,1,0,0:0:0:0:
151,203,494934,1,0,0:0:0:0:
187,162,495011,1,0,0:0:0:0:
227,125,495088,1,2,0:0:0:0:
241,73,495164,1,0,0:0:0:0:
217,24,495241,1,0,0:0:0:0:
165,6,495318,1,0,0:0:0:0:
116,29,495395,1,2,0:0:0:0:
93,78,495472,1,0,0:0:0:0:
105,130,495549,1,0,0:0:0:0:
151,157,495626,1,0,0:0:0:0:
207,153,495703,5,10,0:0:0:0:
178,108,495779,1,0,0:0:0:0:
129,87,495856,1,0,0:0:0:0:
77,97,495933,1,0,0:0:0:0:
40,135,496010,1,2,0:0:0:0:
32,188,496087,1,0,0:0:0:0:
54,236,496164,1,0,0:0:0:0:
100,263,496241,1,0,0:0:0:0:
154,258,496318,1,2,0:0:0:0:
203,239,496394,1,0,0:0:0:0:
250,261,496471,1,0,0:0:0:0:
268,310,496548,1,0,0:0:0:0:
244,359,496626,6,0,P|210:372|179:364,3,59.9999981689454,2|0|0|0,0:0|0:0|0:0|0:0,0:0:0:0:
298,201,496934,2,0,P|326:223|334:254,3,59.9999981689454,2|0|0|0,0:0|0:0|0:0|0:0,0:0:0:0:
398,361,497241,2,0,P|403:325|426:302,3,59.9999981689454,2|0|0|0,0:0|0:0|0:0|0:0,0:0:0:0:
170,363,497549,5,10,0:2:0:0:
150,340,497626,1,0,0:0:0:0:
144,310,497703,1,2,0:2:0:0:
152,281,497780,1,0,0:0:0:0:
176,263,497857,1,2,0:2:0:0:
191,237,497934,1,0,0:0:0:0:
195,207,498011,1,2,0:2:0:0:
184,178,498088,1,0,0:0:0:0:
158,163,498164,1,2,0:2:0:0:
128,165,498241,1,0,0:0:0:0:
106,185,498318,1,2,0:2:0:0:
102,214,498395,1,0,0:0:0:0:
118,238,498472,5,4,0:1:0:0:
171,232,498549,1,0,0:0:0:0:
202,188,498626,1,0,0:0:0:0:
202,133,498703,1,0,0:0:0:0:
165,93,498780,1,2,0:0:0:0:
170,39,498857,1,0,0:0:0:0:
214,8,498934,1,0,0:0:0:0:
267,15,499011,1,0,0:0:0:0:
295,61,499088,1,2,0:0:0:0:
282,112,499164,1,0,0:0:0:0:
245,151,499241,1,0,0:0:0:0:
241,204,499318,1,0,0:0:0:0:
267,250,499395,5,10,0:0:0:0:
320,243,499472,1,0,0:0:0:0:
356,203,499549,1,0,0:0:0:0:
354,148,499626,1,0,0:0:0:0:
322,104,499703,1,2,0:0:0:0:
268,94,499780,1,0,0:0:0:0:
221,121,499857,1,0,0:0:0:0:
201,171,499934,1,0,0:0:0:0:
165,211,500011,1,2,0:0:0:0:
111,219,500088,1,0,0:0:0:0:
62,196,500164,1,0,0:0:0:0:
43,145,500241,1,0,0:0:0:0:
51,91,500318,5,2,0:0:0:0:
87,51,500395,1,0,0:0:0:0:
140,43,500472,1,0,0:0:0:0:
189,64,500549,1,0,0:0:0:0:
219,111,500626,1,2,0:0:0:0:
209,172,500703,1,0,0:0:0:0:
167,206,500780,1,0,0:0:0:0:
152,257,500857,1,0,0:0:0:0:
158,310,500934,1,2,0:0:0:0:
195,349,501011,1,0,0:0:0:0:
248,357,501088,1,0,0:0:0:0:
296,334,501164,1,0,0:0:0:0:
313,282,501241,5,10,0:0:0:0:
266,254,501318,1,0,0:0:0:0:
214,270,501395,1,0,0:0:0:0:
188,317,501472,1,0,0:0:0:0:
140,342,501549,1,2,0:0:0:0:
86,337,501626,1,0,0:0:0:0:
56,291,501703,1,0,0:0:0:0:
60,237,501780,1,0,0:0:0:0:
105,207,501857,1,2,0:0:0:0:
135,162,501934,1,0,0:0:0:0:
138,108,502011,1,0,0:0:0:0:
109,61,502088,1,0,0:0:0:0:
56,54,502164,6,0,P|25:77|19:101,1,59.9999981689454,2|0,0:2|0:0,0:0:0:0:
175,237,502318,2,0,P|209:260|234:264,1,59.9999981689454,2|0,0:2|0:0,0:0:0:0:
421,137,502472,5,2,0:0:0:0:
396,88,502549,1,0,0:0:0:0:
345,69,502626,1,0,0:0:0:0:
291,78,502703,1,0,0:0:0:0:
258,120,502780,1,2,0:0:0:0:
237,170,502857,1,0,0:0:0:0:
190,198,502934,1,0,0:0:0:0:
136,195,503011,1,0,0:0:0:0:
94,160,503088,5,10,0:0:0:0:
127,118,503164,1,0,0:0:0:0:
180,112,503241,1,0,0:0:0:0:
223,144,503318,1,0,0:0:0:0:
242,194,503395,1,2,0:0:0:0:
220,243,503472,1,0,0:0:0:0:
191,289,503549,1,0,0:0:0:0:
202,341,503626,1,0,0:0:0:0:
244,374,503703,1,2,0:0:0:0:
297,377,503780,1,0,0:0:0:0:
344,350,503857,1,0,0:0:0:0:
361,298,503934,1,0,0:0:0:0:
346,246,504011,6,0,P|316:215|295:205,1,59.9999981689454,2|0,0:2|0:0,0:0:0:0:
428,356,504164,2,0,P|466:350|489:336,1,59.9999981689454,2|0,0:2|0:0,0:0:0:0:
345,236,504318,2,0,P|315:205|294:195,1,59.9999981689454,2|0,0:2|0:0,0:0:0:0:
440,348,504472,1,2,0:2:0:0:
472,305,504549,1,0,0:0:0:0:
473,250,504626,1,2,0:2:0:0:
451,200,504703,1,0,0:0:0:0:
404,172,504780,1,2,0:2:0:0:
370,129,504857,1,0,0:0:0:0:
363,75,504934,6,0,P|386:42|406:32,1,59.9999981689454,10|0,0:0|0:0,0:0:0:0:
338,237,505088,2,0,P|301:233|278:219,1,59.9999981689454,2|0,0:2|0:0,0:0:0:0:
356,67,505241,2,0,P|379:34|399:24,1,59.9999981689454,2|0,0:2|0:0,0:0:0:0:
324,243,505395,1,2,0:2:0:0:
284,280,505472,1,0,0:0:0:0:
236,276,505549,1,2,0:2:0:0:
210,242,505626,1,0,0:0:0:0:
214,206,505703,1,2,0:2:0:0:
241,193,505780,1,0,0:0:0:0:
261,206,505857,5,8,0:0:0:0:
227,248,505934,1,0,0:0:0:0:
173,258,506011,1,0,0:0:0:0:
124,234,506088,1,0,0:0:0:0:
103,184,506164,1,2,0:0:0:0:
124,134,506241,1,0,0:0:0:0:
166,100,506318,1,0,0:0:0:0:
169,46,506395,1,0,0:0:0:0:
131,6,506472,1,2,0:0:0:0:
76,5,506549,1,0,0:0:0:0:
39,45,506626,1,0,0:0:0:0:
39,99,506703,1,0,0:0:0:0:
72,141,506780,5,10,0:0:0:0:
114,107,506857,1,0,0:0:0:0:
168,106,506934,1,0,0:0:0:0:
210,139,507011,1,0,0:0:0:0:
220,191,507088,1,2,0:0:0:0:
239,240,507164,1,0,0:0:0:0:
280,274,507241,1,0,0:0:0:0:
333,282,507318,1,0,0:0:0:0:
384,264,507395,1,2,0:0:0:0:
418,222,507472,1,0,0:0:0:0:
426,168,507549,1,0,0:0:0:0:
404,118,507626,1,0,0:0:0:0:
363,81,507703,5,2,0:0:0:0:
311,97,507780,1,0,0:0:0:0:
298,149,507857,1,0,0:0:0:0:
311,201,507934,1,0,0:0:0:0:
343,243,508011,1,2,0:0:0:0:
343,297,508088,1,0,0:0:0:0:
313,341,508164,1,0,0:0:0:0:
263,361,508241,1,0,0:0:0:0:
212,342,508318,1,2,0:0:0:0:
188,293,508395,1,0,0:0:0:0:
197,239,508472,1,0,0:0:0:0:
238,204,508549,1,0,0:0:0:0:
291,196,508626,5,10,0:0:0:0:
286,249,508703,1,0,0:0:0:0:
235,268,508780,1,0,0:0:0:0:
184,248,508857,1,0,0:0:0:0:
164,197,508934,1,2,0:0:0:0:
183,146,509011,1,0,0:0:0:0:
204,96,509088,1,0,0:0:0:0:
186,45,509164,1,0,0:0:0:0:
139,17,509241,1,2,0:0:0:0:
86,29,509318,1,0,0:0:0:0:
56,74,509395,1,0,0:0:0:0:
59,127,509472,1,0,0:0:0:0:
93,168,509549,5,4,0:2:0:0:
144,184,509626,1,0,0:0:0:0:
194,164,509703,1,0,0:0:0:0:
229,123,509780,1,0,0:0:0:0:
271,89,509857,1,2,0:0:0:0:
324,78,509934,1,0,0:0:0:0:
371,103,510011,1,0,0:0:0:0:
393,152,510088,1,0,0:0:0:0:
375,202,510164,1,2,0:0:0:0:
327,227,510241,1,0,0:0:0:0:
272,224,510318,1,0,0:0:0:0:
237,182,510395,1,0,0:0:0:0:
235,127,510472,5,10,0:0:0:0:
285,146,510549,1,0,0:0:0:0:
306,195,510626,1,0,0:0:0:0:
293,247,510703,1,0,0:0:0:0:
248,277,510780,1,2,0:0:0:0:
194,272,510857,1,0,0:0:0:0:
156,233,510934,1,0,0:0:0:0:
148,179,511011,1,0,0:0:0:0:
180,135,511088,1,2,0:0:0:0:
188,82,511164,1,0,0:0:0:0:
159,36,511241,1,0,0:0:0:0:
108,16,511318,1,0,0:0:0:0:
55,30,511395,5,8,0:0:0:0:
43,51,511472,1,8,0:0:0:0:
42,75,511549,1,8,0:0:0:0:
51,96,511626,1,8,0:0:0:0:
71,107,511703,5,8,0:0:0:0:
84,95,511780,1,8,0:0:0:0:
101,90,511857,1,8,0:0:0:0:
118,93,511934,1,8,0:0:0:0:
131,104,512011,5,8,0:0:0:0:
125,114,512088,1,8,0:0:0:0:
123,125,512164,1,8,0:0:0:0:
124,136,512241,1,8,0:0:0:0:
127,147,512318,5,8,0:0:0:0:
149,139,512395,1,0,0:0:0:0:
172,144,512472,1,0,0:0:0:0:
190,159,512549,1,0,0:0:0:0:
193,182,512626,6,0,P|189:225|176:245,1,59.9999981689454,8|0,0:0|0:0,0:0:0:0:
90,248,512780,2,0,P|100:287|117:311,1,59.9999981689454,8|0,0:0|0:0,0:0:0:0:
203,188,512934,6,0,P|199:231|186:251,1,59.9999981689454,8|0,0:0|0:0,0:0:0:0:
85,258,513088,2,0,P|95:297|112:321,1,59.9999981689454,8|0,0:0|0:0,0:0:0:0:
241,341,513241,5,4,0:2:0:0:
289,365,513318,1,0,0:0:0:0:
342,358,513395,1,0,0:0:0:0:
370,312,513472,1,0,0:0:0:0:
374,258,513549,1,2,0:0:0:0:
346,211,513626,1,0,0:0:0:0:
297,186,513703,1,0,0:0:0:0:
266,141,513780,1,0,0:0:0:0:
268,86,513857,1,2,0:0:0:0:
297,40,513934,1,0,0:0:0:0:
349,26,514011,1,0,0:0:0:0:
401,39,514088,1,0,0:0:0:0:
429,84,514164,5,10,0:0:0:0:
383,113,514241,1,0,0:0:0:0:
329,107,514318,1,0,0:0:0:0:
284,75,514395,1,0,0:0:0:0:
239,44,514472,1,2,0:0:0:0:
185,34,514549,1,0,0:0:0:0:
137,59,514626,1,0,0:0:0:0:
117,109,514703,1,0,0:0:0:0:
124,162,514780,1,2,0:0:0:0:
162,199,514857,1,0,0:0:0:0:
214,210,514934,1,0,0:0:0:0:
262,186,515011,1,0,0:0:0:0:
287,138,515088,5,2,0:0:0:0:
265,89,515164,1,0,0:0:0:0:
217,63,515241,1,0,0:0:0:0:
163,69,515318,1,0,0:0:0:0:
126,108,515395,1,2,0:0:0:0:
122,161,515472,1,0,0:0:0:0:
149,207,515549,1,0,0:0:0:0:
197,229,515626,1,0,0:0:0:0:
229,272,515703,1,2,0:0:0:0:
231,325,515780,1,0,0:0:0:0:
194,364,515857,1,0,0:0:0:0:
140,368,515934,1,0,0:0:0:0:
96,336,516011,5,10,0:0:0:0:
133,297,516088,1,0,0:0:0:0:
185,289,516164,1,0,0:0:0:0:
238,299,516241,1,0,0:0:0:0:
271,341,516318,1,2,0:0:0:0:
317,368,516395,1,0,0:0:0:0:
371,368,516472,1,0,0:0:0:0:
422,351,516549,1,0,0:0:0:0:
458,311,516626,6,0,L|451:243,1,59.9999981689454,4|0,0:2|0:0,0:0:0:0:
333,142,516780,2,0,L|338:82,1,59.9999981689454,4|0,0:2|0:0,0:0:0:0:
226,293,516934,5,4,0:1:0:0:
180,322,517011,1,0,0:0:0:0:
126,313,517088,1,0,0:0:0:0:
91,272,517164,1,0,0:0:0:0:
85,218,517241,1,2,0:0:0:0:
118,175,517318,1,0,0:0:0:0:
153,134,517395,1,0,0:0:0:0:
160,80,517472,1,0,0:0:0:0:
134,32,517549,1,2,0:0:0:0:
83,12,517626,1,0,0:0:0:0:
32,30,517703,1,0,0:0:0:0:
9,78,517780,1,0,0:0:0:0:
22,130,517857,5,10,0:0:0:0:
49,83,517934,1,0,0:0:0:0:
98,61,518011,1,0,0:0:0:0:
149,77,518088,1,0,0:0:0:0:
184,116,518164,1,2,0:0:0:0:
197,168,518241,1,0,0:0:0:0:
226,213,518318,1,0,0:0:0:0:
274,237,518395,1,0,0:0:0:0:
327,245,518472,1,2,0:0:0:0:
378,229,518549,1,0,0:0:0:0:
418,193,518626,1,0,0:0:0:0:
437,142,518703,1,0,0:0:0:0:
429,88,518780,6,0,P|395:61|378:57,1,59.9999981689454,4|0,0:1|0:0,0:0:0:0:
462,263,518934,2,0,P|499:253|517:236,1,59.9999981689454,2|0,0:2|0:0,0:0:0:0:
460,276,519088,2,0,P|497:266|515:249,1,59.9999981689454,2|0,0:2|0:0,0:0:0:0:
331,174,519241,6,0,P|290:166|270:169,1,59.9999981689454,10|0,0:2|0:0,0:0:0:0:
410,333,519395,2,0,P|450:354|473:354,1,59.9999981689454,2|0,0:2|0:0,0:0:0:0:
408,341,519549,2,0,P|448:362|471:362,1,59.9999981689454,2|0,0:2|0:0,0:0:0:0:
224,257,519703,6,0,P|185:268|169:288,1,59.9999981689454,4|0,0:1|0:0,0:0:0:0:
54,368,519857,2,0,P|19:358|-5:335,1,59.9999981689454,2|0,0:2|0:0,0:0:0:0:
52,377,520011,2,0,P|17:367|-7:344,1,59.9999981689454,2|0,0:2|0:0,0:0:0:0:
94,157,520164,6,0,P|111:196|110:221,1,59.9999981689454,10|0,0:2|0:0,0:0:0:0:
201,72,520318,2,0,P|217:35|237:14,1,59.9999981689454,2|0,0:2|0:0,0:0:0:0:
209,70,520472,2,0,P|225:33|245:12,1,59.9999981689454,2|0,0:2|0:0,0:0:0:0:
253,215,520626,5,6,0:0:0:0:
297,245,520703,1,0,0:0:0:0:
350,238,520780,1,0,0:0:0:0:
380,193,520857,1,0,0:0:0:0:
381,138,520934,1,2,0:0:0:0:
347,95,521011,1,0,0:0:0:0:
293,85,521088,1,0,0:0:0:0:
243,105,521164,1,0,0:0:0:0:
218,153,521241,1,2,0:0:0:0:
185,196,521318,1,0,0:0:0:0:
133,211,521395,1,0,0:0:0:0:
79,206,521472,1,0,0:0:0:0:
42,166,521549,5,10,0:0:0:0:
90,142,521626,1,0,0:0:0:0:
142,155,521703,1,0,0:0:0:0:
177,195,521780,1,0,0:0:0:0:
189,247,521857,1,2,0:0:0:0:
198,300,521934,1,0,0:0:0:0:
227,345,522011,1,0,0:0:0:0:
278,360,522088,1,0,0:0:0:0:
328,342,522164,1,2,0:0:0:0:
360,298,522241,1,0,0:0:0:0:
363,244,522318,1,0,0:0:0:0:
337,196,522395,1,0,0:0:0:0:
283,187,522472,6,0,P|238:197|221:212,1,59.9999981689454,10|0,0:2|0:0,0:0:0:0:
386,352,522626,2,0,P|414:365|444:367,1,59.9999981689454,2|0,0:2|0:0,0:0:0:0:
389,365,522780,2,0,P|417:378|447:380,1,59.9999981689454,2|0,0:2|0:0,0:0:0:0:
409,178,522934,6,0,P|393:147|375:130,1,59.9999981689454,10|0,0:2|0:0,0:0:0:0:
446,310,523088,2,0,P|477:292|490:268,1,59.9999981689454,2|0,0:2|0:0,0:0:0:0:
455,315,523241,2,0,P|486:297|499:273,1,59.9999981689454,2|0,0:2|0:0,0:0:0:0:
374,114,523395,5,8,0:0:0:0:
308,108,523472,1,8,0:0:0:0:
242,103,523549,1,8,0:0:0:0:
176,98,523626,1,8,0:0:0:0:
110,92,523703,5,8,0:0:0:0:
111,109,523780,1,8,0:0:0:0:
112,126,523857,1,8,0:0:0:0:
113,143,523934,1,8,0:0:0:0:
132,166,524011,5,8,0:0:0:0:
131,179,524088,1,8,0:0:0:0:
130,193,524165,1,8,0:0:0:0:
129,206,524242,1,8,0:0:0:0:
106,227,524318,5,4,0:2:0:0:
154,203,524395,1,0,0:0:0:0:
207,210,524472,1,0,0:0:0:0:
247,245,524549,1,0,0:0:0:0:
261,297,524626,1,2,0:0:0:0:
295,338,524703,1,0,0:0:0:0:
348,344,524780,1,0,0:0:0:0:
396,320,524857,1,0,0:0:0:0:
416,269,524934,1,2,0:0:0:0:
390,221,525011,1,0,0:0:0:0:
352,181,525088,1,0,0:0:0:0:
346,127,525164,1,0,0:0:0:0:
376,82,525241,5,10,0:0:0:0:
412,121,525318,1,0,0:0:0:0:
420,174,525395,1,0,0:0:0:0:
390,219,525472,1,0,0:0:0:0:
337,230,525549,1,2,0:0:0:0:
288,205,525626,1,0,0:0:0:0:
253,163,525703,1,0,0:0:0:0:
204,139,525780,1,0,0:0:0:0:
150,136,525857,1,2,0:0:0:0:
103,164,525934,1,0,0:0:0:0:
88,215,526011,1,0,0:0:0:0:
95,268,526088,1,0,0:0:0:0:
136,301,526164,6,0,P|182:298|201:293,3,59.9999981689454,2|0|0|0,0:0|0:0|0:0|0:0,0:0:0:0:
261,157,526472,2,0,P|302:154|321:156,1,59.9999981689454,8|0,0:0|0:0,0:0:0:0:
267,150,526626,2,0,P|308:147|327:149,1,59.9999981689454,8|0,0:0|0:0,0:0:0:0:
367,287,526780,2,0,P|416:297|435:297,3,59.9999981689454
440,151,527088,5,10,0:0:0:0:
428,98,527164,1,0,0:0:0:0:
386,63,527241,1,0,0:0:0:0:
332,53,527318,1,0,0:0:0:0:
290,87,527395,6,0,L|296:148,1,59.9999981689454,2|0,0:2|0:0,0:0:0:0:
392,230,527549,2,0,L|397:170,1,59.9999981689454,2|0,0:2|0:0,0:0:0:0:
223,164,527703,6,0,L|229:225,1,59.9999981689454,2|0,0:2|0:0,0:0:0:0:
327,287,527857,2,0,L|321:346,1,59.9999981689454,2|0,0:2|0:0,0:0:0:0:
176,366,528011,5,4,0:1:0:0:
132,334,528088,1,0,0:0:0:0:
117,282,528164,1,0,0:0:0:0:
135,231,528241,1,0,0:0:0:0:
180,201,528318,1,2,0:0:0:0:
212,157,528395,1,0,0:0:0:0:
225,104,528472,1,0,0:0:0:0:
196,57,528549,1,0,0:0:0:0:
143,43,528626,1,2,0:0:0:0:
94,67,528703,1,0,0:0:0:0:
79,118,528780,1,0,0:0:0:0:
101,167,528857,1,0,0:0:0:0:
151,188,528934,5,10,0:0:0:0:
191,151,529011,1,0,0:0:0:0:
245,152,529088,1,0,0:0:0:0:
287,184,529164,1,0,0:0:0:0:
303,235,529241,1,2,0:0:0:0:
321,285,529318,1,0,0:0:0:0:
361,320,529395,1,0,0:0:0:0:
414,326,529472,1,0,0:0:0:0:
465,309,529549,1,2,0:0:0:0:
490,261,529626,1,0,0:0:0:0:
493,207,529703,1,0,0:0:0:0:
464,160,529780,1,0,0:0:0:0:
418,130,529857,5,2,0:0:0:0:
392,82,529934,1,0,0:0:0:0:
401,28,530011,1,0,0:0:0:0:
452,11,530088,1,0,0:0:0:0:
493,44,530164,1,2,0:0:0:0:
491,98,530241,1,0,0:0:0:0:
463,144,530318,1,0,0:0:0:0:
413,165,530395,1,0,0:0:0:0:
360,151,530472,1,2,0:0:0:0:
320,113,530549,1,0,0:0:0:0:
269,94,530626,1,0,0:0:0:0:
215,102,530703,1,0,0:0:0:0:
179,142,530780,6,0,L|174:207,3,59.9999981689454,10|0|0|0,0:0|0:0|0:0|0:0,0:0:0:0:
253,381,531088,2,0,L|247:309,3,59.9999981689454,2|0|0|0,0:0|0:0|0:0|0:0,0:0:0:0:
105,178,531395,6,0,L|100:243,1,59.9999981689454,4|0,0:2|0:0,0:0:0:0:
326,347,531549,2,0,L|320:275,1,59.9999981689454,4|0,0:2|0:0,0:0:0:0:
117,108,531703,5,6,0:0:0:0:
75,142,531780,1,0,0:0:0:0:
71,195,531857,1,0,0:0:0:0:
99,240,531934,1,0,0:0:0:0:
150,255,532011,1,2,0:0:0:0:
199,233,532088,1,0,0:0:0:0:
238,197,532164,1,0,0:0:0:0:
290,184,532241,1,0,0:0:0:0:
339,206,532318,1,2,0:0:0:0:
364,253,532395,1,0,0:0:0:0:
360,306,532472,1,0,0:0:0:0:
329,350,532549,1,0,0:0:0:0:
267,362,532626,5,10,0:0:0:0:
234,319,532703,1,0,0:0:0:0:
231,263,532780,1,0,0:0:0:0:
252,213,532857,1,0,0:0:0:0:
292,177,532934,1,2,0:0:0:0:
317,129,533011,1,0,0:0:0:0:
312,75,533088,1,0,0:0:0:0:
284,29,533164,1,0,0:0:0:0:
236,6,533241,1,2,0:2:0:0:
183,13,533318,1,2,0:2:0:0:
143,48,533395,1,2,0:2:0:0:
128,99,533472,1,2,0:2:0:0:
144,150,533549,6,0,L|206:156,1,59.9999981689454,4|0,0:1|0:0,0:0:0:0:
68,269,533703,2,0,L|2:279,1,59.9999981689454,2|0,0:2|0:0,0:0:0:0:
64,282,533857,2,0,L|-2:292,1,59.9999981689454,2|0,0:2|0:0,0:0:0:0:
238,237,534011,6,0,L|176:231,1,59.9999981689454,12|0,0:1|0:0,0:0:0:0:
37,373,534165,2,0,L|103:363,1,59.9999981689454,2|0,0:2|0:0,0:0:0:0:
41,360,534319,2,0,L|107:350,1,59.9999981689454,2|0,0:2|0:0,0:0:0:0:
257,306,534472,6,0,L|319:312,1,59.9999981689454,4|0,0:1|0:0,0:0:0:0:
393,131,534626,2,0,L|327:141,1,59.9999981689454,2|0,0:2|0:0,0:0:0:0:
389,144,534780,2,0,L|323:154,1,59.9999981689454,2|0,0:2|0:0,0:0:0:0:
279,378,534934,6,0,L|341:384,1,59.9999981689454,12|0,0:1|0:0,0:0:0:0:
472,203,535088,2,0,L|406:213,1,59.9999981689454,2|0,0:2|0:0,0:0:0:0:
468,216,535242,2,0,L|402:226,1,59.9999981689454,2|0,0:2|0:0,0:0:0:0:
208,362,535395,5,6,0:0:0:0:
178,316,535472,1,0,0:0:0:0:
176,261,535549,1,0,0:0:0:0:
206,216,535626,1,0,0:0:0:0:
255,193,535703,1,2,0:0:0:0:
290,152,535780,1,0,0:0:0:0:
295,98,535857,1,0,0:0:0:0:
259,56,535934,1,0,0:0:0:0:
207,38,536011,1,2,0:0:0:0:
158,61,536088,1,0,0:0:0:0:
136,109,536164,1,0,0:0:0:0:
144,163,536241,1,0,0:0:0:0:
186,196,536318,5,10,0:0:0:0:
200,145,536394,1,0,0:0:0:0:
180,96,536471,1,0,0:0:0:0:
133,71,536548,1,0,0:0:0:0:
81,80,536625,1,2,0:0:0:0:
47,121,536702,1,0,0:0:0:0:
46,173,536779,1,0,0:0:0:0:
78,216,536856,1,0,0:0:0:0:
126,240,536934,1,2,0:0:0:0:
170,270,537010,1,0,0:0:0:0:
177,322,537087,1,0,0:0:0:0:
144,362,537164,1,0,0:0:0:0:
92,364,537241,6,0,L|24:359,1,59.9999981689454,10|0,0:2|0:0,0:0:0:0:
199,201,537395,2,0,L|267:196,1,59.9999981689454,2|0,0:2|0:0,0:0:0:0:
207,190,537549,2,0,L|275:185,1,59.9999981689454,2|0,0:2|0:0,0:0:0:0:
398,299,537703,6,0,L|330:294,1,59.9999981689454,10|0,0:2|0:0,0:0:0:0:
256,115,537857,2,0,L|324:110,1,59.9999981689454,2|0,0:2|0:0,0:0:0:0:
264,104,538011,2,0,L|332:99,1,59.9999981689454,2|0,0:2|0:0,0:0:0:0:
407,311,538164,5,10,0:2:0:0:
360,263,538241,1,8,0:2:0:0:
355,197,538318,1,8,0:2:0:0:
394,143,538395,1,8,0:2:0:0:
433,98,538472,1,8,0:0:0:0:
432,43,538549,1,8,0:0:0:0:
393,14,538626,1,8,0:0:0:0:
352,25,538703,1,8,0:0:0:0:
345,60,538780,1,8,0:0:0:0:
362,84,538857,1,8,0:0:0:0:
385,86,538934,1,8,0:0:0:0:
394,71,539011,1,8,0:0:0:0:
389,59,539088,5,4,0:2:0:0:
338,76,539164,1,0,0:0:0:0:
320,127,539241,1,0,0:0:0:0:
346,173,539318,1,0,0:0:0:0:
396,192,539395,6,0,P|430:184|458:169,3,59.9999981689454,2|0|0|0,0:0|0:0|0:0|0:0,0:0:0:0:
375,288,539703,2,0,P|349:272|320:264,3,59.9999981689454,2|0|0|0,0:0|0:0|0:0|0:0,0:0:0:0:
255,215,540011,5,10,0:0:0:0:
211,246,540088,1,0,0:0:0:0:
157,246,540164,1,0,0:0:0:0:
119,207,540241,1,0,0:0:0:0:
111,153,540318,1,2,0:0:0:0:
138,106,540395,1,0,0:0:0:0:
149,53,540472,1,0,0:0:0:0:
115,10,540549,1,0,0:0:0:0:
61,1,540626,1,2,0:0:0:0:
22,39,540703,1,0,0:0:0:0:
20,93,540780,1,0,0:0:0:0:
58,131,540857,1,0,0:0:0:0:
111,136,540934,5,4,0:1:0:0:
125,127,541011,1,0,0:0:0:0:
134,112,541088,2,0,P|147:68|138:33,1,75.0000028610231
11,218,541241,5,4,0:1:0:0:
11,234,541318,1,0,0:0:0:0:
20,249,541395,2,0,P|51:282|86:291,1,75.0000028610231
277,205,541549,5,4,0:1:0:0:
263,196,541626,1,0,0:0:0:0:
245,197,541703,2,0,P|200:207|174:233,1,75.0000028610231
297,343,541857,5,2,0:0:0:0:
350,338,541934,1,0,0:0:0:0:
382,294,542011,1,0,0:0:0:0:
387,240,542088,1,0,0:0:0:0:
354,197,542164,5,2,0:0:0:0:
350,201,542241,1,0,0:0:0:0:
356,211,542318,1,0,0:0:0:0:
345,225,542395,1,0,0:0:0:0:
356,246,542472,1,2,0:0:0:0:
336,268,542549,1,0,0:0:0:0:
355,298,542626,1,0,0:0:0:0:
327,329,542703,1,0,0:0:0:0:
354,368,542780,5,4,0:2:0:0:
407,373,542857,1,0,0:0:0:0:
448,338,542934,1,0,0:0:0:0:
457,284,543011,1,0,0:0:0:0:
437,233,543088,1,2,0:2:0:0:
393,202,543164,1,0,0:0:0:0:
339,205,543241,1,0,0:0:0:0:
296,237,543318,1,0,0:0:0:0:
272,285,543395,1,2,0:2:0:0:
225,312,543472,1,0,0:0:0:0:
171,315,543549,1,0,0:0:0:0:
122,291,543626,1,0,0:0:0:0:
103,240,543703,6,0,P|112:204|126:181,3,59.9999981689454,10|0|0|0,0:2|0:0|0:0|0:0,0:0:0:0:
283,296,544011,2,0,P|299:336|301:357,3,59.9999981689454,2|0|2|0,0:2|0:0|0:2|0:0,0:0:0:0:
192,204,544318,2,0,P|197:174|209:147,1,59.9999981689454
204,199,544472,2,0,P|209:169|221:142,1,59.9999981689454,2|0,0:2|0:0,0:0:0:0:
348,20,544626,5,2,0:2:0:0:
391,52,544703,1,0,0:0:0:0:
398,105,544780,1,0,0:0:0:0:
384,157,544857,1,0,0:0:0:0:
348,198,544934,1,2,0:2:0:0:
331,249,545011,1,0,0:0:0:0:
343,301,545088,1,0,0:0:0:0:
382,326,545164,5,0,0:0:0:0:
423,317,545241,1,2,0:2:0:0:
443,287,545318,1,0,0:0:0:0:
435,257,545395,1,0,0:0:0:0:
413,245,545472,1,0,0:0:0:0:
396,251,545549,5,14,0:2:0:0:
386,266,545626,1,0,0:0:0:0:
369,274,545703,1,0,0:0:0:0:
351,271,545780,1,0,0:0:0:0:
336,260,545857,5,2,0:2:0:0:
317,222,545934,1,0,0:0:0:0:
320,174,546011,1,0,0:0:0:0:
355,133,546088,1,0,0:0:0:0:
368,81,546164,1,2,0:2:0:0:
349,30,546241,1,0,0:0:0:0:
301,4,546318,2,0,L|231:14,1,59.9999981689454,4|0,0:2|0:0,0:0:0:0:
55,118,546472,6,0,L|122:107,1,59.9999981689454,2|0,0:2|0:0,0:0:0:0:
238,193,546626,2,0,L|171:182,1,59.9999981689454
48,107,546780,6,0,L|115:96,1,59.9999981689454,2|0,0:2|0:0,0:0:0:0:
241,203,546934,2,0,L|174:192,1,59.9999981689454
47,263,547088,2,0,P|52:233|66:207,3,59.9999981689454,2|0|0|0,0:2|0:0|0:0|0:0,0:0:0:0:
21,104,547395,2,0,P|43:83|69:70,3,59.9999981689454,10|0|0|0,0:2|0:0|0:0|0:0,0:0:0:0:
228,9,547703,5,4,0:2:0:0:
282,8,547780,1,0,0:0:0:0:
319,46,547857,1,0,0:0:0:0:
327,99,547934,1,0,0:0:0:0:
306,149,548011,1,0,0:0:0:0:
269,188,548088,1,0,0:0:0:0:
262,240,548164,1,0,0:0:0:0:
279,291,548241,1,0,0:0:0:0:
325,318,548318,6,0,L|391:326,1,59.9999981689454,4|0,0:1|0:0,0:0:0:0:
197,207,548472,2,0,L|133:218,1,59.9999981689454,4|0,0:2|0:0,0:0:0:0:
380,167,548626,5,6,0:0:0:0:
428,142,548703,1,0,0:0:0:0:
441,89,548780,1,0,0:0:0:0:
427,36,548857,1,0,0:0:0:0:
382,4,548934,5,2,0:2:0:0:
373,26,549011,1,0,0:0:0:0:
374,49,549088,1,0,0:0:0:0:
382,71,549164,1,0,0:0:0:0:
402,83,549241,5,12,0:1:0:0:
384,66,549318,1,0,0:0:0:0:
360,61,549395,1,0,0:0:0:0:
336,64,549472,1,0,0:0:0:0:
316,77,549549,6,0,L|310:143,1,59.9999981689454,8|0,0:0|0:0,0:0:0:0:
217,163,549703,2,0,L|222:223,1,59.9999981689454,8|0,0:0|0:0,0:0:0:0:
325,80,549857,6,0,L|319:146,1,59.9999981689454,8|0,0:0|0:0,0:0:0:0:
210,167,550011,2,0,L|215:227,1,59.9999981689454,8|0,0:0|0:0,0:0:0:0:
161,56,550164,5,4,0:2:0:0:
107,52,550241,1,0,0:0:0:0:
74,95,550318,1,0,0:0:0:0:
74,149,550395,1,0,0:0:0:0:
103,194,550472,1,2,0:2:0:0:
145,226,550549,1,0,0:0:0:0:
164,276,550626,1,2,0:2:0:0:
157,329,550703,1,0,0:0:0:0:
125,373,550780,2,0,P|88:378|64:372,3,59.9999981689454,2|0|0|0,0:2|0:0|0:0|0:0,0:0:0:0:
226,211,551088,5,10,0:2:0:0:
278,201,551164,1,0,0:0:0:0:
330,215,551241,1,0,0:0:0:0:
369,251,551318,1,0,0:0:0:0:
373,304,551395,2,0,P|367:348|357:367,1,59.9999981689454,2|0,0:2|0:0,0:0:0:0:
214,207,551549,5,8,0:0:0:0:
203,192,551626,1,0,0:0:0:0:
198,174,551703,1,2,0:2:0:0:
199,156,551780,1,0,0:0:0:0:
206,139,551857,1,0,0:0:0:0:
218,126,551934,1,0,0:0:0:0:
234,118,552011,5,4,0:2:0:0:
266,144,552088,1,0,0:0:0:0:
307,147,552164,1,0,0:0:0:0:
340,122,552241,1,0,0:0:0:0:
351,81,552318,1,2,0:2:0:0:
331,43,552395,1,0,0:0:0:0:
292,25,552472,1,0,0:0:0:0:
251,37,552549,1,0,0:0:0:0:
225,70,552626,2,0,P|222:109|238:130,3,59.9999981689454,2|0|0|0,0:2|0:0|0:0|0:0,0:0:0:0:
351,264,552934,5,12,0:1:0:0:
343,280,553011,1,0,0:0:0:0:
329,291,553088,2,0,P|286:308|261:305,1,59.9999981689454
184,121,553241,5,2,0:2:0:0:
201,119,553318,1,0,0:0:0:0:
218,126,553395,2,0,P|254:154|264:177,1,59.9999981689454
136,357,553549,5,2,0:2:0:0:
126,342,553626,1,0,0:0:0:0:
123,324,553703,2,0,P|129:278|144:258,1,59.9999981689454
339,180,553857,5,6,0:0:0:0:
381,147,553934,1,0,0:0:0:0:
390,93,554011,1,0,0:0:0:0:
372,41,554088,1,0,0:0:0:0:
325,14,554164,6,0,P|279:16|261:30,1,59.9999981689454,2|0,0:2|0:0,0:0:0:0:
399,162,554318,2,0,P|444:172|458:165,1,59.9999981689454
309,86,554472,2,0,P|266:104|254:123,3,59.9999981689454,2|0|0|0,0:2|0:0|0:0|0:0,0:0:0:0:
216,279,554780,5,10,0:2:0:0:
165,298,554857,1,0,0:0:0:0:
111,288,554934,1,0,0:0:0:0:
75,247,555011,1,0,0:0:0:0:
73,192,555088,6,0,P|102:170|125:170,3,59.9999981689454,2|0|8|0,0:2|0:0|0:0|0:0,0:0:0:0:
270,335,555395,5,12,0:1:0:0:
282,348,555472,1,0,0:0:0:0:
298,354,555549,2,0,P|334:344|351:325,1,59.9999981689454
278,93,555703,5,8,0:0:0:0:
206,81,555780,1,8,2:0:0:0:
152,129,555857,1,8,2:0:0:0:
140,200,555934,1,8,2:0:0:0:
174,263,556011,1,8,0:0:0:0:
169,334,556088,1,8,2:0:0:0:
111,376,556164,1,8,2:0:0:0:
39,370,556241,1,8,2:0:0:0:
2,307,556318,2,0,P|1:266|12:245,3,59.9999981689454,8|8|8|8,0:0|0:0|0:0|0:0,0:0:0:0:
167,136,556626,5,8,0:0:0:0:
234,110,556703,1,8,2:0:0:0:
303,130,556780,1,8,2:0:0:0:
347,186,556857,1,8,2:0:0:0:
347,258,556934,5,8,0:0:0:0:
310,256,557011,1,8,2:3:0:0:
278,228,557088,1,0,0:0:0:0:
264,182,557164,1,8,2:3:0:0:
283,131,557241,1,8,0:0:0:0:
311,78,557318,1,8,2:3:0:0:
289,15,557395,1,0,0:0:0:0:
217,3,557472,1,8,2:3:0:0:
168,71,557554,6,0,B|140:113|140:113|330:73,1,225.000008583069,12|0,0:2|0:0,0:0:0:0:
368,25,557839,5,2,0:0:0:0:
403,39,557911,1,8,2:0:0:0:
422,70,557982,1,2,0:0:0:0:
421,115,558054,1,8,2:0:0:0:
394,151,558125,1,2,0:0:0:0:
344,168,558196,1,8,2:0:0:0:
318,214,558268,1,2,0:0:0:0:
334,271,558339,1,8,2:0:0:0:
389,294,558411,5,2,0:0:0:0:
360,233,558482,1,8,2:0:0:0:
292,226,558554,1,2,0:0:0:0:
237,250,558625,1,8,2:0:0:0:
210,303,558696,1,2,0:0:0:0:
159,317,558768,1,8,2:0:0:0:
109,301,558839,1,2,0:0:0:0:
86,261,558911,1,8,2:0:0:0:
91,224,558982,1,2,0:0:0:0:
119,198,559054,1,8,2:0:0:0:
148,196,559125,1,2,0:0:0:0:
173,211,559196,1,8,2:0:0:0:
177,233,559268,5,2,0:0:0:0:
153,232,559339,1,8,2:0:0:0:
133,217,559411,2,0,P|110:189|111:152,1,59.9999981689454,2|8,0:0|2:0,0:0:0:0:
271,32,559554,5,4,0:2:0:0:
286,57,559625,1,8,2:0:0:0:
286,87,559697,2,0,P|273:120|240:138,1,59.9999981689454,0|8,0:0|2:0,0:0:0:0:
49,51,559839,5,4,0:2:0:0:
65,18,559910,1,8,2:0:0:0:
98,4,559982,2,0,P|133:-1|165:17,1,59.9999981689454,0|8,0:0|2:0,0:0:0:0:
345,161,560125,5,2,0:0:0:0:
370,176,560196,1,8,2:0:0:0:
400,176,560268,2,0,P|433:163|451:130,1,59.9999981689454,2|8,0:0|2:0,0:0:0:0:
162,96,560411,5,4,0:2:0:0:
187,120,560482,1,8,2:0:0:0:
201,153,560554,2,0,P|210:170|218:214,1,59.9999981689454,2|8,0:0|2:0,0:0:0:0:
321,373,560696,5,4,0:2:0:0:
326,331,560767,1,8,2:0:0:0:
346,295,560839,2,0,P|356:278|390:249,1,59.9999981689454,2|8,0:0|2:0,0:0:0:0:
509,100,560982,5,4,0:2:0:0:
502,135,561054,1,8,2:0:0:0:
476,159,561125,1,2,0:0:0:0:
434,163,561196,1,8,2:0:0:0:
396,142,561268,1,2,0:0:0:0:
386,95,561339,1,8,2:0:0:0:
361,53,561411,1,2,0:0:0:0:
309,39,561482,1,8,2:0:0:0:
256,55,561554,1,2,0:0:0:0:
229,108,561625,1,8,2:0:0:0:
183,146,561696,1,2,0:0:0:0:
118,130,561768,1,8,2:0:0:0:
91,70,561839,5,2,0:0:0:0:
163,76,561911,1,8,2:0:0:0:
207,131,561982,1,2,0:0:0:0:
204,197,562054,1,8,2:0:0:0:
152,237,562125,1,2,0:0:0:0:
127,291,562196,1,8,2:0:0:0:
149,347,562268,1,2,0:0:0:0:
199,365,562339,1,8,2:0:0:0:
248,342,562411,1,2,0:0:0:0:
261,296,562482,1,8,2:0:0:0:
239,259,562554,1,2,0:0:0:0:
203,255,562625,1,8,2:0:0:0:
179,273,562696,5,2,0:0:0:0:
206,286,562768,1,8,2:0:0:0:
235,285,562839,2,0,P|257:275|282:241,1,59.9999981689454,2|8,0:0|2:0,0:0:0:0:
367,65,562982,5,2,0:0:0:0:
339,88,563054,1,8,2:0:0:0:
328,124,563125,2,0,P|325:148|344:186,1,59.9999981689454,2|8,0:0|2:0,0:0:0:0:
456,348,563268,5,2,0:0:0:0:
453,304,563340,1,8,2:0:0:0:
422,276,563411,2,0,P|401:263|357:269,1,59.9999981689454,2|8,0:0|2:0,0:0:0:0:
155,350,563554,5,2,0:0:0:0:
131,369,563626,1,8,2:0:0:0:
101,371,563696,2,0,P|74:361|54:327,1,59.9999981689454,2|8,0:0|2:0,0:0:0:0:
243,127,563839,5,4,0:2:0:0:
218,151,563910,1,8,2:0:0:0:
198,181,563982,2,0,P|189:198|181:242,1,59.9999981689454,0|8,0:0|2:0,0:0:0:0:
29,24,564125,5,4,0:2:0:0:
59,49,564196,1,8,2:0:0:0:
80,87,564268,2,0,P|88:104|94:148,1,59.9999981689454,0|8,0:0|2:0,0:0:0:0:
203,57,564411,5,4,0:2:0:0:
236,43,564482,1,8,2:0:0:0:
272,46,564554,1,2,0:0:0:0:
308,67,564625,1,8,2:0:0:0:
323,105,564696,1,2,0:0:0:0:
315,152,564768,1,8,2:0:0:0:
286,190,564839,1,2,0:0:0:0:
276,243,564911,1,8,2:0:0:0:
301,290,564982,1,2,0:0:0:0:
356,313,565054,1,8,2:0:0:0:
411,290,565125,1,2,0:0:0:0:
438,230,565196,1,8,2:0:0:0:
403,173,565268,5,2,0:0:0:0:
380,240,565339,1,8,2:0:0:0:
310,259,565411,1,2,0:0:0:0:
249,234,565482,1,8,2:0:0:0:
228,170,565554,1,2,0:0:0:0:
184,129,565625,1,8,2:0:0:0:
124,134,565696,1,2,0:0:0:0:
83,170,565768,1,8,2:0:0:0:
73,222,565839,1,2,0:0:0:0:
98,263,565911,1,8,2:0:0:0:
145,268,565982,1,2,0:0:0:0:
170,234,566054,1,8,2:0:0:0:
160,199,566125,5,2,0:0:0:0:
131,208,566197,1,8,2:0:0:0:
115,233,566268,2,0,P|107:255|118:288,1,59.9999981689454,2|8,0:0|2:0,0:0:0:0:
275,85,566411,5,4,0:1:0:0:
309,96,566483,1,8,2:0:0:0:
328,126,566554,2,0,P|335:148|324:181,1,59.9999981689454,0|8,0:0|2:0,0:0:0:0:
110,5,566696,5,4,0:1:0:0:
68,11,566768,1,8,2:0:0:0:
47,47,566839,2,0,P|39:69|50:102,1,59.9999981689454,0|8,0:0|2:0,0:0:0:0:
206,209,566982,5,2,0:0:0:0:
197,180,567054,1,8,2:0:0:0:
172,164,567125,2,0,P|149:156|116:167,1,59.9999981689454,2|8,0:0|2:0,0:0:0:0:
220,346,567268,5,4,0:2:0:0:
249,364,567340,1,8,2:0:0:0:
285,359,567411,2,0,P|307:350|325:321,1,59.9999981689454
464,138,567554,5,4,0:2:0:0:
427,115,567626,1,8,2:0:0:0:
386,126,567697,2,0,P|363:134|345:163,1,59.9999981689454
395,293,567839,5,4,0:2:0:0:
383,258,567911,1,8,2:0:0:0:
351,241,567982,1,0,0:0:0:0:
308,246,568054,1,8,2:0:0:0:
271,267,568125,1,2,0:0:0:0:
224,258,568196,1,8,2:0:0:0:
190,222,568268,1,2,0:0:0:0:
192,168,568339,1,8,2:0:0:0:
232,131,568411,1,2,0:0:0:0:
237,71,568482,1,8,2:0:0:0:
192,29,568554,1,2,0:0:0:0:
127,43,568625,1,8,2:0:0:0:
106,105,568696,5,2,0:0:0:0:
176,122,568768,1,8,2:0:0:0:
240,90,568839,1,2,0:0:0:0:
277,35,568911,1,8,2:0:0:0:
340,16,568982,1,2,0:0:0:0:
399,28,569054,1,8,2:0:0:0:
435,75,569125,1,2,0:0:0:0:
428,128,569196,1,8,2:0:0:0:
393,170,569268,1,2,0:0:0:0:
345,174,569339,1,8,2:0:0:0:
308,141,569411,1,2,0:0:0:0:
316,100,569482,1,8,2:0:0:0:
350,89,569554,5,2,0:0:0:0:
374,107,569626,1,8,2:0:0:0:
380,136,569696,2,0,P|379:160|358:186,1,59.9999981689454,2|8,0:0|2:0,0:0:0:0:
181,277,569839,5,2,0:0:0:0:
152,298,569911,1,8,2:0:0:0:
148,333,569982,2,0,P|148:357|169:383,1,59.9999981689454,2|8,0:0|2:0,0:0:0:0:
377,283,570125,6,0,P|270:228|168:194,1,225.000008583069,4|0,0:2|0:0,0:0:0:0:
102,138,570411,6,0,P|135:129|174:112,1,75.0000028610231,10|0,0:2|0:0,0:0:0:0:
368,299,570554,2,0,P|336:278|302:262,1,75.0000028610231,10|0,0:2|0:0,0:0:0:0:
97,123,570696,6,0,P|133:113|167:98,1,75.0000028610231,10|0,0:2|0:0,0:0:0:0:
360,312,570839,2,0,P|328:291|294:275,1,75.0000028610231,10|0,0:2|0:0,0:0:0:0:
276,63,570982,6,0,P|266:99|251:133,1,75.0000028610231,10|0,0:2|0:0,0:0:0:0:
487,259,571125,2,0,P|472:224|462:188,1,75.0000028610231,10|0,0:2|0:0,0:0:0:0:
384,39,571268,5,8,0:0:0:0:
388,56,571339,1,0,0:0:0:0:
398,71,571411,1,0,0:0:0:0:
413,79,571482,1,0,0:0:0:0:
430,80,571554,5,10,0:0:0:0:
419,52,571625,1,0,0:0:0:0:
384,39,571696,1,0,0:0:0:0:
342,49,571768,1,0,0:0:0:0:
318,83,571839,1,10,0:0:0:0:
308,130,571911,1,0,0:0:0:0:
266,153,571982,1,0,0:0:0:0:
211,146,572054,1,0,0:0:0:0:
180,101,572125,5,12,0:2:0:0:
246,74,572196,1,0,0:0:0:0:
312,102,572268,1,8,0:0:0:0:
340,161,572339,1,0,0:0:0:0:
329,226,572411,1,12,0:2:0:0:
280,260,572482,1,0,0:0:0:0:
272,320,572554,5,8,0:2:0:0:
311,356,572625,1,0,0:0:0:0:
364,352,572696,1,12,0:2:0:0:
391,311,572768,1,0,0:0:0:0:
379,264,572839,1,8,0:0:0:0:
341,245,572911,1,0,0:0:0:0:
303,262,572982,5,12,0:2:0:0:
306,277,573053,1,0,0:0:0:0:
309,292,573124,2,0,P|338:282|367:279,1,59.9999981689454,8|0,0:0|0:0,0:0:0:0:
113,174,573268,5,12,0:1:0:0:
108,203,573339,1,0,0:0:0:0:
103,232,573411,2,0,P|74:222|44:219,1,59.9999981689454,8|0,0:0|0:0,0:0:0:0:
271,23,573554,5,12,0:1:0:0:
279,63,573625,1,0,0:0:0:0:
287,103,573696,2,0,P|316:93|345:90,1,59.9999981689454,8|0,0:0|0:0,0:0:0:0:
83,105,573839,5,12,0:2:0:0:
98,96,573911,1,0,0:0:0:0:
115,94,573982,2,0,P|150:100|167:120,1,59.9999981689454,8|0,0:0|0:0,0:0:0:0:
283,362,574125,5,12,0:1:0:0:
253,353,574197,1,0,0:0:0:0:
232,331,574268,2,0,P|219:297|228:272,1,59.9999981689454,8|0,0:0|0:0,0:0:0:0:
407,51,574411,5,12,0:1:0:0:
424,89,574483,1,0,0:0:0:0:
417,130,574554,2,0,P|394:157|368:162,1,59.9999981689454,8|0,0:0|0:0,0:0:0:0:
271,119,574696,5,8,0:0:0:0:
261,133,574767,1,0,0:0:0:0:
254,149,574838,1,0,0:0:0:0:
248,165,574910,1,0,0:0:0:0:
245,182,574981,5,10,0:0:0:0:
281,176,575054,1,0,0:0:0:0:
300,146,575125,1,0,0:0:0:0:
299,104,575196,1,0,0:0:0:0:
271,71,575268,1,10,0:0:0:0:
223,68,575339,1,0,0:0:0:0:
183,96,575411,1,0,0:0:0:0:
129,93,575482,1,0,0:0:0:0:
90,54,575554,5,12,0:2:0:0:
157,29,575625,1,0,0:0:0:0:
213,72,575696,1,8,0:0:0:0:
195,136,575768,1,0,0:0:0:0:
140,172,575839,1,12,0:2:0:0:
115,227,575911,1,0,0:0:0:0:
130,284,575982,1,8,0:0:0:0:
178,308,576054,1,0,0:0:0:0:
230,298,576125,1,12,0:2:0:0:
255,257,576196,1,0,0:0:0:0:
242,210,576268,1,8,0:0:0:0:
204,190,576339,1,0,0:0:0:0:
163,203,576411,5,12,0:2:0:0:
174,216,576483,1,0,0:0:0:0:
189,224,576554,2,0,P|223:230|246:217,1,59.9999981689454,8|0,0:0|0:0,0:0:0:0:
386,26,576696,5,12,0:1:0:0:
356,32,576768,1,0,0:0:0:0:
333,52,576839,2,0,P|317:84|324:109,1,59.9999981689454,8|0,0:0|0:0,0:0:0:0:
443,319,576982,5,12,0:1:0:0:
447,277,577054,1,0,0:0:0:0:
427,240,577125,2,0,P|396:222|370:226,1,59.9999981689454,8|0,0:0|0:0,0:0:0:0:
139,350,577268,5,12,0:2:0:0:
134,332,577339,1,0,0:0:0:0:
126,315,577411,2,0,P|111:283|94:259,1,59.9999981689454,8|0,0:0|0:0,0:0:0:0:
331,128,577554,5,12,0:1:0:0:
313,152,577625,1,0,0:0:0:0:
300,179,577697,2,0,P|285:211|277:239,1,59.9999981689454,8|0,0:0|0:0,0:0:0:0:
92,134,577839,5,12,0:1:0:0:
80,93,577910,1,0,0:0:0:0:
65,53,577982,2,0,P|50:21|33:-3,1,59.9999981689454,8|0,0:0|0:0,0:0:0:0:
231,48,578125,5,8,0:0:0:0:
214,51,578196,1,0,0:0:0:0:
198,57,578268,1,0,0:0:0:0:
182,64,578339,1,0,0:0:0:0:
168,74,578410,5,10,0:0:0:0:
157,108,578482,1,0,0:0:0:0:
171,141,578554,1,0,0:0:0:0:
210,155,578625,1,0,0:0:0:0:
250,145,578696,1,10,0:0:0:0:
297,155,578768,1,0,0:0:0:0:
320,196,578839,1,0,0:0:0:0:
312,249,578911,1,0,0:0:0:0:
267,278,578982,5,12,0:2:0:0:
226,217,579054,1,0,0:0:0:0:
237,146,579125,1,8,0:0:0:0:
290,108,579196,1,0,0:0:0:0:
356,106,579268,1,12,0:2:0:0:
404,140,579339,1,0,0:0:0:0:
464,136,579411,1,8,0:0:0:0:
498,94,579482,1,0,0:0:0:0:
498,39,579554,1,12,0:2:0:0:
468,1,579625,1,0,0:0:0:0:
426,3,579696,1,8,0:0:0:0:
404,32,579768,1,0,0:0:0:0:
417,58,579839,5,12,0:2:0:0:
432,61,579910,1,0,0:0:0:0:
447,64,579981,2,0,P|437:93|434:122,1,59.9999981689454,8|0,0:0|0:0,0:0:0:0:
209,190,580125,5,12,0:1:0:0:
180,195,580196,1,0,0:0:0:0:
151,200,580267,2,0,P|161:229|163:258,1,59.9999981689454,8|0,0:0|0:0,0:0:0:0:
413,288,580411,5,12,0:1:0:0:
453,296,580482,1,0,0:0:0:0:
493,304,580553,2,0,P|483:333|480:362,1,59.9999981689454,8|0,0:0|0:0,0:0:0:0:
329,137,580696,5,12,0:2:0:0:
321,154,580767,1,0,0:0:0:0:
316,172,580839,2,0,P|306:206|304:235,1,59.9999981689454,8|0,0:0|0:0,0:0:0:0:
314,378,580982,5,12,0:1:0:0:
123,206,581125,1,8,0:0:0:0:
352,116,581268,5,12,0:1:0:0:
335,155,581339,1,0,0:0:0:0:
322,196,581411,2,0,P|314:230|312:259,1,59.9999981689454
137,48,581554,5,8,0:0:0:0:
147,62,581625,1,0,0:0:0:0:
154,78,581696,1,0,0:0:0:0:
160,94,581768,1,0,0:0:0:0:
163,111,581839,5,12,0:2:0:0:
135,134,581911,1,0,0:0:0:0:
99,131,581982,1,0,0:0:0:0:
72,97,582054,1,0,0:0:0:0:
81,56,582125,1,12,0:2:0:0:
120,29,582196,1,0,0:0:0:0:
168,25,582268,1,0,0:0:0:0:
215,49,582339,1,0,0:0:0:0:
234,99,582411,5,10,0:0:0:0:
202,163,582482,1,0,0:0:0:0:
229,230,582554,1,8,0:0:0:0:
291,249,582625,1,0,0:0:0:0:
347,215,582696,1,10,0:0:0:0:
407,218,582768,1,0,0:0:0:0:
448,261,582839,1,8,0:0:0:0:
452,315,582911,1,0,0:0:0:0:
423,360,582982,1,10,0:0:0:0:
374,365,583054,1,0,0:0:0:0:
341,338,583125,1,8,0:0:0:0:
345,302,583196,1,0,0:0:0:0:
371,287,583268,5,10,0:0:0:0:
367,268,583339,1,0,0:0:0:0:
359,251,583411,2,0,P|343:219|327:195,1,59.9999981689454,8|0,0:0|0:0,0:0:0:0:
104,204,583554,5,12,0:1:0:0:
110,174,583625,1,0,0:0:0:0:
123,147,583697,2,0,P|138:115|155:90,1,59.9999981689454,8|0,0:0|0:0,0:0:0:0:
397,136,583839,5,12,0:1:0:0:
385,95,583910,1,0,0:0:0:0:
370,55,583982,2,0,P|355:23|338:-1,1,59.9999981689454,8|0,0:0|0:0,0:0:0:0:
125,278,584125,5,10,0:0:0:0:
108,283,584197,1,0,0:0:0:0:
91,283,584268,2,0,P|57:271|44:248,1,59.9999981689454,8|0,0:0|0:0,0:0:0:0:
302,220,584411,5,12,0:1:0:0:
326,238,584483,1,0,0:0:0:0:
337,265,584554,2,0,P|338:300|322:321,1,59.9999981689454,8|0,0:0|0:0,0:0:0:0:
165,111,584696,5,12,0:1:0:0:
167,71,584768,1,0,0:0:0:0:
197,42,584839,2,0,P|230:29|255:38,1,59.9999981689454,8|0,0:0|0:0,0:0:0:0:
193,213,584982,5,4,0:2:0:0:
256,192,585054,12,0,586625,0:0:0:0:
63,188,586696,5,8,2:3:0:0:
230,294,586982,1,8,2:3:0:0:
199,215,587125,1,8,2:3:0:0:
305,359,587411,5,8,2:3:0:0:
450,162,587554,1,10,2:3:0:0:
358,197,587696,1,8,2:3:0:0:
364,99,587839,1,8,2:3:0:0:
448,168,587982,5,8,2:3:0:0:
353,193,588124,1,8,2:3:0:0:
369,96,588267,1,8,2:3:0:0:
496,238,588411,5,10,2:3:0:0:
381,332,588554,1,8,2:3:0:0:
411,259,588696,1,8,2:3:0:0:
467,317,588839,1,8,2:3:0:0:
314,368,589125,5,8,0:0:0:0:
242,288,589268,2,0,L|248:179,1,100,8|0,2:3|0:0,0:0:0:0:
139,96,589554,2,0,P|108:150|134:181,1,100,8|0,0:0|0:0,0:0:0:0:
214,57,589839,2,0,P|176:19|123:18,1,100,8|0,2:3|0:0,0:0:0:0:
173,232,590125,5,10,2:3:0:0:
63,221,590268,1,8,2:3:0:0:
109,314,590411,1,8,2:3:0:0:
163,228,590554,1,8,2:3:0:0:
248,373,590839,5,8,0:0:0:0:
373,245,590982,2,0,P|343:288|370:334,1,100,8|0,2:3|0:0,0:0:0:0:
479,262,591268,2,0,L|465:153,1,100,8|0,0:0|0:0,0:0:0:0:
365,42,591554,2,0,L|351:151,1,100,8|0,2:3|0:0,0:0:0:0:
251,228,591839,5,10,2:3:0:0:
213,43,591982,1,8,2:3:0:0:
239,231,592125,1,8,2:3:0:0:
224,34,592268,1,8,2:3:0:0:
156,288,592554,5,8,0:0:0:0:
252,223,592696,2,0,L|355:243,1,100,4|0,0:2|0:0,0:0:0:0:
459,329,592982,2,0,P|433:375|419:340,1,100,8|0,0:0|0:0,0:0:0:0:
401,146,593268,1,8,2:3:0:0:
418,154,593339,1,0,2:0:0:0:
431,175,593411,1,0,2:0:0:0:
422,203,593482,1,0,2:0:0:0:
392,223,593554,5,10,2:3:0:0:
319,138,593696,1,8,2:3:0:0:
368,73,593839,1,8,2:3:0:0:
401,146,593982,1,8,2:3:0:0:
474,37,594268,5,8,0:0:0:0:
373,0,594411,2,0,L|272:11,1,100,8|0,0:0|0:0,0:0:0:0:
213,74,594696,1,8,0:0:0:0:
161,149,594839,2,0,L|167:206,1,50,0|0,2:0|2:0,2:0:0:0:
124,259,594982,6,0,P|161:224|215:222,1,100,8|0,2:3|0:0,0:0:0:0:
185,358,595268,5,10,2:3:0:0:
156,137,595411,1,8,2:3:0:0:
196,367,595554,1,8,2:3:0:0:
164,126,595697,1,8,2:3:0:0:
322,326,595982,1,0,0:0:0:0:
461,251,596125,6,0,L|360:245,1,100,4|0,0:2|0:0,0:0:0:0:
281,179,596411,1,8,0:0:0:0:
315,94,596554,1,0,0:0:0:0:
380,163,596696,1,0,0:0:0:0:
284,168,596839,1,0,0:0:0:0:
420,39,596982,5,10,2:3:0:0:
473,125,597125,1,0,0:0:0:0:
380,163,597268,1,0,0:0:0:0:
484,135,597411,1,0,0:0:0:0:
336,10,597696,5,8,0:0:0:0:
219,89,597839,1,10,2:3:0:0:
178,142,597934,1,8,2:3:0:0:
196,199,598030,1,8,2:3:0:0:
242,225,598125,1,8,2:3:0:0:
258,268,598220,1,8,2:3:0:0:
242,304,598315,1,8,2:3:0:0:
211,318,598411,1,8,2:3:0:0:
186,308,598506,1,8,2:3:0:0:
179,289,598601,1,8,2:3:0:0:
186,272,598706,6,0,B|207:253|209:255|217:270|217:270|260:306|294:308|321:292|321:292|322:294|322:294|350:322|393:322|423:296|423:296|424:297|428:299|428:299|425:296|425:296|412:235|361:191|361:191|390:242|358:283,1,500,4|0,0:2|0:0,0:0:0:0:
288,222,599134,2,0,B|279:146|279:146|276:145|276:145|268:59|268:59|341:79|341:79|340:82|340:82|408:103,1,300,10|0,2:3|0:0,0:0:0:0:
363,192,599420,1,0,0:0:0:0:
218,273,599563,2,0,B|231:143|231:143|226:146|226:146|232:139|232:139|241:42|241:42|241:80|253:111,1,300,2|0,0:0|0:0,0:0:0:0:
376,189,599848,2,0,L|407:184,1,25
438,89,599991,6,0,P|408:47|311:44,1,150,10|0,2:3|0:0,0:0:0:0:
391,187,600241,1,0,0:0:0:0:
410,193,600322,1,8,2:0:0:0:
429,200,600403,2,0,L|436:146,1,50,4|0,0:2|0:0,0:0:0:0:
242,43,600562,2,0,L|237:97,1,50,0|0,2:0|0:0,0:0:0:0:
107,177,600670,6,0,B|147:178|183:212|183:212|214:201|214:201|34:259,1,300,10|0,2:3|0:0,0:0:0:0:
90,352,600955,2,0,B|70:332|55:329|55:329|117:311|117:311|118:314|118:314|121:309|121:309|244:273|244:273|216:299|226:321,1,300,10|0,2:3|0:0,0:0:0:0:
214,319,601241,2,0,L|217:295,1,25,2|0,0:0|0:0,0:0:0:0:
88,26,601527,6,0,B|174:39|93:147|94:177|140:232|269:159|150:103,1,300,10|0,2:3|0:0,0:0:0:0:
61,190,601793,2,0,B|96:261|189:275|264:200|264:200|235:233|217:295|277:361,1,400,10|0,2:3|0:0,0:0:0:0:
387,291,602108,6,0,B|360:323|330:348|267:286|271:242|309:191|376:206|402:218|434:265|484:184|490:121|451:74|422:61|391:56|391:56|425:77|431:95,1,500,4|0,0:2|0:0,0:0:0:0:
360,125,602561,2,0,B|246:155|289:51|200:41|200:41|251:79|228:144,1,300,10|0,2:3|0:0,0:0:0:0:
158,109,602847,2,0,L|56:130,1,100,2|0,0:0|0:0,0:0:0:0:
96,196,602972,6,0,B|155:181|159:109|159:109|161:197|225:205|225:205|224:212|224:212|302:204|333:288|333:288|363:236|424:249,1,500,2|0,0:0|0:0,0:0:0:0:
243,307,603400,2,0,B|250:289|250:289|101:320|101:320|146:337|182:381|182:381|208:377,1,300,10|0,2:3|0:0,0:0:0:0:
100,322,603668,2,0,L|99:274,1,25,2|0,0:0|0:0,0:0:0:0:
232,132,603810,6,0,B|261:83|264:23|264:23|278:99|318:139|324:108|342:165|348:189,1,300,4|0,0:2|0:0,0:0:0:0:
403,40,604096,2,0,B|350:52|350:52|469:51|411:113|513:118|513:118|441:119,1,300,10|0,2:3|0:0,0:0:0:0:
395,248,604381,2,0,L|379:357,1,100,10|0,2:3|0:0,0:0:0:0:
251,220,604524,1,8,0:0:0:0:
264,201,604596,1,8,0:0:0:0:
274,226,604667,1,8,0:0:0:0:
130,117,604810,1,8,0:0:0:0:
247,43,604953,5,8,0:0:0:0:
174,190,605096,1,8,0:0:0:0:
63,69,605238,1,8,0:0:0:0:
130,117,605381,1,8,0:0:0:0:
75,268,605524,6,0,B|51:259|27:260|27:260|58:234|113:251|113:251|330:344|330:344|358:344|387:325|387:325|359:343|319:331,1,500,4|0,0:1|0:0,0:0:0:0:
352,264,605969,2,0,B|371:198|371:198|370:198|370:198|384:141|384:141|441:207|441:207|438:208|438:208|460:233|460:233|438:225|412:234,1,300,10|0,2:3|0:0,0:0:0:0:
295,158,606254,2,0,L|321:54,1,100
214,50,606405,6,0,B|240:31|240:31|151:33|151:33|190:174|190:174|186:174|186:174|217:286|217:286|149:296|149:296|166:254,1,500,4|0,0:1|0:0,0:0:0:0:
110,216,606833,2,0,B|80:285|80:285|79:315|85:338|101:353|122:361|136:366|136:366|195:359|195:359|197:356|197:356|266:346,1,300,10|0,2:3|0:0,0:0:0:0:
279,233,607099,1,0,0:0:0:0:
393,370,607237,6,0,B|373:346|348:293|355:247|355:247|342:295|302:303,1,200,4|0,0:2|0:0,0:0:0:0:
295,158,607522,2,0,B|390:138|436:200|436:200|369:160|376:70,1,300,10|0,2:3|0:0,0:0:0:0:
159,17,607807,5,10,2:3:0:0:
175,11,607879,1,0,2:0:0:0:
190,6,607950,2,0,L|125:24,1,50,0|0,2:0|2:0,2:0:0:0:
55,147,608075,2,0,B|117:138|117:138|141:105|141:105|170:130|170:130|247:119,1,200,2|0,0:0|0:2,0:2:0:0:
112,322,608373,2,0,B|87:295|87:295|140:264|147:206|147:206|140:264|186:310|186:310|130:334,1,300,10|0,2:3|0:0,0:0:0:0:
250,238,608658,2,0,B|332:224|332:224|365:263|365:263|389:215|389:215|532:187,1,300,10|0,2:3|0:0,0:0:0:0:
256,161,608950,6,0,B|324:148|324:148|236:135|236:135|234:133|234:133|180:127|180:127|135:68|75:63|0:175|77:256|176:183|113:132,1,500,6|0,0:0|0:0,0:0:0:0:
9,189,609414,2,0,B|33:267|123:288|165:233|165:233|165:324|257:406|388:371,1,500,10|0,2:3|0:0,0:0:0:0:
304,306,609842,2,0,P|254:243|378:265,1,300,2|0,0:0|0:0,0:0:0:0:
287,204,610127,2,0,L|276:87,1,100
410,334,610271,2,0,B|395:243|395:243|341:219|341:219|389:183|389:183|380:92,1,300,10|0,0:0|0:0,2:3:0:0:
498,18,610539,1,0,0:0:0:0:
275,100,610699,6,0,B|236:126|236:126|253:199|253:199|315:149|315:149|294:105,1,250,4|0,0:2|0:0,0:0:0:0:
233,44,610949,6,0,B|192:68|192:68|192:72|192:72|160:96|160:96|175:166|175:166|174:169|174:169|205:313,1,300,10|0,2:3|0:0,0:0:0:0:
136,354,611234,2,0,B|109:212|109:212|106:212|106:212|80:58,1,300,10|8,2:3|0:0,0:0:0:0:
76,46,611520,1,8,0:0:0:0:
74,34,611591,1,8,0:0:0:0:
5,196,611750,1,8,0:0:0:0:
9,211,611841,6,0,B|61:201|61:201|72:176|72:176|91:195|91:195|163:181,1,150.000005722046,8|0,0:0|0:0,0:0:0:0:
216,308,612145,1,8,0:0:0:0:
375,260,612307,1,8,0:0:0:0:
451,305,612412,6,0,B|455:204|455:204|434:178|434:178|441:59,1,239.999992675781,4|0,0:2|0:0,0:0:0:0:
333,156,612840,1,10,2:3:0:0:
372,12,612983,1,0,2:0:0:0:
509,154,613126,1,0,2:0:0:0:
265,70,613269,6,0,B|224:60|201:100|201:100|235:216,1,179.999994506836,2|0,0:2|0:0,0:0:0:0:
182,243,613554,2,0,B|232:219|232:219|364:284,1,179.999994506836,2|0,0:2|0:0,0:0:0:0:
346,351,613840,1,10,2:3:0:0:
257,304,613983,1,8,2:3:0:0:
198,384,614126,6,0,P|173:349|28:206,1,239.999992675781,2|2,0:2|2:0,0:0:0:0:
82,373,614554,1,10,2:3:0:0:
173,226,614697,1,2,2:0:0:0:
3,295,614840,1,0,2:0:0:0:
265,293,614983,6,0,L|238:48,1,239.999992675781,2|2,0:2|0:2,0:0:0:0:
120,155,615412,1,10,2:3:0:0:
339,230,615554,1,2,2:0:0:0:
312,28,615697,5,2,2:3:0:0:
312,40,615769,1,2,2:3:0:0:
312,51,615840,6,0,P|355:24|428:34,1,119.999996337891,2|2,0:0|2:0,0:0:0:0:
253,194,616126,1,2,2:0:0:0:
385,94,616269,5,10,2:3:0:0:
408,118,616376,5,2,2:0:0:0:
392,148,616483,6,0,P|376:152|360:147,2,33.3333333333333,2|2|2,2:0|2:0|2:0,2:0:0:0:
489,202,616697,6,0,B|459:198|430:181|430:181|475:222|480:294,1,179.999994506836,2|0,0:2|0:0,0:0:0:0:
392,299,616982,2,0,P|400:267|386:304,1,179.999994506836,2|0,0:2|0:0,0:0:0:0:
282,213,617268,6,0,P|184:228|96:250,1,179.999994506836,10|0,2:3|2:0,0:0:0:0:
185,80,617571,2,0,P|201:110|175:76,1,179.999994506836,8|0,0:0|0:0,0:0:0:0:
273,35,617874,1,0,2:0:0:0:
277,43,617982,5,10,2:3:0:0:
333,219,618124,1,0,2:0:0:0:
414,103,618266,1,0,2:0:0:0:
207,210,618409,5,2,0:0:0:0:
320,332,618551,1,0,2:0:0:0:
260,145,618694,1,2,0:0:0:0:
200,332,618837,1,2,2:3:0:0:
286,220,618980,1,2,2:3:0:0:
94,185,619123,1,10,2:3:0:0:
386,290,619266,6,0,B|372:192|372:192|368:192|368:192|350:50,1,239.999992675781,8|2,0:0|2:0,0:0:0:0:
177,30,619694,2,0,B|186:100|186:100|182:100|182:100|198:208,1,179.999994506836,10|0,2:3|2:0,0:0:0:0:
199,224,619980,1,2,2:0:0:0:
90,147,620123,2,0,P|79:113|28:38,1,119.999996337891,2|0,0:2|0:0,0:0:0:0:
5,271,620409,2,0,P|52:247|122:229,1,119.999996337891
298,362,620696,5,10,2:3:0:0:
201,234,620829,1,2,2:0:0:0:
143,355,620964,5,2,0:2:0:0:
323,231,621115,1,2,2:0:0:0:
406,359,621267,1,2,2:0:0:0:
185,228,621410,6,0,B|191:159|191:159|190:159|190:159|196:95,1,119.999996337891,10|2,2:3|2:0,0:0:0:0:
266,287,621695,1,0,2:0:0:0:
355,147,621839,6,0,L|484:132,1,119.999996337891,2|0,3:2|0:0,0:0:0:0:
403,245,622124,1,2,0:2:0:0:
302,91,622267,1,10,2:3:0:0:
197,217,622410,5,2,2:3:0:0:
373,73,622553,1,2,2:3:0:0:
172,31,622678,6,0,B|197:14|197:14|220:40|220:40|125:51|125:51|112:54|101:50|101:50|29:65,1,239.999992675781,4|0,0:2|0:0,0:0:0:0:
182,232,623106,1,10,2:3:0:0:
42,171,623249,1,0,2:0:0:0:
14,341,623392,1,0,2:0:0:0:
188,220,623535,6,0,L|310:202,1,119.999996337891,2|0,0:2|0:0,0:0:0:0:
380,301,623820,2,0,L|502:283,1,119.999996337891,2|0,0:2|0:0,0:0:0:0:
390,152,624106,1,10,2:2:0:0:
197,34,624410,6,0,L|40:58,1,150,4|0,0:2|2:0,0:0:0:0:
89,156,624695,1,0,2:0:0:0:
131,141,624769,1,0,2:0:0:0:
99,172,624843,1,10,2:3:0:0:
140,154,624918,1,0,2:0:0:0:
107,184,624992,1,0,2:0:0:0:
148,166,625067,1,0,2:0:0:0:
114,195,625141,1,0,2:0:0:0:
156,179,625216,1,0,2:0:0:0:
120,202,625290,1,2,0:0:0:0:
162,186,625368,1,0,2:0:0:0:
123,209,625446,1,0,2:0:0:0:
166,196,625524,1,0,2:0:0:0:
126,218,625602,1,0,2:0:0:0:
169,208,625681,1,10,2:3:0:0:
130,231,625754,1,0,2:0:0:0:
173,217,625828,1,0,2:0:0:0:
136,242,625901,1,0,2:0:0:0:
179,229,625975,1,0,2:0:0:0:
140,251,626048,1,0,2:0:0:0:
171,263,626122,6,0,B|181:293|208:293|208:293|232:237|187:176|187:176|191:174|191:174|167:107|210:56,1,300,6|0,0:0|0:0,0:0:0:0:
224,54,626407,1,0,0:0:0:0:
329,87,626550,2,0,P|375:116|297:94,1,300,10|0,2:3|0:0,0:0:0:0:
393,33,626836,2,0,L|478:44,1,75.0000028610231
503,224,626979,6,0,B|466:265|428:251|407:222|407:222|429:250|453:296|411:349|372:342|342:312|355:287,1,300,2|0,0:0|0:0,0:0:0:0:
375,288,627264,1,0,0:0:0:0:
203,330,627407,2,0,B|183:250|215:292|255:199|255:199|260:303|305:279|246:348,1,300,10|0,2:3|0:0,0:0:0:0:
126,284,627693,2,0,P|132:241|164:215,1,75.0000028610231
324,102,627836,6,0,B|259:98|219:122|219:122|194:103|189:78|189:78|193:104|173:130|173:130|131:107|78:145,1,300,2|0,0:0|0:0,0:0:0:0:
46,64,628122,2,0,P|77:84|90:122,1,75.0000028610231
9,251,628264,6,0,B|47:231|69:192|69:192|54:273|106:297|106:297|99:298|99:298|146:321|142:384,1,300.000011444092,10|0,2:3|0:0,0:0:0:0:
127,381,628539,1,0,0:0:0:0:
0,244,628676,5,2,0:0:0:0:
237,172,628818,1,8,2:0:0:0:
45,46,628961,1,8,2:0:0:0:
206,246,629104,1,8,2:0:0:0:
359,42,629252,1,8,2:0:0:0:
207,99,629401,1,8,2:0:0:0:
436,257,629551,6,0,B|432:292|452:308|452:308|410:307|376:207|474:283|485:155|437:111|377:129|381:168,1,300,6|0,0:0|0:0,0:0:0:0:
385,182,629836,1,0,0:0:0:0:
280,357,629979,6,0,B|250:340|240:320|240:320|281:304|289:242|289:242|288:305|327:327|327:327|312:349|285:357,1,300,10|0,2:3|0:0,0:0:0:0:
178,358,630265,2,0,P|165:327|176:285,1,75.0000028610231
262,144,630414,6,0,B|208:214|161:131|104:188|104:188|138:168|166:193,1,225.000008583069,2|2,0:0|0:0,0:0:0:0:
82,261,630693,2,0,P|53:248|31:207,1,75.0000028610231
20,64,630835,6,0,B|42:33|110:12|159:47|170:93|170:93|180:94|180:94|201:125|236:138|275:132,1,300,12|0,2:1|0:0,0:0:0:0:
281,118,631112,1,0,0:0:0:0:
96,135,631247,5,4,0:1:0:0:
279,309,631389,1,8,2:0:0:0:
358,79,631532,1,0,0:0:0:0:
256,192,631675,1,12,2:1:0:0:
414,365,631943,5,8,2:0:0:0:
179,261,632104,1,4,0:1:0:0:
415,135,632246,1,8,2:0:0:0:
339,234,632389,1,0,0:0:0:0:
268,4,632532,1,12,2:1:0:0:
65,322,632818,5,8,2:0:0:0:
178,212,632979,2,0,B|193:266|288:285|340:233|340:233|329:296|382:346,1,300,4|0,0:2|0:0,0:0:0:0:
394,336,633264,1,0,0:0:0:0:
418,60,633407,6,0,B|379:18|379:18|395:96|395:96|393:97|393:97|407:170|407:170|403:171|403:171|418:255,1,300,10|0,2:3|0:0,0:0:0:0:
419,261,633693,1,0,0:0:0:0:
268,149,633818,6,0,B|195:127|195:127|192:129|192:129|158:98|158:98|153:100|153:100|56:87|56:87|96:94|125:125,1,300,2|0,0:0|0:0,0:0:0:0:
115,133,634103,1,0,0:0:0:0:
145,342,634246,6,0,B|126:286|166:302|193:204|193:204|207:306|243:290|222:359,1,300,10|0,2:3|0:0,0:0:0:0:
64,293,634514,2,0,P|81:247|104:222,1,75.0000028610231
270,134,634675,6,0,B|335:155|418:125|418:125|335:155|271:231,1,300,4|0,0:2|0:0,0:0:0:0:
218,76,634958,2,0,P|255:58|293:63,1,75.0000028610231,0|0,2:0|0:0,0:0:0:0:
428,275,635099,5,8,0:3:0:0:
415,267,635170,1,8,2:3:0:0:
408,253,635241,1,8,2:3:0:0:
406,237,635313,1,8,2:3:0:0:
411,223,635384,1,8,2:3:0:0:
421,211,635456,1,8,2:3:0:0:
440,206,635527,5,8,0:3:0:0:
437,217,635598,1,8,2:3:0:0:
428,224,635669,1,8,2:3:0:0:
416,226,635741,1,8,2:3:0:0:
405,223,635812,1,8,2:3:0:0:
396,215,635884,1,8,2:3:0:0:
389,201,635955,5,8,0:3:0:0:
411,181,636027,1,8,2:3:0:0:
419,152,636098,1,8,2:3:0:0:
412,122,636169,1,8,2:3:0:0:
389,102,636241,1,8,2:3:0:0:
359,95,636312,1,8,2:3:0:0:
326,111,636384,6,0,P|371:144|341:35,1,300,6|0,0:0|0:0,0:0:0:0:
299,190,636704,2,0,P|334:212|386:212,1,75.0000028610231
180,83,636847,6,0,B|205:16|112:-18|68:67|124:158|189:235,1,300,10|0,2:3|0:0,0:0:0:0:
194,224,637117,1,0,0:0:0:0:
262,17,637262,2,0,P|276:57|290:17,1,112.500004291535,2|0,0:0|0:0,0:0:0:0:
275,11,637547,1,0,0:0:0:0:
53,141,637690,6,0,B|70:127|73:79|73:79|83:153|83:153|86:153|86:153|89:218|89:218|93:219|93:219|101:305,1,300,10|0,2:3|0:0,0:0:0:0:
103,322,637958,1,0,0:0:0:0:
259,142,638100,5,8,0:0:0:0:
331,138,638171,1,8,2:0:0:0:
382,190,638242,1,8,2:0:0:0:
377,263,638314,1,8,2:0:0:0:
320,308,638385,1,8,2:0:0:0:
248,295,638457,1,8,2:0:0:0:
210,233,638528,5,8,0:0:0:0:
246,240,638599,1,8,2:3:0:0:
268,269,638670,1,8,2:3:0:0:
264,306,638742,1,8,2:3:0:0:
236,330,638813,1,8,2:3:0:0:
200,329,638885,1,8,2:3:0:0:
173,304,638957,5,8,0:0:0:0:
190,285,639028,1,8,2:3:0:0:
194,261,639099,1,8,2:3:0:0:
183,239,639171,1,8,2:3:0:0:
162,226,639242,1,8,2:3:0:0:
137,228,639314,1,8,2:3:0:0:
116,243,639385,6,0,P|121:263|130:270,5,25,8|0|0|0|0|0,0:0|2:3|2:3|2:3|2:3|2:3,0:0:0:0:
221,98,639811,5,4,0:1:0:0:
465,224,639962,1,0,2:0:0:0:
141,143,640115,5,0,0:0:0:0:
442,29,640257,1,10,2:3:0:0:
326,155,640400,1,0,2:0:0:0:
280,2,640543,1,0,0:0:0:0:
468,234,640704,5,2,0:0:0:0:
189,300,640840,1,0,2:0:0:0:
426,376,640976,5,0,0:0:0:0:
161,228,641115,1,10,2:3:0:0:
321,259,641257,1,0,2:0:0:0:
214,372,641400,1,0,0:0:0:0:
221,66,641543,5,2,0:0:0:0:
268,315,641685,1,0,2:0:0:0:
291,27,641828,5,0,0:0:0:0:
47,219,641972,5,12,2:1:0:0:
290,101,642105,1,0,2:0:0:0:
74,0,642241,1,0,0:0:0:0:
99,282,642377,5,2,0:0:0:0:
9,43,642519,1,8,2:0:0:0:
17,289,642662,5,8,2:0:0:0:
153,21,642805,1,8,2:0:0:0:
159,340,642938,5,8,2:0:0:0:
86,76,643071,1,8,2:0:0:0:
64,353,643253,6,0,B|171:338|171:338|165:348|165:348|220:313|220:313|212:313|212:313|320:333,1,300,6|0,0:0|0:0,0:0:0:0:
328,337,643563,1,0,0:0:0:0:
287,165,643681,6,0,B|270:179|270:179|283:45|283:45|387:131|387:131|356:134,1,300,10|0,2:3|0:0,0:0:0:0:
202,137,643967,2,0,L|209:58,1,75.0000028610231
457,106,644128,6,0,B|477:163|436:219|380:202|380:202|401:202|452:250|426:326,1,300,2|0,0:0|0:0,0:0:0:0:
340,265,644413,2,0,P|319:249|307:199,1,75.0000028610231
373,379,644556,6,0,B|299:362|299:362|255:372|255:372|217:347|217:347|211:350|211:350|116:346|116:346|149:344|166:333,1,300,10|0,2:3|0:0,0:0:0:0:
104,347,644841,1,0,0:0:0:0:
246,174,644985,5,4,0:1:0:0:
7,58,645115,1,8,2:0:0:0:
305,118,645256,5,0,0:0:0:0:
23,281,645399,1,12,2:1:0:0:
175,22,645685,5,8,2:0:0:0:
343,276,645828,1,4,0:1:0:0:
406,18,645988,5,8,2:0:0:0:
284,323,646113,1,0,0:0:0:0:
142,89,646270,1,12,2:1:0:0:
34,366,646543,5,8,2:0:0:0:
198,193,646700,2,0,B|175:210|175:210|242:221|242:221|243:225|243:225|304:233|304:233|306:238|306:238|375:248|375:248|344:272|344:272|334:251,1,300,4|0,0:2|0:0,0:0:0:0:
310,259,646985,1,0,0:0:0:0:
241,67,647128,6,0,B|300:86|300:86|334:54|334:54|369:137|369:137|426:118|426:118|496:142,1,300,10|0,2:3|0:0,0:0:0:0:
395,203,647414,2,0,P|354:209|324:190,1,75.0000028610231
167,42,647557,6,0,B|204:-15|204:-15|206:31|206:31|208:38|208:38|211:84|211:84|211:91|211:91|217:128|217:128|215:133|215:133|211:159|211:159|214:165|214:165|223:226,1,300,2|0,0:0|0:0,0:0:0:0:
227,289,647825,2,0,P|189:283|162:256,1,75.0000028610231
310,165,647985,6,0,B|367:113|366:153|449:147|449:147|385:204|408:237|316:232,1,300,10|0,2:3|0:0,0:0:0:0:
315,77,648270,2,0,P|355:67|394:72,1,75.0000028610231
472,253,648413,5,2,2:3:0:0:
272,365,648556,1,2,2:0:0:0:
258,358,648619,1,2,2:0:0:0:
245,365,648683,1,2,2:0:0:0:
230,359,648747,1,2,2:0:0:0:
217,366,648814,5,8,0:0:0:0:
192,358,648885,1,8,0:3:0:0:
181,335,648956,1,8,0:3:0:0:
185,310,649028,1,8,0:3:0:0:
206,297,649099,1,8,0:3:0:0:
222,278,649171,1,8,0:3:0:0:
224,253,649242,5,8,0:0:0:0:
194,219,649313,1,8,0:3:0:0:
149,220,649384,1,8,0:3:0:0:
126,259,649456,1,8,0:3:0:0:
137,302,649527,1,8,0:3:0:0:
177,321,649599,1,8,0:3:0:0:
219,306,649670,5,8,0:0:0:0:
256,265,649742,1,0,0:0:0:0:
310,257,649813,1,0,0:0:0:0:
357,283,649884,1,0,0:0:0:0:
393,324,649956,1,0,0:0:0:0:
447,326,650027,1,0,0:0:0:0:
498,285,650099,6,0,B|436:248|410:167|410:167|426:252|382:351,1,300,6|0,0:0|0:0,0:0:0:0:
383,333,650421,1,0,0:0:0:0:
332,233,650563,6,0,B|335:233|335:250|335:250|357:184|307:151|307:151|315:145|315:145|271:185|196:149|234:46|285:97|258:106,1,300,10|0,2:3|0:0,0:0:0:0:
210,208,650849,2,0,P|189:188|171:139,1,75.0000028610231
339,241,650992,6,0,B|410:221|406:349|313:362|163:281,1,300,2|0,0:0|0:0,0:0:0:0:
176,280,651262,1,0,0:0:0:0:
152,81,651401,6,0,B|152:58|179:44|179:44|174:3|174:3|219:208,1,300,10|0,2:3|0:0,0:0:0:0:
226,221,651650,1,0,0:0:0:0:
312,65,651813,5,8,0:0:0:0:
385,76,651884,1,8,2:0:0:0:
422,140,651955,1,8,2:0:0:0:
391,209,652027,1,8,2:0:0:0:
324,242,652098,1,8,2:0:0:0:
311,316,652170,1,8,2:0:0:0:
349,379,652241,5,8,0:0:0:0:
392,367,652313,1,8,0:0:0:0:
415,328,652384,1,8,0:0:0:0:
406,284,652455,1,8,0:0:0:0:
366,260,652527,1,8,0:0:0:0:
337,225,652598,1,8,0:0:0:0:
346,180,652670,5,8,0:0:0:0:
373,167,652741,1,8,0:0:0:0:
402,174,652813,1,8,0:0:0:0:
423,194,652884,1,8,0:0:0:0:
424,223,652955,1,8,0:0:0:0:
408,248,653027,1,8,0:0:0:0:
375,254,653098,5,8,0:0:0:0:
368,246,653173,1,8,0:0:0:0:
362,237,653249,1,8,0:0:0:0:
359,227,653325,1,8,0:0:0:0:
358,216,653401,1,8,0:0:0:0:
359,206,653476,1,8,0:0:0:0:
368,193,653552,5,4,0:1:0:0:
194,291,653694,1,0,2:0:0:0:
396,124,653837,1,0,0:0:0:0:
181,38,653980,1,10,2:3:0:0:
190,39,654248,5,0,0:0:0:0:
376,185,654390,1,2,0:0:0:0:
195,304,654550,1,0,2:0:0:0:
398,244,654712,5,0,0:0:0:0:
143,138,654837,1,10,2:3:0:0:
134,143,655103,5,0,0:0:0:0:
341,76,655245,1,2,0:0:0:0:
307,297,655397,1,0,2:0:0:0:
267,25,655552,5,0,0:0:0:0:
378,346,655694,1,10,2:3:0:0:
371,357,655980,5,0,0:0:0:0:
230,114,656122,1,2,0:0:0:0:
98,348,656265,5,8,2:0:0:0:
286,175,656408,1,8,2:0:0:0:
84,2,656551,1,8,2:0:0:0:
199,192,656691,1,8,2:0:0:0:
393,5,656832,1,8,2:0:0:0:
96,132,656973,6,0,B|63:157|70:209|70:209|153:220|175:332|98:378,1,300,4|0,0:2|0:0,0:0:0:0:
87,374,657258,1,0,0:0:0:0:
233,102,657401,1,10,2:3:0:0:
237,108,657687,5,0,0:0:0:0:
349,321,657830,1,2,0:0:0:0:
449,113,657973,1,0,2:0:0:0:
419,342,658115,5,0,0:0:0:0:
334,46,658258,1,10,2:3:0:0:
339,15,658544,5,0,0:0:0:0:
274,334,658687,1,4,0:1:0:0:
98,98,658830,1,8,2:0:0:0:
333,275,658973,5,0,0:0:0:0:
25,369,659115,1,12,2:1:0:0:
17,360,659401,5,8,2:0:0:0:
177,70,659544,1,4,0:1:0:0:
347,350,659687,1,8,2:0:0:0:
115,22,659830,5,0,0:0:0:0:
0,288,659973,1,12,2:1:0:0:
6,297,660258,5,0,0:0:0:0:
232,119,660401,2,0,B|271:136|315:95|315:95|320:174|423:202,1,225.000008583069,4|0,0:2|0:0,0:0:0:0:
405,189,660687,1,0,0:0:0:0:
215,369,660830,5,10,2:3:0:0:
216,379,661115,5,0,0:0:0:0:
380,101,661258,1,2,0:0:0:0:
451,357,661401,1,0,2:0:0:0:
452,59,661544,5,0,0:0:0:0:
182,187,661687,1,10,2:3:0:0:
180,200,661973,5,0,0:0:0:0:
327,46,662115,2,0,B|350:-8|279:-27|199:26|246:205|357:109|285:322,1,375.000014305115,4|0,0:2|0:0,0:0:0:0:
222,339,662544,5,8,0:0:0:0:
192,334,662615,1,8,0:0:0:0:
171,311,662687,1,8,0:0:0:0:
165,281,662758,1,8,0:0:0:0:
181,255,662830,1,8,0:0:0:0:
187,225,662901,1,8,0:0:0:0:
176,196,662973,6,0,P|153:178|132:177,3,37.5000014305115,8|8|8|8,0:0|0:0|0:0|0:0,0:0:0:0:
261,273,663258,2,0,P|278:266|291:253,3,37.5000014305115,8|8|8|8,0:0|0:0|0:0|0:0,0:0:0:0:
333,163,663544,2,0,P|350:169|363:182,3,37.5000014305115,8|8|8|8,0:0|0:0|0:0|0:0,0:0:0:0:
451,317,663830,6,0,B|419:358|371:294|400:212|461:264|427:137,1,225.000008583069,4|0,0:2|0:0,0:0:0:0:
415,138,664139,1,0,0:0:0:0:
256,368,664265,1,10,2:3:0:0:
235,353,664550,5,0,0:0:0:0:
22,224,664694,1,2,0:0:0:0:
269,134,664836,1,0,2:0:0:0:
156,333,664981,5,0,0:0:0:0:
96,38,665139,1,10,2:3:0:0:
91,47,665403,6,0,L|87:103,1,37.5000014305115
138,188,665521,5,8,0:0:0:0:
195,139,665592,1,8,2:0:0:0:
269,134,665663,1,8,2:0:0:0:
318,191,665735,1,8,2:0:0:0:
345,260,665806,1,8,2:0:0:0:
415,287,665878,1,8,2:0:0:0:
478,247,665949,5,8,0:0:0:0:
454,217,666021,1,8,0:0:0:0:
418,207,666092,1,8,0:0:0:0:
382,218,666163,1,8,0:0:0:0:
360,249,666235,1,8,0:0:0:0:
358,286,666306,1,8,0:0:0:0:
382,314,666378,5,8,0:0:0:0:
393,294,666449,1,8,0:0:0:0:
396,271,666521,1,8,0:0:0:0:
391,249,666592,1,8,0:0:0:0:
379,229,666663,1,8,0:0:0:0:
360,215,666735,1,8,0:0:0:0:
338,215,666806,6,0,P|310:243|303:263,3,37.5000014305115,8|8|0|0,0:0|0:0|0:0|0:0,0:0:0:0:
254,306,667106,2,0,P|242:291|227:280,1,37.5000014305115,8|0,0:0|0:0,0:0:0:0:
111,366,667259,5,4,0:1:0:0:
175,82,667401,1,0,2:0:0:0:
176,334,667544,5,0,0:0:0:0:
106,53,667687,1,10,2:3:0:0:
96,43,667973,5,0,0:0:0:0:
329,204,668116,1,2,0:0:0:0:
63,111,668259,5,0,2:0:0:0:
347,43,668401,1,0,0:0:0:0:
276,302,668544,1,10,2:3:0:0:
270,321,668830,5,0,0:0:0:0:
221,9,668973,1,2,0:0:0:0:
65,264,669116,1,0,2:0:0:0:
300,101,669259,5,0,0:0:0:0:
14,14,669401,1,10,2:3:0:0:
16,23,669656,5,0,0:0:0:0:
188,230,669812,1,2,0:0:0:0:
316,1,669954,1,8,2:0:0:0:
134,128,670097,1,8,2:0:0:0:
329,288,670240,1,8,2:0:0:0:
255,119,670381,1,8,2:0:0:0:
133,352,670523,1,8,2:0:0:0:
416,171,670663,6,0,B|443:101|366:96|322:155|383:254|447:207|387:365,1,300,4|0,0:2|0:0,0:0:0:0:
383,355,670966,1,0,0:0:0:0:
235,180,671091,6,0,B|197:95|146:155|91:77|91:77|129:121|125:192,1,300,10|0,2:3|0:0,0:0:0:0:
116,202,671376,1,0,0:0:0:0:
249,20,671519,5,2,0:0:0:0:
329,287,671670,1,0,2:0:0:0:
316,73,671822,5,0,0:0:0:0:
261,358,671948,1,10,2:3:0:0:
247,361,672233,5,0,0:0:0:0:
95,132,672376,1,4,0:1:0:0:
383,21,672518,1,8,2:0:0:0:
256,209,672661,1,0,0:0:0:0:
87,18,672804,1,12,2:1:0:0:
91,27,673090,5,8,2:0:0:0:
156,291,673249,1,4,0:1:0:0:
381,100,673392,1,8,2:0:0:0:
198,165,673535,1,0,0:0:0:0:
339,371,673678,1,12,2:1:0:0:
334,358,673950,5,8,2:0:0:0:
203,174,674116,2,0,B|141:215|65:170|148:41|214:90|209:180|324:55,1,300,4|0,0:2|0:0,0:0:0:0:
299,59,674401,1,0,0:0:0:0:
13,8,674531,1,10,2:3:0:0:
16,19,674830,5,0,0:0:0:0:
137,212,674972,1,2,0:0:0:0:
302,51,675114,1,0,2:0:0:0:
154,99,675257,1,0,0:0:0:0:
261,309,675400,1,10,2:3:0:0:
265,323,675686,5,0,0:0:0:0:
437,108,675829,2,0,B|500:51|443:-19|316:25|347:155|422:218|491:157|479:288|410:361|410:361|426:320|414:275,1,500,6|0,0:0|0:0,0:0:0:0:
374,257,676257,1,8,0:0:0:0:
357,248,676329,1,8,2:3:0:0:
339,249,676400,1,8,2:3:0:0:
322,256,676472,1,8,2:3:0:0:
312,276,676543,5,8,2:3:0:0:
340,267,676614,1,8,2:3:0:0:
354,247,676686,1,8,0:0:0:0:
355,223,676757,1,8,2:3:0:0:
347,199,676829,1,8,2:3:0:0:
331,180,676900,1,8,2:3:0:0:
308,170,676972,1,8,2:3:0:0:
284,171,677043,1,8,2:3:0:0:
267,188,677114,5,8,0:0:0:0:
276,165,677186,1,8,2:3:0:0:
272,141,677257,1,8,2:3:0:0:
257,121,677329,1,8,2:3:0:0:
234,114,677400,1,8,2:3:0:0:
210,120,677472,1,8,2:3:0:0:
193,144,677543,6,0,B|221:216|221:216|221:221|221:221|251:283|251:283|246:295|246:295|291:254|291:254|296:253|296:253|362:185,1,300,4|0,0:2|0:0,0:0:0:0:
139,200,677829,2,0,B|148:223|148:223|145:226|145:226|166:266,1,75.0000028610231
80,344,677972,6,0,B|65:236|65:236|68:235|68:235|45:37,1,300,10|0,2:3|0:0,0:0:0:0:
44,32,678257,1,0,0:0:0:0:
250,204,678400,6,0,B|298:251|365:212|332:82|202:22,1,300,2|0,0:0|0:0,0:0:0:0:
196,33,678686,1,0,0:0:0:0:
240,213,678829,6,0,B|338:297|338:297|359:162|359:162|317:212,1,300,10|0,2:3|0:0,0:0:0:0:
218,291,679090,2,0,L|290:351,1,75.0000028610231
434,287,679247,5,8,0:0:0:0:
479,228,679318,1,8,2:0:0:0:
473,153,679389,1,8,2:0:0:0:
416,102,679461,1,8,2:0:0:0:
341,102,679532,5,8,0:0:0:0:
340,139,679604,1,8,2:3:0:0:
361,169,679675,1,8,2:3:0:0:
396,181,679747,1,8,2:3:0:0:
432,175,679818,5,8,0:0:0:0:
416,102,679889,1,8,2:0:0:0:
346,71,679961,1,8,2:0:0:0:
276,99,680032,1,8,2:0:0:0:
229,158,680104,1,0,0:0:0:0:
156,175,680175,1,8,2:0:0:0:
87,142,680247,1,8,2:0:0:0:
67,70,680318,1,8,2:0:0:0:
104,5,680389,5,8,0:0:0:0:
133,39,680461,1,8,2:3:0:0:
136,83,680532,1,8,2:3:0:0:
107,118,680604,1,8,2:3:0:0:
71,144,680675,1,8,0:0:0:0:
57,179,680747,1,8,2:3:0:0:
71,213,680818,1,8,2:3:0:0:
106,220,680889,1,8,2:3:0:0:
128,190,680980,5,6,0:0:0:0:
180,163,681051,1,0,0:0:0:0:
237,177,681122,1,0,0:0:0:0:
271,225,681194,1,0,0:0:0:0:
266,283,681265,1,2,0:0:0:0:
224,324,681337,1,0,0:0:0:0:
166,328,681408,1,0,0:0:0:0:
116,293,681480,1,0,0:0:0:0:
100,235,681551,1,2,0:0:0:0:
127,182,681622,1,0,0:0:0:0:
165,135,681694,1,0,0:0:0:0:
165,75,681765,1,0,0:0:0:0:
118,35,681837,5,10,0:0:0:0:
67,68,681909,1,0,0:0:0:0:
60,127,681980,1,0,0:0:0:0:
87,180,682052,1,0,0:0:0:0:
135,214,682123,1,2,0:0:0:0:
148,272,682195,1,0,0:0:0:0:
128,328,682266,1,0,0:0:0:0:
70,344,682337,1,0,0:0:0:0:
16,316,682408,1,2,0:0:0:0:
41,290,682480,1,0,0:0:0:0:
75,281,682551,1,0,0:0:0:0:
109,290,682622,1,0,0:0:0:0:
129,320,682694,5,2,0:0:0:0:
175,357,682765,1,0,0:0:0:0:
234,344,682837,1,0,0:0:0:0:
266,294,682908,1,0,0:0:0:0:
261,233,682980,1,2,0:0:0:0:
222,187,683051,1,0,0:0:0:0:
198,132,683122,1,0,0:0:0:0:
220,75,683194,1,0,0:0:0:0:
274,50,683265,1,2,0:0:0:0:
329,74,683337,1,0,0:0:0:0:
362,123,683408,1,0,0:0:0:0:
420,137,683480,1,0,0:0:0:0:
472,107,683551,5,10,0:0:0:0:
440,56,683622,1,0,0:0:0:0:
381,41,683694,1,0,0:0:0:0:
328,69,683765,1,0,0:0:0:0:
312,127,683837,1,2,0:0:0:0:
266,165,683908,1,0,0:0:0:0:
205,165,683980,1,0,0:0:0:0:
164,120,684051,1,0,0:0:0:0:
167,60,684122,5,2,0:0:0:0:
202,65,684194,1,0,0:0:0:0:
224,92,684265,1,0,0:0:0:0:
227,128,684337,1,0,0:0:0:0:
206,159,684408,5,2,0:0:0:0:
176,209,684479,1,0,0:0:0:0:
187,266,684550,1,0,0:0:0:0:
235,301,684622,1,0,0:0:0:0:
293,296,684694,1,2,0:0:0:0:
332,252,684765,1,0,0:0:0:0:
335,192,684837,1,0,0:0:0:0:
297,145,684908,1,0,0:0:0:0:
289,85,684980,1,2,0:0:0:0:
325,37,685051,1,0,0:0:0:0:
383,26,685122,1,0,0:0:0:0:
433,59,685194,1,0,0:0:0:0:
441,118,685265,5,10,0:0:0:0:
394,130,685337,1,0,0:0:0:0:
352,105,685408,1,0,0:0:0:0:
348,56,685480,1,0,0:0:0:0:
381,22,685551,1,2,0:0:0:0:
424,42,685622,1,0,0:0:0:0:
443,86,685694,1,0,0:0:0:0:
436,133,685765,1,0,0:0:0:0:
401,166,685837,1,2,0:0:0:0:
376,206,685908,1,0,0:0:0:0:
368,253,685980,1,0,0:0:0:0:
382,298,686051,1,0,0:0:0:0:
424,319,686122,6,0,P|452:308|470:279,3,59.9999981689454,4|0|0|0,0:2|0:0|0:0|0:0,0:0:0:0:
312,158,686408,1,8,0:0:0:0:
291,145,686480,1,8,0:0:0:0:
267,143,686551,1,8,0:0:0:0:
245,152,686622,1,8,0:0:0:0:
229,170,686694,1,8,0:0:0:0:
223,193,686765,1,8,0:0:0:0:
227,216,686837,1,8,0:0:0:0:
241,235,686908,1,8,0:0:0:0:
262,241,686980,5,0,0:0:0:0:
240,226,687051,1,0,0:0:0:0:
214,225,687122,1,0,0:0:0:0:
192,238,687194,1,0,0:0:0:0:
180,261,687265,1,0,0:0:0:0:
182,287,687337,1,0,0:0:0:0:
198,308,687408,1,0,0:0:0:0:
222,317,687479,1,0,0:0:0:0:
247,314,687551,6,0,P|258:291|252:265,3,37.5000014305115,8|0|0|0,0:0|0:0|0:0|0:0,0:0:0:0:
170,136,687837,5,4,0:2:0:0:
111,134,687908,1,0,0:0:0:0:
63,169,687979,1,0,0:0:0:0:
47,225,688051,1,0,0:0:0:0:
70,280,688122,1,2,0:0:0:0:
121,309,688194,1,0,0:0:0:0:
179,300,688265,1,0,0:0:0:0:
220,258,688337,1,0,0:0:0:0:
257,212,688408,1,2,0:0:0:0:
314,200,688479,1,0,0:0:0:0:
367,226,688551,1,0,0:0:0:0:
392,279,688622,1,0,0:0:0:0:
378,336,688694,5,10,0:0:0:0:
322,314,688765,1,0,0:0:0:0:
288,263,688837,1,0,0:0:0:0:
297,204,688908,1,0,0:0:0:0:
343,165,688980,1,2,0:0:0:0:
369,111,689051,1,0,0:0:0:0:
354,53,689122,1,0,0:0:0:0:
304,18,689194,1,0,0:0:0:0:
245,30,689265,1,2,0:0:0:0:
216,83,689337,1,0,0:0:0:0:
162,108,689408,1,0,0:0:0:0:
103,93,689480,1,0,0:0:0:0:
73,41,689551,5,6,0:0:0:0:
128,19,689622,1,0,0:0:0:0:
185,38,689694,1,0,0:0:0:0:
217,87,689765,1,0,0:0:0:0:
214,147,689837,1,2,0:0:0:0:
175,192,689908,1,0,0:0:0:0:
126,227,689980,1,0,0:0:0:0:
109,284,690051,1,0,0:0:0:0:
137,336,690122,1,2,0:0:0:0:
171,325,690194,1,0,0:0:0:0:
186,292,690265,1,0,0:0:0:0:
180,256,690337,1,0,0:0:0:0:
157,227,690408,5,12,0:2:0:0:
113,266,690479,1,0,0:0:0:0:
107,324,690550,1,0,0:0:0:0:
142,372,690622,1,0,0:0:0:0:
200,383,690693,1,2,0:0:0:0:
250,353,690765,1,0,0:0:0:0:
268,297,690836,1,0,0:0:0:0:
243,244,690907,1,0,0:0:0:0:
203,197,690980,5,2,0:0:0:0:
206,161,691051,1,0,0:0:0:0:
229,133,691122,1,0,0:0:0:0:
264,123,691194,1,0,0:0:0:0:
297,136,691265,5,6,0:0:0:0:
268,175,691337,1,0,0:0:0:0:
221,187,691408,1,0,0:0:0:0:
183,156,691480,1,0,0:0:0:0:
172,109,691551,1,2,0:0:0:0:
189,64,691622,1,0,0:0:0:0:
174,17,691694,1,0,0:0:0:0:
127,6,691765,1,0,0:0:0:0:
86,32,691837,1,2,0:0:0:0:
81,79,691908,1,0,0:0:0:0:
110,117,691980,1,0,0:0:0:0:
123,162,692051,1,0,0:0:0:0:
99,203,692122,5,10,0:0:0:0:
127,180,692194,1,0,0:0:0:0:
162,172,692265,1,0,0:0:0:0:
197,179,692337,1,0,0:0:0:0:
223,202,692408,1,2,0:0:0:0:
238,234,692480,1,0,0:0:0:0:
259,262,692551,1,0,0:0:0:0:
291,276,692622,1,0,0:0:0:0:
327,278,692694,1,2,0:0:0:0:
359,262,692765,1,0,0:0:0:0:
374,229,692837,1,0,0:0:0:0:
373,193,692908,1,0,0:0:0:0:
354,161,692980,5,12,0:2:0:0:
331,152,693051,1,0,0:0:0:0:
309,162,693122,2,0,P|296:204|306:231,1,59.9999981689454
473,142,693265,5,12,0:2:0:0:
492,126,693336,1,0,0:0:0:0:
494,102,693407,2,0,P|464:69|435:64,1,59.9999981689454
393,288,693551,5,12,0:2:0:0:
398,313,693622,1,0,0:0:0:0:
418,326,693693,2,0,P|460:316|479:294,1,59.9999981689454
304,175,693837,6,0,L|223:189,1,59.9999981689454,12|0,0:1|0:0,0:0:0:0:
101,339,693980,2,0,L|171:349,1,59.9999981689454,8|0,0:0|0:0,0:0:0:0:
236,106,694122,6,0,L|155:120,3,59.9999981689454,12|0|0|0,0:1|0:0|0:0|0:0,0:0:0:0:
190,282,694408,2,0,L|260:292,3,59.9999981689454,12|0|0|0,0:1|0:0|0:0|0:0,0:0:0:0:
300,173,694694,5,4,0:2:0:0:
326,148,694765,1,0,0:0:0:0:
335,113,694837,1,0,0:0:0:0:
328,77,694908,1,0,0:0:0:0:
302,50,694980,5,2,0:0:0:0:
259,99,695051,1,0,0:0:0:0:
262,164,695122,1,0,0:0:0:0:
314,205,695194,1,0,0:0:0:0:
337,266,695265,1,2,0:0:0:0:
322,330,695337,1,0,0:0:0:0:
265,363,695408,1,0,0:0:0:0:
204,334,695480,1,0,0:0:0:0:
187,270,695551,5,10,0:0:0:0:
242,234,695622,1,0,0:0:0:0:
307,246,695694,1,0,0:0:0:0:
342,300,695765,1,0,0:0:0:0:
402,327,695837,1,2,0:0:0:0:
465,310,695908,1,0,0:0:0:0:
499,253,695980,1,0,0:0:0:0:
485,188,696051,1,0,0:0:0:0:
429,152,696122,1,2,0:0:0:0:
405,179,696194,1,0,0:0:0:0:
407,214,696265,1,0,0:0:0:0:
427,243,696337,1,0,0:0:0:0:
461,252,696408,5,2,0:0:0:0:
495,202,696480,1,0,0:0:0:0:
490,142,696551,1,0,0:0:0:0:
449,97,696622,1,0,0:0:0:0:
389,89,696694,1,2,0:0:0:0:
337,118,696765,1,0,0:0:0:0:
311,172,696837,1,0,0:0:0:0:
276,220,696908,1,0,0:0:0:0:
215,226,696980,1,2,0:0:0:0:
162,197,697051,1,0,0:0:0:0:
137,142,697122,1,0,0:0:0:0:
149,82,697194,1,0,0:0:0:0:
193,41,697265,5,10,0:0:0:0:
206,60,697337,1,0,0:0:0:0:
213,82,697408,1,0,0:0:0:0:
215,106,697480,1,0,0:0:0:0:
209,129,697551,1,2,0:0:0:0:
199,150,697622,1,0,0:0:0:0:
183,168,697694,1,0,0:0:0:0:
161,178,697765,1,0,0:0:0:0:
136,178,697837,1,2,0:0:0:0:
113,169,697908,1,0,0:0:0:0:
96,151,697980,1,0,0:0:0:0:
90,127,698051,1,0,0:0:0:0:
94,103,698122,5,2,0:0:0:0:
140,63,698194,1,0,0:0:0:0:
199,65,698265,1,0,0:0:0:0:
242,106,698337,1,0,0:0:0:0:
244,165,698408,1,2,0:0:0:0:
207,213,698480,1,0,0:0:0:0:
185,268,698551,1,0,0:0:0:0:
195,326,698622,1,0,0:0:0:0:
239,367,698694,1,2,0:0:0:0:
298,367,698765,1,0,0:0:0:0:
342,326,698837,1,0,0:0:0:0:
350,266,698908,1,0,0:0:0:0:
314,217,698980,5,10,0:0:0:0:
275,171,699051,1,0,0:0:0:0:
272,111,699122,1,0,0:0:0:0:
305,60,699194,1,0,0:0:0:0:
362,43,699265,1,2,0:0:0:0:
420,59,699337,1,0,0:0:0:0:
452,108,699408,1,0,0:0:0:0:
452,168,699480,1,0,0:0:0:0:
418,217,699551,1,2,0:0:0:0:
391,270,699622,1,0,0:0:0:0:
413,326,699694,1,0,0:0:0:0:
469,344,699765,1,0,0:0:0:0:
512,302,699837,5,8,0:0:0:0:
496,292,699908,1,8,0:0:0:0:
477,291,699980,1,8,0:0:0:0:
461,299,700051,1,8,0:0:0:0:
449,312,700122,2,0,P|441:334|444:359,3,37.5000014305115,8|8|8|8,0:0|0:0|0:0|0:0,0:0:0:0:
379,263,700408,2,0,P|378:244|371:227,3,37.5000014305115,8|8|8|8,0:0|0:0|0:0|0:0,0:0:0:0:
256,308,700694,5,0,0:0:0:0:
230,324,700765,1,0,0:0:0:0:
199,323,700837,1,0,0:0:0:0:
178,301,700908,1,0,0:0:0:0:
178,270,700980,6,0,P|192:256|216:253,3,37.5000014305115
268,320,701265,2,0,P|282:334|306:337,3,37.5000014305115,8|8|8|8,0:0|0:0|0:0|0:0,0:0:0:0:
402,121,701551,5,4,0:2:0:0:
360,79,701622,1,0,0:0:0:0:
300,80,701694,1,0,0:0:0:0:
260,123,701765,1,0,0:0:0:0:
253,182,701837,1,2,0:0:0:0:
293,226,701908,1,0,0:0:0:0:
304,285,701980,1,0,0:0:0:0:
279,339,702051,1,0,0:0:0:0:
222,358,702122,1,2,0:0:0:0:
168,330,702194,1,0,0:0:0:0:
144,275,702265,1,0,0:0:0:0:
159,216,702337,1,0,0:0:0:0:
210,185,702408,5,10,0:0:0:0:
225,243,702480,1,0,0:0:0:0:
184,287,702551,1,0,0:0:0:0:
124,287,702622,1,0,0:0:0:0:
88,238,702694,1,2,0:0:0:0:
100,179,702765,1,0,0:0:0:0:
148,142,702837,1,0,0:0:0:0:
171,87,702908,1,0,0:0:0:0:
147,31,702980,1,2,0:0:0:0:
89,14,703051,1,0,0:0:0:0:
37,43,703122,1,0,0:0:0:0:
24,102,703194,1,0,0:0:0:0:
50,155,703265,5,6,0:2:0:0:
91,110,703337,1,0,0:0:0:0:
150,108,703408,1,0,0:0:0:0:
193,149,703480,1,0,0:0:0:0:
193,208,703551,1,2,0:0:0:0:
225,258,703622,1,0,0:0:0:0:
282,275,703694,1,0,0:0:0:0:
334,246,703765,1,0,0:0:0:0:
356,188,703837,1,2,0:0:0:0:
334,133,703908,1,0,0:0:0:0:
297,84,703980,1,0,0:0:0:0:
308,25,704051,1,0,0:0:0:0:
362,1,704122,5,8,0:0:0:0:
382,23,704194,1,8,0:0:0:0:
384,52,704265,1,8,0:0:0:0:
368,77,704337,1,8,0:0:0:0:
341,90,704408,5,8,0:0:0:0:
323,73,704480,1,8,0:0:0:0:
301,62,704551,1,8,0:0:0:0:
277,65,704622,1,8,0:0:0:0:
261,74,704694,6,0,L|251:150,1,59.9999981689454,8|0,0:0|0:0,0:0:0:0:
366,192,704837,2,0,L|376:268,1,59.9999981689454,8|0,0:0|0:0,0:0:0:0:
197,351,704980,6,0,B|163:372|78:378|69:296|152:216|152:216|170:193|141:178|138:147|138:147|227:123|314:54|371:64|379:45|379:45|385:45|385:45|390:38|390:38|398:33|398:33|398:23|398:23|413:25|413:25|436:-4|458:-30|487:-16|487:-16|515:-15|513:53|486:68|486:68|452:104|398:187|272:207|272:207|240:215|252:233|252:233|311:274|315:355|247:377|194:331,1,1327.4999534111,4|0,0:2|0:0,0:0:0:0:
