osu file format v14

[General]
AudioFilename: audio.mp3
AudioLeadIn: 0
PreviewTime: 421031
Countdown: 0
SampleSet: Soft
StackLeniency: 0.2
Mode: 0
LetterboxInBreaks: 0
WidescreenStoryboard: 1

[Editor]
Bookmarks: 10855,472989,536626,563026,591826,620626,635026,649426,673876,678226,734926,757843
DistanceSpacing: 0.6
BeatDivisor: 4
GridSize: 32
TimelineZoom: 2.600003

[Metadata]
Title:Devour Me, Colossus (Part I): Blackholes
TitleUnicode:Devour Me, Colossus (Part I): Blackholes
Artist:Ne Obliviscaris
ArtistUnicode:Ne Obliviscaris
Creator:Val
Version:Flesh to Flowers, Blood to Rivers
Source:
Tags:Featured Artist FA Citadel Pt. 1 Progressive Melodic Metal Deathstream Marathon Technical Symphonic English Classical Violin Extreme Australia Season of Mist KysT_T
BeatmapID:2648218
BeatmapSetID:1274508

[Difficulty]
HPDrainRate:5
CircleSize:4.4
OverallDifficulty:9.7
ApproachRate:9.7
SliderMultiplier:2
SliderTickRate:1

[Events]
//Background and Video events
0,0,"Citadel Text.jpg",0,0
//Break Periods
2,22572,25477
2,305996,309013
2,536492,555148
//Storyboard Layer 0 (Background)
//Storyboard Layer 1 (Fail)
//Storyboard Layer 2 (Pass)
//Storyboard Layer 3 (Foreground)
//Storyboard Layer 4 (Overlay)
//Storyboard Sound Samples

[TimingPoints]
772,300,3,2,0,30,1,0
772,-333.333333333334,3,2,0,30,0,0
1222,-249.999999999999,3,2,0,30,0,0
1672,-181.818181818181,3,2,0,30,0,0
2122,-153.846153846153,3,2,0,30,0,0
2572,-125,3,2,0,30,0,0
3022,-111.111111111111,3,2,0,30,0,0
3472,-95.2380952380951,3,2,0,30,0,0
3922,-86.9565217391303,3,2,0,30,0,0
4372,-142.857142857143,3,2,0,30,0,0
4822,-83.3333333333333,3,2,0,30,0,0
4972,-111.111111111111,3,2,0,30,0,0
5122,-166.666666666667,3,2,0,30,0,0
5272,-166.666666666667,3,2,1,30,0,0
5572,-142.857142857143,3,2,1,35,0,0
5872,-125,3,2,1,40,0,0
6172,-111.111111111111,3,2,1,45,0,0
6472,-100,3,2,1,50,0,0
6772,-90.9090909090909,3,2,1,55,0,0
7072,-83.3333333333333,3,2,1,60,0,0
7372,-76.9230769230769,3,2,1,65,0,0
7672,-71.4285714285714,3,2,1,70,0,0
7972,-100,3,2,1,70,0,0
8722,-166.666666666667,3,2,1,70,0,0
8872,-100,3,2,1,70,0,0
9172,-100,3,2,1,70,0,0
9322,-111.111111111111,3,2,1,70,0,0
9472,-125,3,2,1,70,0,0
9622,-142.857142857143,3,2,1,70,0,0
9772,-100,3,2,1,70,0,0
10522,-166.666666666667,3,2,1,70,0,0
10672,-100,3,2,1,70,0,0
10972,-100,3,2,1,70,0,0
11122,-111.111111111111,3,2,1,70,0,0
11272,-125,3,2,1,70,0,0
11422,-142.857142857143,3,2,1,70,0,0
11572,-100,3,2,3,70,0,0
11647,-100,3,2,1,70,0,0
12322,-166.666666666667,3,2,1,70,0,0
12472,-100,3,2,1,70,0,0
12772,-100,3,2,1,70,0,0
12922,-111.111111111111,3,2,1,70,0,0
13072,-125,3,2,1,70,0,0
13222,-142.857142857143,3,2,1,70,0,0
13372,-100,3,2,3,70,0,0
15172,-100,3,2,1,70,0,0
15472,-100,3,2,1,70,0,0
15622,-111.111111111111,3,2,1,70,0,0
15772,-125,3,2,1,70,0,0
15922,-142.857142857143,3,2,1,70,0,0
16072,-100,3,2,1,70,0,0
16372,-100,3,2,1,70,0,0
16522,-111.111111111111,3,2,1,70,0,0
16672,-125,3,2,1,70,0,0
16822,-142.857142857143,3,2,1,70,0,0
16972,-100,3,2,1,70,0,0
17272,-100,3,2,1,70,0,0
17422,-111.111111111111,3,2,1,70,0,0
17572,-125,3,2,1,70,0,0
17722,-142.857142857143,3,2,1,70,0,0
17872,-100,3,2,1,70,0,0
18172,-100,3,2,1,70,0,0
18322,-111.111111111111,3,2,1,70,0,0
18472,-125,3,2,1,70,0,0
18622,-142.857142857143,3,2,1,70,0,0
18772,-100,3,2,1,70,0,0
19072,-83.3333333333333,3,2,3,70,0,0
19297,-83.3333333333333,3,2,1,70,0,0
19522,-142.857142857143,3,2,1,70,0,0
19672,-100,3,2,3,70,0,0
19747,-100,3,2,1,70,0,0
19972,-100,3,2,1,70,0,0
20122,-111.111111111111,3,2,1,70,0,0
20272,-125,3,2,1,70,0,0
20422,-142.857142857143,3,2,1,70,0,0
20572,-100,3,2,3,70,0,0
22372,-100,3,2,1,70,0,0
25972,-166.666666666667,3,2,1,70,0,0
29272,-125,3,2,1,5,0,0
29422,-125,3,2,1,5,0,0
29572,-100,3,2,1,70,0,1
29647,-100,3,2,4,70,0,1
31372,-100,3,2,1,70,0,1
33247,-100,3,2,4,70,0,1
34972,-100,3,2,1,70,0,1
36847,-100,3,2,4,70,0,1
42172,-100,3,2,1,70,0,1
42472,-100,3,2,2,70,0,1
42772,-100,3,2,1,70,0,1
43972,300,4,2,1,70,1,0
44870,-100,4,2,3,70,0,0
45770,-100,4,2,1,70,0,0
46372,-166.666666666667,4,2,1,70,0,0
46447,-166.666666666667,4,2,1,5,0,0
46672,-100,4,2,1,70,0,0
48772,-142.857142857143,4,2,1,70,0,0
49222,-142.857142857143,4,2,1,70,0,0
49372,-100,4,2,1,70,0,0
49445,-100,4,2,3,70,0,0
51245,-100,4,2,1,70,0,0
51472,-125,4,2,1,70,0,0
51922,-125,4,2,1,70,0,0
52372,-125,4,2,1,70,0,0
53572,-100,4,2,1,70,0,0
53647,-100,4,2,1,5,0,0
54172,-100,4,2,1,70,0,0
54995,-100,4,2,1,5,0,0
55070,-100,4,2,1,70,0,0
58072,-125,4,2,1,70,0,0
58297,-125,4,2,1,5,0,0
58372,-100,4,2,1,70,0,0
58595,-100,4,2,1,5,0,0
58670,-100,4,2,1,70,0,0
58897,-100,4,2,1,5,0,0
58972,-100,4,2,1,70,0,0
59795,-100,4,2,1,5,0,0
59870,-100,4,2,1,70,0,0
62870,-100,4,2,3,70,0,0
63170,-125,4,2,1,70,0,0
63247,-125,4,2,1,5,0,0
63772,-100,4,2,1,70,0,0
65572,-166.666666666667,4,2,1,70,0,0
65647,-166.666666666667,4,2,1,5,0,0
65872,-125,4,2,1,70,0,0
66322,-125,4,2,1,70,0,0
66772,-125,4,2,1,70,0,0
67222,-125,4,2,1,70,0,0
67670,-125,4,2,3,70,0,0
67895,-100,4,2,1,5,0,0
67970,-125,4,2,1,70,0,0
68047,-100,4,2,1,5,0,0
68572,-100,4,2,1,70,0,0
70372,-166.666666666667,4,2,1,70,0,0
70447,-166.666666666667,4,2,1,5,0,0
70672,-100,4,2,1,70,0,0
71570,-100,4,3,3,70,0,0
71870,-100,4,2,3,70,0,0
72772,300,3,2,1,70,1,1
72772,-100,3,2,1,70,0,1
72845,-100,3,2,4,70,0,1
79970,-100,3,2,1,70,0,1
81770,-100,3,2,3,70,0,1
81845,-100,3,2,1,70,0,1
86570,-100,3,2,3,70,0,1
87172,300,4,2,1,70,1,0
87247,-100,4,2,1,5,0,0
87772,-100,4,2,1,70,0,0
88072,-100,4,2,1,70,0,0
88297,-100,4,2,1,5,0,0
88372,-166.666666666667,4,2,1,70,0,0
88597,-166.666666666667,4,2,1,5,0,0
88672,-100,4,2,1,70,0,0
89872,-125,4,2,1,70,0,0
91672,-125,4,2,1,70,0,0
92047,-100,4,2,1,5,0,0
92572,-100,4,2,1,70,0,0
93470,-100,4,2,1,70,0,0
97747,-100,4,2,1,5,0,0
98272,-100,4,2,1,70,0,0
99472,-166.666666666667,4,2,1,70,0,0
100372,-125,4,2,1,70,0,0
101572,-100,4,2,1,70,0,0
101797,-100,4,2,1,5,0,0
101872,-166.666666666667,4,2,1,70,0,0
102097,-166.666666666667,4,2,1,5,0,0
102172,-100,4,2,1,70,0,0
102995,-100,4,2,1,5,0,0
103070,-100,4,2,1,70,0,0
105170,-100,4,2,3,70,0,0
106372,300,3,2,4,70,1,0
118670,-100,3,2,1,70,0,0
119270,-100,3,2,3,70,0,0
119870,-100,3,2,1,70,0,0
120772,-100,3,2,1,70,0,0
121522,-166.666666666667,3,2,1,70,0,0
121672,-100,3,2,1,70,0,0
121972,-100,3,2,1,70,0,0
122122,-111.111111111111,3,2,1,70,0,0
122272,-125,3,2,1,70,0,0
122422,-142.857142857143,3,2,1,70,0,0
122572,-100,3,2,3,70,0,0
122645,-100,3,2,1,70,0,0
122870,-100,3,2,3,70,0,0
122945,-100,3,2,1,70,0,0
123322,-166.666666666667,3,2,1,70,0,0
123472,-100,3,2,1,70,0,0
123772,-100,3,2,1,70,0,0
123922,-111.111111111111,3,2,1,70,0,0
124072,-125,3,2,1,70,0,0
124222,-142.857142857143,3,2,1,70,0,0
124372,-100,3,2,3,70,0,0
124445,-100,3,2,1,70,0,0
125122,-166.666666666667,3,2,1,70,0,0
125272,-100,3,2,1,70,0,0
125572,-100,3,2,1,70,0,0
125722,-111.111111111111,3,2,1,70,0,0
125872,-125,3,2,1,70,0,0
126022,-142.857142857143,3,2,1,70,0,0
126172,-100,3,2,3,70,0,0
127972,-100,3,2,1,70,0,0
128272,-100,3,2,1,70,0,0
128422,-111.111111111111,3,2,1,70,0,0
128572,-125,3,2,1,70,0,0
128722,-142.857142857143,3,2,1,70,0,0
128872,-100,3,2,1,70,0,0
129172,-100,3,2,1,70,0,0
129322,-111.111111111111,3,2,1,70,0,0
129472,-125,3,2,1,70,0,0
129622,-142.857142857143,3,2,1,70,0,0
129772,-100,3,2,1,70,0,0
130072,-100,3,2,1,70,0,0
130222,-111.111111111111,3,2,1,70,0,0
130372,-125,3,2,1,70,0,0
130522,-142.857142857143,3,2,1,70,0,0
130672,-100,3,2,1,70,0,0
130972,-100,3,2,1,70,0,0
131122,-111.111111111111,3,2,1,70,0,0
131272,-125,3,2,1,70,0,0
131422,-142.857142857143,3,2,1,70,0,0
131572,-100,3,2,3,70,0,0
132170,-100,3,2,1,70,0,0
133370,-100,3,2,3,70,0,0
135172,-100,3,2,1,70,0,1
135470,-100,3,2,4,70,0,1
141470,-100,3,2,1,70,0,1
141545,-100,3,2,4,70,0,1
142070,-100,3,2,3,70,0,1
142145,-100,3,2,4,70,0,1
142370,-100,3,2,1,70,0,1
142445,-100,3,2,4,70,0,1
145970,-100,3,2,1,70,0,1
146045,-100,3,2,4,70,0,1
147770,-100,3,2,1,70,0,1
147845,-100,3,2,1,40,0,1
148070,-100,3,2,3,70,0,1
148370,-100,3,2,1,70,0,1
148445,-100,3,2,1,40,0,1
148670,-100,3,2,1,70,0,1
148970,-100,3,2,3,70,0,1
149570,-100,3,2,1,70,0,1
154970,-100,3,2,3,70,0,1
155045,-100,3,2,1,70,0,1
160370,-100,3,2,4,70,0,1
162170,-100,3,2,1,70,0,1
162470,-100,3,2,3,70,0,1
162770,-100,3,2,1,70,0,1
163070,-100,3,2,3,70,0,1
163972,300,4,2,1,70,1,0
164047,-100,4,2,1,5,0,0
164572,-100,4,2,1,70,0,0
165395,-100,4,2,1,5,0,0
165470,-100,4,2,1,70,0,0
166672,-250,4,2,1,70,0,0
167122,-166.666666666667,4,2,1,70,0,0
167572,-125,4,2,1,70,0,0
168172,-100,4,2,1,70,0,0
168470,-100,4,2,3,70,0,0
168770,-125,4,2,1,70,0,0
168847,-100,4,2,1,5,0,0
169372,-100,4,2,1,70,0,0
173647,-100,4,2,1,5,0,0
174172,-100,4,2,1,70,0,0
176272,-125,4,2,1,70,0,0
178447,-100,4,2,1,5,0,0
178972,-100,4,2,1,70,0,0
181372,-83.3333333333333,4,2,1,70,0,0
181522,-90.9090909090909,4,2,1,70,0,0
181672,-100,4,2,1,70,0,0
181822,-111.111111111111,4,2,1,70,0,0
181972,-100,4,2,3,70,0,0
183172,300,3,2,4,70,1,0
186770,-100,3,2,1,70,0,0
186845,-100,3,2,4,70,0,0
188570,-100,3,2,1,70,0,0
188645,-100,3,2,4,70,0,0
189170,-100,3,2,1,70,0,0
189245,-100,3,2,4,70,0,0
189470,-100,3,2,1,70,0,0
189545,-100,3,2,4,70,0,0
189620,-100,3,2,1,70,0,0
189695,-100,3,2,4,70,0,0
189770,-100,3,2,1,70,0,0
189845,-100,3,2,4,70,0,0
189920,-100,3,2,1,70,0,0
189995,-100,3,2,4,70,0,0
190070,-100,3,2,1,70,0,0
190145,-100,3,2,4,70,0,0
190220,-100,3,2,1,70,0,0
190295,-100,3,2,4,70,0,0
190370,-100,3,2,1,70,0,0
190445,-100,3,2,4,70,0,0
192170,-100,3,2,1,70,0,0
192245,-100,3,2,4,70,0,0
192320,-100,3,2,1,70,0,0
192395,-100,3,2,4,70,0,0
192470,-100,3,2,1,70,0,0
192545,-100,3,2,4,70,0,0
192620,-100,3,2,1,70,0,0
192695,-100,3,2,4,70,0,0
192770,-100,3,2,1,70,0,0
192845,-100,3,2,4,70,0,0
192920,-100,3,2,1,70,0,0
192995,-100,3,2,4,70,0,0
193070,-100,3,2,1,70,0,0
193145,-100,3,2,4,70,0,0
193220,-100,3,2,1,70,0,0
193295,-100,3,2,4,70,0,0
193370,-100,3,2,1,70,0,0
193445,-100,3,2,4,70,0,0
193520,-100,3,2,1,70,0,0
193595,-100,3,2,4,70,0,0
193670,-100,3,2,1,70,0,0
193745,-100,3,2,4,70,0,0
193820,-100,3,2,1,70,0,0
193895,-100,3,2,4,70,0,0
193970,-100,3,2,1,70,0,0
194045,-100,3,2,4,70,0,0
195770,-100,3,2,1,70,0,0
195845,-100,3,2,4,70,0,0
195920,-100,3,2,1,70,0,0
195995,-100,3,2,4,70,0,0
196670,-100,3,2,1,70,0,0
196745,-100,3,2,4,70,0,0
196970,-100,3,2,1,70,0,0
197045,-100,3,2,4,70,0,0
197120,-100,3,2,1,70,0,0
197195,-100,3,2,4,70,0,0
197270,-100,3,2,1,70,0,0
197345,-100,3,2,4,70,0,0
197570,-100,3,2,1,70,0,0
197645,-100,3,2,4,70,0,0
198470,-100,3,2,1,70,0,0
198545,-100,3,2,4,70,0,0
199370,-100,3,2,1,70,0,0
199445,-100,3,2,4,70,0,0
200270,-100,3,2,1,70,0,0
200345,-100,3,2,4,70,0,0
200570,-100,3,2,1,70,0,0
200645,-100,3,2,4,70,0,0
200870,-100,3,2,1,70,0,0
200945,-100,3,2,4,70,0,0
201170,-100,3,2,1,70,0,0
201245,-100,3,2,4,70,0,0
204770,-100,3,2,1,70,0,0
204845,-100,3,2,4,70,0,0
206570,-100,3,2,1,70,0,0
206645,-100,3,2,4,70,0,0
207770,-100,3,2,1,70,0,0
207845,-100,3,2,4,70,0,0
208070,-100,3,2,1,70,0,0
208145,-100,3,2,4,70,0,0
208370,-100,3,2,1,70,0,0
208445,-100,3,2,4,70,0,0
209270,-100,3,2,1,70,0,0
209345,-100,3,2,4,70,0,0
209420,-100,3,2,1,70,0,0
209495,-100,3,2,4,70,0,0
209570,-100,3,2,1,70,0,0
209645,-100,3,2,4,70,0,0
209720,-100,3,2,1,70,0,0
209795,-100,3,2,4,70,0,0
209870,-100,3,2,1,70,0,0
209945,-100,3,2,4,70,0,0
210170,-100,3,2,1,70,0,0
210470,-100,3,2,3,70,0,0
210770,-100,3,2,1,70,0,0
211370,-100,3,2,3,70,0,0
211972,-100,3,2,1,70,0,0
212722,-166.666666666667,3,2,1,70,0,0
212872,-100,3,2,1,70,0,0
213172,-100,3,2,1,70,0,0
213322,-111.111111111111,3,2,1,70,0,0
213472,-125,3,2,1,70,0,0
213622,-142.857142857143,3,2,1,70,0,0
213772,-100,3,2,3,70,0,0
213845,-100,3,2,1,70,0,0
214522,-166.666666666667,3,2,1,70,0,0
214672,-100,3,2,1,70,0,0
214972,-100,3,2,1,70,0,0
215122,-111.111111111111,3,2,1,70,0,0
215272,-125,3,2,1,70,0,0
215422,-142.857142857143,3,2,1,70,0,0
215572,-100,3,2,3,70,0,0
215645,-100,3,2,1,70,0,0
216322,-166.666666666667,3,2,1,70,0,0
216472,-100,3,2,1,70,0,0
216772,-100,3,2,1,70,0,0
216922,-111.111111111111,3,2,1,70,0,0
217072,-125,3,2,1,70,0,0
217222,-142.857142857143,3,2,1,70,0,0
217372,-100,3,2,3,70,0,0
219172,-100,3,2,1,70,0,0
219472,-100,3,2,1,70,0,0
219622,-111.111111111111,3,2,1,70,0,0
219772,-125,3,2,1,70,0,0
219922,-142.857142857143,3,2,1,70,0,0
220072,-100,3,2,1,70,0,0
220372,-100,3,2,1,70,0,0
220522,-111.111111111111,3,2,1,70,0,0
220672,-125,3,2,1,70,0,0
220822,-142.857142857143,3,2,1,70,0,0
220972,-100,3,2,1,70,0,0
221272,-100,3,2,1,70,0,0
221422,-111.111111111111,3,2,1,70,0,0
221572,-125,3,2,1,70,0,0
221722,-142.857142857143,3,2,1,70,0,0
221872,-100,3,2,1,70,0,0
222172,-100,3,2,1,70,0,0
222322,-111.111111111111,3,2,1,70,0,0
222472,-125,3,2,1,70,0,0
222622,-142.857142857143,3,2,1,70,0,0
222772,-100,3,2,1,70,0,0
223072,-83.3333333333333,3,2,1,70,0,0
223220,-83.3333333333333,3,2,3,70,0,0
223295,-83.3333333333333,3,2,1,70,0,0
223522,-142.857142857143,3,2,1,70,0,0
223672,-100,3,2,1,70,0,0
223972,-100,3,2,1,70,0,0
224122,-111.111111111111,3,2,1,70,0,0
224272,-125,3,2,1,70,0,0
224422,-142.857142857143,3,2,1,70,0,0
224572,-100,3,2,3,70,0,0
226372,-100,3,2,1,70,0,0
226447,-100,4,2,1,5,0,0
228770,-100,4,2,3,70,0,0
229072,-142.857142857143,3,2,3,70,0,0
229297,-142.857142857143,3,2,3,5,0,0
229372,-142.857142857143,3,2,3,70,0,0
229597,-142.857142857143,3,2,3,5,0,0
229672,-142.857142857143,3,2,3,70,0,0
229972,-142.857142857143,3,2,1,70,0,0
230047,-142.857142857143,3,2,1,5,0,0
231772,-100,4,2,1,70,0,0
233572,-100,3,2,1,70,0,0
233647,-100,4,2,1,5,0,0
234172,-100,4,2,1,70,0,0
234470,-100,4,2,3,70,0,0
234622,-100,4,2,3,5,0,0
234697,-100,4,2,3,70,0,0
235372,-166.666666666667,3,2,3,70,0,0
235597,-166.666666666667,3,2,1,5,0,0
235672,-153.846153846153,3,2,3,70,0,0
235897,-153.846153846153,3,2,3,5,0,0
235972,-142.857142857143,3,2,3,70,0,0
236197,-142.857142857143,3,2,3,5,0,0
236272,-133.333333333333,3,2,3,70,0,0
236497,-133.333333333333,3,2,3,5,0,0
236572,-125,3,2,3,70,0,0
236797,-125,3,2,3,5,0,0
236872,-111.111111111111,3,2,3,70,0,0
237172,-100,3,2,1,70,0,0
237472,-100,4,2,1,5,0,0
237547,-100,4,2,1,70,0,0
238070,-100,4,2,3,70,0,0
238222,-100,4,2,3,5,0,0
238297,-100,4,2,1,70,0,0
240772,-166.666666666667,4,2,1,70,0,0
243172,-125,4,2,1,70,0,0
243247,-125,4,2,1,5,0,0
243322,-125,4,2,1,70,0,0
243397,-125,4,2,1,5,0,0
243472,-166.666666666667,4,2,1,70,0,0
244372,-125,3,2,1,70,0,0
247972,-166.666666666667,3,2,1,70,0,0
250372,-125,4,2,1,70,0,0
250447,-125,4,2,1,5,0,0
250522,-125,4,2,1,70,0,0
250597,-125,4,2,1,5,0,0
250672,-166.666666666667,4,2,1,70,0,0
251572,-125,3,2,1,70,0,0
253372,-100,3,2,2,70,0,0
254270,-100,3,2,3,70,0,0
255172,-100,3,2,1,70,0,0
257570,-100,3,2,3,70,0,0
257645,-100,3,2,1,70,0,0
261170,-100,3,2,3,70,0,0
261245,-100,3,2,1,70,0,0
261920,-100,3,2,3,70,0,0
261995,-100,3,2,1,70,0,0
262970,-100,3,2,3,70,0,0
263045,-100,3,2,1,70,0,0
263720,-100,3,2,3,70,0,0
263795,-100,3,2,1,70,0,0
265520,-100,3,2,3,70,0,0
265595,-100,3,2,1,70,0,0
266570,-100,3,2,3,70,0,0
266645,-100,3,2,1,70,0,0
267320,-100,3,2,3,70,0,0
267395,-100,3,2,1,70,0,0
268072,-100,3,2,2,70,0,0
268670,-100,3,2,3,70,0,0
269572,-100,3,2,1,70,0,0
269872,-100,3,2,3,70,0,1
269945,-100,3,2,1,70,0,1
271070,-100,3,2,3,70,0,1
271145,-100,3,2,1,70,0,1
277072,-100,3,2,3,70,0,1
277222,-83.3333333333333,3,2,3,70,0,1
277295,-83.3333333333333,3,2,1,70,0,1
277372,-71.4285714285714,3,2,1,70,0,1
277522,-62.5,3,2,1,70,0,1
277672,-100,3,2,1,70,0,1
279770,-100,3,2,3,70,0,1
279845,-100,3,2,1,70,0,1
280070,-100,3,2,3,70,0,1
280145,-100,3,2,1,70,0,1
280370,-100,3,2,3,70,0,1
280445,-100,3,2,1,70,0,1
285170,-100,3,2,3,70,0,1
285845,-100,3,2,1,70,0,1
286070,-100,3,2,3,70,0,1
286145,-100,3,2,1,70,0,1
286370,-100,3,2,3,70,0,1
286445,-100,3,2,1,70,0,1
286970,-100,3,2,3,70,0,1
287570,-100,3,2,1,70,0,1
288170,-100,3,2,3,70,0,1
288245,-100,3,2,1,70,0,1
288770,-100,3,2,3,70,0,1
289445,-100,3,2,1,70,0,1
289970,-100,3,2,3,70,0,1
290045,-100,3,2,1,70,0,1
290570,-100,3,2,3,70,0,1
290645,-100,3,2,1,70,0,1
290871,-100,3,2,3,70,0,1
290946,-100,3,2,1,70,0,1
291170,-100,3,2,3,70,0,1
291245,-100,3,2,1,70,0,1
292370,-100,3,2,3,70,0,1
292445,-100,3,2,1,70,0,1
292670,-100,3,2,3,70,0,1
292745,-100,3,2,1,70,0,1
292970,-100,3,2,3,70,0,1
293045,-100,3,2,1,70,0,1
293270,-100,3,2,3,70,0,1
293345,-100,3,2,1,70,0,1
293570,-100,3,2,3,70,0,1
293645,-100,3,2,1,70,0,1
294170,-100,3,2,3,70,0,1
294245,-100,3,2,1,70,0,1
294470,-100,3,2,3,70,0,1
294545,-100,3,2,1,70,0,1
294770,-100,3,2,3,70,0,1
294845,-100,3,2,1,70,0,1
295070,-100,3,2,3,70,0,1
295145,-100,3,2,1,70,0,1
295370,-100,3,2,3,70,0,1
295445,-100,3,2,1,70,0,1
295970,-100,3,2,3,70,0,1
296045,-100,3,2,1,70,0,1
296270,-100,3,2,3,70,0,1
296345,-100,3,2,1,70,0,1
296570,-100,3,2,3,70,0,1
296645,-100,3,2,1,70,0,1
296870,-100,3,2,3,70,0,1
296945,-100,3,2,1,70,0,1
297170,-100,3,2,3,70,0,1
297245,-100,3,2,1,70,0,1
297770,-100,3,2,3,70,0,1
297845,-100,3,2,1,70,0,1
298070,-100,3,2,3,70,0,1
298145,-100,3,2,1,70,0,1
298374,309.278350515464,3,2,1,70,1,0
298374,-333.333333333333,3,2,1,70,0,0
298528,-333.333333333333,3,2,1,5,0,0
305794,-100,3,2,1,5,0,0
313219,-125,3,2,3,50,0,0
313683,-125,3,2,1,5,0,0
313837,-166.666666666667,3,2,1,50,0,0
314147,-125,3,2,1,50,0,0
314611,-125,3,2,1,5,0,0
314763,-125,3,2,1,50,0,0
315075,-142.857142857143,3,2,1,50,0,0
315304,-142.857142857143,3,2,1,5,0,0
315381,-142.857142857143,3,2,1,50,0,0
315384,-166.666666666667,3,2,1,50,0,0
315614,-166.666666666667,3,2,1,5,0,0
315693,-200,3,2,1,50,0,0
315925,-200,3,2,1,5,0,0
316002,-125,3,2,1,50,0,0
316232,-125,3,2,1,5,0,0
316309,-125,3,2,1,50,0,0
316619,-125,3,2,1,50,0,0
316930,-142.857142857143,3,2,1,50,0,0
317160,-142.857142857143,3,2,1,5,0,0
317239,-111.111111111111,3,2,1,50,0,0
317858,-125,3,2,1,50,0,0
318477,-166.666666666667,3,2,1,50,0,0
318554,-166.666666666667,3,2,1,5,0,0
318631,-142.857142857143,3,2,1,50,0,0
318709,-142.857142857143,3,2,1,5,0,0
318786,-142.857142857143,3,2,1,50,0,0
319250,-142.857142857143,3,2,1,5,0,0
319404,-125,3,2,1,50,0,0
320332,-142.857142857143,3,2,1,50,0,0
320642,-250.000000000001,3,2,1,50,0,0
321105,-125,3,2,1,50,0,0
321569,-166.666666666667,3,2,1,50,0,0
322961,-166.666666666667,3,2,1,5,0,0
323116,-142.857142857143,3,2,1,50,0,0
324353,-142.857142857143,3,2,1,50,0,0
324662,-166.666666666667,3,2,1,50,0,0
325281,-142.857142857143,3,2,1,50,0,0
326209,-166.666666666667,3,2,1,50,0,0
326518,-100,3,2,1,50,0,0
326595,-100,3,2,1,5,0,0
326672,-100,3,2,1,50,0,0
326749,-100,3,2,1,5,0,0
326827,-100,3,2,1,50,0,0
326904,-100,3,2,1,5,0,0
326982,-100,3,2,1,50,0,0
327059,-100,3,2,1,5,0,0
327136,-100,3,2,1,50,0,0
327446,-100,3,2,1,50,0,0
327523,-100,3,2,1,5,0,0
327600,-100,3,2,1,50,0,0
327677,-100,3,2,1,5,0,0
327755,-100,3,2,3,50,0,0
327832,-100,3,2,1,5,0,0
327910,-100,3,2,1,50,0,0
327987,-100,3,2,1,5,0,0
328064,-100,3,2,1,50,0,0
328142,-100,3,2,1,5,0,0
328219,-105.263157894737,3,2,1,50,0,0
328296,-100,3,2,1,5,0,0
328374,-111.111111111111,3,2,1,50,0,0
328451,-100,3,2,1,5,0,0
328528,-117.647058823529,3,2,1,50,0,0
328605,-100,3,2,1,5,0,0
328683,-125,3,2,1,50,0,0
328760,-100,3,2,1,5,0,0
328837,-133.333333333333,3,2,1,50,0,0
328915,-100,3,2,1,5,0,0
328992,-100,3,2,1,50,0,0
329069,-100,3,2,1,5,0,0
329147,-105.263157894737,3,2,1,50,0,0
329224,-100,3,2,1,5,0,0
329302,-111.111111111111,3,2,1,50,0,0
329379,-100,3,2,1,5,0,0
329456,-117.647058823529,3,2,1,50,0,0
329533,-100,3,2,1,5,0,0
329611,-125,3,2,1,50,0,0
329688,-100,3,2,1,5,0,0
329765,-133.333333333333,3,2,1,50,0,0
329843,-100,3,2,1,50,0,0
329920,-125,3,2,1,50,0,0
330152,-125,3,2,1,5,0,0
330229,-142.857142857143,3,2,1,50,0,0
330306,-142.857142857143,3,2,1,5,0,0
330384,-142.857142857143,3,2,1,50,0,0
330616,-142.857142857143,3,2,1,5,0,0
330693,-166.666666666667,3,2,1,50,0,0
330770,-166.666666666667,3,2,1,5,0,0
330845,-166.666666666667,3,2,1,50,0,0
330848,-166.666666666667,3,2,1,50,0,0
331080,-166.666666666667,3,2,1,5,0,0
331157,-200,3,2,1,50,0,0
331234,-200,3,2,1,5,0,0
331309,-200,3,2,1,50,0,0
331312,-100,3,2,1,50,0,0
331389,-100,3,2,1,5,0,0
331466,-100,3,2,1,50,0,0
331543,-100,3,2,1,5,0,0
331621,-100,3,2,1,50,0,0
331698,-100,3,2,1,5,0,0
331776,-100,3,2,1,70,0,0
331854,-100,3,2,1,5,0,0
331931,-105.263157894737,3,2,1,70,0,0
332008,-100,3,2,1,5,0,0
332086,-111.111111111111,3,2,1,70,0,0
332163,-100,3,2,1,5,0,0
332240,-117.647058823529,3,2,1,70,0,0
332317,-100,3,2,1,5,0,0
332395,-125,3,2,1,70,0,0
332472,-100,3,2,1,5,0,0
332549,-133.333333333333,3,2,1,70,0,0
332627,-100,3,2,1,5,0,0
332703,-100,3,2,1,70,0,0
332781,-100,3,2,1,5,0,0
332858,-105.263157894737,3,2,1,70,0,0
332935,-100,3,2,1,5,0,0
333013,-111.111111111111,3,2,1,70,0,0
333090,-100,3,2,1,5,0,0
333167,-117.647058823529,3,2,1,70,0,0
333244,-100,3,2,1,5,0,0
333322,-125,3,2,1,70,0,0
333399,-100,3,2,1,5,0,0
333476,-133.333333333333,3,2,1,70,0,0
333554,-100,3,2,1,70,0,0
333631,-125,3,2,1,70,0,0
333863,-125,3,2,1,5,0,0
333940,-142.857142857143,3,2,1,70,0,0
334017,-142.857142857143,3,2,1,5,0,0
334095,-142.857142857143,3,2,1,70,0,0
334327,-142.857142857143,3,2,1,5,0,0
334404,-166.666666666667,3,2,1,70,0,0
334481,-166.666666666667,3,2,1,5,0,0
334559,-166.666666666667,3,2,1,70,0,0
334791,-166.666666666667,3,2,1,5,0,0
334868,-200,3,2,1,70,0,0
334945,-200,3,2,1,5,0,0
335023,-100,3,2,1,70,0,0
335100,-100,3,2,1,5,0,0
335177,-100,3,2,1,70,0,0
335254,-100,3,2,1,5,0,0
335332,-100,3,2,1,70,0,0
335409,-100,3,2,1,5,0,0
335487,-125,3,2,1,70,0,0
338270,-105.263157894737,3,2,1,70,0,0
338580,-90.9090909090909,3,2,1,70,0,0
338889,-79.9999999999999,3,2,1,70,0,0
339198,-100,3,2,1,70,0,0
339430,-100,3,2,1,5,0,0
339508,-100,3,2,1,70,0,0
339585,-100,3,2,1,5,0,0
339662,-100,3,2,1,70,0,0
339739,-100,3,2,1,5,0,0
339817,-100,3,2,1,70,0,0
339894,-100,3,2,1,5,0,0
339971,-100,3,2,1,70,0,0
340048,-100,3,2,1,5,0,0
340126,-100,3,2,1,70,0,0
340358,-100,3,2,1,5,0,0
340436,-100,3,2,1,70,0,0
340513,-100,3,2,1,5,0,0
340590,-100,3,2,1,70,0,0
340667,-100,3,2,1,5,0,0
340742,-100,3,2,1,70,0,0
340745,-100,3,2,1,70,0,0
340822,-100,3,2,1,5,0,0
340899,-100,3,2,1,70,0,0
340976,-100,3,2,1,70,0,0
341054,-100,3,2,1,70,0,0
341131,-100,3,2,1,5,0,0
341208,-100,3,2,1,70,0,0
341285,-100,3,2,1,5,0,0
341363,-100,3,2,1,70,0,0
341980,-100,3,2,3,70,0,0
342057,-100,3,2,1,70,0,0
342910,-125,3,2,3,70,0,0
343142,-125,3,2,1,5,0,0
343219,-111.111111111111,3,2,3,70,0,0
343451,-111.111111111111,3,2,1,5,0,0
343528,-125,3,2,1,70,0,0
343760,-125,3,2,1,5,0,0
343837,-111.111111111111,3,2,1,70,0,0
344069,-111.111111111111,3,2,1,5,0,0
344147,-125,3,2,1,70,0,0
345538,-125,3,2,1,5,0,0
345693,-125,3,2,1,70,0,0
346157,-125,3,2,1,70,0,0
346312,-125,3,2,1,70,0,0
346466,-125,3,2,1,5,0,0
346621,-200,3,2,1,70,0,0
347085,-200,3,2,1,5,0,0
347239,-142.857142857143,3,2,1,70,0,0
347394,-142.857142857143,3,2,1,5,0,0
347549,-125,3,2,1,70,0,0
348013,-125,3,2,1,5,0,0
348167,-125,3,2,1,70,0,0
348322,-125,3,2,1,5,0,0
348477,-200,3,2,1,70,0,0
348709,-200,3,2,1,5,0,0
348786,-100,3,2,1,15,0,0
349095,-100,3,2,1,20,0,0
349404,-100,3,2,1,25,0,0
349714,-100,3,2,1,30,0,0
350023,-100,3,2,1,35,0,0
350332,-166.666666666667,3,2,1,70,0,0
351105,-166.666666666667,3,2,1,5,0,0
351260,-166.666666666667,3,2,1,70,0,0
351879,-166.666666666667,3,2,1,5,0,0
352033,-142.857142857143,3,2,1,70,0,0
352343,-142.857142857143,3,2,1,5,0,0
352497,-142.857142857143,3,2,1,70,0,0
352652,-142.857142857143,3,2,1,5,0,0
352806,-166.666666666667,3,2,1,70,0,0
352961,-166.666666666667,3,2,1,5,0,0
353116,-125,3,2,1,70,0,0
353270,-125,3,2,1,5,0,0
353425,-166.666666666667,3,2,1,70,0,0
353502,-166.666666666667,3,2,1,5,0,0
353580,-142.857142857143,3,2,1,70,0,0
353657,-142.857142857143,3,2,1,5,0,0
353734,-125,3,2,1,70,0,0
353811,-125,3,2,1,5,0,0
353889,-125,3,2,1,70,0,0
354198,-125,3,2,1,5,0,0
354351,-125,3,2,1,70,0,0
354508,-125,3,2,1,5,0,0
354662,-142.857142857143,3,2,1,70,0,0
354817,-142.857142857143,3,2,1,5,0,0
354969,-142.857142857143,3,2,1,70,0,0
355590,-166.666666666667,3,2,1,70,0,0
355667,-166.666666666667,3,2,1,5,0,0
355744,-142.857142857143,3,2,1,70,0,0
355822,-142.857142857143,3,2,1,5,0,0
355899,-500.000000000003,3,2,1,70,0,0
357755,-166.666666666667,3,2,1,70,0,0
357832,-142.857142857143,3,2,1,5,0,0
357910,-142.857142857143,3,2,1,70,0,0
357987,-125,3,2,1,5,0,0
358064,-125,3,2,1,70,0,0
358141,-111.111111111111,3,2,1,5,0,0
358219,-100,3,2,1,70,0,0
358681,-100,3,2,1,70,0,0
358915,-100,3,2,1,5,0,0
358992,-125,3,2,1,70,0,0
359069,-125,3,2,1,5,0,0
359147,-125,3,2,1,70,0,0
359611,-125,3,2,1,70,0,0
359688,-133.333333333333,3,2,1,5,0,0
359765,-133.333333333333,3,2,1,70,0,0
359842,-142.857142857143,3,2,1,5,0,0
359920,-142.857142857143,3,2,1,70,0,0
359997,-153.846153846153,3,2,1,5,0,0
360075,-153.846153846153,3,2,1,70,0,0
360152,-166.666666666667,3,2,1,5,0,0
360229,-166.666666666667,3,2,1,70,0,0
360306,-181.818181818181,3,2,1,5,0,0
360384,-181.818181818181,3,2,1,70,0,0
360461,-200,3,2,1,5,0,0
360538,-200,3,2,1,70,0,0
360615,-222.222222222221,3,2,1,5,0,0
360693,-222.222222222221,3,2,1,70,0,0
360770,-250,3,2,1,5,0,0
360848,-250,3,2,1,70,0,0
360925,-285.714285714284,3,2,1,5,0,0
361002,-285.714285714284,3,2,1,70,0,0
361079,-285.714285714284,3,2,1,5,0,0
361157,-285.714285714284,3,2,1,70,0,0
361234,-285.714285714284,3,2,1,5,0,0
361312,-285.714285714284,3,2,1,70,0,0
361389,-285.714285714284,3,2,1,70,0,0
361466,-285.714285714284,3,2,1,70,0,0
362239,-166.666666666667,3,2,1,5,0,0
362394,-166.666666666667,3,2,1,70,0,0
363320,-100,3,2,2,70,0,0
364248,-100,3,2,3,70,0,0
365178,-125,3,2,3,70,0,0
365332,-125,3,2,1,5,0,0
365485,-125,3,2,1,70,0,0
365564,-125,3,2,1,5,0,0
365642,-125,3,2,1,70,0,0
365951,-125,3,2,1,5,0,0
366105,-166.666666666667,3,2,1,70,0,0
366879,-166.666666666667,3,2,1,5,0,0
367033,-142.857142857143,3,2,1,70,0,0
367188,-166.666666666667,3,2,1,5,0,0
367342,-142.857142857143,3,2,1,70,0,0
367652,-166.666666666667,3,2,1,70,0,0
367961,-125,3,2,1,70,0,0
368270,-166.666666666667,3,2,1,70,0,0
368348,-166.666666666667,3,2,1,5,0,0
368425,-153.846153846153,3,2,1,70,0,0
368503,-153.846153846153,3,2,1,5,0,0
368580,-142.857142857143,3,2,1,70,0,0
368658,-142.857142857143,3,2,1,5,0,0
368734,-133.333333333333,3,2,1,70,0,0
368812,-133.333333333333,3,2,1,70,0,0
368889,-125,3,2,1,70,0,0
368967,-125,3,2,1,5,0,0
369044,-117.647058823529,3,2,1,70,0,0
369122,-117.647058823529,3,2,1,5,0,0
369198,-111.111111111111,3,2,1,70,0,0
369276,-111.111111111111,3,2,1,5,0,0
369353,-166.666666666667,3,2,1,70,0,0
370281,-166.666666666667,3,2,1,5,0,0
370435,-166.666666666667,3,2,1,70,0,0
370513,-166.666666666667,3,2,1,5,0,0
370590,-166.666666666667,3,2,1,40,0,0
370745,-111.111111111111,3,2,1,70,0,0
371672,-142.857142857143,3,2,1,70,0,0
372446,-142.857142857143,3,2,1,25,0,0
372600,-125,3,2,3,70,0,0
372985,-125,3,2,1,5,0,0
373062,-125,3,2,1,70,0,0
373526,-125,3,2,3,70,0,0
373913,-125,3,2,1,5,0,0
373990,-125,3,2,1,70,0,0
374456,-125,3,2,1,70,0,0
374920,-125,3,2,1,5,0,0
375073,-125,3,2,1,70,0,0
375538,-125,3,2,1,5,0,0
375691,-125,3,2,1,70,0,0
376310,-125,3,2,1,70,0,0
376930,-166.666666666667,3,2,1,70,0,0
377394,-166.666666666667,3,2,1,5,0,0
377549,-166.666666666667,3,2,1,70,0,0
377858,-125,3,2,1,70,0,0
378013,-125,3,2,1,5,0,0
378167,-142.857142857143,3,2,1,70,0,0
378786,-166.666666666667,3,2,1,70,0,0
379250,-166.666666666667,3,2,1,5,0,0
379404,-166.666666666667,3,2,1,70,0,0
379559,-166.666666666667,3,2,1,5,0,0
379714,-111.111111111111,3,2,1,70,0,0
380949,-111.111111111111,3,2,2,70,0,0
381413,-111.111111111111,3,2,3,70,0,0
381879,-125,3,2,1,70,0,0
382188,-125,3,2,1,5,0,0
382343,-111.111111111111,3,2,1,70,0,0
382652,-111.111111111111,3,2,1,5,0,0
382806,-100,3,2,1,70,0,0
383116,-100,3,2,1,5,0,0
383270,-142.857142857143,3,2,1,70,0,0
383655,-142.857142857143,3,2,1,5,0,0
383732,-142.857142857143,3,2,1,70,0,0
384817,-166.666666666667,3,2,1,70,0,0
385745,-166.666666666667,3,2,1,5,0,0
385899,-200,3,2,1,70,0,0
386827,-200,3,2,3,45,0,0
386982,-200,3,2,2,70,0,0
387446,-200,3,2,2,45,0,0
388219,-200,3,2,1,5,0,0
388372,-200,3,2,1,70,0,0
388992,-166.666666666667,3,2,1,70,0,0
389301,-142.857142857143,3,2,1,70,0,0
389611,-142.857142857143,3,2,1,5,0,0
389763,-142.857142857143,3,2,1,70,0,0
390384,-142.857142857143,3,2,1,5,0,0
390538,-111.111111111111,3,2,1,70,0,0
390848,-200,3,2,1,70,0,0
392239,-200,3,2,1,5,0,0
392394,-166.666666666667,3,2,1,70,0,0
392549,-166.666666666667,3,2,3,45,0,0
392701,-166.666666666667,3,2,1,70,0,0
392858,-166.666666666667,3,2,1,45,0,0
393013,-125,3,2,1,70,0,0
393090,-125,3,2,1,5,0,0
393167,-133.333333333333,3,2,1,70,0,0
393244,-133.333333333333,3,2,1,5,0,0
393322,-142.857142857143,3,2,1,70,0,0
393399,-142.857142857143,3,2,1,5,0,0
393477,-153.846153846153,3,2,1,70,0,0
393554,-153.846153846153,3,2,1,5,0,0
393631,-166.666666666667,3,2,1,70,0,0
393708,-166.666666666667,3,2,1,5,0,0
393786,-181.818181818181,3,2,1,70,0,0
393863,-181.818181818181,3,2,1,5,0,0
393941,-111.111111111111,3,2,1,70,0,0
394018,-111.111111111111,3,2,1,5,0,0
394095,-142.857142857143,3,2,1,70,0,0
394172,-142.857142857143,3,2,1,5,0,0
394250,-200,3,2,1,70,0,0
394327,-200,3,2,1,5,0,0
394404,-200,3,2,2,70,0,0
394866,-200,3,2,1,70,0,0
395642,-200,3,2,1,5,0,0
395796,-166.666666666667,3,2,1,70,0,0
396724,-142.857142857143,3,2,1,70,0,0
397111,-142.857142857143,3,2,1,5,0,0
397188,-142.857142857143,3,2,1,70,0,0
397652,-100,3,2,1,70,0,0
398038,-100,3,2,1,5,0,0
398116,-100,3,2,1,70,0,0
398580,-166.666666666667,3,2,1,70,0,0
399508,-125,3,2,1,70,0,0
399662,-125,3,2,1,5,0,0
399817,-142.857142857143,3,2,1,70,0,0
400049,-142.857142857143,3,2,1,5,0,0
400126,-166.666666666667,3,2,1,70,0,0
400358,-166.666666666667,3,2,1,5,0,0
400435,-200,3,2,1,70,0,0
400745,-200,3,2,1,5,0,0
400899,-166.666666666667,3,2,1,70,0,0
401209,-166.666666666667,3,2,1,5,0,0
401363,-142.857142857143,3,2,1,70,0,0
401595,-142.857142857143,3,2,1,5,0,0
401672,-125,3,2,1,70,0,0
401904,-125,3,2,1,5,0,0
401982,-125,3,2,1,70,0,0
402214,-125,3,2,1,5,0,0
402291,-142.857142857143,3,2,1,70,0,0
402910,-166.666666666667,3,2,1,70,0,0
403683,-142.857142857143,3,2,1,70,0,0
404147,-125,3,2,1,70,0,0
404765,-166.666666666667,3,2,1,70,0,0
404920,-166.666666666667,3,2,1,5,0,0
405075,-142.857142857143,3,2,1,70,0,0
405384,-117.647058823529,3,2,1,70,0,0
405693,-100,3,2,1,70,0,0
406002,-142.857142857143,3,2,3,70,0,0
406312,-142.857142857143,3,2,1,70,0,0
406466,-142.857142857143,3,2,1,70,0,0
406698,-200,3,2,1,70,0,0
406853,-200,3,2,1,5,0,0
406930,-166.666666666667,3,2,1,70,0,0
407626,-166.666666666667,3,2,1,5,0,0
407703,-166.666666666667,3,2,1,70,0,0
407781,-166.666666666667,3,2,1,5,0,0
407858,-166.666666666667,3,2,1,70,0,0
409248,-166.666666666667,3,2,2,70,0,0
409327,-166.666666666667,3,2,1,70,0,0
409557,-166.666666666667,3,2,3,70,0,0
409714,-200,3,2,1,70,0,0
410098,-200,3,2,1,5,0,0
410178,-166.666666666667,3,2,1,70,0,0
410642,-200,3,2,1,70,0,0
411569,-142.857142857143,3,2,1,70,0,0
411956,-142.857142857143,3,2,1,5,0,0
412033,-166.666666666667,3,2,1,70,0,0
412420,-166.666666666667,3,2,1,5,0,0
412497,-200,3,2,1,70,0,0
412884,-200,3,2,1,5,0,0
412961,-250,3,2,2,70,0,0
413348,-250,3,2,1,5,0,0
413425,-100,3,2,3,70,0,0
413580,-100,3,2,1,5,0,0
413734,-250,3,2,1,70,0,0
413966,-250,3,2,1,5,0,0
414044,-142.857142857143,3,2,1,70,0,0
414276,-142.857142857143,3,2,1,5,0,0
414353,-111.111111111111,3,2,1,70,0,0
414508,-111.111111111111,3,2,1,5,0,0
414662,-142.857142857143,3,2,1,70,0,0
414894,-142.857142857143,3,2,1,5,0,0
414971,-200,3,2,1,70,0,0
415203,-200,3,2,1,5,0,0
415281,-200,3,2,1,70,0,0
415899,-142.857142857143,3,2,1,70,0,0
416054,-142.857142857143,3,2,1,5,0,0
416207,-142.857142857143,3,2,1,70,0,0
416670,-142.857142857143,3,2,2,70,0,0
417134,-142.857142857143,3,2,1,70,0,0
417600,-166.666666666667,3,2,1,70,0,0
417910,-166.666666666667,3,2,1,5,0,0
418064,-200,3,2,1,70,0,0
418605,-200,3,2,1,5,0,0
418683,-200,3,2,1,70,0,0
418915,-200,3,2,1,5,0,0
418992,-200,3,2,1,70,0,0
420229,-200,3,2,1,5,0,0
420306,-200,3,2,2,70,0,0
420848,-166.666666666667,3,2,1,70,0,0
422549,-166.666666666667,3,2,1,5,0,0
422703,-200,3,2,1,70,0,0
424404,-200,3,2,1,5,0,0
424559,-250.000000000001,3,2,1,70,0,0
426260,-250.000000000001,3,2,1,5,0,0
426415,-166.666666666667,3,2,1,70,0,0
426801,-166.666666666667,3,2,1,5,0,0
426879,-200.000000000001,3,2,1,70,0,0
427265,-200.000000000001,3,2,1,5,0,0
427343,-250.000000000001,3,2,1,70,0,0
427575,-250.000000000001,3,2,1,5,0,0
427652,-166.666666666667,3,2,1,70,0,0
427729,-166.666666666667,3,2,1,5,0,0
427806,-166.666666666667,3,2,1,70,0,0
427884,-166.666666666667,3,2,1,5,0,0
427961,-500.000000000005,3,2,1,70,0,0
428193,-333.333333333336,3,2,1,5,0,0
428270,-200.000000000001,3,2,1,70,0,0
428734,-200.000000000001,3,2,1,5,0,0
428889,-200.000000000001,3,2,1,70,0,0
429044,-200.000000000001,3,2,1,5,0,0
429198,-166.666666666667,3,2,1,70,0,0
429430,-166.666666666667,3,2,1,5,0,0
429508,-166.666666666667,3,2,1,70,0,0
429739,-166.666666666667,3,2,1,5,0,0
429817,-200.000000000001,3,2,1,70,0,0
430049,-200.000000000001,3,2,1,5,0,0
430126,-200.000000000001,3,2,1,70,0,0
430358,-200.000000000001,3,2,1,5,0,0
430435,-222.222222222221,3,2,1,70,0,0
430667,-222.222222222221,3,2,1,5,0,0
430745,-250.000000000001,3,2,3,45,0,0
430977,-250.000000000001,3,2,1,5,0,0
431054,-166.666666666667,3,2,1,70,0,0
431286,-250.000000000001,3,2,1,5,0,0
431363,-200.000000000001,3,2,1,70,0,0
431595,-200.000000000001,3,2,1,5,0,0
431672,-166.666666666667,3,2,1,70,0,0
432214,-166.666666666667,3,2,1,5,0,0
432291,-200.000000000001,3,2,1,70,0,0
433683,-200.000000000001,3,2,1,5,0,0
433837,-166.666666666667,3,2,1,70,0,0
434223,-166.666666666667,3,2,1,5,0,0
434301,-200.000000000001,3,2,1,70,0,0
434687,-200.000000000001,3,2,1,5,0,0
434765,-250.000000000001,3,2,1,70,0,0
434997,-250.000000000001,3,2,1,5,0,0
435074,-166.666666666667,3,2,1,70,0,0
435151,-166.666666666667,3,2,1,5,0,0
435228,-166.666666666667,3,2,1,70,0,0
435306,-166.666666666667,3,2,1,5,0,0
435383,-500.000000000005,3,2,1,70,0,0
435615,-500.000000000005,3,2,1,5,0,0
435692,-200.000000000001,3,2,1,70,0,0
436466,-200.000000000001,3,2,1,70,0,0
436621,-200.000000000001,3,2,1,70,0,0
437394,-200.000000000001,3,2,1,5,0,0
437549,-200.000000000001,3,2,1,70,0,0
438631,-200.000000000001,3,2,1,5,0,0
438786,-200.000000000001,3,2,1,70,0,0
439559,-200.000000000001,3,2,1,5,0,0
439714,-200.000000000001,3,2,1,70,0,0
441105,-200.000000000001,3,2,1,5,0,0
441260,-166.666666666667,3,2,1,70,0,0
441646,-166.666666666667,3,2,1,5,0,0
441724,-200.000000000001,3,2,1,70,0,0
442110,-200.000000000001,3,2,1,5,0,0
442188,-250.000000000001,3,2,1,70,0,0
442420,-250.000000000001,3,2,1,5,0,0
442497,-166.666666666667,3,2,1,70,0,0
442574,-166.666666666667,3,2,1,5,0,0
442651,-166.666666666667,3,2,1,70,0,0
442729,-166.666666666667,3,2,1,5,0,0
442806,-500.000000000005,3,2,1,70,0,0
443038,-500.000000000005,3,2,1,5,0,0
443115,-200.000000000001,3,2,1,70,0,0
443348,-200.000000000001,3,2,1,5,0,0
443425,-200.000000000001,3,2,1,70,0,0
443732,-200.000000000001,3,2,1,70,0,0
443966,-200.000000000001,3,2,1,5,0,0
444043,-200.000000000001,3,2,1,70,0,0
444894,-200.000000000001,3,2,1,5,0,0
444971,-200.000000000001,3,2,1,70,0,0
445124,-200.000000000001,3,2,2,70,0,0
445588,-200.000000000001,3,2,3,70,0,0
446825,-200.000000000001,3,2,1,70,0,0
447059,-200.000000000001,3,2,1,5,0,0
447136,-200.000000000001,3,2,1,70,0,0
448528,-200.000000000001,3,2,1,5,0,0
448683,-166.666666666667,3,2,1,70,0,0
449069,-166.666666666667,3,2,1,5,0,0
449147,-200.000000000001,3,2,1,70,0,0
449533,-200.000000000001,3,2,1,5,0,0
449611,-250.000000000001,3,2,1,70,0,0
449843,-250.000000000001,3,2,1,5,0,0
449920,-166.666666666667,3,2,1,70,0,0
450152,-166.666666666667,3,2,1,5,0,0
450229,-333.333333333336,3,2,1,70,0,0
450461,-333.333333333336,3,2,1,5,0,0
450538,-200.000000000001,3,2,1,70,0,0
450770,-200.000000000001,3,2,1,5,0,0
450847,-200.000000000001,3,2,1,70,0,0
451155,-200.000000000001,3,2,1,70,0,0
451389,-200.000000000001,3,2,1,5,0,0
451466,-200.000000000001,3,2,1,70,0,0
452239,-200.000000000001,3,2,1,70,0,0
452394,-200.000000000001,3,2,1,70,0,0
453477,-200.000000000001,3,2,1,5,0,0
453632,-200.000000000001,3,2,1,70,0,0
454095,-200.000000000001,3,2,1,5,0,0
454250,-200.000000000001,3,2,1,70,0,0
454559,-200.000000000001,3,2,1,70,0,0
454714,-200.000000000001,3,2,1,70,0,0
455023,-200.000000000001,3,2,1,5,0,0
455178,-200.000000000001,3,2,1,70,0,0
455951,-200.000000000001,3,2,1,70,0,0
456105,-166.666666666667,3,2,1,70,0,0
456491,-166.666666666667,3,2,1,5,0,0
456569,-200.000000000001,3,2,1,70,0,0
456724,-200.000000000001,3,2,1,5,0,0
456801,-200.000000000001,3,2,1,70,0,0
456956,-200.000000000001,3,2,1,5,0,0
457033,-200.000000000001,3,2,1,70,0,0
457343,-200.000000000001,3,2,1,70,0,0
457498,-200.000000000001,3,2,1,70,0,0
457806,-200.000000000001,3,2,1,5,0,0
457961,-200,3,2,1,70,0,0
460590,-200.000000000001,3,2,1,5,0,0
460745,-200.000000000001,3,2,1,70,0,0
460899,-200.000000000001,3,2,1,70,0,0
461054,-200.000000000001,3,2,1,70,0,0
461827,-200.000000000001,3,2,1,5,0,0
461982,-200.000000000001,3,2,1,70,0,0
463374,-200.000000000001,3,2,1,5,0,0
463528,-166.666666666667,3,2,1,70,0,0
463914,-166.666666666667,3,2,1,5,0,0
463992,-200.000000000001,3,2,1,70,0,0
464378,-200.000000000001,3,2,1,5,0,0
464456,-250.000000000001,3,2,1,70,0,0
464842,-333.333333333334,3,2,1,5,0,0
464919,-333.333333333334,3,2,1,70,0,0
465306,-333.333333333336,3,2,1,5,0,0
465383,-200.000000000001,3,2,1,70,0,0
465616,-200.000000000001,3,2,1,5,0,0
465693,-200.000000000001,3,2,1,70,0,0
466000,-200.000000000001,3,2,1,70,0,0
466234,-200.000000000001,3,2,1,5,0,0
466311,-200.000000000001,3,2,1,70,0,0
468941,-200.000000000001,3,2,1,5,0,0
469095,-142.857142857143,3,2,1,70,0,0
469482,-142.857142857143,3,2,1,5,0,0
469559,-133.333333333333,3,2,1,70,0,0
469946,-133.333333333333,3,2,1,5,0,0
470023,-125,3,2,1,70,0,0
470410,-125,3,2,1,5,0,0
470487,-250.000000000001,3,2,1,70,0,0
470874,-250.000000000001,3,2,1,5,0,0
470951,-200.000000000001,3,2,1,70,0,0
471337,-200.000000000001,3,2,1,5,0,0
471415,-250.000000000001,3,2,1,70,0,0
471801,-250.000000000001,3,2,1,5,0,0
471879,-200.000000000001,3,2,1,70,0,0
472652,-200.000000000001,3,2,1,70,0,0
472806,-125,3,2,1,70,0,0
473038,-125,3,2,1,5,0,0
473116,-100,3,2,1,70,0,0
473734,-125,3,2,1,70,0,0
474894,-125,3,2,1,5,0,0
474971,-100,3,2,1,70,0,0
475590,-125,3,2,1,70,0,0
475820,-125,3,2,1,5,0,0
475899,-100,3,2,1,70,0,0
476518,-111.111111111111,3,2,1,70,0,0
476904,-111.111111111111,3,2,1,5,0,0
476982,-111.111111111111,3,2,1,70,0,0
477214,-111.111111111111,3,2,1,5,0,0
477292,-111.111111111111,3,2,1,70,0,0
478374,-83.3333333333333,3,2,1,70,0,0
478605,-83.3333333333333,3,2,1,5,0,0
478683,-83.3333333333333,3,2,1,70,0,0
478837,-100,3,2,1,70,0,0
479069,-99.9999999999999,3,2,1,5,0,0
479147,-99.9999999999999,3,2,1,70,0,0
479299,-99.9999999999999,3,2,2,70,0,0
479763,-99.9999999999999,3,2,3,70,0,0
480229,-90.9090909090909,3,2,1,70,0,0
480461,-90.9090909090908,3,2,1,5,0,0
480539,-90.9090909090908,3,2,1,70,0,0
480693,-83.3333333333333,3,2,1,70,0,0
480925,-83.3333333333333,3,2,1,5,0,0
481003,-83.3333333333333,3,2,1,70,0,0
481157,-100,3,2,1,70,0,0
481389,-100,3,2,1,5,0,0
481466,-111.111111111111,3,2,1,70,0,0
481698,-111.111111111111,3,2,1,5,0,0
481776,-125,3,2,1,70,0,0
482008,-125,3,2,1,5,0,0
482085,-90.9090909090909,3,2,1,70,0,0
482317,-90.9090909090908,3,2,1,5,0,0
482395,-90.9090909090908,3,2,1,70,0,0
482549,-111.111111111111,3,2,1,70,0,0
482781,-111.111111111111,3,2,1,5,0,0
482859,-111.111111111111,3,2,1,70,0,0
483013,-90.9090909090909,3,2,1,70,0,0
483245,-90.9090909090908,3,2,1,5,0,0
483323,-90.9090909090908,3,2,1,70,0,0
483941,-111.111111111111,3,2,1,70,0,0
484327,-111.111111111111,3,2,1,5,0,0
484404,-83.3333333333333,3,2,1,70,0,0
484636,-83.3333333333333,3,2,1,5,0,0
484714,-83.3333333333333,3,2,1,70,0,0
485796,-76.9230769230769,3,2,1,70,0,0
486028,-76.9230769230769,3,2,1,5,0,0
486103,-76.9230769230769,3,2,1,70,0,0
486106,-76.9230769230769,3,2,1,70,0,0
486260,-90.9090909090909,3,2,1,70,0,0
486492,-90.9090909090908,3,2,1,5,0,0
486570,-90.9090909090908,3,2,1,70,0,0
486724,-100,3,2,2,70,0,0
487186,-100,3,2,3,70,0,0
487650,-100,3,2,1,70,0,0
502497,-100,3,2,1,70,0,1
503425,-62.5,3,2,1,70,0,1
503580,-71.4285714285714,3,2,1,70,0,1
503734,-83.3333333333333,3,2,1,70,0,1
503889,-100,3,2,1,70,0,1
504044,-166.666666666667,3,2,1,70,0,1
504353,-100,3,2,1,70,0,1
504508,-83.3333333333333,3,2,1,70,0,1
504662,-71.4285714285714,3,2,1,70,0,1
504817,-83.3333333333333,3,2,1,70,0,1
504971,-90.9090909090909,3,2,1,70,0,1
505126,-100,3,2,1,70,0,1
505281,-111.111111111111,3,2,1,70,0,1
505435,-125,3,2,1,70,0,1
505590,-142.857142857143,3,2,1,70,0,1
505745,-100,3,2,1,70,0,1
506054,-166.666666666667,3,2,1,70,0,1
506209,-76.9230769230769,3,2,1,70,0,1
506363,-86.9565217391303,3,2,1,70,0,1
506518,-100,3,2,1,70,0,1
506672,-125,3,2,1,70,0,1
506827,-153.846153846153,3,2,1,70,0,1
506982,-76.9230769230769,3,2,1,70,0,1
507136,-86.9565217391303,3,2,1,70,0,1
507291,-100,3,2,1,70,0,1
507445,-125,3,2,1,70,0,1
507600,-153.846153846153,3,2,1,70,0,1
507755,-55.5555555555556,3,2,1,70,0,1
507910,-62.5,3,2,1,70,0,1
508064,-71.4285714285714,3,2,1,70,0,1
508219,-79.9999999999999,3,2,1,70,0,1
508374,-90.9090909090909,3,2,1,70,0,1
508528,-105.263157894737,3,2,1,70,0,1
508683,-125,3,2,1,70,0,1
508837,-153.846153846153,3,2,1,70,0,1
508992,-125,3,2,1,70,0,1
509301,-100,3,2,1,70,0,1
509765,-166.666666666667,3,2,1,70,0,1
509920,-100,3,2,1,70,0,1
510384,-100,3,2,1,70,0,1
510538,-83.3333333333333,3,2,1,70,0,1
510693,-71.4285714285714,3,2,1,70,0,1
510848,-100,3,2,1,70,0,1
511002,-71.4285714285714,3,2,1,70,0,1
511157,-83.3333333333333,3,2,1,70,0,1
511312,-71.4285714285714,3,2,1,70,0,1
511466,-100,3,2,1,70,0,1
511621,-83.3333333333333,3,2,1,70,0,1
511776,-100,3,2,1,70,0,1
515485,-100,3,2,1,70,0,1
515564,-100,3,2,2,70,0,1
515951,-100,3,2,1,70,0,1
516028,-100,3,2,2,70,0,1
516415,-100,3,2,3,70,0,1
517343,-100,3,2,1,70,0,1
534043,300,3,2,1,70,1,0
534043,-222.222222222221,3,2,1,70,0,0
536291,-222.222222222221,3,2,1,5,0,0
548441,-250,3,2,1,70,0,0
562391,-250,3,2,1,5,0,0
562543,-83.3333333333333,3,2,1,55,0,0
562843,-166.666666666667,3,2,1,55,0,0
591643,-125,3,2,1,60,0,0
613243,-142.857142857143,3,2,1,60,0,0
617143,-125,3,2,1,60,0,0
620443,-100,3,2,1,70,0,0
629593,-100,3,2,3,45,0,0
629668,-100,3,2,1,70,0,0
634843,-76.9230769230769,3,2,1,70,0,0
634993,-90.9090909090909,3,2,2,70,0,0
635143,-90.9090909090909,3,2,3,70,0,0
635443,-90.9090909090909,3,2,1,70,0,0
636943,-83.3333333333333,3,2,1,70,0,0
638443,-90.9090909090909,3,2,1,70,0,0
639118,-90.9090909090909,3,2,1,5,0,0
639193,-90.9090909090909,3,2,1,70,0,0
639643,-100,3,2,1,70,0,0
640241,-111.111111111111,3,2,1,70,0,0
642043,-90.9090909090909,3,2,1,70,0,0
642193,-90.9090909090909,3,2,2,70,0,0
642343,-90.9090909090909,3,2,3,70,0,0
642643,-90.9090909090909,3,2,1,70,0,0
645343,-83.3333333333333,3,2,1,70,0,0
647443,-100,3,2,1,70,0,0
647741,-100,3,2,3,70,0,0
648041,-100,3,2,1,70,0,0
648641,-100,3,2,3,70,0,0
649241,-100,3,2,1,50,0,0
650141,-100,3,2,3,70,0,0
651043,-100,3,2,3,70,0,0
658168,-100,3,2,3,5,0,0
658243,-100,3,2,3,70,0,0
659143,-100,3,2,3,70,0,0
659743,-125,3,2,3,70,0,0
660043,-100,3,2,3,70,0,0
660943,-90.9090909090909,3,2,3,70,0,0
661768,-90.9090909090909,3,2,3,5,0,0
661843,-100,3,2,1,70,0,0
662141,-100,3,2,3,70,0,0
662441,-100,3,2,1,70,0,0
663041,-100,3,2,3,70,0,0
663643,-100,3,2,1,70,0,1
671743,-83.3333333333333,3,2,1,70,0,1
671893,-76.9230769230769,3,2,1,70,0,1
672043,-86.9565217391303,3,2,1,70,0,1
672193,-100,3,2,1,70,0,1
672343,-117.647058823529,3,2,1,70,0,1
672493,-142.857142857143,3,2,1,70,0,1
672643,-100,3,2,1,70,0,1
673543,-71.4285714285714,3,2,1,70,0,1
673693,-83.3333333333333,3,2,1,70,0,1
673843,-100,3,2,1,70,0,1
673993,-125,3,2,1,70,0,1
674143,-100,3,2,1,70,0,1
676541,-100,3,2,3,70,0,1
676841,-100,3,2,1,70,0,1
678043,-83.3333333333333,3,2,1,70,0,0
678268,-83.3333333333333,3,2,1,5,0,0
678343,-83.3333333333333,3,2,1,70,0,0
678493,-71.4285714285714,3,2,1,70,0,0
678718,-71.4285714285714,3,2,1,5,0,0
678793,-71.4285714285714,3,2,1,70,0,0
678943,-100,3,2,3,70,0,0
679843,-83.3333333333333,3,2,1,70,0,0
680068,-83.3333333333333,3,2,1,5,0,0
680143,-83.3333333333333,3,2,1,70,0,0
680293,-71.4285714285714,3,2,1,70,0,0
680743,-100,3,2,2,70,0,0
681341,-100,3,2,3,70,0,0
681643,-83.3333333333333,3,2,1,70,0,0
681868,-83.3333333333333,3,2,1,5,0,0
681943,-83.3333333333333,3,2,1,70,0,0
682093,-71.4285714285714,3,2,1,70,0,0
682318,-71.4285714285714,3,2,1,5,0,0
682393,-71.4285714285714,3,2,1,70,0,0
682543,-83.3333333333333,3,2,3,70,0,0
683441,-83.3333333333333,3,2,1,70,0,0
684043,-83.3333333333333,3,2,2,70,0,0
684343,-83.3333333333333,3,2,1,70,0,0
684493,-83.3333333333333,3,2,3,70,0,0
684941,-83.3333333333333,3,2,3,70,0,0
685243,-83.3333333333333,3,2,1,70,0,0
685468,-83.3333333333333,3,2,1,5,0,0
685543,-83.3333333333333,3,2,1,70,0,0
685693,-71.4285714285714,3,2,1,70,0,0
685918,-71.4285714285714,3,2,1,5,0,0
685993,-71.4285714285714,3,2,1,70,0,0
686143,-100,3,2,3,70,0,0
687043,-83.3333333333333,3,2,1,70,0,0
687268,-83.3333333333333,3,2,1,5,0,0
687343,-83.3333333333333,3,2,1,70,0,0
687493,-71.4285714285714,3,2,1,70,0,0
687943,-100,3,2,2,70,0,0
688541,-100,3,2,3,70,0,0
688843,-83.3333333333333,3,2,1,70,0,0
689068,-83.3333333333333,3,2,1,5,0,0
689143,-83.3333333333333,3,2,1,70,0,0
689293,-71.4285714285714,3,2,1,70,0,0
689743,-100,3,2,3,70,0,0
690643,-83.3333333333333,3,2,1,70,0,0
691841,-83.3333333333333,3,2,2,70,0,0
692141,-83.3333333333333,3,2,3,70,0,0
692443,-100,3,2,1,70,0,1
699041,-100,3,2,3,70,0,1
699116,-100,3,2,1,70,0,1
705641,-100,3,2,3,70,0,1
705716,-100,3,2,1,70,0,1
728141,-100,3,2,3,70,0,1
728216,-100,3,2,1,70,0,1
735716,-100,3,2,4,70,0,1
741941,-100,3,2,1,70,0,1
742016,-100,3,2,4,70,0,1
742091,-100,3,2,1,70,0,1
742166,-100,3,2,4,70,0,1
742241,-100,3,2,1,70,0,1
742316,-100,3,2,4,70,0,1
742391,-100,3,2,1,70,0,1
742466,-100,3,2,4,70,0,1
748241,-100,3,2,1,70,0,1
748691,-100,3,2,2,70,0,1
749141,-100,3,2,3,70,0,1
749591,-100,3,2,1,70,0,1
750041,-100,3,2,2,70,0,1
750491,-100,3,2,3,70,0,1
751843,-333.333333333333,3,2,1,70,0,0
751993,-333.333333333333,3,2,1,5,0,0

[Colours]
Combo1 : 102,160,185
Combo2 : 94,136,149
Combo3 : 177,213,220
Combo4 : 43,95,117

[HitObjects]
59,369,772,6,0,B|62:366|62:366|87:372,2,29.9999990844727,2|0|0,0:0|0:0|0:0,0:0:0:0:
199,351,1222,2,0,B|193:353|193:353|160:347,2,40,2|0|0,0:0|0:0|0:0,0:0:0:0:
50,284,1672,6,0,B|43:279|43:279|89:290,2,55.0000016784668,2|0|0,0:0|0:0|0:0,0:0:0:0:
224,269,2122,2,0,B|215:273|215:273|162:262,2,64.9999970245363,2|0|0,0:0|0:0|0:0,0:0:0:0:
34,200,2572,6,0,B|24:194|24:194|91:209,2,80,2|0|0,0:0|0:0|0:0,0:0:0:0:
256,189,3022,2,0,B|243:195|243:195|168:179,2,89.9999972534181,2|0|0,0:0|0:0|0:0,0:0:0:0:
18,116,3472,6,0,B|5:108|5:108|93:128,2,104.999996795654,2|0|0,0:0|0:0|0:0,0:0:0:0:
287,109,3922,2,0,B|271:116|271:116|176:97,2,115.000002193451,2|0|0,0:0|0:0|0:0,0:0:0:0:
57,28,4372,6,0,L|111:39,1,34.9999989318848,4|0,0:0|0:0,0:0:0:0:
64,25,4522,2,0,L|118:36,1,34.9999989318848,2|0,0:0|0:0,0:0:0:0:
71,22,4672,2,0,L|125:33,1,34.9999989318848,2|0,0:0|0:0,0:0:0:0:
218,86,4822,6,0,L|153:72,1,59.9999981689454,4|0,0:0|0:0,0:0:0:0:
203,122,4972,2,0,L|138:108,1,44.999998626709,2|0,0:0|0:0,0:0:0:0:
188,158,5122,2,0,L|155:151,1,29.9999990844727,2|0,0:0|0:0,0:0:0:0:
47,184,5272,6,0,L|102:175,3,29.9999990844727,4|0|0|0,0:3|0:0|0:0|0:0,0:0:0:0:
179,232,5572,2,0,L|144:226,3,34.9999989318848,4|0|0|0,0:3|0:0|0:0|0:0,0:0:0:0:
54,301,5872,2,0,L|109:292,3,40,4|0|0|0,0:3|0:0|0:0|0:0,0:0:0:0:
195,368,6172,6,0,L|140:359,3,44.999998626709,4|0|0|0,0:3|0:0|0:0|0:0,0:0:0:0:
284,287,6472,2,0,L|229:296,3,50,4|0|0|0,0:3|0:0|0:0|0:0,0:0:0:0:
360,384,6772,2,0,L|305:375,3,55.0000016784669,4|0|0|0,0:3|0:0|0:0|0:0,0:0:0:0:
447,299,7072,6,0,L|507:289,3,59.9999981689454,4|0|0|0,0:3|0:0|0:0|0:0,0:0:0:0:
370,212,7372,2,0,L|303:201,3,64.9999970245363,4|0|0|0,0:3|0:0|0:0|0:0,0:0:0:0:
444,121,7672,2,0,L|517:108,3,69.9999978637696,4|0|0|0,0:3|0:0|0:0|0:0,0:0:0:0:
330,38,7972,6,0,L|257:25,1,50,4|0,3:0|3:0,3:0:0:0:
213,154,8122,2,0,L|262:145,1,50,0|0,3:0|3:0,3:0:0:0:
93,39,8272,5,2,3:0:0:0:
91,43,8347,1,0,3:0:0:0:
56,78,8422,5,2,3:0:0:0:
64,106,8497,1,0,3:0:0:0:
90,135,8572,5,2,3:0:0:0:
84,154,8647,1,0,3:0:0:0:
71,167,8722,6,0,L|79:204,1,29.9999990844727,0|0,3:0|3:0,0:0:0:0:
224,246,8872,6,0,L|169:234,1,50,10|0,3:0|3:0,3:0:0:0:
224,264,9022,2,0,L|169:252,1,50,0|0,3:0|3:0,3:0:0:0:
57,311,9172,6,0,L|74:263,1,50,2|0,3:0|3:0,0:0:0:0:
188,171,9322,2,0,L|171:219,1,44.999998626709,0|0,3:0|3:0,0:0:0:0:
204,327,9472,2,0,L|221:279,1,40,2|0,3:0|3:0,0:0:0:0:
313,240,9622,2,0,L|299:277,1,34.9999989318848,0|0,3:0|3:0,0:0:0:0:
405,370,9772,6,0,L|357:358,1,50,4|0,3:2|3:0,3:0:0:0:
402,353,9922,2,0,L|354:341,1,50,0|0,3:0|3:0,3:0:0:0:
501,246,10072,5,2,3:0:0:0:
497,244,10147,1,0,3:0:0:0:
462,209,10222,5,0,3:0:0:0:
433,218,10297,1,0,3:0:0:0:
404,245,10372,5,2,3:0:0:0:
384,240,10447,1,0,3:0:0:0:
370,228,10522,6,0,L|333:236,1,29.9999990844727,0|0,3:0|3:0,0:0:0:0:
474,135,10672,6,0,L|461:87,1,50,10|0,3:0|3:0,3:0:0:0:
465,128,10822,2,0,L|452:80,1,50,0|0,3:0|3:0,3:0:0:0:
347,2,10972,6,0,L|334:50,1,50,2|0,3:0|3:0,0:0:0:0:
266,146,11122,2,0,L|253:97,1,44.999998626709,0|0,3:0|3:0,0:0:0:0:
181,29,11272,2,0,L|168:77,1,40,2|0,3:0|3:0,0:0:0:0:
105,141,11422,2,0,L|92:92,1,34.9999989318848,0|0,3:0|3:0,0:0:0:0:
0,35,11572,6,0,L|48:22,1,50,4|0,3:2|3:0,3:0:0:0:
5,47,11722,2,0,L|53:34,1,50,0|0,3:0|3:0,3:0:0:0:
194,29,11872,5,2,3:0:0:0:
196,33,11947,1,0,3:0:0:0:
231,68,12022,5,0,3:0:0:0:
222,96,12097,1,0,3:0:0:0:
193,124,12172,5,2,3:0:0:0:
199,142,12247,1,0,3:0:0:0:
210,155,12322,6,0,L|202:192,1,29.9999990844727,0|0,3:0|3:0,0:0:0:0:
47,151,12472,6,0,L|117:161,1,50,10|0,3:0|3:0,3:0:0:0:
53,169,12622,2,0,L|123:179,1,50,0|0,3:0|3:0,3:0:0:0:
93,328,12772,6,0,L|142:320,1,50,2|0,3:0|3:0,0:0:0:0:
275,243,12922,2,0,L|230:235,1,44.999998626709,0|0,3:0|3:0,0:0:0:0:
111,181,13072,2,0,L|150:174,1,40,2|0,3:0|3:0,0:0:0:0:
255,115,13222,2,0,L|220:109,1,34.9999989318848,0|0,3:0|3:0,0:0:0:0:
91,3,13372,5,2,2:3:0:0:
75,50,13447,1,2,2:3:0:0:
60,97,13522,1,2,2:3:0:0:
45,144,13597,1,2,2:3:0:0:
5,189,13672,5,2,3:3:0:0:
49,187,13747,1,2,2:3:0:0:
93,185,13822,1,2,2:3:0:0:
137,183,13897,1,2,2:3:0:0:
180,149,13972,5,2,3:3:0:0:
177,188,14047,1,2,2:3:0:0:
174,227,14122,1,2,2:3:0:0:
171,266,14197,1,2,2:3:0:0:
141,306,14272,5,2,3:3:0:0:
175,299,14347,1,2,2:3:0:0:
209,292,14422,1,2,2:3:0:0:
243,285,14497,1,2,2:3:0:0:
268,248,14572,5,2,3:3:0:0:
275,277,14647,1,2,2:3:0:0:
282,306,14722,1,2,2:3:0:0:
289,335,14797,1,2,2:3:0:0:
277,373,14872,5,2,3:3:0:0:
299,361,14947,1,2,2:3:0:0:
321,349,15022,1,2,2:3:0:0:
343,337,15097,1,2,2:3:0:0:
364,280,15172,6,0,L|433:265,1,50,4|0,3:0|3:0,0:0:0:0:
374,290,15322,2,0,L|443:275,1,50,0|0,3:0|3:0,0:0:0:0:
203,230,15472,6,0,L|262:218,1,50,10|0,3:0|3:0,3:0:0:0:
404,162,15622,2,0,L|345:150,1,44.999998626709,0|0,3:0|3:0,3:0:0:0:
237,93,15772,2,0,L|296:81,1,40,2|0,3:0|3:0,3:0:0:0:
392,19,15922,2,0,L|333:7,1,34.9999989318848,0|0,3:0|3:0,0:0:0:0:
394,168,16072,6,0,L|385:118,1,50,10|0,3:0|3:0,0:0:0:0:
383,161,16222,2,0,L|374:111,1,50,0|0,3:0|3:0,0:0:0:0:
160,27,16372,6,0,L|219:39,1,50,2|0,3:0|3:0,0:0:0:0:
361,95,16522,2,0,L|302:107,1,44.999998626709,0|0,3:0|3:0,0:0:0:0:
125,172,16672,6,0,L|184:184,1,40,10|0,3:0|3:0,0:0:0:0:
280,246,16822,2,0,L|221:258,1,34.9999989318848,0|0,3:0|3:0,0:0:0:0:
94,285,16972,6,0,L|76:355,1,50,2|0,3:0|3:0,0:0:0:0:
107,284,17122,2,0,L|89:354,1,50,0|0,3:0|3:0,0:0:0:0:
229,384,17272,6,0,L|212:317,1,50,10|0,3:0|3:0,3:0:0:0:
293,188,17422,2,0,L|276:255,1,44.999998626709,0|0,3:0|3:0,3:0:0:0:
346,361,17572,2,0,L|329:294,1,40,2|0,3:0|3:0,3:0:0:0:
427,241,17722,2,0,L|415:288,1,34.9999989318848,0|0,3:0|3:0,0:0:0:0:
229,264,17872,6,0,L|290:250,1,50,10|0,3:0|3:0,0:0:0:0:
237,273,18022,2,0,L|298:259,1,50,0|0,3:0|3:0,0:0:0:0:
360,84,18172,6,0,L|346:142,1,50,2|0,3:0|3:0,0:0:0:0:
305,313,18322,2,0,L|294:264,1,44.999998626709,0|0,3:0|3:0,0:0:0:0:
204,111,18472,6,0,L|190:169,1,40,10|0,3:0|3:0,0:0:0:0:
161,275,18622,2,0,L|147:217,1,34.9999989318848,0|0,3:0|3:0,0:0:0:0:
24,104,18772,6,0,L|85:90,1,50,4|0,3:2|3:0,3:0:0:0:
30,113,18922,2,0,L|91:99,1,50,0|0,3:0|3:0,3:0:0:0:
203,174,19072,6,0,P|238:150|258:103,1,59.9999981689454,4|0,3:2|3:0,3:0:0:0:
172,282,19222,2,0,P|214:289|261:270,1,59.9999981689454,4|0,3:2|3:0,0:0:0:0:
74,338,19372,2,0,P|98:372|145:392,1,59.9999981689454,4|0,3:2|3:0,0:0:0:0:
94,224,19522,2,0,L|32:217,1,34.9999989318848,0|0,3:0|3:0,0:0:0:0:
225,366,19672,6,0,L|287:359,1,50,4|0,3:2|3:0,3:0:0:0:
229,356,19822,2,0,L|291:349,1,50,0|0,3:0|3:0,0:0:0:0:
247,171,19972,6,0,L|226:239,1,50,2|0,3:0|3:0,0:0:0:0:
153,384,20122,2,0,L|132:316,1,44.999998626709,0|0,3:0|3:0,0:0:0:0:
121,175,20272,2,0,L|105:236,1,40,2|0,3:0|3:0,0:0:0:0:
47,317,20422,2,0,L|28:255,1,34.9999989318848,0|0,3:0|3:0,0:0:0:0:
95,32,20572,5,2,3:3:0:0:
143,42,20647,1,2,2:3:0:0:
191,52,20722,1,2,2:3:0:0:
239,62,20797,1,2,2:3:0:0:
294,39,20872,5,2,3:3:0:0:
280,81,20947,1,2,2:3:0:0:
266,123,21022,1,2,2:3:0:0:
252,166,21097,1,2,2:3:0:0:
208,200,21172,5,2,3:3:0:0:
247,201,21247,1,2,2:3:0:0:
286,203,21322,1,2,2:3:0:0:
325,205,21397,1,2,2:3:0:0:
363,172,21472,5,2,3:3:0:0:
358,206,21547,1,2,2:3:0:0:
354,240,21622,1,2,2:3:0:0:
350,274,21697,1,2,2:3:0:0:
318,306,21772,5,2,3:3:0:0:
347,302,21847,1,2,2:3:0:0:
376,298,21922,1,2,2:3:0:0:
405,294,21997,1,2,2:3:0:0:
435,267,22072,5,2,3:3:0:0:
435,291,22147,1,2,2:3:0:0:
435,315,22222,1,2,2:3:0:0:
435,339,22297,1,2,2:3:0:0:
401,376,22372,5,4,3:0:0:0:
354,144,25972,6,0,B|378:100|433:91|466:129|466:129|481:176|452:221|404:227|404:227|466:227|519:282|488:360|488:360|413:398|354:347|350:285|350:285|346:335|304:366|257:356|257:356|216:322|220:268|263:241|263:241|258:179|200:93|98:112|12:169|17:273|83:348|166:339,1,1379.99995788574,2|0,0:0|0:0,0:0:0:0:
277,85,29572,6,0,L|213:76,1,50,4|10,3:0|3:0,0:0:0:0:
402,226,29722,2,0,L|466:217,1,50,2|10,3:2|3:0,0:0:0:0:
201,213,29872,5,2,3:2:0:0:
167,256,29947,1,10,3:0:0:0:
165,310,30022,1,2,3:2:0:0:
195,356,30097,1,10,3:0:0:0:
245,377,30172,1,2,3:2:0:0:
299,367,30247,1,10,3:0:0:0:
339,329,30322,1,2,3:2:0:0:
350,275,30397,1,10,3:0:0:0:
327,224,30472,1,2,3:2:0:0:
339,175,30547,1,10,3:0:0:0:
375,152,30622,1,2,3:2:0:0:
409,149,30697,1,10,3:0:0:0:
434,159,30772,1,2,3:2:0:0:
448,172,30847,1,10,3:0:0:0:
453,183,30922,5,2,3:2:0:0:
433,212,30997,1,10,3:0:0:0:
396,227,31072,1,2,3:2:0:0:
351,219,31147,1,10,3:0:0:0:
321,178,31222,2,0,P|320:145|332:111,1,50,2|10,3:2|3:0,0:0:0:0:
471,50,31372,5,4,3:2:0:0:
486,87,31447,1,0,3:0:0:0:
477,126,31522,2,0,P|451:144|424:148,1,50,0|0,3:0|3:0,0:0:0:0:
255,107,31672,2,0,P|241:89|233:60,1,50,2|0,3:0|3:0,0:0:0:0:
447,2,31822,5,0,3:0:0:0:
491,33,31897,1,0,3:0:0:0:
511,83,31972,1,2,3:0:0:0:
501,136,32047,1,0,3:0:0:0:
463,175,32122,2,0,P|433:187|396:187,1,50,0|0,3:0|3:0,0:0:0:0:
258,97,32272,5,10,3:0:0:0:
208,95,32347,1,0,3:0:0:0:
165,120,32422,1,0,3:0:0:0:
148,166,32497,1,0,3:0:0:0:
161,214,32572,1,2,3:0:0:0:
199,245,32647,1,0,3:0:0:0:
248,251,32722,1,0,3:0:0:0:
286,231,32797,1,0,3:0:0:0:
321,230,32872,1,2,3:0:0:0:
347,242,32947,1,0,3:0:0:0:
361,259,33022,1,0,3:0:0:0:
365,273,33097,1,0,3:0:0:0:
345,324,33172,5,4,3:0:0:0:
228,176,33322,1,0,3:0:0:0:
478,95,33472,5,2,3:2:0:0:
509,146,33547,1,10,3:0:0:0:
498,204,33622,1,2,3:2:0:0:
445,232,33697,1,10,3:0:0:0:
387,214,33772,1,2,3:2:0:0:
329,232,33847,1,10,3:0:0:0:
301,285,33922,1,2,3:2:0:0:
309,344,33997,1,10,3:0:0:0:
350,382,34072,5,2,3:2:0:0:
383,326,34147,1,10,3:0:0:0:
375,261,34222,1,2,3:2:0:0:
323,221,34297,1,10,3:0:0:0:
258,223,34372,1,2,3:2:0:0:
213,270,34447,1,10,3:0:0:0:
148,275,34522,1,2,3:2:0:0:
91,242,34597,1,10,3:0:0:0:
72,179,34672,5,2,3:2:0:0:
127,155,34747,1,10,3:0:0:0:
185,168,34822,2,0,P|224:197|238:232,1,50,2|10,3:2|3:0,0:0:0:0:
153,353,34972,6,0,L|99:338,1,50,4|0,3:0|3:0,3:0:0:0:
20,280,35122,2,0,L|74:265,1,50,0|0,3:0|3:0,0:0:0:0:
193,201,35272,2,0,L|139:186,1,50,2|0,3:0|3:0,3:0:0:0:
0,112,35422,2,0,L|54:97,1,50,0|0,3:0|3:0,0:0:0:0:
218,48,35572,5,2,3:0:0:0:
257,54,35647,1,0,3:0:0:0:
286,81,35722,2,0,P|299:113|294:140,1,50,0|0,3:0|3:0,0:0:0:0:
284,285,35872,5,10,3:0:0:0:
317,306,35947,1,0,3:0:0:0:
356,308,36022,2,0,P|386:291|398:265,1,50,0|0,3:0|3:0,0:0:0:0:
429,113,36172,5,2,3:0:0:0:
383,90,36247,1,0,3:0:0:0:
333,93,36322,1,0,3:0:0:0:
296,128,36397,1,0,3:0:0:0:
284,176,36472,1,2,3:0:0:0:
256,207,36547,1,0,3:0:0:0:
222,214,36622,1,0,3:0:0:0:
190,205,36697,1,0,3:0:0:0:
158,153,36772,5,4,3:0:0:0:
366,175,36922,1,0,3:0:0:0:
138,339,37072,5,2,3:2:0:0:
106,288,37147,1,10,3:0:0:0:
121,230,37222,1,2,3:2:0:0:
172,199,37297,1,10,3:0:0:0:
199,145,37372,1,2,3:2:0:0:
184,86,37447,1,10,3:0:0:0:
135,50,37522,1,2,3:2:0:0:
75,53,37597,1,10,3:0:0:0:
30,93,37672,5,2,3:2:0:0:
83,129,37747,1,10,3:0:0:0:
147,132,37822,1,2,3:2:0:0:
200,95,37897,1,10,3:0:0:0:
223,34,37972,1,2,3:2:0:0:
279,1,38047,1,10,3:0:0:0:
343,6,38122,1,2,3:2:0:0:
392,48,38197,1,10,3:0:0:0:
395,112,38272,5,2,3:2:0:0:
335,119,38347,1,10,3:0:0:0:
282,90,38422,2,0,P|265:63|269:10,1,50,2|10,3:2|3:0,0:0:0:0:
464,28,38572,2,0,P|485:54|477:108,1,50,2|10,3:2|3:0,3:0:0:0:
429,230,38722,5,2,3:2:0:0:
373,263,38797,1,10,3:0:0:0:
308,253,38872,1,2,3:2:0:0:
265,203,38947,1,10,3:0:0:0:
201,189,39022,1,2,3:2:0:0:
143,219,39097,1,10,3:0:0:0:
123,281,39172,1,2,3:2:0:0:
149,340,39247,1,10,3:0:0:0:
205,372,39322,2,0,P|242:371|277:351,1,50,2|10,3:2|3:0,0:0:0:0:
287,136,39472,5,2,3:2:0:0:
238,101,39547,1,10,3:0:0:0:
183,93,39622,1,2,3:2:0:0:
136,112,39697,1,10,3:0:0:0:
109,148,39772,1,2,3:2:0:0:
73,165,39847,1,10,3:0:0:0:
38,161,39922,1,2,3:2:0:0:
12,144,39997,1,10,3:0:0:0:
0,121,40072,5,2,3:2:0:0:
35,101,40147,1,10,3:0:0:0:
75,101,40222,2,0,P|97:111|112:135,1,50,2|10,3:2|3:0,0:0:0:0:
76,281,40372,5,2,3:2:0:0:
106,332,40447,1,10,3:0:0:0:
162,351,40522,1,2,3:2:0:0:
220,335,40597,1,10,3:0:0:0:
250,283,40672,1,2,3:2:0:0:
301,263,40747,1,10,3:0:0:0:
350,272,40822,1,2,3:2:0:0:
382,303,40897,1,10,3:0:0:0:
393,341,40972,5,2,3:2:0:0:
354,350,41047,1,10,3:0:0:0:
316,337,41122,2,0,P|300:318|291:292,1,50,2|10,3:2|3:0,0:0:0:0:
355,120,41272,5,2,3:2:0:0:
334,85,41347,1,10,3:0:0:0:
297,69,41422,2,0,P|273:71|248:86,1,50,2|10,3:2|3:0,0:0:0:0:
187,234,41572,6,0,L|252:253,1,50,2|10,3:2|3:0,0:0:0:0:
408,205,41722,2,0,L|360:190,1,50,2|10,3:2|3:0,0:0:0:0:
184,43,41872,5,2,3:2:0:0:
124,47,41947,1,10,3:0:0:0:
83,91,42022,2,0,P|78:126|89:162,1,50,2|10,3:2|3:0,0:0:0:0:
176,315,42172,5,8,3:0:0:0:
225,307,42247,1,8,3:0:0:0:
274,299,42322,1,8,3:0:0:0:
323,292,42397,1,8,3:0:0:0:
372,285,42472,5,2,3:3:0:0:
363,280,42547,1,2,2:3:0:0:
354,275,42622,1,2,2:3:0:0:
345,270,42697,1,2,2:3:0:0:
336,265,42772,5,8,3:0:0:0:
333,195,42847,1,8,3:0:0:0:
380,143,42922,1,8,3:0:0:0:
449,136,42997,1,8,3:0:0:0:
507,174,43072,5,8,3:0:0:0:
169,244,43222,1,8,3:0:0:0:
489,322,43372,5,8,3:0:0:0:
194,280,43522,1,8,3:0:0:0:
463,355,43672,5,8,3:0:0:0:
229,384,43822,1,8,3:0:0:0:
290,85,43972,5,4,3:0:0:0:
328,74,44047,1,0,3:0:0:0:
367,86,44122,1,0,3:0:0:0:
394,114,44197,1,0,3:0:0:0:
429,132,44272,1,0,3:0:0:0:
469,130,44347,1,0,3:0:0:0:
502,108,44422,2,0,P|512:81|500:27,1,50,0|0,3:0|3:0,0:0:0:0:
328,176,44572,5,8,3:0:0:0:
321,216,44647,1,0,3:0:0:0:
340,250,44722,2,0,P|377:266|404:268,1,50,0|0,3:0|3:0,0:0:0:0:
429,56,44872,5,2,3:3:0:0:
409,51,44947,1,0,3:0:0:0:
375,73,45022,5,2,3:3:0:0:
361,78,45097,1,0,3:0:0:0:
324,61,45172,5,2,3:3:0:0:
314,59,45247,1,0,3:0:0:0:
281,82,45322,5,2,3:3:0:0:
276,81,45397,1,0,3:0:0:0:
246,71,45472,5,6,3:3:0:0:
246,71,45547,1,0,3:0:0:0:
246,71,45622,2,0,L|166:60,1,50,2|0,3:3|3:0,0:0:0:0:
372,168,45772,6,0,L|421:161,1,50,8|0,3:0|3:0,0:0:0:0:
205,223,45922,2,0,L|155:216,1,50,4|0,3:2|3:0,0:0:0:0:
366,258,46072,5,0,3:0:0:0:
382,305,46147,1,0,3:0:0:0:
370,353,46222,1,0,3:0:0:0:
327,379,46297,1,0,3:0:0:0:
265,366,46372,2,0,L|276:319,1,29.9999990844727,0|0,3:0|0:0,0:0:0:0:
298,118,46672,5,4,3:0:0:0:
324,88,46747,1,0,3:0:0:0:
361,74,46822,1,0,3:0:0:0:
401,76,46897,1,0,3:0:0:0:
436,95,46972,2,0,P|458:120|464:137,1,50,8|0,3:0|3:0,0:0:0:0:
307,194,47122,5,4,3:0:0:0:
291,230,47197,1,0,3:0:0:0:
293,269,47272,1,0,3:0:0:0:
313,305,47347,1,0,3:0:0:0:
344,329,47422,2,0,P|375:337|403:331,1,50,0|0,3:0|3:0,0:0:0:0:
403,177,47572,5,4,3:0:0:0:
387,140,47647,1,0,3:0:0:0:
358,113,47722,1,0,3:0:0:0:
319,102,47797,1,0,3:0:0:0:
279,108,47872,2,0,P|249:124|237:138,1,50,0|0,3:0|3:0,0:0:0:0:
223,264,48022,5,4,3:0:0:0:
187,282,48097,1,0,3:0:0:0:
147,283,48172,1,8,3:0:0:0:
111,266,48247,1,0,3:0:0:0:
83,236,48322,2,0,P|76:205|80:181,1,50,0|0,3:0|3:0,0:0:0:0:
145,69,48472,5,2,3:0:0:0:
176,93,48547,1,0,3:0:0:0:
189,130,48622,2,0,P|184:156|158:185,1,50,2|0,3:0|3:0,0:0:0:0:
0,307,48772,6,0,B|21:283|51:279|51:279|84:323|137:338|191:323,1,209.999993591309,2|0,3:0|3:0,3:0:0:0:
144,129,49372,5,8,3:0:0:0:
123,151,49447,1,0,3:0:0:0:
117,180,49522,1,2,3:0:0:0:
124,208,49597,1,0,3:0:0:0:
158,229,49672,5,2,3:0:0:0:
181,222,49747,1,0,3:0:0:0:
199,187,49822,5,2,3:0:0:0:
218,190,49897,1,0,3:0:0:0:
244,220,49972,5,2,3:0:0:0:
258,218,50047,1,0,3:0:0:0:
288,193,50122,5,2,3:0:0:0:
297,195,50197,1,0,3:0:0:0:
338,209,50272,5,6,3:0:0:0:
338,209,50347,1,0,3:0:0:0:
338,209,50422,2,0,L|399:199,1,50,2|0,3:0|3:0,0:0:0:0:
227,308,50572,6,0,L|166:318,1,50,8|0,3:2|3:0,3:0:0:0:
360,368,50722,2,0,L|421:378,1,50,4|0,3:2|3:0,3:0:0:0:
403,179,50872,5,4,3:2:0:0:
373,152,50947,1,0,3:0:0:0:
334,142,51022,2,0,P|298:149|271:172,1,50,0|0,3:0|3:0,0:0:0:0:
229,314,51172,2,0,L|248:379,3,50,4|0|0|0,3:2|3:0|3:0|3:0,0:0:0:0:
138,241,51472,5,4,3:0:0:0:
118,242,51547,1,0,3:0:0:0:
101,251,51622,1,0,3:0:0:0:
88,265,51697,1,0,3:0:0:0:
85,293,51772,2,0,P|90:309|106:328,1,40,8|0,3:0|3:0,0:0:0:0:
203,157,51922,5,4,3:0:0:0:
232,155,51997,1,0,3:0:0:0:
260,167,52072,1,0,3:0:0:0:
279,190,52147,1,0,3:0:0:0:
284,220,52222,2,0,P|278:236|257:260,1,40,0|0,3:0|3:0,0:0:0:0:
418,128,52372,5,4,3:0:0:0:
407,90,52447,1,0,3:0:0:0:
376,64,52522,1,0,3:0:0:0:
340,54,52597,1,0,3:0:0:0:
301,62,52672,2,0,P|286:74|269:98,1,40,0|0,3:0|3:0,0:0:0:0:
423,139,52822,6,0,L|483:154,1,40,4|0,3:0|3:0,0:0:0:0:
293,241,52972,2,0,L|233:256,1,40,8|0,3:0|3:0,0:0:0:0:
369,338,53122,1,0,3:0:0:0:
450,119,53572,6,0,B|487:71|458:17|390:2|333:67|356:118|414:164|419:163|425:163|439:187|446:226|416:266,1,350,4|0,3:0|0:0,3:0:0:0:
366,322,54172,1,0,3:0:0:0:
385,324,54247,1,0,3:0:0:0:
405,328,54322,1,0,3:0:0:0:
424,331,54397,1,0,3:0:0:0:
444,334,54472,1,4,3:0:0:0:
461,347,55072,5,2,3:2:0:0:
334,377,55222,1,2,3:2:0:0:
408,229,55372,5,8,3:0:0:0:
461,355,55522,1,2,3:2:0:0:
278,313,55672,1,2,3:2:0:0:
490,252,55822,5,8,3:0:0:0:
486,247,55972,1,2,3:2:0:0:
175,259,56272,5,4,3:0:0:0:
140,238,56347,1,0,3:0:0:0:
129,199,56422,2,0,P|138:172|160:148,1,50,0|0,3:0|3:0,0:0:0:0:
282,183,56572,2,0,P|293:204|301:235,1,50,8|0,3:0|3:0,0:0:0:0:
148,347,56722,5,4,3:0:0:0:
108,345,56797,1,0,3:0:0:0:
73,324,56872,1,0,3:0:0:0:
58,286,56947,1,0,3:0:0:0:
66,246,57022,2,0,P|86:221|103:212,1,50,0|0,3:0|3:0,0:0:0:0:
218,243,57172,5,4,3:0:0:0:
246,215,57247,1,0,3:0:0:0:
252,175,57322,1,0,3:0:0:0:
237,137,57397,1,0,3:0:0:0:
204,113,57472,5,0,3:0:0:0:
187,138,57547,1,0,3:0:0:0:
189,175,57622,2,0,P|217:197|247:200,1,50,4|0,3:0|3:0,0:0:0:0:
424,65,57772,5,8,3:0:0:0:
405,29,57847,1,0,3:0:0:0:
368,11,57922,1,0,3:0:0:0:
328,12,57997,1,0,3:0:0:0:
294,29,58072,2,0,B|278:59|278:59|380:79,1,120,4|0,3:2|3:2,3:0:0:0:
432,202,58372,6,0,B|478:180|478:180|333:151|333:151|276:180|276:180|163:157,1,350,4|0,3:0|3:2,3:0:0:0:
145,226,58972,1,0,3:0:0:0:
164,229,59047,1,0,3:0:0:0:
184,232,59122,1,0,3:0:0:0:
203,236,59197,1,0,3:0:0:0:
222,240,59272,1,4,3:0:0:0:
240,255,59872,5,2,3:2:0:0:
98,288,60022,1,2,3:2:0:0:
281,184,60172,5,8,3:0:0:0:
99,142,60322,1,2,3:2:0:0:
232,88,60472,1,2,3:2:0:0:
178,326,60622,5,8,3:0:0:0:
185,320,60772,1,2,3:2:0:0:
383,163,61072,5,4,3:0:0:0:
422,159,61147,1,0,3:0:0:0:
458,175,61222,2,0,P|475:206|475:233,1,50,0|0,3:0|3:0,0:0:0:0:
350,305,61372,5,8,3:0:0:0:
313,317,61447,1,0,3:0:0:0:
274,309,61522,1,4,3:0:0:0:
245,281,61597,1,0,3:0:0:0:
239,242,61672,1,0,3:0:0:0:
217,210,61747,1,0,3:0:0:0:
180,197,61822,1,0,3:0:0:0:
141,201,61897,1,0,3:0:0:0:
114,228,61972,5,4,3:0:0:0:
141,241,62047,1,0,3:0:0:0:
170,240,62122,1,0,3:0:0:0:
197,226,62197,1,0,3:0:0:0:
211,199,62272,1,0,3:0:0:0:
209,169,62347,1,0,3:0:0:0:
192,143,62422,2,0,P|169:133|130:137,1,50,4|0,3:0|3:0,3:0:0:0:
265,247,62572,5,8,3:0:0:0:
292,257,62647,1,0,3:0:0:0:
322,257,62722,1,0,3:0:0:0:
350,247,62797,1,0,3:0:0:0:
370,225,62872,1,4,3:2:0:0:
312,74,63172,6,0,B|337:40|326:0|326:0|361:54|336:109|307:84|281:140|308:187,1,280,4|0,0:3|3:0,3:0:0:0:
344,249,63772,1,0,3:0:0:0:
323,250,63847,1,0,3:0:0:0:
303,252,63922,1,0,3:0:0:0:
283,253,63997,1,0,3:0:0:0:
263,255,64072,1,4,3:0:0:0:
237,266,64672,5,2,3:2:0:0:
293,384,64822,1,2,3:2:0:0:
309,198,64972,5,8,3:0:0:0:
147,284,65122,1,2,3:2:0:0:
375,299,65272,1,2,3:2:0:0:
244,56,65422,5,8,3:0:0:0:
241,65,65572,2,0,L|252:113,1,29.9999990844727,2|0,3:2|0:0,0:0:0:0:
395,103,65872,5,4,3:0:0:0:
405,103,65947,1,0,3:0:0:0:
414,101,66022,1,0,3:0:0:0:
423,98,66097,1,0,3:0:0:0:
433,87,66172,2,0,P|437:83|446:44,1,40,8|0,3:0|3:0,0:0:0:0:
341,169,66322,5,4,3:0:0:0:
321,166,66397,1,0,3:0:0:0:
303,156,66472,1,0,3:0:0:0:
292,138,66547,1,0,3:0:0:0:
292,118,66622,2,0,P|298:103|320:83,1,40,0|0,3:0|3:0,0:0:0:0:
422,185,66772,5,4,3:0:0:0:
437,209,66847,1,0,3:0:0:0:
437,238,66922,1,0,3:0:0:0:
428,267,66997,1,0,3:0:0:0:
403,285,67072,2,0,P|374:291|343:283,1,40,0|0,3:0|3:0,0:0:0:0:
266,215,67222,5,4,3:0:0:0:
227,204,67297,1,0,3:0:0:0:
189,215,67372,1,8,3:0:0:0:
159,241,67447,1,0,3:0:0:0:
147,278,67522,2,0,P|149:304|162:329,1,40,0|0,3:0|3:0,0:0:0:0:
302,291,67672,5,4,3:2:0:0:
334,268,67747,1,0,3:0:0:0:
347,230,67822,2,0,P|344:199|334:177,1,40,0|0,3:0|3:0,3:0:0:0:
137,109,67972,6,0,B|95:111|79:151|79:151|108:203|183:213|238:171|237:106,1,280,4|0,3:0|0:0,3:0:0:0:
216,51,68572,1,0,3:0:0:0:
235,54,68647,1,0,3:0:0:0:
255,56,68722,1,0,3:0:0:0:
274,60,68797,1,0,3:0:0:0:
294,63,68872,1,4,3:0:0:0:
312,82,69472,5,2,3:2:0:0:
186,131,69622,1,2,3:2:0:0:
377,195,69772,5,8,3:0:0:0:
231,60,69922,1,2,3:2:0:0:
194,217,70072,1,2,3:2:0:0:
414,43,70222,5,8,3:0:0:0:
421,54,70372,2,0,L|409:100,1,29.9999990844727,2|0,3:2|0:0,0:0:0:0:
438,275,70672,5,4,3:0:0:0:
405,298,70747,1,0,3:0:0:0:
365,293,70822,2,0,P|337:269|328:250,1,50,0|0,3:0|3:0,0:0:0:0:
475,108,70972,6,0,L|400:93,1,50,8|0,3:0|3:0,3:0:0:0:
295,56,71122,2,0,L|370:41,1,50,4|0,3:0|3:0,3:0:0:0:
496,196,71272,2,0,L|421:181,1,50,0|0,3:0|3:0,3:0:0:0:
264,145,71422,2,0,L|339:130,1,50,0|0,3:0|3:0,3:0:0:0:
340,296,71572,5,2,3:3:0:0:
303,313,71647,1,2,2:3:0:0:
267,332,71722,1,2,2:3:0:0:
231,350,71797,1,2,2:3:0:0:
193,384,71872,5,2,3:3:0:0:
182,349,71947,1,2,2:3:0:0:
172,314,72022,1,2,2:3:0:0:
162,281,72097,1,2,2:3:0:0:
184,241,72172,5,2,3:3:0:0:
155,234,72247,1,2,2:3:0:0:
126,225,72322,1,2,2:3:0:0:
96,217,72397,1,2,2:3:0:0:
65,243,72472,5,2,3:3:0:0:
63,213,72547,1,2,2:3:0:0:
60,182,72622,1,2,2:3:0:0:
59,152,72697,1,2,2:3:0:0:
98,106,72772,5,4,3:0:0:0:
99,97,72847,1,2,3:0:0:0:
101,88,72922,1,2,3:2:0:0:
103,79,72997,1,2,3:0:0:0:
74,26,73072,5,2,3:2:0:0:
129,3,73147,1,10,3:0:0:0:
187,16,73222,1,2,3:2:0:0:
229,58,73297,1,10,3:0:0:0:
230,117,73372,1,2,3:2:0:0:
272,159,73447,1,10,3:0:0:0:
330,170,73522,1,2,3:2:0:0:
385,146,73597,1,10,3:0:0:0:
402,88,73672,5,2,3:2:0:0:
349,104,73747,1,10,3:0:0:0:
327,154,73822,1,2,3:2:0:0:
345,205,73897,1,10,3:0:0:0:
392,232,73972,1,2,3:2:0:0:
441,223,74047,1,10,3:0:0:0:
483,236,74122,1,2,3:2:0:0:
507,267,74197,1,10,3:0:0:0:
512,306,74272,1,2,3:2:0:0:
496,337,74347,1,10,3:0:0:0:
470,352,74422,2,0,P|435:361|396:345,1,50,2|10,3:2|3:0,0:0:0:0:
311,221,74572,5,2,3:2:0:0:
255,195,74647,1,10,3:0:0:0:
196,207,74722,1,2,3:2:0:0:
162,257,74797,1,10,3:0:0:0:
163,316,74872,1,2,3:2:0:0:
123,360,74947,1,10,3:0:0:0:
63,366,75022,1,2,3:2:0:0:
14,331,75097,1,10,3:0:0:0:
0,272,75172,1,2,3:2:0:0:
26,217,75247,1,10,3:0:0:0:
81,194,75322,1,2,3:2:0:0:
140,206,75397,1,10,3:0:0:0:
169,258,75472,5,2,3:2:0:0:
114,262,75547,1,10,3:0:0:0:
64,237,75622,1,2,3:2:0:0:
43,185,75697,1,10,3:0:0:0:
57,132,75772,1,2,3:2:0:0:
95,99,75847,1,10,3:0:0:0:
105,55,75922,1,2,3:2:0:0:
85,19,75997,1,10,3:0:0:0:
53,4,76072,6,0,P|22:6|2:13,1,50,2|10,3:2|3:0,0:0:0:0:
142,199,76222,2,0,P|173:197|193:190,1,50,2|10,3:2|3:0,0:0:0:0:
333,58,76372,5,2,3:2:0:0:
290,16,76447,1,10,3:0:0:0:
231,1,76522,1,2,3:2:0:0:
176,25,76597,1,10,3:0:0:0:
152,80,76672,1,2,3:2:0:0:
162,128,76747,1,10,3:0:0:0:
190,156,76822,1,2,3:2:0:0:
218,166,76897,1,10,3:0:0:0:
237,165,76972,6,0,B|270:154|283:131,1,50,2|10,3:2|3:0,0:0:0:0:
130,53,77122,2,0,B|97:64|84:87,1,50,2|10,3:2|3:0,0:0:0:0:
196,249,77272,5,2,3:2:0:0:
253,264,77347,1,10,3:0:0:0:
310,246,77422,1,2,3:2:0:0:
341,194,77497,1,10,3:0:0:0:
335,134,77572,1,2,3:2:0:0:
359,84,77647,1,10,3:0:0:0:
406,67,77722,1,2,3:2:0:0:
450,73,77797,1,10,3:0:0:0:
477,102,77872,1,2,3:2:0:0:
490,134,77947,1,10,3:0:0:0:
487,163,78022,2,0,P|471:190|442:203,1,50,2|10,3:2|3:0,0:0:0:0:
243,188,78172,5,2,3:2:0:0:
189,175,78247,1,10,3:0:0:0:
157,129,78322,1,2,3:2:0:0:
161,74,78397,1,10,3:0:0:0:
201,36,78472,5,2,3:2:0:0:
222,86,78547,1,10,3:0:0:0:
206,138,78622,1,2,3:2:0:0:
158,165,78697,1,10,3:0:0:0:
103,155,78772,1,2,3:2:0:0:
53,179,78847,1,10,3:0:0:0:
31,229,78922,1,2,3:2:0:0:
43,282,78997,1,10,3:0:0:0:
86,315,79072,1,2,3:2:0:0:
140,319,79147,1,10,3:0:0:0:
184,286,79222,1,2,3:2:0:0:
196,232,79297,1,10,3:0:0:0:
239,197,79372,1,2,3:2:0:0:
293,196,79447,1,10,3:0:0:0:
341,221,79522,1,2,3:2:0:0:
359,272,79597,1,10,3:0:0:0:
347,325,79672,1,2,3:2:0:0:
313,354,79747,1,10,3:0:0:0:
278,360,79822,2,0,P|256:354|234:338,1,50,2|10,3:2|3:0,0:0:0:0:
353,180,79972,5,4,3:2:0:0:
407,158,80047,1,0,3:0:0:0:
465,172,80122,1,0,3:0:0:0:
502,217,80197,1,0,3:0:0:0:
507,276,80272,1,12,3:0:0:0:
476,326,80347,1,0,3:0:0:0:
421,348,80422,1,8,3:0:0:0:
364,334,80497,1,0,3:0:0:0:
325,289,80572,5,12,3:0:0:0:
377,259,80647,1,0,3:0:0:0:
436,267,80722,2,0,P|456:291|464:321,1,50,8|0,3:0|3:0,0:0:0:0:
247,365,80872,5,12,3:0:0:0:
182,359,80947,1,0,3:0:0:0:
137,311,81022,1,8,3:0:0:0:
135,246,81097,1,0,3:0:0:0:
178,197,81172,1,8,3:0:0:0:
180,132,81247,1,0,3:0:0:0:
143,78,81322,1,8,3:0:0:0:
79,62,81397,1,0,3:0:0:0:
20,89,81472,5,8,3:0:0:0:
35,146,81547,1,0,3:0:0:0:
89,171,81622,2,0,P|122:167|145:151,1,50,8|0,3:0|3:0,0:0:0:0:
230,52,81772,5,12,3:2:0:0:
275,21,81847,1,0,3:0:0:0:
329,18,81922,1,8,3:0:0:0:
379,39,81997,1,0,3:0:0:0:
403,88,82072,5,12,3:0:0:0:
355,103,82147,1,0,3:0:0:0:
305,93,82222,2,0,P|282:73|271:43,1,50,8|0,3:0|3:0,3:0:0:0:
383,217,82372,5,12,3:0:0:0:
431,232,82447,1,0,3:0:0:0:
481,222,82522,2,0,P|504:202|515:172,1,50,8|0,3:0|3:0,0:0:0:0:
275,167,82672,6,0,L|288:230,1,50,8|0,3:0|3:0,3:0:0:0:
352,339,82822,2,0,L|362:290,1,50,8|0,3:0|3:0,3:0:0:0:
363,71,82972,2,0,L|376:134,1,50,8|0,3:0|3:0,3:0:0:0:
467,343,83122,5,10,3:0:0:0:
509,293,83197,1,0,3:0:0:0:
508,228,83272,1,8,3:0:0:0:
461,182,83347,1,0,3:0:0:0:
396,177,83422,2,0,P|360:189|336:214,1,50,8|0,3:0|3:0,0:0:0:0:
305,349,83572,5,10,3:0:0:0:
253,380,83647,1,0,3:0:0:0:
195,364,83722,1,8,3:0:0:0:
163,312,83797,1,0,3:0:0:0:
178,254,83872,1,8,3:0:0:0:
160,196,83947,1,0,3:0:0:0:
107,166,84022,1,8,3:0:0:0:
47,170,84097,1,0,3:0:0:0:
7,214,84172,5,8,3:0:0:0:
48,256,84247,1,0,3:0:0:0:
107,262,84322,2,0,P|134:245|150:223,1,50,8|0,3:0|3:0,3:0:0:0:
135,65,84472,6,0,L|190:76,1,50,10|0,3:0|3:0,0:0:0:0:
324,120,84622,2,0,L|274:130,1,50,8|0,3:0|3:0,0:0:0:0:
94,177,84772,2,0,L|149:188,1,50,8|0,3:0|3:0,0:0:0:0:
362,227,84922,2,0,L|312:237,1,50,8|0,3:0|3:0,0:0:0:0:
168,359,85072,5,8,3:0:0:0:
156,342,85147,1,0,3:0:0:0:
150,322,85222,1,8,3:0:0:0:
152,302,85297,1,0,3:0:0:0:
162,284,85372,5,12,3:0:0:0:
209,328,85447,1,0,3:0:0:0:
273,337,85522,1,8,3:0:0:0:
329,305,85597,1,0,3:0:0:0:
349,243,85672,1,8,3:0:0:0:
327,181,85747,1,0,3:0:0:0:
274,143,85822,1,8,3:0:0:0:
255,80,85897,1,0,3:0:0:0:
286,23,85972,1,10,3:0:0:0:
349,8,86047,1,0,3:0:0:0:
409,32,86122,2,0,P|431:66|439:97,1,50,8|0,3:0|3:0,0:0:0:0:
272,223,86272,5,8,3:0:0:0:
212,212,86347,1,8,3:0:0:0:
152,201,86422,1,8,3:0:0:0:
92,190,86497,1,8,3:0:0:0:
32,180,86572,5,2,3:3:0:0:
40,192,86647,1,2,2:3:0:0:
48,204,86722,1,2,2:3:0:0:
56,216,86797,1,2,2:3:0:0:
68,224,86872,5,2,3:3:0:0:
65,233,86947,1,2,2:3:0:0:
62,242,87022,1,2,2:3:0:0:
59,251,87097,1,2,2:3:0:0:
30,292,87172,6,0,B|72:268|129:280|150:309|140:318|174:353|245:351|276:297|276:297|230:323|178:294,1,350,4|0,3:0|2:0,3:0:0:0:
232,222,87772,1,0,3:0:0:0:
250,217,87847,1,0,3:0:0:0:
270,213,87922,1,0,3:0:0:0:
289,208,87997,1,0,3:0:0:0:
308,203,88072,6,0,P|376:213|410:283,1,150,4|0,3:0|2:0,3:0:0:0:
327,282,88372,2,0,P|287:306|271:371,1,89.9999972534181,4|0,3:0|2:0,3:0:0:0:
351,360,88672,5,2,3:2:0:0:
178,384,88822,1,2,3:2:0:0:
212,137,88972,5,8,3:0:0:0:
250,288,89122,1,2,3:2:0:0:
77,213,89272,1,2,3:2:0:0:
388,209,89422,5,8,3:0:0:0:
385,223,89572,1,2,3:2:0:0:
325,97,89872,5,4,3:0:0:0:
294,105,89947,1,0,3:0:0:0:
272,128,90022,1,0,3:0:0:0:
263,158,90097,1,0,3:0:0:0:
274,200,90172,2,0,P|292:212|316:220,1,40,8|0,3:0|3:0,0:0:0:0:
426,115,90322,2,0,P|405:87|380:71,1,40,4|0,3:0|3:0,3:0:0:0:
229,65,90472,5,0,3:0:0:0:
200,75,90547,1,0,3:0:0:0:
179,96,90622,2,0,P|169:127|176:155,1,40,0|0,3:0|3:0,0:0:0:0:
357,234,90772,5,4,3:0:0:0:
333,201,90847,1,0,3:0:0:0:
296,183,90922,1,0,3:0:0:0:
257,183,90997,1,0,3:0:0:0:
220,201,91072,2,0,P|207:221|202:255,1,40,0|0,3:0|3:0,0:0:0:0:
353,324,91222,5,4,3:0:0:0:
392,319,91297,1,0,3:0:0:0:
424,297,91372,1,8,3:0:0:0:
444,262,91447,1,0,3:0:0:0:
446,222,91522,2,0,P|435:196|412:172,1,40,0|0,3:0|3:0,0:0:0:0:
243,158,91672,5,0,3:0:0:0:
244,182,91747,1,0,3:0:0:0:
246,206,91822,1,0,3:0:0:0:
248,231,91897,1,0,3:0:0:0:
250,255,91972,6,0,B|212:285|168:265|168:265|138:292|87:296|47:256|47:256|64:289|46:325,1,280,4|0,3:0|2:0,3:0:0:0:
31,384,92572,1,0,3:0:0:0:
50,382,92647,1,0,3:0:0:0:
70,379,92722,1,0,3:0:0:0:
89,378,92797,1,0,3:0:0:0:
108,375,92872,1,4,3:0:0:0:
134,361,93472,5,2,3:2:0:0:
181,233,93622,1,2,3:2:0:0:
290,336,93772,5,8,3:0:0:0:
118,286,93922,1,2,3:2:0:0:
245,186,94072,1,2,3:2:0:0:
17,114,94222,5,8,3:0:0:0:
20,127,94372,1,2,3:2:0:0:
244,58,94672,5,4,3:0:0:0:
214,60,94747,1,0,3:0:0:0:
190,78,94822,2,0,P|182:92|181:130,1,50,0|0,3:0|3:0,0:0:0:0:
297,166,94972,5,8,3:0:0:0:
335,162,95047,1,0,3:0:0:0:
364,134,95122,1,4,3:0:0:0:
368,94,95197,1,0,3:0:0:0:
345,61,95272,5,0,3:0:0:0:
317,78,95347,1,0,3:0:0:0:
306,107,95422,2,0,P|310:126|330:151,1,50,0|0,3:0|3:0,3:0:0:0:
455,282,95572,5,4,3:0:0:0:
457,241,95647,1,0,3:0:0:0:
434,207,95722,1,0,3:0:0:0:
398,191,95797,1,0,3:0:0:0:
359,202,95872,1,0,3:0:0:0:
335,233,95947,1,0,3:0:0:0:
295,239,96022,1,4,3:0:0:0:
259,221,96097,1,0,3:0:0:0:
239,185,96172,5,8,3:0:0:0:
268,173,96247,1,0,3:0:0:0:
299,174,96322,2,0,P|316:192|317:219,1,50,0|0,3:0|3:0,0:0:0:0:
161,353,96472,5,0,3:0:0:0:
154,313,96547,1,0,3:0:0:0:
147,273,96622,1,0,3:0:0:0:
141,233,96697,1,0,3:0:0:0:
134,193,96772,1,4,3:0:0:0:
128,212,97372,5,0,3:0:0:0:
131,232,97447,1,0,3:0:0:0:
134,252,97522,1,0,3:0:0:0:
138,272,97597,1,0,3:0:0:0:
140,292,97672,2,0,B|175:261|226:255|269:281|269:281|287:320|335:343|381:335|408:301|408:301|385:317|345:311,1,350,4|0,3:0|2:0,3:0:0:0:
334,247,98272,5,2,3:2:0:0:
508,261,98422,1,2,3:2:0:0:
367,134,98572,5,8,3:0:0:0:
423,346,98722,1,2,3:2:0:0:
504,98,98872,1,2,3:2:0:0:
226,169,99022,5,8,3:0:0:0:
234,186,99172,1,2,3:2:0:0:
328,64,99472,5,4,3:0:0:0:
300,54,99547,1,0,3:0:0:0:
270,55,99622,2,0,P|250:67|240:84,1,29.9999990844727,0|0,3:0|3:0,0:0:0:0:
401,24,99772,2,0,P|414:39|418:52,1,29.9999990844727,8|0,3:0|3:0,0:0:0:0:
284,143,99922,5,4,3:0:0:0:
256,153,99997,1,0,3:0:0:0:
226,153,100072,1,0,3:0:0:0:
199,144,100147,1,0,3:0:0:0:
178,123,100222,2,0,P|171:100|174:79,1,29.9999990844727,0|0,3:0|3:0,0:0:0:0:
341,43,100372,5,4,3:0:0:0:
379,37,100447,1,0,3:0:0:0:
417,48,100522,1,0,3:0:0:0:
447,73,100597,1,0,3:0:0:0:
460,109,100672,2,0,P|457:138|442:170,1,40,0|0,3:0|3:0,3:0:0:0:
289,155,100822,2,0,P|298:178|313:197,1,40,4|0,3:0|3:0,0:0:0:0:
408,323,100972,5,8,3:0:0:0:
447,324,101047,1,0,3:0:0:0:
479,302,101122,2,0,P|492:266|486:235,1,40,0|0,3:0|3:0,0:0:0:0:
327,213,101272,5,4,3:0:0:0:
324,232,101347,1,0,3:0:0:0:
322,252,101422,1,0,3:0:0:0:
319,271,101497,1,0,3:0:0:0:
317,287,101572,6,0,P|269:334|178:316,1,150,4|0,3:0|0:0,3:0:0:0:
150,247,101872,2,0,P|204:238|255:265,1,89.9999972534181,4|0,0:0|2:0,0:0:0:0:
76,289,102172,1,0,3:0:0:0:
78,268,102247,1,0,3:0:0:0:
80,249,102322,1,0,3:0:0:0:
82,229,102397,1,0,3:0:0:0:
85,209,102472,1,4,3:0:0:0:
106,181,103072,5,2,3:2:0:0:
256,205,103222,1,2,3:2:0:0:
106,55,103372,5,8,3:0:0:0:
174,237,103522,1,2,3:2:0:0:
273,118,103672,1,2,3:2:0:0:
2,168,103822,5,8,3:0:0:0:
7,175,103972,1,2,3:2:0:0:
123,280,104272,5,4,3:0:0:0:
162,285,104347,1,0,3:0:0:0:
199,272,104422,2,0,P|219:242|223:206,1,50,0|0,3:0|3:0,0:0:0:0:
48,103,104572,5,8,3:0:0:0:
61,140,104647,1,0,3:0:0:0:
89,167,104722,1,4,3:0:0:0:
127,178,104797,1,0,3:0:0:0:
166,171,104872,5,0,3:0:0:0:
164,141,104947,1,0,3:0:0:0:
144,118,105022,2,0,P|120:111|92:111,1,50,0|0,3:0|3:0,0:0:0:0:
0,273,105172,5,2,3:3:0:0:
39,279,105247,1,2,2:3:0:0:
78,285,105322,1,2,2:3:0:0:
117,292,105397,1,2,2:3:0:0:
134,267,105472,5,2,3:3:0:0:
162,259,105547,1,2,2:3:0:0:
190,251,105622,1,2,2:3:0:0:
219,243,105697,1,2,2:3:0:0:
234,255,105772,5,2,3:3:0:0:
252,263,105847,1,2,2:3:0:0:
274,263,105922,1,2,2:3:0:0:
295,249,105997,1,2,2:3:0:0:
309,225,106072,1,2,3:3:0:0:
335,210,106147,1,2,2:3:0:0:
367,205,106222,1,2,2:3:0:0:
400,216,106297,1,2,2:3:0:0:
417,262,106372,5,10,3:0:0:0:
407,263,106447,1,10,3:0:0:0:
397,261,106522,1,10,3:0:0:0:
388,256,106597,1,10,3:0:0:0:
351,221,106672,5,2,3:2:0:0:
390,215,106747,1,10,3:0:0:0:
425,232,106822,1,2,3:2:0:0:
446,265,106897,1,10,3:0:0:0:
442,304,106972,1,2,3:2:0:0:
418,336,107047,1,10,3:0:0:0:
378,342,107122,1,2,3:2:0:0:
340,328,107197,1,10,3:0:0:0:
322,292,107272,5,4,3:2:0:0:
300,325,107347,1,10,3:0:0:0:
261,335,107422,1,2,3:2:0:0:
222,325,107497,1,10,3:0:0:0:
194,295,107572,1,2,3:2:0:0:
189,255,107647,1,10,3:0:0:0:
206,218,107722,1,2,3:2:0:0:
203,178,107797,1,10,3:0:0:0:
179,145,107872,1,2,3:2:0:0:
140,136,107947,1,10,3:0:0:0:
103,151,108022,1,2,3:2:0:0:
82,185,108097,1,10,3:0:0:0:
88,224,108172,5,4,3:2:0:0:
115,199,108247,1,10,3:0:0:0:
118,164,108322,1,2,3:2:0:0:
105,134,108397,1,10,3:0:0:0:
77,121,108472,1,2,3:2:0:0:
63,97,108547,1,10,3:0:0:0:
67,72,108622,1,2,3:2:0:0:
84,57,108697,1,10,3:0:0:0:
103,55,108772,1,2,3:2:0:0:
115,67,108847,1,10,3:0:0:0:
112,81,108922,1,2,3:2:0:0:
102,89,108997,1,10,3:0:0:0:
91,91,109072,5,4,3:2:0:0:
79,63,109147,1,10,3:0:0:0:
94,37,109222,1,2,3:2:0:0:
122,27,109297,1,10,3:0:0:0:
151,30,109372,1,2,3:2:0:0:
167,54,109447,1,10,3:0:0:0:
193,67,109522,1,2,3:2:0:0:
222,67,109597,1,10,3:0:0:0:
249,54,109672,5,2,3:2:0:0:
241,42,109747,1,10,3:0:0:0:
226,41,109822,1,2,3:2:0:0:
211,43,109897,1,10,3:0:0:0:
198,50,109972,5,4,3:2:0:0:
221,23,110047,1,10,3:0:0:0:
255,15,110122,1,2,3:2:0:0:
289,19,110197,1,10,3:0:0:0:
316,40,110272,1,2,3:2:0:0:
331,71,110347,1,10,3:0:0:0:
326,105,110422,5,2,3:2:0:0:
306,103,110497,1,10,3:0:0:0:
287,94,110572,1,2,3:2:0:0:
276,77,110647,1,10,3:0:0:0:
274,57,110722,1,2,3:2:0:0:
280,38,110797,1,10,3:0:0:0:
295,24,110872,5,4,3:2:0:0:
310,55,110947,1,10,3:0:0:0:
302,89,111022,1,2,3:2:0:0:
277,113,111097,1,10,3:0:0:0:
242,118,111172,1,2,3:2:0:0:
217,142,111247,1,10,3:0:0:0:
208,176,111322,1,2,3:2:0:0:
216,210,111397,1,10,3:0:0:0:
241,233,111472,5,2,3:2:0:0:
239,183,111547,1,10,3:0:0:0:
197,154,111622,1,2,3:2:0:0:
147,155,111697,1,10,3:0:0:0:
110,189,111772,5,4,3:2:0:0:
129,186,111847,1,10,3:0:0:0:
148,191,111922,1,2,3:2:0:0:
164,202,111997,1,10,3:0:0:0:
173,219,112072,1,2,3:2:0:0:
173,238,112147,1,10,3:0:0:0:
165,256,112222,5,2,3:2:0:0:
196,224,112297,1,10,3:0:0:0:
235,215,112372,1,2,3:2:0:0:
268,226,112447,1,10,3:0:0:0:
287,248,112522,1,2,3:2:0:0:
294,271,112597,1,10,3:0:0:0:
291,290,112672,5,4,3:2:0:0:
258,251,112747,1,10,3:0:0:0:
255,201,112822,1,2,3:2:0:0:
282,159,112897,1,10,3:0:0:0:
328,141,112972,1,2,3:2:0:0:
377,149,113047,1,10,3:0:0:0:
410,186,113122,1,2,3:2:0:0:
421,234,113197,1,10,3:0:0:0:
400,279,113272,1,2,3:2:0:0:
402,321,113347,1,10,3:0:0:0:
426,345,113422,1,2,3:2:0:0:
453,349,113497,1,10,3:0:0:0:
470,340,113572,5,4,3:2:0:0:
428,303,113647,1,10,3:0:0:0:
373,295,113722,1,2,3:2:0:0:
320,310,113797,1,10,3:0:0:0:
278,346,113872,1,2,3:2:0:0:
223,350,113947,1,10,3:0:0:0:
171,330,114022,1,2,3:2:0:0:
140,283,114097,1,10,3:0:0:0:
141,228,114172,1,2,3:2:0:0:
174,184,114247,1,10,3:0:0:0:
226,166,114322,1,2,3:2:0:0:
279,180,114397,1,10,3:0:0:0:
312,224,114472,5,4,3:2:0:0:
257,227,114547,1,10,3:0:0:0:
210,197,114622,1,2,3:2:0:0:
194,144,114697,1,10,3:0:0:0:
216,93,114772,1,2,3:2:0:0:
262,62,114847,1,10,3:0:0:0:
316,66,114922,1,2,3:2:0:0:
357,101,114997,1,10,3:0:0:0:
404,103,115072,1,2,3:2:0:0:
438,82,115147,1,10,3:0:0:0:
448,51,115222,1,2,3:2:0:0:
444,26,115297,1,10,3:0:0:0:
433,11,115372,5,4,3:2:0:0:
421,20,115447,1,10,3:0:0:0:
412,32,115522,1,2,3:2:0:0:
405,45,115597,1,10,3:0:0:0:
401,59,115672,1,2,3:2:0:0:
399,73,115747,1,10,3:0:0:0:
399,87,115822,1,2,3:2:0:0:
402,101,115897,1,10,3:0:0:0:
406,115,115972,1,2,3:2:0:0:
414,127,116047,1,10,3:0:0:0:
423,138,116122,1,2,3:2:0:0:
434,147,116197,1,10,3:0:0:0:
447,153,116272,5,4,3:2:0:0:
432,126,116347,1,10,3:0:0:0:
404,114,116422,1,2,3:2:0:0:
374,117,116497,1,10,3:0:0:0:
349,133,116572,1,2,3:2:0:0:
319,139,116647,1,10,3:0:0:0:
289,135,116722,1,2,3:2:0:0:
263,118,116797,1,10,3:0:0:0:
256,88,116872,5,2,3:2:0:0:
295,92,116947,1,10,3:0:0:0:
332,108,117022,1,2,3:2:0:0:
353,140,117097,1,10,3:0:0:0:
357,179,117172,1,4,3:2:0:0:
343,210,117247,1,10,3:0:0:0:
321,230,117322,1,2,3:2:0:0:
297,239,117397,1,10,3:0:0:0:
277,236,117472,5,2,3:2:0:0:
304,207,117547,1,10,3:0:0:0:
343,200,117622,1,2,3:2:0:0:
379,216,117697,1,10,3:0:0:0:
403,247,117772,1,2,3:2:0:0:
409,286,117847,1,10,3:0:0:0:
437,313,117922,1,2,3:2:0:0:
475,321,117997,1,10,3:0:0:0:
509,300,118072,5,4,3:2:0:0:
484,269,118147,1,10,3:0:0:0:
445,257,118222,1,2,3:2:0:0:
404,257,118297,1,10,3:0:0:0:
367,271,118372,1,2,3:2:0:0:
337,298,118447,1,10,3:0:0:0:
320,335,118522,2,0,P|317:355|323:384,1,50,2|10,3:2|3:0,0:0:0:0:
457,165,118672,5,8,3:0:0:0:
401,130,118747,1,8,3:0:0:0:
337,137,118822,1,8,3:0:0:0:
291,183,118897,1,8,3:0:0:0:
293,253,118972,5,8,3:0:0:0:
260,309,119047,1,8,3:0:0:0:
195,318,119122,1,8,3:0:0:0:
135,291,119197,1,8,3:0:0:0:
116,229,119272,5,2,3:3:0:0:
119,214,119347,1,2,2:3:0:0:
122,199,119422,1,2,2:3:0:0:
125,184,119497,1,2,2:3:0:0:
157,145,119572,5,2,3:3:0:0:
155,135,119647,1,2,2:3:0:0:
153,125,119722,1,2,2:3:0:0:
151,115,119797,1,2,2:3:0:0:
113,75,119872,5,8,3:0:0:0:
159,30,119947,1,8,3:0:0:0:
223,25,120022,1,8,3:0:0:0:
279,56,120097,1,8,3:0:0:0:
293,119,120172,5,0,3:0:0:0:
297,113,120247,1,0,3:0:0:0:
301,107,120322,1,0,3:0:0:0:
305,101,120397,1,0,3:0:0:0:
310,95,120472,5,8,3:0:0:0:
348,153,120547,1,8,3:0:0:0:
416,167,120622,1,8,3:0:0:0:
479,138,120697,1,8,3:0:0:0:
498,70,120772,6,0,L|438:50,1,50,4|0,3:0|3:0,3:0:0:0:
497,57,120922,2,0,L|449:41,1,50,0|0,3:0|3:0,3:0:0:0:
285,76,121072,5,2,3:0:0:0:
284,80,121147,1,0,3:0:0:0:
254,120,121222,5,4,3:2:0:0:
260,149,121297,1,0,3:0:0:0:
286,179,121372,5,4,3:0:0:0:
280,200,121447,1,0,3:0:0:0:
267,220,121522,6,0,L|278:267,1,29.9999990844727,0|0,3:0|3:0,0:0:0:0:
95,150,121672,6,0,L|145:137,1,50,10|0,3:0|3:0,3:0:0:0:
102,135,121822,2,0,L|152:122,1,50,0|0,3:0|3:0,3:0:0:0:
261,211,121972,6,0,L|213:199,1,50,4|0,3:0|3:0,0:0:0:0:
89,267,122122,2,0,L|139:254,1,44.999998626709,4|0,3:2|3:0,0:0:0:0:
263,299,122272,2,0,L|213:286,1,40,2|0,3:0|3:0,0:0:0:0:
172,348,122422,2,0,L|220:360,1,34.9999989318848,4|0,3:2|3:0,0:0:0:0:
444,337,122572,6,0,L|394:324,1,50,4|0,3:2|3:0,3:0:0:0:
437,322,122722,2,0,L|387:309,1,50,0|0,3:0|3:0,3:0:0:0:
415,161,122872,5,4,3:2:0:0:
409,159,122947,1,0,3:0:0:0:
367,131,123022,5,0,3:0:0:0:
338,140,123097,1,0,3:0:0:0:
310,169,123172,5,4,3:2:0:0:
290,168,123247,1,0,3:0:0:0:
268,157,123322,6,0,L|213:174,1,29.9999990844727,0|0,3:0|3:0,0:0:0:0:
249,43,123472,6,0,L|299:30,1,50,10|0,3:0|3:0,3:0:0:0:
256,28,123622,2,0,L|306:15,1,50,0|0,3:0|3:0,3:0:0:0:
100,106,123772,6,0,L|50:93,1,50,4|0,3:2|3:0,0:0:0:0:
229,155,123922,2,0,L|279:142,1,44.999998626709,4|0,3:2|3:0,0:0:0:0:
108,201,124072,2,0,L|58:188,1,40,4|0,3:0|3:0,0:0:0:0:
193,250,124222,2,0,L|241:262,1,34.9999989318848,0|0,3:0|3:0,0:0:0:0:
33,337,124372,6,0,L|83:324,1,50,4|0,3:2|3:0,3:0:0:0:
40,322,124522,2,0,L|90:309,1,50,0|0,3:0|3:0,3:0:0:0:
252,350,124672,5,0,3:0:0:0:
252,345,124747,1,0,3:0:0:0:
287,309,124822,5,4,3:2:0:0:
281,279,124897,1,0,3:0:0:0:
247,257,124972,5,4,3:2:0:0:
251,237,125047,1,0,3:0:0:0:
263,216,125122,6,0,L|251:166,1,29.9999990844727,0|0,3:0|3:0,0:0:0:0:
400,235,125272,6,0,L|350:222,1,50,10|0,3:0|3:0,3:0:0:0:
393,220,125422,2,0,L|343:207,1,50,0|0,3:0|3:0,3:0:0:0:
203,99,125572,6,0,L|253:86,1,50,0|0,3:0|3:0,0:0:0:0:
389,153,125722,2,0,L|339:140,1,44.999998626709,4|0,3:2|3:0,0:0:0:0:
208,188,125872,2,0,L|258:175,1,40,4|0,3:0|3:0,0:0:0:0:
334,230,126022,2,0,L|300:238,1,34.9999989318848,0|0,3:0|3:0,0:0:0:0:
48,264,126172,5,2,3:3:0:0:
57,214,126247,1,2,2:3:0:0:
67,165,126322,1,2,2:3:0:0:
77,115,126397,1,2,2:3:0:0:
50,61,126472,5,2,3:3:0:0:
91,78,126547,1,2,2:3:0:0:
131,97,126622,1,2,2:3:0:0:
171,115,126697,1,2,2:3:0:0:
200,162,126772,5,2,3:3:0:0:
221,128,126847,1,2,2:3:0:0:
242,94,126922,1,2,2:3:0:0:
264,60,126997,1,2,2:3:0:0:
260,9,127072,5,2,3:3:0:0:
287,31,127147,1,2,2:3:0:0:
313,54,127222,1,2,2:3:0:0:
340,76,127297,1,2,2:3:0:0:
336,120,127372,5,2,3:3:0:0:
360,101,127447,1,2,2:3:0:0:
384,83,127522,1,2,2:3:0:0:
408,66,127597,1,2,2:3:0:0:
407,25,127672,5,2,3:3:0:0:
423,44,127747,1,2,2:3:0:0:
439,63,127822,1,2,2:3:0:0:
455,82,127897,1,2,2:3:0:0:
512,64,127972,6,0,L|502:14,1,50,4|0,3:2|3:0,0:0:0:0:
501,51,128122,2,0,L|491:1,1,50,0|0,3:0|3:0,0:0:0:0:
348,154,128272,6,0,L|357:104,1,50,10|0,3:0|3:0,3:0:0:0:
500,199,128422,2,0,L|490:149,1,44.999998626709,0|0,3:0|3:0,3:0:0:0:
355,271,128572,2,0,L|364:221,1,40,2|0,3:0|3:0,3:0:0:0:
465,274,128722,2,0,L|455:323,1,34.9999989318848,0|0,3:0|3:0,0:0:0:0:
209,343,128872,6,0,L|218:293,1,50,10|0,3:0|3:0,0:0:0:0:
220,330,129022,2,0,L|229:280,1,50,0|0,3:0|3:0,0:0:0:0:
142,149,129172,6,0,L|151:198,1,50,2|0,3:0|3:0,0:0:0:0:
75,315,129322,2,0,L|84:265,1,44.999998626709,0|0,3:0|3:0,0:0:0:0:
42,39,129472,6,0,L|51:88,1,40,10|0,3:0|3:0,0:0:0:0:
6,182,129622,2,0,L|-3:132,1,34.9999989318848,0|0,3:0|3:0,0:0:0:0:
197,29,129772,6,0,L|206:78,1,50,2|0,3:0|3:0,0:0:0:0:
208,42,129922,2,0,L|217:91,1,50,0|0,3:0|3:0,0:0:0:0:
247,236,130072,6,0,L|256:186,1,50,10|0,3:0|3:0,3:0:0:0:
307,39,130222,2,0,L|316:88,1,44.999998626709,0|0,3:0|3:0,3:0:0:0:
371,221,130372,2,0,L|380:171,1,40,2|0,3:0|3:0,3:0:0:0:
445,88,130522,2,0,L|435:137,1,34.9999989318848,0|0,3:0|3:0,0:0:0:0:
491,321,130672,6,0,L|481:271,1,50,10|0,3:0|3:0,0:0:0:0:
480,308,130822,2,0,L|470:258,1,50,0|0,3:0|3:0,0:0:0:0:
262,346,130972,6,0,L|271:296,1,50,2|0,3:0|3:0,0:0:0:0:
407,286,131122,2,0,L|397:236,1,44.999998626709,0|0,3:0|3:0,0:0:0:0:
180,215,131272,6,0,L|189:165,1,40,10|0,3:0|3:0,0:0:0:0:
314,150,131422,2,0,L|306:189,1,34.9999989318848,0|0,3:0|3:0,0:0:0:0:
112,158,131572,5,4,3:2:0:0:
98,151,131647,1,0,3:0:0:0:
86,138,131722,1,0,3:0:0:0:
80,119,131797,1,0,3:0:0:0:
83,98,131872,1,4,3:2:0:0:
97,80,131947,1,0,3:0:0:0:
120,70,132022,1,4,3:2:0:0:
146,72,132097,1,0,3:0:0:0:
169,89,132172,1,4,3:0:0:0:
179,118,132247,1,0,3:0:0:0:
201,141,132322,1,0,3:0:0:0:
234,152,132397,1,0,3:0:0:0:
270,149,132472,1,10,3:0:0:0:
301,125,132547,1,0,3:0:0:0:
313,85,132622,1,0,3:0:0:0:
346,57,132697,1,0,3:0:0:0:
390,51,132772,1,2,3:0:0:0:
431,72,132847,1,0,3:0:0:0:
450,116,132922,1,0,3:0:0:0:
434,164,132997,1,0,3:0:0:0:
385,184,133072,1,2,3:0:0:0:
331,169,133147,1,0,3:0:0:0:
315,114,133222,2,0,P|323:88|348:68,1,50,0|0,3:0|3:0,0:0:0:0:
481,219,133372,5,2,3:3:0:0:
445,253,133447,1,2,2:3:0:0:
409,287,133522,1,2,2:3:0:0:
373,322,133597,1,2,2:3:0:0:
342,373,133672,5,2,3:3:0:0:
320,333,133747,1,2,2:3:0:0:
298,293,133822,1,2,2:3:0:0:
277,253,133897,1,2,2:3:0:0:
288,199,133972,5,2,3:3:0:0:
249,210,134047,1,2,2:3:0:0:
210,221,134122,1,2,2:3:0:0:
171,232,134197,1,2,2:3:0:0:
135,266,134272,5,2,3:3:0:0:
137,231,134347,1,2,2:3:0:0:
139,196,134422,1,2,2:3:0:0:
141,161,134497,1,2,2:3:0:0:
177,134,134572,5,2,3:3:0:0:
147,129,134647,1,2,2:3:0:0:
117,124,134722,1,2,2:3:0:0:
87,119,134797,1,2,2:3:0:0:
49,133,134872,5,2,3:3:0:0:
71,113,134947,1,2,2:3:0:0:
86,76,135022,1,2,2:3:0:0:
74,27,135097,1,2,2:3:0:0:
16,9,135172,6,0,L|24:71,1,50,4|0,3:0|3:0,3:0:0:0:
130,273,135322,2,0,L|123:223,1,50,0|0,3:0|3:0,3:0:0:0:
224,51,135472,5,2,3:2:0:0:
281,34,135547,1,10,3:0:0:0:
339,48,135622,1,2,3:2:0:0:
376,94,135697,1,10,3:0:0:0:
374,153,135772,1,2,3:2:0:0:
334,197,135847,1,10,3:0:0:0:
334,257,135922,1,2,3:2:0:0:
374,301,135997,1,10,3:0:0:0:
433,308,136072,1,4,3:2:0:0:
480,279,136147,1,10,3:0:0:0:
491,230,136222,1,2,3:2:0:0:
471,189,136297,1,10,3:0:0:0:
435,170,136372,2,0,P|403:166|368:186,1,50,2|10,3:2|3:0,3:0:0:0:
307,351,136522,5,4,3:2:0:0:
278,359,136597,1,10,3:0:0:0:
245,347,136672,1,0,3:0:0:0:
223,313,136747,1,10,3:0:0:0:
181,296,136822,1,2,3:2:0:0:
133,311,136897,1,10,3:0:0:0:
111,361,136972,5,2,3:2:0:0:
170,362,137047,1,10,3:0:0:0:
212,319,137122,1,2,3:2:0:0:
212,259,137197,1,10,3:0:0:0:
171,214,137272,1,2,3:2:0:0:
158,160,137347,1,10,3:0:0:0:
184,117,137422,1,2,3:2:0:0:
227,104,137497,1,10,3:0:0:0:
264,117,137572,5,2,3:2:0:0:
251,170,137647,1,10,3:0:0:0:
198,187,137722,2,0,P|178:186|148:163,1,50,2|10,3:2|3:0,0:0:0:0:
74,58,137872,5,2,3:2:0:0:
124,25,137947,1,10,3:0:0:0:
183,25,138022,1,2,3:2:0:0:
232,59,138097,1,10,3:0:0:0:
249,116,138172,1,2,3:2:0:0:
300,146,138247,1,10,3:0:0:0:
354,143,138322,1,2,3:2:0:0:
392,111,138397,1,10,3:0:0:0:
398,66,138472,1,2,3:2:0:0:
382,29,138547,1,10,3:0:0:0:
353,8,138622,2,0,P|334:-1|284:0,1,50,2|10,3:2|3:0,0:0:0:0:
357,230,138772,5,2,3:2:0:0:
405,240,138847,1,10,3:0:0:0:
453,227,138922,2,0,P|474:205|485:174,1,50,2|10,3:2|3:0,0:0:0:0:
248,192,139072,5,2,3:2:0:0:
209,224,139147,1,10,3:0:0:0:
206,274,139222,2,0,P|216:306|250:337,1,50,2|10,3:2|3:0,0:0:0:0:
356,111,139372,5,2,3:2:0:0:
343,62,139447,1,10,3:0:0:0:
296,43,139522,2,0,P|261:44|231:64,1,50,2|10,3:2|3:0,0:0:0:0:
299,285,139672,5,4,3:2:0:0:
348,290,139747,1,10,3:0:0:0:
397,296,139822,2,0,L|449:303,1,50,2|10,3:2|3:0,0:0:0:0:
246,179,139972,5,2,3:2:0:0:
197,184,140047,1,10,3:0:0:0:
148,190,140122,2,0,L|96:197,1,50,2|10,3:2|3:0,0:0:0:0:
314,39,140272,5,2,3:2:0:0:
368,35,140347,1,10,3:0:0:0:
418,56,140422,1,2,3:2:0:0:
444,104,140497,1,10,3:0:0:0:
434,163,140572,6,0,L|378:153,1,50,4|10,3:2|3:0,3:0:0:0:
251,99,140722,2,0,L|307:109,1,50,4|10,3:2|3:0,3:0:0:0:
462,252,140872,2,0,L|406:242,1,50,4|10,3:2|3:0,3:0:0:0:
192,181,141022,2,0,L|241:189,1,50,4|10,3:2|3:0,0:0:0:0:
392,313,141172,5,0,3:0:0:0:
373,359,141247,1,10,3:0:0:0:
326,378,141322,2,0,P|293:371|270:361,1,50,0|10,3:0|3:0,0:0:0:0:
416,195,141472,5,4,3:2:0:0:
460,217,141547,1,10,3:0:0:0:
482,261,141622,2,0,P|483:292|474:321,1,50,0|10,3:0|3:0,0:0:0:0:
317,135,141772,5,0,3:0:0:0:
353,101,141847,1,10,3:0:0:0:
402,94,141922,2,0,P|439:105|473:139,1,50,0|10,3:0|3:0,0:0:0:0:
220,174,142072,5,4,3:2:0:0:
208,125,142147,1,10,3:0:0:0:
224,77,142222,2,0,P|250:60|275:50,1,50,0|10,3:0|3:0,0:0:0:0:
302,248,142372,5,4,3:0:0:0:
262,285,142447,1,10,3:0:0:0:
207,290,142522,1,2,3:2:0:0:
155,270,142597,1,10,3:0:0:0:
124,224,142672,1,2,3:2:0:0:
75,211,142747,1,10,3:0:0:0:
32,224,142822,1,2,3:2:0:0:
9,257,142897,1,10,3:0:0:0:
6,291,142972,5,2,3:2:0:0:
59,303,143047,1,10,3:0:0:0:
106,276,143122,2,0,P|116:245|111:220,1,50,2|10,3:2|3:0,0:0:0:0:
41,74,143272,5,2,3:2:0:0:
23,126,143347,1,10,3:0:0:0:
42,177,143422,1,2,3:2:0:0:
87,207,143497,1,10,3:0:0:0:
141,204,143572,2,0,P|174:181|198:149,1,50,2|10,3:2|3:0,3:0:0:0:
165,0,143722,2,0,P|132:23|108:55,1,50,2|10,3:2|3:0,0:0:0:0:
306,149,143872,5,2,3:2:0:0:
350,125,143947,1,10,3:0:0:0:
363,76,144022,2,0,P|354:42|324:10,1,50,2|10,3:2|3:0,0:0:0:0:
167,145,144172,6,0,L|191:208,1,50,2|10,3:2|3:0,0:0:0:0:
308,310,144322,2,0,L|290:263,1,50,2|10,3:2|3:0,0:0:0:0:
268,130,144472,2,0,L|285:176,1,50,2|10,3:2|3:0,0:0:0:0:
390,239,144622,2,0,L|372:192,1,50,2|10,3:2|3:0,0:0:0:0:
455,62,144772,5,2,3:2:0:0:
419,27,144847,1,10,3:0:0:0:
370,15,144922,2,0,P|332:25|307:50,1,50,2|10,3:2|3:0,0:0:0:0:
222,214,145072,5,4,3:2:0:0:
276,222,145147,1,10,3:0:0:0:
321,190,145222,2,0,P|329:155|323:117,1,50,4|10,3:2|3:0,3:0:0:0:
116,29,145372,5,4,3:2:0:0:
111,63,145447,1,10,3:0:0:0:
106,97,145522,2,0,L|97:170,1,50,2|10,3:2|3:0,0:0:0:0:
180,207,145672,5,2,3:2:0:0:
185,241,145747,1,10,3:0:0:0:
190,275,145822,2,0,L|199:348,1,50,2|10,3:2|3:0,0:0:0:0:
6,327,145972,5,2,3:0:0:0:
19,278,146047,1,10,3:0:0:0:
59,249,146122,2,0,P|100:250|121:262,1,50,2|10,3:2|3:0,0:0:0:0:
238,373,146272,5,2,3:2:0:0:
296,384,146347,1,10,3:0:0:0:
351,360,146422,1,2,3:2:0:0:
370,303,146497,1,10,3:0:0:0:
346,247,146572,1,2,3:2:0:0:
371,192,146647,1,10,3:0:0:0:
429,178,146722,2,0,P|462:193|483:228,1,50,2|10,3:2|3:0,0:0:0:0:
287,302,146872,6,0,L|235:291,1,50,2|10,3:2|3:0,3:0:0:0:
276,286,147022,2,0,L|224:275,1,50,2|10,3:2|3:0,3:0:0:0:
86,253,147172,2,0,L|138:242,1,50,2|10,3:2|3:0,3:0:0:0:
301,190,147322,2,0,L|249:179,1,50,2|10,3:2|3:0,0:0:0:0:
107,119,147472,5,0,3:0:0:0:
143,84,147547,1,10,3:0:0:0:
191,73,147622,2,0,P|228:85|255:103,1,50,0|10,3:0|3:0,0:0:0:0:
107,336,147772,6,8,L|44:322,1,50,8|8,3:0|3:0,3:0:0:0:
387,283,147922,2,0,L|435:272,1,50,8|8,3:0|3:0,0:0:0:0:
127,221,148072,5,2,3:3:0:0:
131,206,148147,1,2,2:3:0:0:
135,191,148222,1,2,2:3:0:0:
139,176,148297,1,2,2:3:0:0:
103,128,148372,5,8,3:0:0:0:
143,70,148447,1,8,3:0:0:0:
211,53,148522,1,8,3:0:0:0:
273,83,148597,1,8,3:0:0:0:
298,147,148672,5,8,3:0:0:0:
348,178,148747,1,8,3:0:0:0:
407,182,148822,1,8,3:0:0:0:
460,153,148897,1,8,3:0:0:0:
475,95,148972,5,2,3:3:0:0:
460,96,149047,1,2,2:3:0:0:
445,97,149122,2,0,L|367:106,1,50,2|2,2:3|2:3,2:3:0:0:
311,274,149272,5,2,3:3:0:0:
356,305,149347,1,2,2:3:0:0:
411,305,149422,2,0,P|438:285|451:251,1,50,2|2,2:3|2:3,2:3:0:0:
208,193,149572,5,4,3:0:0:0:
149,206,149647,1,0,3:0:0:0:
115,255,149722,2,0,P|114:286|129:318,1,50,0|0,3:0|3:0,0:0:0:0:
298,205,149872,2,0,P|299:174|284:142,1,50,8|0,3:0|3:0,0:0:0:0:
55,177,150022,5,8,3:0:0:0:
35,233,150097,1,0,3:0:0:0:
51,290,150172,1,8,3:0:0:0:
99,324,150247,1,0,3:0:0:0:
158,328,150322,2,0,P|191:311|207:289,1,50,8|0,3:0|3:0,0:0:0:0:
158,97,150472,5,12,3:2:0:0:
203,54,150547,1,0,3:0:0:0:
267,47,150622,1,8,3:0:0:0:
325,74,150697,1,0,3:0:0:0:
348,134,150772,1,8,3:0:0:0:
402,159,150847,1,0,3:0:0:0:
456,156,150922,1,12,3:2:0:0:
491,121,150997,1,0,3:0:0:0:
497,76,151072,5,8,3:0:0:0:
447,71,151147,1,0,3:0:0:0:
402,93,151222,2,0,P|386:116|382:150,1,50,8|0,3:0|3:0,3:0:0:0:
501,257,151372,5,12,3:0:0:0:
509,310,151447,1,0,3:0:0:0:
473,351,151522,2,0,P|434:356|401:340,1,50,8|0,3:0|3:0,0:0:0:0:
349,201,151672,5,8,3:0:0:0:
391,159,151747,1,0,3:0:0:0:
450,158,151822,2,0,P|478:177|493:202,1,50,8|0,3:0|3:0,0:0:0:0:
279,53,151972,5,8,3:0:0:0:
219,54,152047,1,0,3:0:0:0:
179,99,152122,2,0,P|178:129|188:163,1,50,8|0,3:0|3:0,0:0:0:0:
343,213,152272,6,0,L|259:197,1,50,12|0,3:2|3:0,0:0:0:0:
117,223,152422,2,0,L|166:232,1,50,8|0,3:0|3:0,0:0:0:0:
386,323,152572,2,0,L|302:307,1,50,8|0,3:0|3:0,0:0:0:0:
65,316,152722,2,0,L|114:325,1,50,12|0,3:2|3:0,0:0:0:0:
224,169,152872,5,8,3:0:0:0:
207,121,152947,1,0,3:0:0:0:
163,96,153022,2,0,P|138:98|108:115,1,50,8|0,3:0|3:0,0:0:0:0:
362,91,153172,5,12,3:0:0:0:
412,111,153247,1,0,3:0:0:0:
433,161,153322,2,0,P|425:191|406:213,1,50,8|0,3:0|3:0,0:0:0:0:
238,240,153472,5,8,3:0:0:0:
230,299,153547,1,0,3:0:0:0:
271,342,153622,2,0,P|301:355|342:346,1,50,8|0,3:0|3:0,3:0:0:0:
230,151,153772,5,8,3:0:0:0:
171,165,153847,1,0,3:0:0:0:
140,216,153922,2,0,P|141:253|150:272,1,50,8|0,3:0|3:0,0:0:0:0:
310,272,154072,5,12,3:2:0:0:
369,279,154147,1,0,3:0:0:0:
415,241,154222,2,0,P|426:213|420:177,1,50,8|0,3:0|3:0,0:0:0:0:
246,115,154372,5,8,3:0:0:0:
186,106,154447,1,0,3:0:0:0:
134,137,154522,1,12,3:2:0:0:
115,194,154597,1,0,3:0:0:0:
137,249,154672,1,8,3:0:0:0:
115,305,154747,1,0,3:0:0:0:
57,321,154822,2,0,P|30:317|7:294,1,50,8|0,3:0|3:0,0:0:0:0:
208,192,154972,6,0,L|220:249,1,50,12|0,3:2|3:0,3:0:0:0:
310,384,155122,2,0,L|299:335,1,50,8|0,3:0|3:0,3:0:0:0:
320,200,155272,2,0,L|332:257,1,50,12|0,3:0|3:0,3:0:0:0:
425,336,155422,2,0,L|414:287,1,50,8|0,3:0|3:0,0:0:0:0:
351,89,155572,5,12,3:0:0:0:
367,77,155647,1,0,3:0:0:0:
386,73,155722,1,8,3:0:0:0:
405,75,155797,1,0,3:0:0:0:
422,84,155872,5,12,3:0:0:0:
372,42,155947,1,0,3:0:0:0:
307,46,156022,1,8,3:0:0:0:
264,94,156097,1,0,3:0:0:0:
264,159,156172,1,12,3:0:0:0:
221,208,156247,1,0,3:0:0:0:
157,219,156322,1,8,3:0:0:0:
100,187,156397,1,0,3:0:0:0:
79,125,156472,1,12,3:0:0:0:
104,65,156547,1,0,3:0:0:0:
161,35,156622,1,8,3:0:0:0:
224,47,156697,1,0,3:0:0:0:
264,98,156772,5,4,3:0:0:0:
210,109,156847,1,0,3:0:0:0:
165,78,156922,2,0,P|147:46|145:25,1,50,0|0,3:0|3:0,0:0:0:0:
285,247,157072,5,8,3:0:0:0:
338,258,157147,1,0,3:0:0:0:
379,222,157222,2,0,P|374:186|356:154,1,50,0|0,3:0|3:0,0:0:0:0:
167,219,157372,5,4,3:0:0:0:
163,273,157447,1,0,3:0:0:0:
191,319,157522,2,0,P|219:333|252:335,1,50,0|0,3:0|3:0,0:0:0:0:
194,104,157672,5,8,3:0:0:0:
238,63,157747,1,0,3:0:0:0:
298,57,157822,1,0,3:0:0:0:
350,85,157897,1,0,3:0:0:0:
376,139,157972,1,4,3:0:0:0:
428,167,158047,1,0,3:0:0:0:
486,153,158122,1,0,3:0:0:0:
512,110,158197,1,0,3:0:0:0:
503,70,158272,5,8,3:0:0:0:
463,68,158347,1,0,3:0:0:0:
433,94,158422,2,0,P|428:123|432:148,1,50,0|0,3:0|3:0,0:0:0:0:
494,234,158572,5,4,3:0:0:0:
449,274,158647,1,0,3:0:0:0:
389,270,158722,2,0,P|364:253|346:223,1,50,0|0,3:0|3:0,0:0:0:0:
337,99,158872,5,8,3:0:0:0:
283,84,158947,1,0,3:0:0:0:
233,108,159022,2,0,P|218:149|215:179,1,50,0|0,3:0|3:0,0:0:0:0:
242,258,159172,5,4,3:0:0:0:
212,298,159247,1,0,3:0:0:0:
162,302,159322,2,0,P|129:277|119:257,1,50,0|0,3:0|3:0,0:0:0:0:
106,149,159472,5,8,3:0:0:0:
61,149,159547,1,0,3:0:0:0:
24,174,159622,2,0,P|15:207|25:247,1,50,0|0,3:0|3:0,0:0:0:0:
188,248,159772,5,4,3:0:0:0:
252,256,159847,1,0,3:0:0:0:
305,218,159922,1,0,3:0:0:0:
313,153,159997,1,0,3:0:0:0:
280,96,160072,1,8,3:0:0:0:
292,37,160147,1,0,3:0:0:0:
340,11,160222,2,0,P|373:12|405:26,1,50,0|0,3:0|3:0,0:0:0:0:
200,102,160372,5,2,3:2:0:0:
140,103,160447,1,10,3:0:0:0:
91,68,160522,2,0,P|86:38|90:13,1,50,2|10,3:2|3:0,0:0:0:0:
311,29,160672,5,2,3:2:0:0:
374,42,160747,1,10,3:0:0:0:
404,99,160822,1,2,3:2:0:0:
389,162,160897,1,10,3:0:0:0:
330,189,160972,1,2,3:2:0:0:
268,168,161047,1,10,3:0:0:0:
205,184,161122,1,2,3:2:0:0:
170,239,161197,1,10,3:0:0:0:
176,298,161272,1,2,3:2:0:0:
212,339,161347,1,10,3:0:0:0:
260,351,161422,1,2,3:2:0:0:
304,344,161497,1,10,3:0:0:0:
333,316,161572,1,2,3:2:0:0:
345,283,161647,1,10,3:0:0:0:
338,253,161722,1,2,3:2:0:0:
320,235,161797,1,10,3:0:0:0:
302,225,161872,5,2,3:2:0:0:
285,272,161947,1,10,3:0:0:0:
238,291,162022,2,0,P|212:281|186:257,1,50,2|10,3:2|3:0,0:0:0:0:
52,122,162172,5,8,3:0:0:0:
107,79,162247,1,8,3:0:0:0:
177,79,162322,1,8,3:0:0:0:
232,121,162397,1,8,3:0:0:0:
240,190,162472,5,2,3:3:0:0:
257,198,162547,1,2,2:3:0:0:
276,199,162622,1,2,2:3:0:0:
294,190,162697,1,2,2:3:0:0:
306,174,162772,5,8,3:0:0:0:
328,245,162847,1,8,3:0:0:0:
393,280,162922,1,8,3:0:0:0:
467,272,162997,1,8,3:0:0:0:
507,208,163072,5,2,3:3:0:0:
467,213,163147,1,2,2:3:0:0:
427,218,163222,1,2,2:3:0:0:
387,224,163297,1,2,2:3:0:0:
364,243,163372,5,2,3:3:0:0:
366,213,163447,1,2,2:3:0:0:
368,183,163522,1,2,2:3:0:0:
370,153,163597,1,2,2:3:0:0:
382,137,163672,5,2,3:3:0:0:
362,138,163747,1,2,2:3:0:0:
342,140,163822,1,2,2:3:0:0:
322,142,163897,1,2,2:3:0:0:
271,182,163972,6,0,B|206:212|129:180|90:100|139:22|139:22|123:62|141:96,1,350,4|0,3:0|3:0,3:0:0:0:
211,61,164572,1,8,3:0:0:0:
207,80,164647,1,0,3:0:0:0:
204,100,164722,1,0,3:0:0:0:
201,119,164797,1,0,3:0:0:0:
198,139,164872,1,4,3:0:0:0:
178,163,165472,5,2,3:2:0:0:
296,145,165622,1,2,3:2:0:0:
150,82,165772,5,8,3:0:0:0:
247,223,165922,1,2,3:2:0:0:
314,37,166072,1,2,3:2:0:0:
82,255,166222,5,8,3:0:0:0:
98,260,166372,1,2,3:2:0:0:
309,191,166672,5,4,3:0:0:0:
327,187,166747,1,0,3:0:0:0:
345,191,166822,1,0,3:0:0:0:
361,200,166897,1,0,3:0:0:0:
373,226,166972,2,0,P|371:241|363:261,1,20,8|0,3:0|3:0,0:0:0:0:
237,123,167122,5,4,3:0:0:0:
205,123,167197,1,0,3:0:0:0:
178,136,167272,1,0,3:0:0:0:
161,162,167347,1,0,3:0:0:0:
160,192,167422,2,0,P|174:215|189:230,1,29.9999990844727,0|0,3:0|3:0,0:0:0:0:
337,164,167572,5,4,3:0:0:0:
360,131,167647,1,0,3:0:0:0:
362,91,167722,1,0,3:0:0:0:
345,55,167797,1,0,3:0:0:0:
311,32,167872,2,0,P|290:31|262:35,1,40,0|0,3:0|3:0,3:0:0:0:
248,211,168022,2,0,P|267:213|287:212,1,40,4|0,3:0|3:0,0:0:0:0:
425,88,168172,5,8,3:0:0:0:
393,62,168247,1,0,3:0:0:0:
356,56,168322,1,0,3:0:0:0:
321,65,168397,1,0,3:0:0:0:
298,90,168472,1,4,3:2:0:0:
266,96,168547,1,0,3:0:0:0:
237,91,168622,1,0,3:0:0:0:
217,69,168697,1,0,3:0:0:0:
211,47,168772,6,0,B|194:4|153:-1|153:-1|99:12|71:69|79:127|122:161,1,280,4|0,3:0|3:0,3:0:0:0:
189,161,169372,1,8,3:0:0:0:
186,180,169447,1,0,3:0:0:0:
183,200,169522,1,2,3:2:0:0:
180,219,169597,1,0,3:0:0:0:
178,239,169672,1,2,3:2:0:0:
156,267,170272,5,2,3:2:0:0:
32,228,170422,1,2,3:2:0:0:
152,120,170572,5,0,3:3:0:0:
83,346,170722,1,2,3:2:0:0:
24,219,170872,1,2,3:2:0:0:
286,297,171022,5,0,3:3:0:0:
273,305,171172,1,2,3:2:0:0:
170,167,171472,5,4,3:0:0:0:
142,155,171547,1,0,3:0:0:0:
112,158,171622,2,0,P|90:178|84:226,1,50,0|0,3:0|3:0,0:0:0:0:
214,286,171772,5,8,3:0:0:0:
253,287,171847,1,0,3:0:0:0:
287,268,171922,1,4,3:0:0:0:
300,230,171997,1,0,3:0:0:0:
286,192,172072,1,0,3:0:0:0:
294,152,172147,1,0,3:0:0:0:
321,123,172222,1,0,3:0:0:0:
359,111,172297,1,0,3:0:0:0:
397,123,172372,5,4,3:0:0:0:
381,149,172447,1,0,3:0:0:0:
353,162,172522,1,0,3:0:0:0:
322,162,172597,1,0,3:0:0:0:
294,146,172672,1,0,3:0:0:0:
283,117,172747,1,0,3:0:0:0:
290,86,172822,2,0,P|309:63|329:53,1,50,4|0,3:0|3:0,0:0:0:0:
343,206,172972,5,8,3:0:0:0:
317,220,173047,1,0,3:0:0:0:
287,220,173122,1,2,3:0:0:0:
259,207,173197,1,0,3:0:0:0:
241,182,173272,1,0,3:0:0:0:
218,166,173347,1,0,3:0:0:0:
193,165,173422,1,0,3:0:0:0:
172,175,173497,1,0,3:0:0:0:
158,189,173572,6,0,B|196:208|238:175|238:175|225:124|189:86|110:84|54:146|82:228,1,350,4|0,3:0|3:0,3:0:0:0:
131,266,174172,1,8,3:0:0:0:
155,270,174247,1,0,3:0:0:0:
180,274,174322,1,0,3:0:0:0:
204,278,174397,1,0,3:0:0:0:
229,282,174472,1,4,3:0:0:0:
250,299,175072,5,2,3:2:0:0:
213,174,175222,1,2,3:2:0:0:
114,282,175372,5,8,3:0:0:0:
168,103,175522,1,2,3:2:0:0:
247,309,175672,1,2,3:2:0:0:
27,73,175822,5,8,3:0:0:0:
22,87,175972,1,2,3:2:0:0:
309,178,176272,5,4,3:0:0:0:
338,173,176347,1,0,3:0:0:0:
362,156,176422,2,0,P|370:126|367:97,1,40,0|0,3:0|3:0,0:0:0:0:
232,173,176572,2,0,P|233:200|249:229,1,40,8|0,3:0|3:0,0:0:0:0:
371,264,176722,5,4,3:0:0:0:
403,240,176797,1,0,3:0:0:0:
413,201,176872,1,0,3:0:0:0:
397,164,176947,1,0,3:0:0:0:
409,125,177022,1,0,3:0:0:0:
441,102,177097,1,0,3:0:0:0:
480,104,177172,5,4,3:0:0:0:
453,134,177247,1,0,3:0:0:0:
413,137,177322,1,0,3:0:0:0:
375,123,177397,1,0,3:0:0:0:
361,85,177472,2,0,P|366:54|383:24,1,40,0|0,3:0|3:0,0:0:0:0:
496,142,177622,2,0,P|507:167|510:198,1,40,4|0,3:0|3:0,0:0:0:0:
343,274,177772,5,8,3:0:0:0:
303,280,177847,1,0,3:0:0:0:
264,267,177922,1,0,3:0:0:0:
242,233,177997,1,0,3:0:0:0:
243,193,178072,1,4,3:0:0:0:
229,158,178147,1,0,3:0:0:0:
198,141,178222,1,0,3:0:0:0:
165,141,178297,1,0,3:0:0:0:
139,157,178372,6,0,B|165:178|190:174|190:174|226:137|277:144|277:144|344:192|413:140,1,280,4|0,3:0|3:0,3:0:0:0:
343,75,178972,1,8,3:0:0:0:
339,99,179047,1,0,3:0:0:0:
335,124,179122,1,0,3:0:0:0:
332,148,179197,1,0,3:0:0:0:
328,173,179272,1,4,3:0:0:0:
306,196,179872,5,2,3:2:0:0:
432,251,180022,1,2,3:2:0:0:
369,70,180172,5,8,3:0:0:0:
350,268,180322,1,2,3:2:0:0:
497,205,180472,1,2,3:2:0:0:
210,139,180622,5,8,3:0:0:0:
213,150,180772,1,2,3:2:0:0:
412,98,181072,5,4,3:0:0:0:
382,96,181147,1,0,3:0:0:0:
354,108,181222,2,0,P|329:140|324:177,1,50,0|0,3:0|3:0,0:0:0:0:
512,322,181372,6,0,L|500:254,1,59.9999981689454,8|0,3:0|3:0,0:0:0:0:
400,171,181522,2,0,L|410:230,1,55.0000016784668,4|0,3:0|3:0,0:0:0:0:
322,308,181672,2,0,L|310:240,1,50,0|0,3:0|3:0,0:0:0:0:
208,227,181822,2,0,L|218:286,1,44.999998626709,0|0,3:0|3:0,0:0:0:0:
106,384,181972,5,2,3:3:0:0:
83,350,182047,1,2,2:3:0:0:
60,317,182122,1,2,2:3:0:0:
38,283,182197,1,2,2:3:0:0:
9,274,182272,5,2,3:3:0:0:
34,253,182347,1,2,2:3:0:0:
59,232,182422,1,2,2:3:0:0:
84,211,182497,1,2,2:3:0:0:
108,213,182572,5,2,3:3:0:0:
103,188,182647,1,2,2:3:0:0:
98,163,182722,1,2,2:3:0:0:
93,138,182797,1,2,2:3:0:0:
77,128,182872,5,2,3:3:0:0:
83,111,182947,1,2,2:3:0:0:
89,94,183022,1,2,2:3:0:0:
95,77,183097,1,2,2:3:0:0:
128,54,183172,5,0,3:0:0:0:
126,44,183247,1,0,3:0:0:0:
124,34,183322,1,0,3:0:0:0:
122,24,183397,1,0,3:0:0:0:
76,3,183472,5,2,3:2:0:0:
58,38,183547,1,10,3:0:0:0:
58,78,183622,1,2,3:2:0:0:
77,112,183697,1,10,3:0:0:0:
111,132,183772,1,2,3:2:0:0:
150,132,183847,1,10,3:0:0:0:
186,116,183922,1,2,3:2:0:0:
210,84,183997,1,10,3:0:0:0:
216,44,184072,5,4,3:2:0:0:
184,68,184147,1,10,3:0:0:0:
170,105,184222,1,2,3:2:0:0:
177,144,184297,1,10,3:0:0:0:
203,173,184372,1,2,3:2:0:0:
240,186,184447,1,10,3:0:0:0:
279,178,184522,1,2,3:2:0:0:
316,191,184597,1,10,3:0:0:0:
342,221,184672,1,2,3:2:0:0:
346,260,184747,1,10,3:0:0:0:
330,296,184822,1,2,3:2:0:0:
294,314,184897,1,10,3:0:0:0:
254,310,184972,5,4,3:2:0:0:
264,299,185047,1,10,3:0:0:0:
276,290,185122,1,2,3:2:0:0:
290,284,185197,1,10,3:0:0:0:
304,281,185272,1,2,3:2:0:0:
318,279,185347,1,10,3:0:0:0:
332,281,185422,1,2,3:2:0:0:
346,284,185497,1,10,3:0:0:0:
359,290,185572,5,2,3:2:0:0:
369,300,185647,1,10,3:0:0:0:
377,312,185722,1,2,3:2:0:0:
382,325,185797,1,10,3:0:0:0:
383,339,185872,5,4,3:2:0:0:
360,318,185947,1,10,3:0:0:0:
350,289,186022,1,2,3:2:0:0:
354,259,186097,1,10,3:0:0:0:
371,234,186172,1,2,3:2:0:0:
398,222,186247,1,10,3:0:0:0:
427,223,186322,1,2,3:2:0:0:
453,236,186397,1,10,3:0:0:0:
473,258,186472,5,2,3:2:0:0:
453,256,186547,1,10,3:0:0:0:
434,248,186622,1,2,3:2:0:0:
419,233,186697,1,10,3:0:0:0:
407,216,186772,5,4,3:2:0:0:
441,221,186847,1,10,3:0:0:0:
472,236,186922,1,2,3:2:0:0:
494,262,186997,1,10,3:0:0:0:
500,296,187072,1,2,3:2:0:0:
492,330,187147,1,10,3:0:0:0:
467,354,187222,1,2,3:2:0:0:
469,334,187297,1,10,3:0:0:0:
459,316,187372,5,2,3:2:0:0:
442,305,187447,1,10,3:0:0:0:
422,301,187522,1,2,3:2:0:0:
402,306,187597,1,10,3:0:0:0:
388,320,187672,5,4,3:2:0:0:
372,294,187747,1,10,3:0:0:0:
346,277,187822,1,2,3:2:0:0:
316,270,187897,1,10,3:0:0:0:
286,272,187972,1,2,3:2:0:0:
258,283,188047,1,10,3:0:0:0:
236,303,188122,1,2,3:2:0:0:
223,330,188197,1,10,3:0:0:0:
220,359,188272,5,2,3:2:0:0:
263,335,188347,1,10,3:0:0:0:
283,289,188422,1,2,3:2:0:0:
260,244,188497,1,10,3:0:0:0:
216,220,188572,5,4,3:0:0:0:
235,215,188647,1,10,3:0:0:0:
254,218,188722,1,0,3:0:0:0:
272,226,188797,1,10,3:0:0:0:
286,239,188872,1,0,3:0:0:0:
293,257,188947,1,10,3:0:0:0:
292,276,189022,5,0,3:0:0:0:
263,241,189097,1,10,3:0:0:0:
264,201,189172,1,4,3:0:0:0:
283,172,189247,1,10,3:0:0:0:
308,156,189322,1,0,3:0:0:0:
333,156,189397,1,10,3:0:0:0:
351,162,189472,5,4,3:0:0:0:
305,142,189547,1,10,3:0:0:0:
287,95,189622,1,2,3:0:0:0:
302,47,189697,1,10,3:0:0:0:
345,21,189772,1,2,3:0:0:0:
394,24,189847,1,10,3:0:0:0:
432,56,189922,1,2,3:0:0:0:
442,104,189997,1,10,3:0:0:0:
419,148,190072,1,2,3:0:0:0:
421,190,190147,1,10,3:0:0:0:
440,219,190222,1,2,3:0:0:0:
463,233,190297,1,10,3:0:0:0:
482,238,190372,5,4,3:0:0:0:
470,184,190447,1,10,3:0:0:0:
422,155,190522,1,2,3:2:0:0:
367,159,190597,1,10,3:0:0:0:
322,190,190672,1,2,3:2:0:0:
303,241,190747,1,10,3:0:0:0:
309,295,190822,1,2,3:2:0:0:
279,341,190897,1,10,3:0:0:0:
226,358,190972,1,2,3:2:0:0:
174,339,191047,1,10,3:0:0:0:
145,292,191122,1,2,3:2:0:0:
151,237,191197,1,10,3:0:0:0:
193,202,191272,5,4,3:2:0:0:
201,256,191347,1,10,3:0:0:0:
176,305,191422,1,2,3:2:0:0:
123,320,191497,1,10,3:0:0:0:
70,305,191572,1,2,3:2:0:0:
37,261,191647,1,10,3:0:0:0:
40,206,191722,1,2,3:2:0:0:
74,163,191797,1,10,3:0:0:0:
127,151,191872,1,2,3:2:0:0:
154,118,191947,1,10,3:0:0:0:
160,83,192022,1,2,3:2:0:0:
149,57,192097,1,10,3:0:0:0:
134,42,192172,5,2,3:0:0:0:
130,56,192247,1,10,3:0:0:0:
130,71,192322,1,2,3:0:0:0:
134,85,192397,1,10,3:0:0:0:
141,97,192472,1,2,3:0:0:0:
151,107,192547,1,10,3:0:0:0:
164,114,192622,1,2,3:0:0:0:
178,117,192697,1,10,3:0:0:0:
193,117,192772,1,2,3:0:0:0:
207,115,192847,1,10,3:0:0:0:
220,109,192922,1,2,3:0:0:0:
232,100,192997,1,10,3:0:0:0:
241,88,193072,5,2,3:0:0:0:
242,117,193147,1,10,3:0:0:0:
256,143,193222,1,2,3:0:0:0:
278,163,193297,1,10,3:0:0:0:
306,172,193372,1,2,3:0:0:0:
336,172,193447,1,10,3:0:0:0:
363,159,193522,1,2,3:0:0:0:
384,137,193597,1,10,3:0:0:0:
392,108,193672,5,2,3:0:0:0:
353,119,193747,1,8,3:0:0:0:
332,153,193822,1,2,3:0:0:0:
332,192,193897,1,8,3:0:0:0:
356,223,193972,1,4,3:0:0:0:
361,257,194047,1,10,3:0:0:0:
353,285,194122,1,0,3:0:0:0:
335,303,194197,1,10,3:0:0:0:
316,309,194272,5,2,3:2:0:0:
305,270,194347,1,10,3:0:0:0:
313,230,194422,1,2,3:2:0:0:
342,202,194497,1,10,3:0:0:0:
381,195,194572,1,2,3:2:0:0:
420,203,194647,1,10,3:0:0:0:
448,231,194722,1,2,3:2:0:0:
459,269,194797,1,10,3:0:0:0:
449,307,194872,5,4,3:2:0:0:
417,282,194947,1,10,3:0:0:0:
406,243,195022,1,2,3:2:0:0:
417,204,195097,1,10,3:0:0:0:
449,181,195172,1,2,3:2:0:0:
463,143,195247,1,10,3:0:0:0:
458,103,195322,1,2,3:2:0:0:
430,73,195397,1,10,3:0:0:0:
390,65,195472,1,2,3:2:0:0:
353,81,195547,1,10,3:0:0:0:
333,115,195622,1,2,3:2:0:0:
339,154,195697,1,10,3:0:0:0:
367,182,195772,5,4,3:0:0:0:
354,133,195847,1,10,3:0:0:0:
314,111,195922,1,4,3:2:0:0:
274,110,195997,1,10,3:0:0:0:
242,125,196072,1,0,3:0:0:0:
212,123,196147,1,10,3:0:0:0:
192,107,196222,5,0,3:0:0:0:
211,104,196297,1,10,3:0:0:0:
230,110,196372,1,0,3:0:0:0:
245,122,196447,1,10,3:0:0:0:
251,140,196522,1,0,3:0:0:0:
248,159,196597,1,10,3:0:0:0:
237,175,196672,5,4,3:2:0:0:
277,146,196747,1,10,3:0:0:0:
327,146,196822,1,0,3:0:0:0:
367,176,196897,1,10,3:0:0:0:
375,225,196972,1,4,3:2:0:0:
415,253,197047,1,10,3:0:0:0:
464,249,197122,1,4,3:2:0:0:
450,234,197197,1,10,3:0:0:0:
431,227,197272,1,4,3:2:0:0:
411,226,197347,1,10,3:0:0:0:
391,230,197422,1,0,3:0:0:0:
373,240,197497,1,10,3:0:0:0:
359,254,197572,5,4,3:0:0:0:
387,207,197647,1,10,3:0:0:0:
440,194,197722,1,2,3:2:0:0:
490,215,197797,1,10,3:0:0:0:
511,263,197872,1,2,3:2:0:0:
494,315,197947,1,10,3:0:0:0:
446,342,198022,1,2,3:2:0:0:
392,330,198097,1,10,3:0:0:0:
361,284,198172,1,2,3:2:0:0:
309,263,198247,1,10,3:0:0:0:
254,272,198322,1,2,3:2:0:0:
219,314,198397,1,10,3:0:0:0:
215,369,198472,5,4,3:2:0:0:
262,341,198547,1,10,3:0:0:0:
273,287,198622,1,2,3:2:0:0:
252,235,198697,1,10,3:0:0:0:
199,217,198772,1,2,3:2:0:0:
147,236,198847,1,10,3:0:0:0:
96,214,198922,1,2,3:2:0:0:
73,163,198997,1,10,3:0:0:0:
95,112,199072,1,2,3:2:0:0:
139,96,199147,1,10,3:0:0:0:
177,105,199222,1,2,3:2:0:0:
197,130,199297,1,10,3:0:0:0:
199,154,199372,5,2,3:0:0:0:
184,152,199447,1,10,3:0:0:0:
169,146,199522,1,2,3:2:0:0:
159,134,199597,1,10,3:0:0:0:
154,119,199672,1,2,3:2:0:0:
155,104,199747,1,10,3:0:0:0:
162,91,199822,1,2,3:2:0:0:
171,79,199897,1,10,3:0:0:0:
184,73,199972,1,2,3:2:0:0:
198,70,200047,1,10,3:0:0:0:
212,72,200122,1,2,3:2:0:0:
225,78,200197,1,10,3:0:0:0:
235,88,200272,5,2,3:0:0:0:
244,59,200347,1,10,3:0:0:0:
267,39,200422,1,0,3:0:0:0:
296,35,200497,1,10,3:0:0:0:
329,47,200572,1,2,3:0:0:0:
346,71,200647,1,10,3:0:0:0:
374,79,200722,1,0,3:0:0:0:
403,74,200797,1,10,3:0:0:0:
424,52,200872,5,2,3:0:0:0:
404,50,200947,1,10,3:0:0:0:
385,58,201022,1,0,3:0:0:0:
372,73,201097,1,10,3:0:0:0:
370,92,201172,5,4,3:0:0:0:
348,64,201247,1,10,3:0:0:0:
314,55,201322,1,2,3:2:0:0:
279,61,201397,1,10,3:0:0:0:
255,86,201472,1,2,3:2:0:0:
247,120,201547,1,10,3:0:0:0:
258,153,201622,1,2,3:2:0:0:
285,174,201697,1,10,3:0:0:0:
319,174,201772,5,2,3:2:0:0:
305,158,201847,1,10,3:0:0:0:
286,151,201922,1,2,3:2:0:0:
266,148,201997,1,10,3:0:0:0:
247,155,202072,5,2,3:2:0:0:
263,180,202147,1,10,3:0:0:0:
290,191,202222,1,2,3:2:0:0:
319,193,202297,1,10,3:0:0:0:
347,184,202372,1,2,3:2:0:0:
369,164,202447,1,10,3:0:0:0:
381,136,202522,1,2,3:2:0:0:
382,106,202597,1,10,3:0:0:0:
367,79,202672,5,2,3:2:0:0:
349,125,202747,1,10,3:0:0:0:
368,171,202822,1,2,3:2:0:0:
412,193,202897,1,10,3:0:0:0:
461,188,202972,5,2,3:2:0:0:
452,206,203047,1,10,3:0:0:0:
439,221,203122,1,2,3:2:0:0:
421,230,203197,1,10,3:0:0:0:
401,232,203272,1,2,3:2:0:0:
381,227,203347,1,10,3:0:0:0:
363,217,203422,5,2,3:2:0:0:
406,206,203497,1,10,3:0:0:0:
443,219,203572,1,4,3:2:0:0:
461,248,203647,1,10,3:0:0:0:
462,277,203722,1,2,3:2:0:0:
450,299,203797,1,10,3:0:0:0:
434,311,203872,5,2,3:2:0:0:
481,294,203947,1,10,3:0:0:0:
505,250,204022,1,2,3:2:0:0:
501,200,204097,1,10,3:0:0:0:
467,163,204172,1,2,3:2:0:0:
418,150,204247,1,10,3:0:0:0:
370,164,204322,1,2,3:2:0:0:
335,200,204397,1,10,3:0:0:0:
331,249,204472,1,2,3:2:0:0:
299,277,204547,1,10,3:0:0:0:
264,276,204622,1,2,3:2:0:0:
241,260,204697,1,10,3:0:0:0:
234,241,204772,5,4,3:0:0:0:
237,295,204847,1,10,3:0:0:0:
205,340,204922,1,2,3:2:0:0:
152,356,204997,1,10,3:0:0:0:
99,339,205072,1,2,3:2:0:0:
70,291,205147,1,10,3:0:0:0:
74,236,205222,1,2,3:2:0:0:
114,198,205297,1,10,3:0:0:0:
168,189,205372,1,2,3:2:0:0:
206,150,205447,1,10,3:0:0:0:
213,95,205522,1,2,3:2:0:0:
190,44,205597,1,10,3:0:0:0:
136,29,205672,5,0,3:2:0:0:
147,82,205747,1,10,3:0:0:0:
190,116,205822,1,2,3:2:0:0:
243,127,205897,1,10,3:0:0:0:
294,108,205972,1,2,3:2:0:0:
322,60,206047,1,10,3:0:0:0:
375,46,206122,1,2,3:2:0:0:
426,66,206197,1,10,3:0:0:0:
447,116,206272,1,2,3:2:0:0:
437,162,206347,1,10,3:0:0:0:
403,183,206422,1,2,3:2:0:0:
370,185,206497,1,10,3:0:0:0:
346,177,206572,5,2,3:0:0:0:
357,167,206647,1,10,3:0:0:0:
370,160,206722,1,2,3:2:0:0:
384,157,206797,1,10,3:0:0:0:
398,157,206872,1,2,3:2:0:0:
412,159,206947,1,10,3:0:0:0:
425,164,207022,1,2,3:2:0:0:
437,171,207097,1,10,3:0:0:0:
448,180,207172,1,2,3:2:0:0:
456,192,207247,1,10,3:0:0:0:
462,205,207322,1,2,3:2:0:0:
464,219,207397,1,10,3:0:0:0:
464,233,207472,5,2,3:2:0:0:
439,216,207547,1,10,3:0:0:0:
409,212,207622,1,2,3:2:0:0:
381,224,207697,1,10,3:0:0:0:
364,248,207772,1,2,3:0:0:0:
336,258,207847,1,10,3:0:0:0:
306,255,207922,1,0,3:0:0:0:
280,239,207997,1,10,3:0:0:0:
267,211,208072,5,2,3:0:0:0:
305,220,208147,1,10,3:0:0:0:
334,247,208222,1,0,3:0:0:0:
339,286,208297,1,10,3:0:0:0:
321,321,208372,1,4,3:0:0:0:
288,333,208447,1,10,3:0:0:0:
258,333,208522,1,0,3:0:0:0:
236,320,208597,1,10,3:0:0:0:
222,305,208672,5,2,3:2:0:0:
204,357,208747,1,10,3:0:0:0:
154,381,208822,1,2,3:2:0:0:
98,371,208897,1,10,3:0:0:0:
60,328,208972,1,2,3:2:0:0:
54,271,209047,1,10,3:0:0:0:
88,224,209122,1,2,3:2:0:0:
143,207,209197,1,10,3:0:0:0:
198,226,209272,1,2,3:0:0:0:
256,220,209347,1,10,3:0:0:0:
301,182,209422,1,2,3:0:0:0:
316,124,209497,1,10,3:0:0:0:
300,65,209572,1,2,3:0:0:0:
252,27,209647,1,10,3:0:0:0:
191,23,209722,1,2,3:0:0:0:
135,49,209797,1,10,3:0:0:0:
107,104,209872,1,2,3:0:0:0:
111,166,209947,1,10,3:0:0:0:
150,214,210022,2,0,P|177:227|213:230,1,50,0|10,3:0|3:0,3:0:0:0:
463,247,210172,5,8,3:0:0:0:
444,185,210247,1,8,3:0:0:0:
425,123,210322,1,8,3:0:0:0:
407,61,210397,1,8,3:0:0:0:
385,0,210472,5,2,3:3:0:0:
377,19,210547,1,2,2:3:0:0:
369,38,210622,1,2,2:3:0:0:
361,57,210697,1,2,2:3:0:0:
369,97,210772,5,8,3:0:0:0:
309,123,210847,1,8,3:0:0:0:
245,109,210922,2,0,P|223:88|206:40,1,50,8|8,3:0|3:0,0:0:0:0:
367,180,211072,5,8,3:0:0:0:
436,185,211147,1,0,3:0:0:0:
496,149,211222,2,0,P|509:121|509:69,1,50,0|0,3:0|3:0,0:0:0:0:
247,121,211372,5,2,3:3:0:0:
241,150,211447,1,2,2:3:0:0:
235,179,211522,1,2,2:3:0:0:
230,208,211597,1,2,2:3:0:0:
213,219,211672,5,2,3:3:0:0:
220,248,211747,1,2,2:3:0:0:
227,277,211822,1,2,2:3:0:0:
234,306,211897,1,2,2:3:0:0:
271,339,211972,6,0,L|205:350,1,50,4|0,3:0|3:0,0:0:0:0:
258,371,212122,2,0,L|192:382,1,50,0|0,3:0|3:0,0:0:0:0:
70,148,212272,5,2,3:0:0:0:
69,152,212347,1,0,3:0:0:0:
35,188,212422,5,0,3:0:0:0:
41,232,212497,1,0,3:0:0:0:
74,269,212572,5,2,3:0:0:0:
68,303,212647,1,0,3:0:0:0:
41,339,212722,6,0,L|50:396,1,29.9999990844727,0|0,3:0|3:0,0:0:0:0:
200,358,212872,6,0,L|218:291,1,50,10|0,3:0|3:0,3:0:0:0:
237,345,213022,2,0,L|255:278,1,50,0|0,3:0|3:0,3:0:0:0:
189,142,213172,6,0,L|176:190,1,50,2|0,3:0|3:0,0:0:0:0:
306,256,213322,2,0,L|288:189,1,44.999998626709,0|0,3:0|3:0,0:0:0:0:
387,128,213472,2,0,L|369:195,1,40,2|0,3:0|3:0,0:0:0:0:
470,210,213622,2,0,L|457:163,1,34.9999989318848,0|0,3:0|3:0,0:0:0:0:
512,30,213772,6,0,L|453:45,1,50,4|0,3:2|3:0,0:0:0:0:
488,2,213922,2,0,L|429:17,1,50,0|0,3:0|3:0,0:0:0:0:
272,62,214072,5,2,3:0:0:0:
272,66,214147,1,0,3:0:0:0:
240,104,214222,5,0,3:0:0:0:
249,148,214297,1,0,3:0:0:0:
290,175,214372,5,2,3:0:0:0:
281,209,214447,1,0,3:0:0:0:
258,247,214522,6,0,L|266:286,1,29.9999990844727,0|0,3:0|3:0,0:0:0:0:
85,260,214672,6,0,L|36:247,1,50,10|0,3:0|3:0,3:0:0:0:
78,223,214822,2,0,L|29:210,1,50,2|0,3:0|3:0,3:0:0:0:
270,208,214972,6,0,L|318:195,1,50,2|0,3:0|3:0,0:0:0:0:
152,137,215122,2,0,L|103:124,1,44.999998626709,0|0,3:0|3:0,0:0:0:0:
268,82,215272,2,0,L|316:69,1,40,2|0,3:0|3:0,0:0:0:0:
189,8,215422,2,0,L|140:-4,1,34.9999989318848,0|0,3:0|3:0,0:0:0:0:
368,45,215572,6,0,L|416:32,1,50,4|0,3:2|3:0,3:0:0:0:
379,12,215722,2,0,L|427:0,1,50,0|0,3:0|3:0,3:0:0:0:
446,164,215872,5,2,3:0:0:0:
441,165,215947,1,0,3:0:0:0:
404,199,216022,5,0,3:0:0:0:
360,188,216097,1,0,3:0:0:0:
325,151,216172,5,2,3:0:0:0:
291,159,216247,1,0,3:0:0:0:
254,185,216322,6,0,L|200:174,1,29.9999990844727,0|0,3:0|3:0,0:0:0:0:
333,294,216472,6,0,L|381:281,1,50,10|0,3:0|3:0,3:0:0:0:
349,322,216622,2,0,L|397:309,1,50,0|0,3:0|3:0,3:0:0:0:
229,184,216772,6,0,L|216:232,1,50,2|0,3:0|3:0,3:0:0:0:
225,384,216922,2,0,L|237:335,1,44.999998626709,2|0,3:0|3:0,0:0:0:0:
121,205,217072,2,0,L|109:248,1,40,2|0,3:0|3:0,0:0:0:0:
137,351,217222,2,0,L|149:302,1,34.9999989318848,0|0,3:0|3:0,0:0:0:0:
0,162,217372,5,2,3:3:0:0:
22,206,217447,1,2,2:3:0:0:
44,250,217522,1,2,2:3:0:0:
66,294,217597,1,2,2:3:0:0:
59,353,217672,5,2,3:3:0:0:
91,321,217747,1,2,2:3:0:0:
123,289,217822,1,2,2:3:0:0:
155,258,217897,1,2,2:3:0:0:
166,204,217972,5,2,3:3:0:0:
194,232,218047,1,2,2:3:0:0:
222,260,218122,1,2,2:3:0:0:
250,288,218197,1,2,2:3:0:0:
261,336,218272,5,2,3:3:0:0:
279,306,218347,1,2,2:3:0:0:
297,276,218422,1,2,2:3:0:0:
315,246,218497,1,2,2:3:0:0:
304,202,218572,5,2,3:3:0:0:
331,214,218647,1,2,2:3:0:0:
358,226,218722,1,2,2:3:0:0:
385,238,218797,1,2,2:3:0:0:
411,268,218872,5,2,3:3:0:0:
419,244,218947,1,2,2:3:0:0:
427,220,219022,1,2,2:3:0:0:
435,196,219097,1,2,2:3:0:0:
422,137,219172,6,0,L|485:155,1,50,4|0,3:0|3:0,3:0:0:0:
441,123,219322,2,0,L|504:141,1,50,0|0,3:0|3:0,3:0:0:0:
288,27,219472,6,0,L|271:89,1,50,2|0,3:0|3:0,3:0:0:0:
239,193,219622,2,0,L|225:144,1,44.999998626709,0|0,3:0|3:0,0:0:0:0:
158,47,219772,2,0,L|141:109,1,40,2|0,3:0|3:0,0:0:0:0:
97,168,219922,2,0,L|83:119,1,34.9999989318848,0|0,3:0|3:0,0:0:0:0:
0,36,220072,6,0,L|62:19,1,50,10|0,3:0|3:0,3:0:0:0:
5,16,220222,2,0,L|67:-1,1,50,0|0,3:0|3:0,3:0:0:0:
228,125,220372,6,0,L|166:108,1,50,2|0,3:0|3:0,3:0:0:0:
53,191,220522,2,0,L|115:174,1,44.999998626709,0|0,3:0|3:0,0:0:0:0:
227,279,220672,6,0,L|165:262,1,40,10|0,3:0|3:0,0:0:0:0:
102,336,220822,2,0,L|164:319,1,34.9999989318848,0|0,3:0|3:0,0:0:0:0:
255,384,220972,6,0,L|268:336,1,50,2|0,3:0|3:0,3:0:0:0:
278,374,221122,2,0,L|291:326,1,50,0|0,3:0|3:0,3:0:0:0:
268,149,221272,6,0,L|281:196,1,50,10|0,3:0|3:0,3:0:0:0:
347,318,221422,2,0,L|360:270,1,44.999998626709,0|0,3:0|3:0,0:0:0:0:
408,181,221572,2,0,L|421:228,1,40,2|0,3:0|3:0,0:0:0:0:
479,318,221722,2,0,L|492:270,1,34.9999989318848,0|0,3:0|3:0,0:0:0:0:
498,126,221872,6,0,L|450:112,1,50,10|0,3:0|3:0,3:0:0:0:
492,104,222022,2,0,L|444:90,1,50,0|0,3:0|3:0,3:0:0:0:
255,152,222172,6,0,L|302:138,1,50,2|0,3:0|3:0,3:0:0:0:
428,204,222322,2,0,L|380:190,1,44.999998626709,0|0,3:0|3:0,0:0:0:0:
270,288,222472,6,0,L|317:274,1,40,10|0,3:0|3:0,0:0:0:0:
371,363,222622,2,0,L|323:349,1,34.9999989318848,0|0,3:0|3:0,0:0:0:0:
172,351,222772,6,0,L|185:303,1,50,4|0,3:2|3:0,0:0:0:0:
160,335,222922,2,0,L|173:287,1,50,0|0,3:0|3:0,0:0:0:0:
266,234,223072,6,0,P|243:200|201:182,1,59.9999981689454,12|0,3:2|3:0,0:0:0:0:
232,94,223222,2,0,P|191:96|154:124,1,59.9999981689454,4|0,3:2|3:0,0:0:0:0:
88,50,223372,2,0,P|70:86|75:132,1,59.9999981689454,4|0,3:2|3:0,0:0:0:0:
80,202,223522,6,0,L|131:190,1,34.9999989318848,0|0,3:0|3:0,0:0:0:0:
316,172,223672,6,0,L|265:160,1,50,10|0,3:0|3:0,0:0:0:0:
311,149,223822,2,0,L|260:137,1,50,0|0,3:0|3:0,0:0:0:0:
454,66,223972,6,0,L|505:54,1,50,2|0,3:0|3:0,0:0:0:0:
366,145,224122,2,0,L|315:133,1,44.999998626709,0|0,3:0|3:0,0:0:0:0:
443,211,224272,2,0,L|494:199,1,40,10|0,3:0|3:0,0:0:0:0:
384,276,224422,2,0,L|333:264,1,34.9999989318848,0|0,3:0|3:0,0:0:0:0:
512,318,224572,5,2,3:3:0:0:
462,327,224647,1,2,2:3:0:0:
413,337,224722,1,2,2:3:0:0:
364,347,224797,1,2,2:3:0:0:
316,383,224872,5,2,3:3:0:0:
319,338,224947,1,2,2:3:0:0:
322,290,225022,1,2,2:3:0:0:
326,248,225097,1,2,2:3:0:0:
370,215,225172,5,2,3:3:0:0:
330,209,225247,1,2,2:3:0:0:
290,203,225322,1,2,2:3:0:0:
250,197,225397,1,2,2:3:0:0:
210,227,225472,5,2,3:3:0:0:
224,195,225547,1,2,2:3:0:0:
238,163,225622,1,2,2:3:0:0:
252,131,225697,1,2,2:3:0:0:
290,108,225772,5,2,3:3:0:0:
262,96,225847,1,2,2:3:0:0:
234,85,225922,1,2,2:3:0:0:
206,74,225997,1,2,2:3:0:0:
169,90,226072,5,2,3:3:0:0:
183,69,226147,1,2,2:3:0:0:
197,48,226222,1,2,2:3:0:0:
211,27,226297,1,2,2:3:0:0:
269,11,226372,6,0,B|262:57|215:90|157:74|157:74|175:114|175:114|94:104|51:135|29:183|36:245|62:274|154:272|150:202|138:182,1,500,4|0,3:0|0:0,3:0:0:0:
312,318,228772,5,0,3:0:0:0:
310,308,228847,1,0,3:0:0:0:
308,298,228922,1,0,3:0:0:0:
306,288,228997,1,0,3:0:0:0:
278,266,229072,2,0,P|207:257|164:282,1,104.999996795654,2|0,2:3|3:0,3:0:0:0:
358,215,229372,2,0,P|429:206|472:231,1,104.999996795654,2|0,2:3|3:0,3:0:0:0:
282,185,229672,5,2,2:3:0:0:
405,286,229822,1,2,2:3:0:0:
474,93,229972,2,0,B|403:71|329:118|329:118|291:90|291:90|216:137|148:116,1,349.999989318848,4|0,3:0|0:0,3:0:0:0:
144,102,231772,5,12,3:0:0:0:
289,174,231922,1,0,3:0:0:0:
60,213,232072,1,0,3:0:0:0:
315,86,232222,5,12,3:0:0:0:
182,170,232372,1,0,3:0:0:0:
423,221,232522,1,0,3:0:0:0:
172,259,232672,5,12,3:2:0:0:
380,146,232822,1,0,3:0:0:0:
120,128,232972,5,12,3:2:0:0:
388,109,233122,1,0,3:0:0:0:
184,0,233272,5,12,3:2:0:0:
327,52,233422,1,0,3:0:0:0:
14,97,233572,2,0,B|1:50|47:10|47:10|111:27|138:86|133:149|77:201,1,300,4|0,3:0|3:0,3:0:0:0:
35,238,234172,5,0,3:0:0:0:
44,239,234247,1,0,3:0:0:0:
53,240,234322,1,0,3:0:0:0:
62,241,234397,1,0,3:0:0:0:
87,256,234472,2,0,B|91:266|91:266|-3:254,1,100,2|0,2:3|0:0,3:0:0:0:
271,369,235072,5,0,3:0:0:0:
262,368,235147,1,0,3:0:0:0:
253,367,235222,1,0,3:0:0:0:
244,366,235297,1,0,3:0:0:0:
219,351,235372,6,0,P|264:340|316:381,1,89.9999972534181,2|0,2:3|3:0,3:0:0:0:
160,285,235672,2,0,P|114:274|54:306,1,97.4999955368044,2|0,2:3|0:0,0:0:0:0:
241,233,235972,2,0,P|286:222|349:250,1,104.999996795654,2|0,2:3|0:0,0:0:0:0:
151,164,236272,2,0,P|108:153|35:173,1,112.500004291535,2|0,2:3|0:0,0:0:0:0:
265,106,236572,2,0,P|306:96|381:108,1,120,2|0,2:3|0:0,0:0:0:0:
154,12,236872,5,2,2:3:0:0:
238,185,237022,1,2,2:3:0:0:
0,128,237172,2,0,B|60:167|60:167|11:287,1,200,4|0,3:0|3:0,3:0:0:0:
208,225,237772,5,0,3:0:0:0:
199,226,237847,1,0,3:0:0:0:
190,227,237922,1,0,3:0:0:0:
181,228,237997,1,0,3:0:0:0:
156,243,238072,2,0,B|151:257|151:257|252:246,1,100,2|0,2:3|0:0,3:0:0:0:
292,318,238672,5,0,3:0:0:0:
321,323,238747,1,0,3:0:0:0:
350,328,238822,1,0,3:0:0:0:
324,101,238972,5,12,3:0:0:0:
219,328,239122,1,0,3:0:0:0:
123,161,239272,1,0,3:0:0:0:
319,379,239422,5,12,3:0:0:0:
231,148,239572,1,0,3:0:0:0:
126,336,239722,1,0,3:0:0:0:
397,268,239872,5,12,3:2:0:0:
145,232,240022,1,0,3:0:0:0:
399,117,240172,5,12,3:2:0:0:
152,209,240322,1,0,3:0:0:0:
277,15,240472,5,12,3:2:0:0:
210,159,240622,1,0,3:0:0:0:
456,16,240772,5,2,3:0:0:0:
462,40,240847,1,0,3:0:0:0:
468,64,240922,1,0,3:0:0:0:
365,149,241072,5,2,3:0:0:0:
371,125,241147,1,0,3:0:0:0:
377,101,241222,1,0,3:0:0:0:
259,14,241372,5,2,3:0:0:0:
293,116,241522,1,0,3:0:0:0:
146,101,241672,5,10,3:0:0:0:
170,95,241747,1,0,3:0:0:0:
194,89,241822,1,0,3:0:0:0:
285,191,241972,5,2,3:0:0:0:
261,185,242047,1,0,3:0:0:0:
237,179,242122,1,0,3:0:0:0:
132,298,242272,5,2,3:0:0:0:
161,176,242422,1,0,3:0:0:0:
265,314,242572,5,2,3:0:0:0:
259,327,242647,1,0,3:0:0:0:
249,340,242722,1,0,3:0:0:0:
238,350,242797,1,0,3:0:0:0:
225,358,242872,1,2,3:0:0:0:
211,363,242947,1,0,3:0:0:0:
197,364,243022,2,0,P|172:360|148:347,1,29.9999990844727,0|0,3:0|3:0,0:0:0:0:
246,232,243172,6,0,L|234:177,1,40,2|0,3:0|0:0,3:0:0:0:
254,220,243322,2,0,L|242:165,1,40,0|0,3:0|0:0,0:0:0:0:
378,283,243472,1,10,3:0:0:0:
387,285,243547,1,0,3:0:0:0:
396,284,243622,1,0,3:0:0:0:
405,282,243697,1,0,3:0:0:0:
414,278,243772,1,2,3:0:0:0:
422,272,243847,1,0,3:0:0:0:
428,264,243922,2,0,P|430:252|421:225,1,29.9999990844727,0|0,3:0|3:0,0:0:0:0:
345,168,244072,5,2,3:0:0:0:
508,190,244222,1,0,3:0:0:0:
456,58,244372,5,4,3:0:0:0:
436,53,244447,1,0,3:0:0:0:
416,54,244522,1,0,3:0:0:0:
397,61,244597,1,0,3:0:0:0:
383,75,244672,1,2,3:0:0:0:
375,93,244747,1,0,3:0:0:0:
372,112,244822,2,0,P|380:136|407:161,1,40,0|0,3:0|3:0,0:0:0:0:
506,192,244972,6,0,L|462:182,1,40,2|0,3:0|3:0,0:0:0:0:
354,242,245122,2,0,L|398:232,1,40,0|0,3:0|3:0,0:0:0:0:
481,354,245272,5,10,3:0:0:0:
469,364,245347,1,0,3:0:0:0:
455,372,245422,1,0,3:0:0:0:
439,377,245497,1,0,3:0:0:0:
423,379,245572,1,2,3:0:0:0:
407,377,245647,1,0,3:0:0:0:
391,371,245722,2,0,P|374:352|356:314,1,40,0|0,3:0|3:0,0:0:0:0:
438,271,245872,6,0,L|386:261,1,40,2|0,3:0|3:0,0:0:0:0:
255,309,246022,2,0,L|303:299,1,40,0|0,3:0|3:0,0:0:0:0:
401,189,246172,5,2,3:0:0:0:
393,160,246247,1,0,3:0:0:0:
376,138,246322,1,0,3:0:0:0:
353,121,246397,1,0,3:0:0:0:
326,114,246472,1,2,3:0:0:0:
298,116,246547,1,0,3:0:0:0:
273,126,246622,2,0,P|256:140|240:168,1,40,0|0,3:0|3:0,0:0:0:0:
296,252,246772,6,0,L|233:238,1,40,2|0,3:0|3:0,0:0:0:0:
125,197,246922,2,0,L|188:183,1,40,0|0,3:0|3:0,0:0:0:0:
233,343,247072,5,12,3:2:0:0:
217,344,247147,1,0,3:0:0:0:
201,343,247222,1,0,3:0:0:0:
185,337,247297,1,0,3:0:0:0:
171,328,247372,1,2,3:0:0:0:
160,316,247447,1,0,3:0:0:0:
154,301,247522,2,0,P|149:274|154:252,1,40,0|0,3:0|3:0,0:0:0:0:
241,198,247672,6,0,L|229:244,1,40,2|0,3:0|3:0,3:0:0:0:
340,340,247822,2,0,L|329:301,1,40,0|0,3:0|3:0,0:0:0:0:
402,197,247972,5,4,3:0:0:0:
377,201,248047,1,0,3:0:0:0:
352,205,248122,1,0,3:0:0:0:
431,123,248272,5,2,3:0:0:0:
456,127,248347,1,0,3:0:0:0:
481,131,248422,1,0,3:0:0:0:
373,13,248572,5,2,3:0:0:0:
353,127,248722,1,0,3:0:0:0:
206,57,248872,5,10,3:0:0:0:
231,53,248947,1,0,3:0:0:0:
256,49,249022,1,0,3:0:0:0:
202,137,249172,5,2,3:0:0:0:
177,133,249247,1,0,3:0:0:0:
152,129,249322,1,0,3:0:0:0:
245,233,249472,5,2,3:0:0:0:
277,125,249622,1,0,3:0:0:0:
156,225,249772,5,2,3:0:0:0:
153,239,249847,1,0,3:0:0:0:
153,253,249922,1,0,3:0:0:0:
156,267,249997,1,0,3:0:0:0:
163,280,250072,1,2,3:0:0:0:
172,291,250147,1,0,3:0:0:0:
182,301,250222,2,0,P|202:309|220:310,1,29.9999990844727,0|0,3:0|3:0,0:0:0:0:
324,206,250372,6,0,L|275:213,1,40,2|0,3:0|0:0,3:0:0:0:
314,193,250522,2,0,L|265:200,1,40,0|0,3:0|0:0,0:0:0:0:
362,354,250672,1,12,3:2:0:0:
351,354,250747,1,0,3:0:0:0:
340,351,250822,1,0,3:0:0:0:
331,345,250897,1,0,3:0:0:0:
323,337,250972,1,2,3:0:0:0:
317,328,251047,1,0,3:0:0:0:
314,317,251122,2,0,P|311:300|316:286,1,29.9999990844727,0|0,3:0|3:0,0:0:0:0:
478,266,251272,5,2,3:0:0:0:
414,120,251422,1,0,3:0:0:0:
346,227,251572,5,4,3:0:0:0:
365,233,251647,1,0,3:0:0:0:
385,233,251722,1,0,3:0:0:0:
404,229,251797,1,0,3:0:0:0:
421,218,251872,1,2,3:0:0:0:
434,203,251947,1,0,3:0:0:0:
442,184,252022,2,0,P|440:157|427:123,1,40,0|0,3:0|3:0,0:0:0:0:
328,40,252172,6,0,L|311:97,1,40,2|0,3:0|3:0,0:0:0:0:
247,170,252322,2,0,L|235:131,1,40,0|0,3:0|3:0,0:0:0:0:
143,74,252472,5,10,3:0:0:0:
127,74,252547,1,0,3:0:0:0:
112,79,252622,1,0,3:0:0:0:
100,89,252697,1,0,3:0:0:0:
92,102,252772,1,2,3:0:0:0:
87,117,252847,1,0,3:0:0:0:
89,132,252922,2,0,P|102:156|119:167,1,40,0|0,3:0|3:0,0:0:0:0:
206,189,253072,6,0,L|189:134,1,40,2|0,3:0|3:0,0:0:0:0:
75,238,253222,2,0,L|63:276,1,40,0|0,3:0|3:0,0:0:0:0:
202,324,253372,5,2,3:0:0:0:
246,316,253447,1,2,3:0:0:0:
290,308,253522,1,2,3:0:0:0:
334,300,253597,1,2,3:0:0:0:
346,267,253672,5,2,3:0:0:0:
380,271,253747,1,2,3:0:0:0:
414,276,253822,1,2,3:0:0:0:
448,281,253897,1,2,3:0:0:0:
484,307,253972,5,2,3:0:0:0:
478,267,254047,1,2,3:0:0:0:
456,254,254122,5,2,3:0:0:0:
461,229,254197,1,2,3:0:0:0:
491,196,254272,5,2,3:0:0:0:
485,151,254347,1,2,3:0:0:0:
479,106,254422,1,2,3:0:0:0:
474,61,254497,1,2,3:0:0:0:
499,37,254572,5,2,3:0:0:0:
496,71,254647,1,2,3:0:0:0:
493,105,254722,1,2,3:0:0:0:
490,139,254797,1,2,3:0:0:0:
499,156,254872,5,2,3:0:0:0:
479,153,254947,1,2,3:0:0:0:
449,133,255022,5,2,3:0:0:0:
414,139,255097,1,2,3:0:0:0:
377,164,255172,5,4,3:0:0:0:
357,161,255247,1,0,3:0:0:0:
339,151,255322,1,0,3:0:0:0:
327,134,255397,1,0,3:0:0:0:
324,114,255472,1,2,3:0:0:0:
330,95,255547,1,0,3:0:0:0:
346,84,255622,5,2,3:0:0:0:
320,99,255697,1,0,3:0:0:0:
290,103,255772,1,0,3:0:0:0:
260,97,255847,1,0,3:0:0:0:
236,78,255922,1,0,3:0:0:0:
219,52,255997,1,0,3:0:0:0:
220,22,256072,5,8,3:0:0:0:
231,31,256147,1,0,3:0:0:0:
238,44,256222,1,0,3:0:0:0:
239,58,256297,1,0,3:0:0:0:
235,72,256372,1,2,3:0:0:0:
226,84,256447,1,0,3:0:0:0:
212,90,256522,5,2,3:0:0:0:
194,108,256597,1,0,3:0:0:0:
183,130,256672,1,0,3:0:0:0:
177,154,256747,1,0,3:0:0:0:
182,178,256822,1,2,3:0:0:0:
197,197,256897,1,0,3:0:0:0:
220,206,256972,5,0,3:0:0:0:
229,206,257047,1,0,3:0:0:0:
237,201,257122,1,2,3:0:0:0:
244,194,257197,1,0,3:0:0:0:
248,185,257272,1,2,3:0:0:0:
249,175,257347,1,0,3:0:0:0:
242,168,257422,5,2,3:0:0:0:
209,154,257497,1,0,3:0:0:0:
174,153,257572,1,4,3:2:0:0:
141,167,257647,1,0,3:0:0:0:
117,192,257722,1,0,3:0:0:0:
108,226,257797,1,0,3:0:0:0:
114,260,257872,5,10,3:0:0:0:
127,254,257947,1,0,3:0:0:0:
134,240,258022,1,0,3:0:0:0:
133,225,258097,1,0,3:0:0:0:
124,212,258172,1,2,3:0:0:0:
110,204,258247,1,0,3:0:0:0:
95,202,258322,5,2,3:0:0:0:
119,196,258397,1,0,3:0:0:0:
143,198,258472,1,0,3:0:0:0:
166,205,258547,1,0,3:0:0:0:
186,218,258622,1,2,3:0:0:0:
201,238,258697,1,0,3:0:0:0:
210,261,258772,5,2,3:0:0:0:
194,248,258847,1,0,3:0:0:0:
189,228,258922,1,2,3:0:0:0:
198,210,258997,1,0,3:0:0:0:
216,203,259072,1,2,3:0:0:0:
235,203,259147,1,0,3:0:0:0:
252,212,259222,1,2,3:0:0:0:
271,215,259297,1,0,3:0:0:0:
290,211,259372,1,2,3:0:0:0:
306,199,259447,1,0,3:0:0:0:
316,182,259522,1,0,3:0:0:0:
317,162,259597,1,0,3:0:0:0:
309,143,259672,5,10,3:0:0:0:
301,161,259747,1,0,3:0:0:0:
300,180,259822,1,0,3:0:0:0:
306,199,259897,1,0,3:0:0:0:
317,215,259972,1,2,3:0:0:0:
333,225,260047,1,0,3:0:0:0:
351,231,260122,1,2,3:0:0:0:
380,230,260197,1,0,3:0:0:0:
409,237,260272,1,0,3:0:0:0:
433,254,260347,1,0,3:0:0:0:
447,280,260422,1,2,3:0:0:0:
442,309,260497,1,0,3:0:0:0:
418,328,260572,5,2,3:0:0:0:
412,319,260647,1,0,3:0:0:0:
413,309,260722,1,2,3:0:0:0:
419,301,260797,1,0,3:0:0:0:
428,297,260872,1,2,3:0:0:0:
442,287,260947,1,0,3:0:0:0:
450,271,261022,1,2,3:0:0:0:
449,253,261097,1,0,3:0:0:0:
439,238,261172,1,4,3:2:0:0:
437,213,261247,1,0,3:0:0:0:
445,189,261322,1,2,3:0:0:0:
461,170,261397,1,0,3:0:0:0:
484,160,261472,5,10,3:0:0:0:
480,174,261547,1,0,3:0:0:0:
470,185,261622,1,0,3:0:0:0:
456,190,261697,1,0,3:0:0:0:
441,188,261772,1,2,3:0:0:0:
429,178,261847,1,0,3:0:0:0:
424,163,261922,1,4,3:2:0:0:
401,152,261997,1,0,3:0:0:0:
376,151,262072,1,0,3:0:0:0:
352,160,262147,1,0,3:0:0:0:
335,178,262222,1,2,3:0:0:0:
327,201,262297,1,0,3:0:0:0:
330,225,262372,5,4,3:0:0:0:
352,204,262447,1,0,3:0:0:0:
358,174,262522,1,0,3:0:0:0:
345,146,262597,1,0,3:0:0:0:
318,132,262672,1,2,3:0:0:0:
288,137,262747,1,0,3:0:0:0:
264,156,262822,1,2,3:0:0:0:
229,155,262897,1,0,3:0:0:0:
199,136,262972,1,4,3:2:0:0:
186,103,263047,1,0,3:0:0:0:
199,70,263122,1,0,3:0:0:0:
229,52,263197,1,0,3:0:0:0:
263,48,263272,5,10,3:0:0:0:
258,62,263347,1,0,3:0:0:0:
246,71,263422,1,2,3:0:0:0:
231,72,263497,1,0,3:0:0:0:
216,68,263572,1,2,3:0:0:0:
203,59,263647,1,0,3:0:0:0:
194,46,263722,5,4,3:2:0:0:
226,59,263797,1,0,3:0:0:0:
250,84,263872,1,0,3:0:0:0:
260,117,263947,1,0,3:0:0:0:
255,151,264022,1,2,3:0:0:0:
238,181,264097,1,0,3:0:0:0:
205,193,264172,5,2,3:0:0:0:
209,184,264247,1,0,3:0:0:0:
217,179,264322,1,2,3:0:0:0:
226,177,264397,1,0,3:0:0:0:
235,176,264472,1,2,3:0:0:0:
244,178,264547,1,0,3:0:0:0:
252,182,264622,1,2,3:0:0:0:
261,186,264697,1,0,3:0:0:0:
266,194,264772,1,2,3:0:0:0:
278,215,264847,1,0,3:0:0:0:
297,230,264922,1,0,3:0:0:0:
321,235,264997,1,0,3:0:0:0:
345,232,265072,5,10,3:0:0:0:
330,228,265147,1,0,3:0:0:0:
315,230,265222,1,0,3:0:0:0:
302,237,265297,1,0,3:0:0:0:
293,249,265372,1,2,3:0:0:0:
290,263,265447,1,0,3:0:0:0:
293,277,265522,5,4,3:2:0:0:
268,259,265597,1,0,3:0:0:0:
238,251,265672,1,0,3:0:0:0:
208,254,265747,1,0,3:0:0:0:
181,268,265822,1,2,3:0:0:0:
164,292,265897,1,0,3:0:0:0:
157,321,265972,5,2,3:0:0:0:
169,312,266047,1,0,3:0:0:0:
176,298,266122,1,2,3:0:0:0:
174,283,266197,1,0,3:0:0:0:
165,270,266272,1,2,3:0:0:0:
161,247,266347,1,0,3:0:0:0:
166,225,266422,1,2,3:0:0:0:
180,207,266497,1,0,3:0:0:0:
199,196,266572,1,4,3:2:0:0:
218,173,266647,1,0,3:0:0:0:
223,143,266722,1,0,3:0:0:0:
215,114,266797,1,0,3:0:0:0:
191,95,266872,5,10,3:0:0:0:
184,102,266947,1,0,3:0:0:0:
181,111,267022,1,2,3:0:0:0:
180,120,267097,1,0,3:0:0:0:
181,129,267172,1,2,3:0:0:0:
184,138,267247,1,0,3:0:0:0:
190,145,267322,5,4,3:2:0:0:
218,154,267397,1,0,3:0:0:0:
247,149,267472,1,0,3:0:0:0:
272,132,267547,1,0,3:0:0:0:
283,104,267622,1,2,3:0:0:0:
305,84,267697,1,0,3:0:0:0:
333,74,267772,1,2,3:0:0:0:
363,74,267847,1,0,3:0:0:0:
390,86,267922,2,0,P|405:104|420:146,1,50,2|0,3:0|3:0,0:0:0:0:
345,270,268072,5,2,3:0:0:0:
306,260,268147,1,2,3:0:0:0:
266,251,268222,1,2,3:0:0:0:
226,242,268297,1,2,3:0:0:0:
215,213,268372,5,2,3:0:0:0:
185,218,268447,1,2,3:0:0:0:
155,223,268522,1,2,3:0:0:0:
125,228,268597,1,2,3:0:0:0:
113,244,268672,5,2,3:0:0:0:
93,241,268747,1,2,3:0:0:0:
73,238,268822,1,2,3:0:0:0:
53,235,268897,1,2,3:0:0:0:
47,226,268972,5,2,3:0:0:0:
37,226,269047,1,2,3:0:0:0:
27,227,269122,2,0,L|33:279,1,50,2|2,3:0|3:0,0:0:0:0:
142,362,269272,5,2,3:0:0:0:
180,374,269347,1,2,3:0:0:0:
219,369,269422,2,0,P|242:344|252:312,1,50,2|2,3:0|3:0,0:0:0:0:
153,207,269572,5,4,3:2:0:0:
106,189,269647,1,0,3:0:0:0:
57,200,269722,2,0,P|32:229|26:254,1,50,0|0,3:0|3:0,0:0:0:0:
249,303,269872,5,4,3:2:0:0:
303,309,269947,1,0,3:0:0:0:
354,289,270022,1,0,3:0:0:0:
384,243,270097,1,0,3:0:0:0:
381,188,270172,1,4,3:2:0:0:
349,142,270247,1,0,3:0:0:0:
297,123,270322,1,0,3:0:0:0:
243,134,270397,1,0,3:0:0:0:
207,176,270472,1,4,3:0:0:0:
152,183,270547,1,0,3:0:0:0:
103,156,270622,1,0,3:0:0:0:
88,102,270697,1,0,3:0:0:0:
111,52,270772,1,8,3:0:0:0:
163,35,270847,1,0,3:0:0:0:
215,50,270922,1,0,3:0:0:0:
239,99,270997,1,0,3:0:0:0:
218,150,271072,1,4,3:2:0:0:
170,166,271147,1,0,3:0:0:0:
128,148,271222,1,0,3:0:0:0:
117,109,271297,1,0,3:0:0:0:
130,76,271372,1,4,3:2:0:0:
157,64,271447,1,0,3:0:0:0:
181,67,271522,2,0,P|204:83|213:119,1,50,0|0,3:0|3:0,0:0:0:0:
144,262,271672,5,4,3:0:0:0:
94,270,271747,1,0,3:0:0:0:
47,252,271822,2,0,P|33:228|23:191,1,50,0|0,3:0|3:0,0:0:0:0:
190,137,271972,5,4,3:0:0:0:
249,126,272047,1,0,3:0:0:0:
305,147,272122,1,0,3:0:0:0:
330,201,272197,1,0,3:0:0:0:
316,259,272272,1,4,3:0:0:0:
341,313,272347,1,0,3:0:0:0:
392,344,272422,1,0,3:0:0:0:
451,342,272497,1,0,3:0:0:0:
499,306,272572,1,8,3:0:0:0:
508,246,272647,1,0,3:0:0:0:
483,191,272722,1,0,3:0:0:0:
428,165,272797,1,0,3:0:0:0:
368,172,272872,1,4,3:0:0:0:
332,206,272947,1,0,3:0:0:0:
322,244,273022,1,4,3:0:0:0:
328,273,273097,1,0,3:0:0:0:
338,290,273172,5,4,3:0:0:0:
387,280,273247,1,0,3:0:0:0:
417,240,273322,2,0,P|419:209|411:184,1,50,0|0,3:0|3:0,0:0:0:0:
227,199,273472,5,4,3:0:0:0:
179,214,273547,1,0,3:0:0:0:
156,258,273622,2,0,P|159:289|176:324,1,50,0|0,3:0|3:0,0:0:0:0:
361,337,273772,5,4,3:2:0:0:
419,325,273847,1,0,3:0:0:0:
452,274,273922,1,0,3:0:0:0:
448,214,273997,1,0,3:0:0:0:
402,175,274072,1,4,3:2:0:0:
342,172,274147,1,0,3:0:0:0:
299,214,274222,1,4,3:2:0:0:
239,218,274297,1,0,3:0:0:0:
185,191,274372,1,8,3:0:0:0:
161,135,274447,1,0,3:0:0:0:
174,76,274522,1,0,3:0:0:0:
221,39,274597,1,0,3:0:0:0:
281,39,274672,1,4,3:2:0:0:
328,75,274747,1,0,3:0:0:0:
342,133,274822,1,4,3:2:0:0:
393,164,274897,1,0,3:0:0:0:
452,167,274972,1,4,3:0:0:0:
493,134,275047,1,0,3:0:0:0:
507,91,275122,1,0,3:0:0:0:
499,54,275197,1,0,3:0:0:0:
479,30,275272,5,4,3:0:0:0:
430,65,275347,1,0,3:0:0:0:
413,122,275422,1,0,3:0:0:0:
429,179,275497,1,0,3:0:0:0:
474,218,275572,1,4,3:2:0:0:
487,276,275647,1,0,3:0:0:0:
463,331,275722,1,0,3:0:0:0:
409,358,275797,1,0,3:0:0:0:
350,345,275872,1,4,3:0:0:0:
314,296,275947,1,0,3:0:0:0:
319,236,276022,1,4,3:0:0:0:
279,188,276097,1,0,3:0:0:0:
221,172,276172,1,8,3:0:0:0:
163,188,276247,1,0,3:0:0:0:
134,240,276322,1,0,3:0:0:0:
147,298,276397,1,0,3:0:0:0:
192,337,276472,1,4,3:0:0:0:
241,340,276547,1,0,3:0:0:0:
276,322,276622,2,0,P|292:307|306:261,1,50,4|0,3:0|3:0,0:0:0:0:
108,240,276772,5,4,3:2:0:0:
81,254,276847,1,0,3:0:0:0:
67,280,276922,2,0,P|67:315|86:346,1,50,0|0,3:0|3:0,3:0:0:0:
267,321,277072,6,0,P|292:335|311:360,1,50,4|0,3:2|3:0,3:0:0:0:
129,232,277222,2,0,P|102:209|52:207,1,59.9999981689454,4|0,3:2|3:0,3:0:0:0:
381,269,277372,2,0,P|421:291|450:343,1,69.9999978637696,0|0,3:0|3:0,3:0:0:0:
134,113,277522,2,0,P|101:92|43:85,1,80,0|0,3:0|3:0,3:0:0:0:
397,87,277672,5,8,3:0:0:0:
461,92,277747,1,0,3:0:0:0:
503,133,277822,1,0,3:0:0:0:
512,192,277897,1,0,3:0:0:0:
483,239,277972,1,2,3:0:0:0:
436,257,278047,1,0,3:0:0:0:
390,257,278122,1,2,3:0:0:0:
355,236,278197,1,0,3:0:0:0:
337,206,278272,1,2,3:0:0:0:
336,175,278347,1,0,3:0:0:0:
348,152,278422,1,0,3:0:0:0:
363,140,278497,1,0,3:0:0:0:
378,138,278572,5,4,3:0:0:0:
384,186,278647,1,0,3:0:0:0:
365,232,278722,1,0,3:0:0:0:
318,250,278797,1,0,3:0:0:0:
269,239,278872,1,2,3:0:0:0:
232,204,278947,1,0,3:0:0:0:
182,196,279022,1,0,3:0:0:0:
136,216,279097,1,0,3:0:0:0:
115,261,279172,1,2,3:0:0:0:
127,309,279247,1,0,3:0:0:0:
168,337,279322,1,0,3:0:0:0:
217,335,279397,1,0,3:0:0:0:
256,303,279472,1,8,3:0:0:0:
256,253,279547,1,0,3:0:0:0:
219,218,279622,2,0,P|190:210|153:224,1,50,0|0,3:0|3:0,0:0:0:0:
388,337,279772,5,2,3:0:0:0:
455,314,279847,1,0,3:0:0:0:
478,252,279922,1,0,3:0:0:0:
452,197,279997,1,0,3:0:0:0:
402,176,280072,1,2,3:0:0:0:
376,134,280147,1,0,3:0:0:0:
378,92,280222,1,0,3:0:0:0:
404,64,280297,1,0,3:0:0:0:
468,53,280372,5,4,3:2:0:0:
456,116,280447,1,0,3:0:0:0:
407,151,280522,1,0,3:0:0:0:
352,145,280597,1,0,3:0:0:0:
312,113,280672,1,2,3:0:0:0:
267,109,280747,1,0,3:0:0:0:
232,128,280822,2,0,P|214:148|209:184,1,50,0|0,3:0|3:0,3:0:0:0:
313,312,280972,5,2,3:0:0:0:
353,274,281047,1,0,3:0:0:0:
361,219,281122,1,0,3:0:0:0:
339,168,281197,1,0,3:0:0:0:
287,148,281272,1,10,3:0:0:0:
232,156,281347,1,0,3:0:0:0:
199,200,281422,2,0,P|200:229|226:270,1,50,0|0,3:0|3:0,0:0:0:0:
459,103,281572,5,2,3:0:0:0:
431,90,281647,1,0,3:0:0:0:
401,88,281722,1,0,3:0:0:0:
372,97,281797,1,0,3:0:0:0:
350,117,281872,5,2,3:0:0:0:
291,130,281947,1,0,3:0:0:0:
233,111,282022,1,0,3:0:0:0:
200,60,282097,1,0,3:0:0:0:
202,0,282172,5,8,3:0:0:0:
258,19,282247,1,2,3:2:0:0:
279,75,282322,1,2,3:2:0:0:
255,130,282397,1,2,3:2:0:0:
197,145,282472,1,2,3:2:0:0:
140,123,282547,1,2,3:2:0:0:
81,137,282622,1,2,3:2:0:0:
51,189,282697,1,2,3:2:0:0:
60,248,282772,1,2,3:2:0:0:
105,287,282847,1,2,3:2:0:0:
164,289,282922,1,2,3:2:0:0:
212,253,282997,1,2,3:2:0:0:
210,193,283072,5,10,3:2:0:0:
161,219,283147,1,2,3:2:0:0:
134,267,283222,1,2,3:2:0:0:
143,320,283297,1,2,3:2:0:0:
177,363,283372,1,2,3:2:0:0:
229,380,283447,1,2,3:2:0:0:
284,372,283522,1,2,3:2:0:0:
325,336,283597,1,2,3:2:0:0:
323,281,283672,5,2,3:0:0:0:
273,305,283747,1,2,3:2:0:0:
254,356,283822,2,0,P|274:362|330:343,1,50,2|0,3:2|3:0,0:0:0:0:
336,195,283972,5,2,3:0:0:0:
295,165,284047,1,0,3:0:0:0:
245,165,284122,2,0,P|213:185|200:227,1,50,0|0,3:0|3:0,0:0:0:0:
378,345,284272,5,0,3:0:0:0:
430,329,284347,1,0,3:0:0:0:
456,280,284422,1,0,3:0:0:0:
445,226,284497,1,0,3:0:0:0:
401,192,284572,1,2,3:0:0:0:
346,197,284647,1,0,3:0:0:0:
295,175,284722,1,0,3:0:0:0:
267,127,284797,1,0,3:0:0:0:
272,72,284872,1,8,3:0:0:0:
309,32,284947,1,0,3:0:0:0:
362,19,285022,1,0,3:0:0:0:
414,33,285097,1,0,3:0:0:0:
446,77,285172,1,2,3:0:0:0:
451,121,285247,1,0,3:0:0:0:
442,155,285322,2,0,P|426:171|395:192,1,50,0|0,3:0|3:0,0:0:0:0:
236,117,285472,5,2,3:0:0:0:
242,67,285547,1,0,3:0:0:0:
276,31,285622,2,0,P|309:24|343:33,1,50,0|0,3:0|3:0,0:0:0:0:
321,191,285772,5,2,3:0:0:0:
282,222,285847,1,0,3:0:0:0:
232,226,285922,2,0,P|200:211|188:198,1,50,0|0,3:0|3:0,0:0:0:0:
175,38,286072,5,2,3:0:0:0:
127,10,286147,1,0,3:0:0:0:
72,10,286222,1,0,3:0:0:0:
23,36,286297,1,0,3:0:0:0:
2,86,286372,1,2,3:0:0:0:
12,139,286447,1,0,3:0:0:0:
50,178,286522,1,0,3:0:0:0:
103,190,286597,1,0,3:0:0:0:
156,175,286672,5,12,3:0:0:0:
123,134,286747,1,0,3:0:0:0:
73,127,286822,1,0,3:0:0:0:
30,148,286897,1,0,3:0:0:0:
10,188,286972,1,2,3:0:0:0:
14,230,287047,1,0,3:0:0:0:
39,261,287122,1,0,3:0:0:0:
73,274,287197,1,0,3:0:0:0:
108,274,287272,1,2,3:0:0:0:
138,285,287347,1,0,3:0:0:0:
156,308,287422,1,0,3:0:0:0:
161,334,287497,1,0,3:0:0:0:
154,358,287572,5,2,3:0:0:0:
101,341,287647,1,0,3:0:0:0:
78,290,287722,1,0,3:0:0:0:
90,236,287797,1,0,3:0:0:0:
135,204,287872,1,0,3:0:0:0:
189,203,287947,1,0,3:0:0:0:
236,231,288022,1,0,3:0:0:0:
252,283,288097,1,0,3:0:0:0:
237,336,288172,5,2,3:0:0:0:
185,317,288247,1,0,3:0:0:0:
168,264,288322,2,0,P|181:229|207:205,1,50,0|0,3:0|3:0,0:0:0:0:
374,232,288472,5,12,3:0:0:0:
422,258,288547,1,0,3:0:0:0:
444,308,288622,2,0,P|441:338|422:370,1,50,0|0,3:0|3:0,0:0:0:0:
260,269,288772,5,2,3:0:0:0:
253,214,288847,1,0,3:0:0:0:
278,165,288922,1,0,3:0:0:0:
329,145,288997,1,0,3:0:0:0:
383,155,289072,1,2,3:0:0:0:
430,140,289147,1,0,3:0:0:0:
456,103,289222,1,0,3:0:0:0:
456,63,289297,1,0,3:0:0:0:
435,34,289372,5,2,3:0:0:0:
392,69,289447,1,0,3:0:0:0:
382,123,289522,1,0,3:0:0:0:
402,174,289597,1,0,3:0:0:0:
448,203,289672,1,0,3:0:0:0:
465,249,289747,1,0,3:0:0:0:
456,293,289822,1,0,3:0:0:0:
428,321,289897,1,0,3:0:0:0:
393,329,289972,5,2,3:0:0:0:
374,277,290047,1,0,3:0:0:0:
397,227,290122,2,0,P|435:217|476:230,1,50,0|0,3:0|3:0,0:0:0:0:
275,334,290272,5,12,3:0:0:0:
220,341,290347,1,0,3:0:0:0:
176,316,290422,1,0,3:0:0:0:
154,276,290497,1,0,3:0:0:0:
155,236,290572,1,2,3:0:0:0:
139,204,290647,1,0,3:0:0:0:
112,190,290722,1,0,3:0:0:0:
87,187,290797,1,0,3:0:0:0:
67,192,290872,5,2,3:0:0:0:
65,231,290947,1,0,3:0:0:0:
104,262,291022,2,0,P|135:255|155:241,1,50,0|0,3:0|3:0,0:0:0:0:
155,92,291172,5,2,3:0:0:0:
111,67,291247,1,0,3:0:0:0:
61,71,291322,2,0,P|41:91|22:123,1,50,0|0,3:0|3:0,0:0:0:0:
233,1,291472,2,0,P|261:3|296:16,1,50,0|0,3:0|3:0,3:0:0:0:
91,149,291622,5,0,3:0:0:0:
71,200,291697,1,0,3:0:0:0:
89,246,291772,1,0,3:0:0:0:
127,269,291847,1,0,3:0:0:0:
166,273,291922,1,0,3:0:0:0:
197,258,291997,1,0,3:0:0:0:
213,232,292072,5,12,3:0:0:0:
160,214,292147,1,0,3:0:0:0:
108,232,292222,1,0,3:0:0:0:
80,279,292297,1,0,3:0:0:0:
93,332,292372,1,2,3:0:0:0:
130,365,292447,1,0,3:0:0:0:
174,373,292522,1,0,3:0:0:0:
211,358,292597,1,0,3:0:0:0:
232,330,292672,5,2,3:0:0:0:
188,305,292747,1,0,3:0:0:0:
138,308,292822,2,0,P|122:321|103:346,1,50,0|0,3:0|3:0,0:0:0:0:
336,374,292972,5,2,3:0:0:0:
375,336,293047,1,0,3:0:0:0:
381,281,293122,1,0,3:0:0:0:
347,237,293197,1,0,3:0:0:0:
293,224,293272,1,2,3:0:0:0:
255,183,293347,1,0,3:0:0:0:
251,128,293422,1,0,3:0:0:0:
282,83,293497,1,0,3:0:0:0:
335,68,293572,5,2,3:0:0:0:
326,96,293647,1,0,3:0:0:0:
330,125,293722,1,0,3:0:0:0:
348,148,293797,1,0,3:0:0:0:
376,158,293872,5,12,3:0:0:0:
344,107,293947,1,0,3:0:0:0:
286,89,294022,1,0,3:0:0:0:
228,106,294097,1,0,3:0:0:0:
197,157,294172,1,2,3:0:0:0:
140,175,294247,1,0,3:0:0:0:
81,162,294322,1,0,3:0:0:0:
44,114,294397,1,0,3:0:0:0:
49,54,294472,1,2,3:0:0:0:
89,9,294547,1,0,3:0:0:0:
148,0,294622,1,0,3:0:0:0:
202,25,294697,1,0,3:0:0:0:
224,80,294772,5,2,3:0:0:0:
192,65,294847,1,0,3:0:0:0:
157,66,294922,1,0,3:0:0:0:
126,83,294997,1,0,3:0:0:0:
110,114,295072,1,2,3:0:0:0:
86,132,295147,1,0,3:0:0:0:
56,137,295222,1,0,3:0:0:0:
27,128,295297,1,0,3:0:0:0:
9,103,295372,5,2,3:0:0:0:
29,89,295447,1,0,3:0:0:0:
53,83,295522,2,0,P|87:86|126:116,1,50,0|0,3:0|3:0,0:0:0:0:
219,200,295672,5,12,3:0:0:0:
240,252,295747,1,0,3:0:0:0:
231,311,295822,1,0,3:0:0:0:
185,348,295897,1,0,3:0:0:0:
125,353,295972,5,2,3:0:0:0:
139,296,296047,1,0,3:0:0:0:
188,265,296122,1,0,3:0:0:0:
240,265,296197,1,0,3:0:0:0:
285,290,296272,1,2,3:0:0:0:
332,288,296347,1,0,3:0:0:0:
372,263,296422,1,0,3:0:0:0:
390,226,296497,1,0,3:0:0:0:
375,183,296572,5,2,3:0:0:0:
319,220,296647,1,0,3:0:0:0:
314,287,296722,1,0,3:0:0:0:
356,339,296797,1,0,3:0:0:0:
423,344,296872,1,2,3:0:0:0:
476,303,296947,1,0,3:0:0:0:
485,236,297022,1,0,3:0:0:0:
440,184,297097,1,0,3:0:0:0:
373,173,297172,1,2,3:0:0:0:
314,207,297247,1,0,3:0:0:0:
290,269,297322,1,0,3:0:0:0:
229,298,297397,1,0,3:0:0:0:
161,287,297472,1,12,3:0:0:0:
117,235,297547,1,0,3:0:0:0:
114,167,297622,1,0,3:0:0:0:
157,116,297697,1,0,3:0:0:0:
222,101,297772,1,2,3:0:0:0:
282,128,297847,1,0,3:0:0:0:
313,188,297922,1,0,3:0:0:0:
374,216,297997,1,0,3:0:0:0:
440,207,298072,1,2,3:0:0:0:
486,157,298147,1,0,3:0:0:0:
486,89,298222,1,0,3:0:0:0:
445,35,298297,1,0,3:0:0:0:
370,16,298374,6,0,B|326:130|409:198|443:159|524:219|483:336|483:336|441:252|354:216|252:262|291:282|214:361|109:343|29:286|21:204|21:204|52:149|124:144|161:189|161:189|135:139|139:72|211:49|211:49|282:71|292:143|256:192,1,1439.99995605469,4|0,0:0|0:0,0:0:0:0:
256,192,309508,12,0,313142,0:0:0:0:
44,234,313219,6,0,B|111:216|146:275|146:275|182:334|248:316,1,240,4|0,0:0|0:0,0:0:0:0:
278,229,313837,2,0,L|219:240,1,59.9999981689454,2|2,0:0|0:2,0:0:0:0:
345,341,314147,6,0,B|360:356|360:356|382:139,1,240,8|0,0:0|0:0,0:0:0:0:
300,109,314765,1,2,0:3:0:0:
418,60,314920,1,2,0:0:0:0:
402,57,314997,1,2,0:0:0:0:
386,54,315075,2,0,P|339:62|300:112,1,104.999996795654,2|0,3:0|0:0,0:0:0:0:
230,71,315384,2,0,P|223:118|258:170,1,89.9999972534181,2|0,3:3|0:0,0:0:0:0:
194,216,315693,2,0,P|230:233|281:219,1,75,2|0,0:2|0:0,0:0:0:0:
102,135,316002,6,0,B|89:130|89:130|79:246,1,120,8|0,0:0|0:0,0:0:0:0:
121,340,316312,2,0,B|141:328|167:335|167:335|145:298|85:304|65:340,1,160,2|2,0:2|0:3,0:0:0:0:
248,363,316776,1,2,0:0:0:0:
250,347,316853,1,2,0:0:0:0:
252,331,316930,2,0,P|301:321|360:373,1,104.999996795654,2|0,3:0|0:0,0:0:0:0:
221,247,317239,2,0,B|167:208|113:247|133:254|82:292|25:255|25:255|75:269|117:231,1,269.999991760254,2|2,3:0|0:2,0:0:0:0:
89,61,317858,6,0,B|68:46|68:46|50:184,1,160,8|2,0:0|0:2,0:0:0:0:
55,186,318477,6,0,L|106:176,1,29.9999990844727,2|0,0:3|0:0,0:0:0:0:
156,232,318631,2,0,L|192:239,1,34.9999989318848
239,165,318786,2,0,B|292:132|357:177|332:189|386:222|448:190,1,209.999993591309,2|0,3:3|0:0,0:0:0:0:
452,104,319404,2,0,B|406:140|424:217|431:214|444:208|563:262|499:381|446:387|382:373|363:310|394:274,1,400,2|0,0:3|3:0,0:0:0:0:
329,204,320332,6,0,P|286:198|237:221,1,69.9999978637696,2|0,0:3|0:0,0:0:0:0:
212,254,320564,1,0,0:0:0:0:
216,267,320642,2,0,P|181:274|137:261,1,80,2|0,3:0|3:0,0:0:0:0:
28,169,321105,2,0,B|56:157|87:169|78:178|124:210|195:171,1,160,0|2,0:0|0:2,0:0:0:0:
158,73,321569,6,0,B|134:93|96:81|75:49|86:9|136:-10|182:0|238:31|270:88|233:101|254:211|379:188|443:147|445:83|415:31|355:16|304:54|325:104,1,539.999983520508,8|0,0:0|0:0,0:0:0:0:
361,279,323116,2,0,P|405:284|450:260,1,69.9999978637696,2|0,0:3|0:0,0:0:0:0:
316,213,323425,2,0,B|238:183|188:238|206:270|148:323|62:277,1,279.999991455078,8|2,0:0|0:3,0:0:0:0:
107,171,324198,5,2,0:0:0:0:
109,184,324276,1,2,0:0:0:0:
111,197,324353,2,0,P|124:180|122:117,1,69.9999978637696,0|0,3:0|0:0,0:0:0:0:
12,55,324662,2,0,B|39:72|69:61|59:51|98:21|155:21|200:63,1,179.999994506836,2|0,3:0|0:0,0:0:0:0:
320,130,325281,6,0,B|354:102|349:55|301:20|259:43|227:82|202:148|281:212,1,279.999991455078,8|2,0:2|0:3,0:0:0:0:
428,248,326054,1,2,0:0:0:0:
425,234,326131,1,2,0:0:0:0:
422,220,326209,2,0,P|383:201|318:228,1,89.9999972534181,0|0,3:0|0:0,0:0:0:0:
246,244,326518,6,0,L|233:177,1,50,2|0,3:0|0:0,0:0:0:0:
265,291,326672,2,0,L|274:240,1,50,2|0,0:2|0:0,0:0:0:0:
246,337,326827,2,0,L|236:286,1,50,2|0,0:2|0:0,0:0:0:0:
265,383,326982,2,0,L|274:333,1,50,2|0,0:2|0:0,0:0:0:0:
318,165,327136,2,0,P|239:106|174:133,1,150,8|0,0:0|0:0,0:0:0:0:
126,188,327446,6,0,L|113:120,1,50,2|0,0:0|0:0,0:0:0:0:
145,234,327600,2,0,L|154:183,1,50,2|0,0:0|0:0,0:0:0:0:
126,280,327755,2,0,L|116:229,1,50,4|0,0:0|0:0,0:0:0:0:
145,327,327910,2,0,L|154:276,1,50,2|0,0:0|0:0,0:0:0:0:
283,89,328064,6,0,L|352:76,1,50,4|0,0:0|0:0,0:0:0:0:
210,125,328219,2,0,L|141:112,1,47.4999987316132
274,171,328374,2,0,L|343:158,1,44.999998626709,2|0,3:0|0:0,0:0:0:0:
216,217,328528,2,0,L|147:204,1,42.5000008106232
267,266,328683,2,0,L|336:253,1,40,2|0,0:0|0:0,0:0:0:0:
219,312,328837,2,0,L|164:302,1,37.5000014305115,2|0,0:0|0:0,0:0:0:0:
436,365,328992,6,0,L|504:377,1,50,8|0,0:0|0:0,0:0:0:0:
363,328,329147,2,0,L|294:340,1,47.4999987316132,2|0,0:0|0:0,0:0:0:0:
426,282,329302,2,0,L|494:294,1,44.999998626709,2|0,0:0|0:0,0:0:0:0:
368,236,329456,2,0,L|299:248,1,42.5000008106232
420,187,329611,2,0,L|488:199,1,40,2|0,0:3|0:0,0:0:0:0:
361,141,329765,1,0,0:0:0:0:
365,126,329843,1,0,0:0:0:0:
403,112,329920,6,0,P|366:68|297:63,1,120,2|0,3:0|0:0,0:0:0:0:
266,85,330229,2,0,P|289:67|305:60,1,34.9999989318848,2|0,3:0|0:0,0:0:0:0:
287,160,330384,6,0,P|255:197|195:202,1,104.999996795654
169,183,330693,2,0,P|188:198|202:204,1,29.9999990844727,2|0,0:0|0:0,0:0:0:0:
148,105,330848,6,0,P|105:101|67:134,1,89.9999972534181,8|0,0:0|0:0,0:0:0:0:
62,162,331157,2,0,P|64:140|69:128,1,25
41,240,331312,6,0,P|29:237|-4:207,1,50
100,302,331466,2,0,P|91:310|48:324,1,50,2|0,0:0|0:0,0:0:0:0:
154,203,331621,2,0,P|176:208|205:225,1,50,8|0,0:0|0:0,0:0:0:0:
306,353,331776,6,0,L|375:366,1,50,2|0,0:3|0:0,0:0:0:0:
233,317,331931,2,0,L|164:330,1,47.4999987316132
297,271,332086,2,0,L|366:284,1,44.999998626709,2|0,3:0|0:0,0:0:0:0:
239,225,332240,2,0,L|170:238,1,42.5000008106232
290,176,332395,2,0,L|359:189,1,40,2|0,0:0|0:0,0:0:0:0:
242,130,332549,2,0,L|187:140,1,37.5000014305115,2|0,0:0|0:0,0:0:0:0:
440,70,332703,6,0,L|509:57,1,50,8|0,0:0|0:0,0:0:0:0:
367,106,332858,2,0,L|298:93,1,47.4999987316132,2|0,0:0|0:0,0:0:0:0:
431,152,333013,2,0,L|500:139,1,44.999998626709,2|0,0:0|0:0,0:0:0:0:
373,198,333167,2,0,L|304:185,1,42.5000008106232
424,247,333322,2,0,L|493:234,1,40,2|0,0:3|0:0,0:0:0:0:
367,292,333477,1,0,0:0:0:0:
371,306,333554,1,0,0:0:0:0:
398,335,333631,6,0,P|337:328|272:349,1,120,2|0,3:0|0:0,0:0:0:0:
187,304,333941,2,0,P|215:314|234:313,1,34.9999989318848,2|0,3:0|0:0,0:0:0:0:
393,249,334095,6,0,P|336:242|277:261,1,104.999996795654
199,221,334405,2,0,P|223:229|242:229,1,29.9999990844727
387,167,334559,6,0,P|335:161|281:178,1,89.9999972534181,8|0,0:0|0:0,0:0:0:0:
210,141,334869,2,0,P|234:147|249:148,1,25
334,70,335023,6,0,P|361:65|405:83,1,50
261,0,335178,2,0,P|288:5|332:-13,1,50,2|0,0:0|0:0,0:0:0:0:
183,70,335332,2,0,P|210:65|254:83,1,50
52,36,335487,5,2,0:0:0:0:
55,47,335564,1,2,0:0:0:0:
58,58,335642,1,2,0:0:0:0:
129,177,335796,5,2,0:0:0:0:
134,154,335873,1,2,0:0:0:0:
139,131,335951,1,2,0:0:0:0:
37,262,336105,5,2,0:0:0:0:
32,273,336183,1,2,0:0:0:0:
30,296,336260,1,2,0:0:0:0:
44,328,336337,1,2,0:0:0:0:
89,343,336415,6,0,B|125:297|187:294|209:322|235:375|295:384|336:324|307:271|242:267|236:327,1,320,10|2,0:0|0:3,0:0:0:0:
466,342,337188,5,2,0:0:0:0:
462,326,337266,1,2,0:0:0:0:
458,310,337343,2,0,L|529:317,3,40,0|0|0|0,3:0|0:0|0:0|0:0,0:0:0:0:
428,219,337652,2,0,L|357:226,3,40,2|0|0|0,3:0|0:0|0:0|0:0,0:0:0:0:
458,128,337961,2,0,L|529:135,3,40,2|0|2|0,0:0|0:0|0:0|0:0,0:0:0:0:
396,33,338270,6,0,P|369:52|355:76,3,47.4999987316132,8|0|2|0,0:0|0:0|0:0|0:0,0:0:0:0:
273,56,338580,2,0,P|275:88|289:113,3,55.0000016784668,0|0|2|0,0:0|0:0|0:0|0:0,0:0:0:0:
232,186,338889,2,0,P|264:200|294:201,3,62.5,2|0|2|0,0:3|0:0|0:0|0:0,0:0:0:0:
154,68,339198,6,0,P|87:71|39:165,1,150,2|0,3:0|0:0,0:0:0:0:
89,271,339508,2,0,P|101:250|107:222,1,50,0|0,3:0|0:0,0:0:0:0:
154,255,339662,2,0,P|147:231|132:207,1,50,2|0,0:0|0:0,0:0:0:0:
189,197,339817,2,0,P|168:185|140:178,1,50
173,131,339971,2,0,P|149:137|125:152,1,50
261,212,340126,6,0,P|328:209|376:115,1,150,8|0,0:0|0:0,0:0:0:0:
326,9,340436,2,0,P|314:30|308:58,1,50,2|0,0:0|0:0,0:0:0:0:
261,25,340590,2,0,P|267:48|282:72,1,50,2|0,0:0|0:0,0:0:0:0:
226,83,340745,2,0,P|246:95|275:101,1,50,2|0,0:3|0:0,0:0:0:0:
242,149,340899,2,0,P|265:142|289:127,1,50
409,94,341054,6,0,P|376:95|342:111,1,50,2|0,3:0|0:0,0:0:0:0:
342,182,341209,2,0,P|366:181|390:174,1,50
477,59,341363,5,8,0:0:0:0:
356,104,341518,1,8,0:0:0:0:
512,199,341672,1,8,0:0:0:0:
332,263,341827,1,8,0:0:0:0:
512,353,341982,5,2,0:3:0:0:
450,240,342136,1,0,0:0:0:0:
328,367,342291,5,8,0:0:0:0:
382,185,342446,1,8,0:0:0:0:
430,319,342600,5,8,0:0:0:0:
320,264,342755,1,8,0:0:0:0:
444,102,342910,6,0,B|434:115|421:121|421:121|375:130|334:97,1,120,4|0,0:0|0:0,0:0:0:0:
268,68,343219,2,0,B|234:51|202:66|202:66|176:101|121:93,1,134.999995880127,4|0,0:0|0:0,0:0:0:0:
104,35,343528,2,0,B|123:23|145:23|145:23|98:1|66:31,1,120,4|0,0:0|0:0,0:0:0:0:
6,171,343837,6,0,B|27:181|38:199|38:199|66:165|105:160|148:178,1,134.999995880127,8|0,0:0|0:0,0:0:0:0:
201,182,344147,2,0,B|192:231|147:259|103:250|103:250|193:314|295:299|296:236|340:157|456:147|575:218|553:327|476:376|407:351|383:287,1,720,2|0,0:0|0:0,0:0:0:0:
250,115,345693,2,0,B|295:82|343:98|343:98|373:139|439:150|476:99,1,240,8|0,0:0|0:0,0:0:0:0:
356,22,346312,6,0,P|313:14|253:27,1,80,2|0,0:3|0:0,0:0:0:0:
208,49,346621,2,0,B|156:77|110:44|110:44|149:52|169:35,1,150,2|0,3:0|0:0,0:0:0:0:
84,117,347239,2,0,P|52:123|8:108,1,69.9999978637696,2|0,3:0|0:0,0:0:0:0:
131,252,347549,6,0,B|177:278|220:264|215:253|244:210|308:209|358:259,1,240,8|0,0:0|0:0,0:0:0:0:
360,343,348167,2,0,P|320:337|289:314,1,80,2|0,0:0|0:0,0:0:0:0:
428,292,348477,2,0,P|467:298|501:320,1,75,2|0,0:0|0:0,0:0:0:0:
438,373,348786,5,8,0:0:0:0:
431,363,348863,1,8,0:0:0:0:
424,350,348941,1,8,0:0:0:0:
420,334,349018,1,8,0:0:0:0:
421,316,349095,1,8,0:0:0:0:
428,297,349172,1,8,0:0:0:0:
443,280,349250,1,8,0:0:0:0:
464,269,349327,1,8,0:0:0:0:
485,254,349404,1,8,0:0:0:0:
497,228,349482,1,8,0:0:0:0:
498,198,349559,1,8,0:0:0:0:
481,170,349636,1,8,0:0:0:0:
449,156,349714,1,8,0:0:0:0:
413,163,349791,1,8,0:0:0:0:
375,155,349868,1,8,0:0:0:0:
347,125,349946,1,8,0:0:0:0:
342,83,350023,1,8,0:0:0:0:
369,48,350100,1,8,0:0:0:0:
413,35,350178,1,8,0:0:0:0:
456,55,350255,1,8,0:0:0:0:
473,108,350332,6,0,B|467:134|448:146|448:146|416:123|363:122|328:137|328:137|285:194|213:171,1,299.999990844727,0|0,3:0|0:0,0:0:0:0:
177,90,351260,2,0,B|213:74|248:88|248:88|208:40|138:43|96:90,1,239.999992675781,8|0,0:0|0:0,0:0:0:0:
116,196,352033,5,2,0:0:0:0:
119,184,352111,1,2,0:0:0:0:
121,172,352188,2,0,P|82:164|42:178,1,69.9999978637696,2|0,3:0|0:0,0:0:0:0:
178,230,352497,2,0,P|217:222|257:236,1,69.9999978637696,2|0,3:0|0:0,0:0:0:0:
133,289,352806,2,0,P|100:282|67:293,1,59.9999981689454
203,374,353116,2,0,B|214:365|214:365|213:264,1,80,8|0,0:0|0:0,0:0:0:0:
289,235,353425,6,0,L|295:269,1,29.9999990844727,2|0,0:2|0:0,0:0:0:0:
343,349,353580,2,0,L|350:307,1,34.9999989318848
361,203,353734,2,0,L|370:257,1,40,2|0,0:3|0:0,0:0:0:0:
421,357,353889,2,0,B|426:306|442:288|464:300|491:261|473:191,1,160
415,156,354353,6,0,P|393:193|403:253,1,80,2|0,3:0|0:0,0:0:0:0:
313,85,354662,2,0,P|332:134|320:170,1,69.9999978637696,2|0,0:0|0:0,0:0:0:0:
471,28,354971,2,0,B|440:56|387:44|387:44|357:2|306:-9|262:14,1,209.999993591309,8|0,0:0|0:0,0:0:0:0:
189,74,355590,6,0,L|202:128,1,29.9999990844727
261,141,355745,2,0,L|248:195,1,34.9999989318848
192,218,355899,6,0,L|202:264,1,40,0|2,3:0|0:3,0:0:0:0:
364,294,356363,5,8,0:0:0:0:
224,346,356518,1,2,0:3:0:0:
227,342,356672,1,0,3:0:0:0:
422,365,356827,5,0,0:2:0:0:
270,251,356982,1,2,3:0:0:0:
273,249,357136,1,0,0:0:0:0:
457,233,357291,5,8,0:0:0:0:
241,161,357446,1,8,0:0:0:0:
431,108,357600,1,8,0:0:0:0:
202,31,357755,6,0,P|222:27|233:26,1,29.9999990844727,4|0,0:3|0:0,0:0:0:0:
324,68,357910,2,0,P|302:63|289:62,1,34.9999989318848
181,110,358064,2,0,P|207:104|221:103,1,40,2|0,3:0|0:0,0:0:0:0:
330,155,358219,5,2,0:0:0:0:
318,145,358296,1,2,0:0:0:0:
296,137,358374,1,2,0:0:0:0:
270,137,358451,1,2,0:0:0:0:
241,154,358528,1,2,0:0:0:0:
199,153,358605,1,2,0:0:0:0:
169,112,358683,2,0,P|103:99|16:132,1,150,10|0,0:0|0:0,0:0:0:0:
143,200,358992,6,0,P|125:194|96:195,1,40
40,219,359147,1,2,0:0:0:0:
27,256,359224,1,2,0:0:0:0:
34,288,359301,1,2,0:3:0:0:
50,310,359379,1,2,0:0:0:0:
67,320,359456,1,2,0:0:0:0:
90,325,359533,1,2,0:0:0:0:
125,317,359611,6,0,P|144:306|160:284,1,40,0|0,3:0|0:0,0:0:0:0:
161,283,359765,2,0,P|165:261|160:233,1,37.5000014305115
226,305,359920,6,0,P|242:314|256:333,1,34.9999989318848,2|0,3:0|0:0,0:0:0:0:
257,334,360074,2,0,P|260:353|256:377,1,32.4999985122681,2|0,0:0|0:0,0:0:0:0:
324,318,360229,6,0,P|337:310|348:294,1,29.9999990844727,2|0,0:0|0:0,0:0:0:0:
349,294,360383,2,0,P|351:278|348:258,1,27.5000008392334,2|0,0:0|0:0,0:0:0:0:
412,323,360538,6,0,P|423:329|434:343,1,25,8|0,0:0|0:0,0:0:0:0:
434,344,360692,2,0,P|436:357|433:375,1,22.4999993133545,2|0,0:0|0:0,0:0:0:0:
494,309,360848,6,0,P|503:303|511:292,1,20,2|0,0:0|0:0,0:0:0:0:
511,292,361002,2,0,P|512:281|510:267,1,17.4999994659424,2|0,0:0|0:0,0:0:0:0:
415,193,361157,6,0,P|405:198|397:209,1,17.4999994659424,2|0,0:3|0:0,0:0:0:0:
398,210,361311,2,0,P|396:220|398:234,1,17.4999994659424
397,233,361466,2,0,B|368:207|321:222|341:231|300:279|235:252,1,174.999994659424,2|0,3:0|0:0,0:0:0:0:
274,117,362394,2,0,L|268:178,1,59.9999981689454,8|2,0:0|0:3,0:0:0:0:
116,157,362703,5,2,0:0:0:0:
122,152,362781,1,2,0:0:0:0:
135,152,362858,1,2,0:0:0:0:
147,167,362935,1,2,0:0:0:0:
133,190,363013,1,2,0:3:0:0:
101,188,363090,1,2,0:0:0:0:
85,153,363167,1,2,3:0:0:0:
111,115,363245,1,2,0:0:0:0:
165,121,363322,6,0,L|162:154,1,25,0|2,0:3|0:3,0:0:0:0:
153,262,363477,1,0,3:0:0:0:
92,95,363631,5,2,0:3:0:0:
226,227,363786,1,2,0:3:0:0:
257,37,363941,1,2,0:3:0:0:
174,149,364095,1,0,3:0:0:0:
362,213,364250,5,2,0:3:0:0:
320,97,364404,1,0,3:0:0:0:
294,305,364559,5,2,0:3:0:0:
393,137,364714,1,2,0:3:0:0:
420,326,364868,1,2,0:3:0:0:
485,209,365023,1,2,0:3:0:0:
252,224,365178,6,0,P|277:228|331:203,1,80,4|0,3:2|0:0,0:0:0:0:
241,126,365487,2,0,P|267:145|293:148,1,40
410,76,365642,2,0,B|393:43|365:41|365:41|335:65|333:108|362:148,1,160,4|0,0:3|0:0,0:0:0:0:
464,202,366105,2,0,B|486:221|513:224|545:198|514:136|462:132|418:161|406:216|375:229|330:222|279:180,1,299.999990844727,12|0,0:2|0:0,0:0:0:0:
256,115,367033,6,0,P|308:107|344:123,1,69.9999978637696,2|0,3:0|0:0,0:0:0:0:
210,56,367343,2,0,P|158:48|122:64,1,69.9999978637696,2|0,0:3|3:0,0:0:0:0:
263,6,367652,2,0,P|304:0|333:12,1,59.9999981689454,2|0,0:3|0:0,0:0:0:0:
465,90,367961,6,0,B|461:100|461:100|366:107,1,80,8|0,0:2|0:0,0:0:0:0:
249,118,368270,2,0,P|267:111|288:110,1,29.9999990844727,2|0,0:0|0:0,0:0:0:0:
359,173,368425,2,0,P|340:166|320:165,1,32.4999985122681,2|0,0:0|0:0,0:0:0:0:
226,199,368580,2,0,P|244:192|265:191,1,34.9999989318848,2|0,0:3|0:0,0:0:0:0:
351,244,368734,2,0,P|332:237|312:236,1,37.5000014305115
211,274,368889,2,0,P|229:267|250:266,1,40,2|0,3:0|0:0,0:0:0:0:
350,318,369044,2,0,P|330:310|308:309,1,42.5000008106232
173,346,369198,6,0,P|193:353|215:354,1,44.999998626709,2|0,3:0|0:0,0:0:0:0:
245,141,369353,6,0,B|309:100|275:30|195:24|158:80|176:149|234:179|246:161|266:204|268:254|230:302,1,359.999989013672
375,127,370435,6,0,L|382:167,1,29.9999990844727,2|0,0:3|0:0,0:0:0:0:
339,222,370590,1,10,0:0:0:0:
337,233,370667,1,10,0:0:0:0:
347,254,370745,6,0,P|393:253|441:195,1,89.9999972534181,0|0,3:0|0:0,0:0:0:0:
292,313,371054,2,0,P|246:312|198:254,1,89.9999972534181,2|0,3:0|0:0,0:0:0:0:
347,372,371363,2,0,P|393:371|453:325,1,89.9999972534181
260,213,371672,2,0,B|195:182|145:199|105:247|117:295|126:289|136:284|136:364|76:384|22:378|-5:346,1,349.999989318848,8|8,0:0|0:0,0:0:0:0:
8,123,372600,6,0,B|59:140|59:140|46:287,1,200,4|0,0:0|0:0,0:0:0:0:
27,321,373064,2,0,L|30:297,1,20,8|8,3:0|0:0,0:0:0:0:
185,33,373528,6,0,B|134:50|134:50|147:197,1,200,4|0,0:0|0:0,0:0:0:0:
166,231,373992,2,0,L|163:207,1,20,8|8,3:0|0:0,0:0:0:0:
483,91,374456,6,0,B|423:54|372:104|392:131|334:176|270:135,1,240,4|0,0:0|0:0,0:0:0:0:
234,63,375075,2,0,P|271:54|320:70,1,80,2|0,0:0|3:0,0:0:0:0:
115,141,375384,6,0,P|82:121|59:75,1,80,8|0,0:0|0:0,0:0:0:0:
169,209,375693,2,0,P|135:227|84:224,1,80,2|0,0:0|3:0,0:0:0:0:
254,196,376002,2,0,P|253:234|224:277,1,80,2|0,0:0|0:0,0:0:0:0:
371,136,376312,6,0,B|416:138|451:177|458:220|428:257|417:246|402:285|420:324|456:344,1,240,2|0,3:0|3:0,0:0:0:0:
330,262,376930,2,0,B|305:246|262:247|233:285|254:285|245:343|161:343,1,179.999994506836,2|0,0:0|0:0,0:0:0:0:
45,255,377549,2,0,P|72:230|107:225,1,59.9999981689454,2|0,0:3|3:0,0:0:0:0:
174,264,377858,2,0,P|142:238|83:234,1,80,2|0,0:2|0:0,0:0:0:0:
115,351,378167,6,0,B|162:382|232:374|204:351|265:340|333:375,1,209.999993591309,2|0,3:2|3:0,0:0:0:0:
347,278,378786,2,0,B|376:278|396:300|396:300|388:260|322:237|286:264,1,179.999994506836,2|0,0:0|0:0,0:0:0:0:
172,293,379404,6,0,P|163:259|180:211,1,59.9999981689454,2|0,0:3|0:0,0:0:0:0:
241,188,379714,2,0,P|250:154|230:99,1,89.9999972534181,2|0,0:0|3:0,0:0:0:0:
58,69,380023,6,0,L|93:75,1,22.4999993133545,8|8,3:0|0:0,0:0:0:0:
224,98,380178,1,8,0:0:0:0:
0,148,380332,1,8,3:0:0:0:
253,189,380487,2,0,L|150:206,2,89.9999972534181,8|0|0,0:0|0:0|3:0,0:0:0:0:
223,68,380951,6,0,L|220:96,1,22.4999993133545,2|2,3:0|0:3,0:0:0:0:
341,145,381105,1,0,3:0:0:0:
305,1,381260,5,2,0:3:0:0:
259,158,381415,1,2,3:0:0:0:
367,236,381569,1,2,0:3:0:0:
323,335,381724,1,2,0:3:0:0:
367,134,381879,6,0,B|383:123|401:117|401:117|449:164|519:143,1,160,12|0,0:3|0:0,0:0:0:0:
474,60,382343,2,0,B|462:70|462:70|456:240,1,179.999994506836,4|0,0:3|0:0,0:0:0:0:
440,333,382806,2,0,B|471:332|495:355|495:355|470:308|417:296|373:318,1,200,8|0,0:0|0:0,0:0:0:0:
309,379,383270,2,0,B|260:387|205:362|161:352|189:330|75:256|200:263|194:245|240:188|264:261|250:272|379:332|238:348|235:385|206:363|192:364|161:364|116:329|142:321|94:301|58:293|29:298|1:330|6:373|55:392|93:367|65:319,1,629.999980773926,2|8,0:2|0:0,0:0:0:0:
52,241,384817,2,0,B|28:188|42:134|82:108|94:156|167:80|149:10|77:-13|-3:12|13:88|49:118,1,359.999989013672
124,199,385899,2,0,B|174:230|222:232|271:213|242:191|300:166|362:162|409:204,1,300,2|4,0:0|0:2,0:0:0:0:
334,280,386982,5,2,0:3:0:0:
331,273,387291,5,2,0:3:0:0:
503,297,387446,2,0,B|460:275|424:280|375:315|410:326|375:365|325:369|274:335,1,250,4|0,0:2|0:0,0:0:0:0:
256,224,388374,2,0,B|234:220|211:224|219:236|171:276|109:240,1,150,8|2,0:0|0:3,0:0:0:0:
96,159,388992,6,0,P|126:158|155:167,1,59.9999981689454,2|0,0:3|0:0,0:0:0:0:
13,266,389301,2,0,B|7:234|52:247|61:317|-2:371,1,139.999995727539,2|0,3:0|0:0,0:0:0:0:
120,346,389765,5,2,0:0:0:0:
146,356,389843,2,0,L|200:342,1,34.9999989318848,2|2,0:0|0:0,0:0:0:0:
214,315,389997,2,0,L|268:329,1,34.9999989318848,2|2,0:0|0:0,0:0:0:0:
315,384,390229,6,0,P|358:383|401:348,1,69.9999978637696,8|0,0:0|0:0,0:0:0:0:
409,270,390538,2,0,P|372:273|329:313,1,89.9999972534181,2|0,0:0|3:0,0:0:0:0:
460,343,390848,6,0,B|510:305|513:251|501:193|450:177|455:215|384:172|364:84|395:15|461:25|534:34|523:110|496:135,1,450,2|0,0:0|0:0,0:0:0:0:
351,198,392394,2,4,P|315:203|269:184,1,59.9999981689454,4|4,0:2|0:2,0:2:0:0:
236,148,392703,2,0,P|206:142|177:147,1,59.9999981689454,2|4,3:0|0:0,0:0:0:0:
86,203,393013,6,0,P|74:178|70:148,1,40,2|0,0:0|0:0,0:0:0:0:
94,283,393167,2,0,P|67:281|38:270,1,37.5000014305115,2|0,0:0|0:0,0:0:0:0:
162,313,393322,2,0,P|147:336|123:355,1,34.9999989318848,2|0,0:0|0:0,0:0:0:0:
219,272,393477,2,0,P|232:296|236:327,1,32.4999985122681,0|0,3:0|0:0,0:0:0:0:
210,203,393631,2,0,P|236:204|263:215,1,29.9999990844727,2|0,0:0|0:0,0:0:0:0:
147,178,393786,2,0,P|161:156|180:137,1,27.5000008392334,2|0,0:0|0:0,0:0:0:0:
229,108,393941,6,0,P|254:105|281:110,1,44.999998626709,8|0,0:0|0:0,0:0:0:0:
339,141,394095,2,0,P|357:158|370:183,1,34.9999989318848
370,235,394250,2,0,P|368:255|360:276,1,25,2|0,0:0|0:0,0:0:0:0:
252,221,394404,5,2,0:3:0:0:
257,218,394714,5,2,0:3:0:0:
446,152,394868,2,0,B|412:120|363:104|316:128|349:148|266:168|237:107|269:73|326:77|305:124,1,250,2|0,3:2|0:0,0:0:0:0:
116,129,395796,2,0,B|74:103|82:56|118:8|183:29|227:89|215:163|186:215,1,299.999990844727,8|2,0:3|0:3,0:3:0:0:
80,300,396724,6,0,P|152:270|256:322,1,174.999994659424,4|0,0:3|0:0,0:0:0:0:
254,325,397188,1,8,0:0:0:0:
45,204,397652,6,0,P|115:180|322:234,1,250,4|0,0:3|0:0,0:0:0:0:
306,229,398116,1,8,0:0:0:0:
416,97,398580,6,0,B|472:90|499:140|499:140|468:198|414:209|357:194|322:135,1,299.999990844727,4|0,0:3|3:0,0:0:0:0:
278,18,399508,2,0,B|286:23|286:23|277:119,1,80,8|0,0:0|0:0,0:0:0:0:
161,182,399817,6,0,P|135:140|149:78,1,104.999996795654,2|0,3:0|0:0,0:0:0:0:
208,49,400126,2,0,P|184:92|123:111,1,89.9999972534181,0|0,0:3|0:0,0:0:0:0:
72,70,400435,6,0,P|121:68|168:111,1,100,2|2,0:0|0:0,0:0:0:0:
183,214,400899,2,0,P|220:247|306:235,1,119.999996337891,2|0,3:2|0:0,0:0:0:0:
439,136,401363,6,0,B|436:130|428:125|428:125|393:157|340:149,1,104.999996795654,8|0,0:0|0:0,0:0:0:0:
184,91,401672,2,0,P|234:74|311:104,1,120,2|0,0:0|0:0,0:0:0:0:
238,166,401982,2,0,B|238:175|224:188|224:188|180:205|123:185,1,120
73,126,402291,2,0,B|72:92|99:69|99:69|46:82|26:141|48:185,1,209.999993591309,2|0,0:0|3:0,0:0:0:0:
81,328,402910,6,0,B|49:338|21:322|21:322|43:259|116:239|169:274,1,239.999992675781,2|2,0:0|0:0,0:0:0:0:
286,356,403683,2,0,B|302:352|314:338|314:338|283:318|240:320|208:350,1,139.999995727539,2|2,0:3|0:3,0:0:0:0:
248,233,404147,2,0,B|306:200|381:234|347:255|416:284|482:239,1,240,2|0,3:0|3:0,0:0:0:0:
439,117,404765,2,0,P|421:148|424:192,1,59.9999981689454,2|0,0:0|0:0,0:0:0:0:
427,22,405075,5,10,0:0:0:0:
419,21,405178,2,0,P|393:30|353:62,1,46.6666652425131
328,113,405384,1,2,0:0:0:0:
313,114,405487,2,0,P|287:105|247:73,1,56.6666677474976
215,22,405693,1,2,0:3:0:0:
196,18,405796,2,0,P|170:27|130:59,1,66.6666666666667
72,131,406002,6,0,P|101:151|218:115,1,139.999995727539,2|2,0:3|0:3,0:0:0:0:
294,207,406466,2,0,L|220:216,1,69.9999978637696,2|2,0:0|0:0,0:0:0:0:
173,299,406698,2,0,L|242:290,1,50
113,246,406930,6,0,B|79:245|62:265|62:265|55:319|87:353|136:367,1,179.999994506836,8|2,0:0|0:3,0:0:0:0:
226,300,407471,2,0,L|159:308,1,59.9999981689454
191,377,407703,2,0,L|246:368,1,29.9999990844727,2|2,0:3|0:3,0:0:0:0:
308,338,407858,5,2,0:3:0:0:
336,348,407935,1,2,0:0:0:0:
319,325,408013,1,2,0:0:0:0:
349,332,408090,1,2,0:0:0:0:
327,311,408167,1,2,0:0:0:0:
357,309,408244,1,2,0:0:0:0:
331,293,408322,1,2,3:0:0:0:
360,285,408399,1,2,0:0:0:0:
331,276,408477,1,2,3:2:0:0:
356,260,408554,1,2,0:0:0:0:
326,258,408631,2,0,L|356:230,1,29.9999990844727,2|0,0:0|0:0,0:0:0:0:
271,205,408786,5,10,0:0:0:0:
245,190,408863,1,2,0:0:0:0:
259,218,408941,1,2,0:0:0:0:
229,211,409018,1,2,0:0:0:0:
251,232,409095,1,2,0:0:0:0:
221,234,409172,1,2,0:0:0:0:
247,250,409250,1,2,0:3:0:0:
218,258,409327,1,2,0:0:0:0:
247,268,409405,1,2,0:0:0:0:
222,283,409482,1,2,0:0:0:0:
252,285,409559,2,0,L|222:313,1,29.9999990844727,0|0,0:3|0:0,0:0:0:0:
323,142,409714,6,0,P|277:109|193:123,1,125,2|0,3:2|0:0,0:0:0:0:
147,215,410178,1,2,0:0:0:0:
137,180,410255,1,2,0:0:0:0:
166,201,410333,1,2,0:0:0:0:
142,174,410410,1,2,0:0:0:0:
177,181,410487,2,0,L|141:168,1,29.9999990844727,2|0,0:0|0:0,0:0:0:0:
88,87,410642,2,0,B|38:105|12:158|19:215|70:246|70:246|49:219|45:188,1,250,8|0,0:0|0:0,0:0:0:0:
12,336,411569,6,0,P|86:349|165:290,1,174.999994659424,2|0,0:3|0:0,0:0:0:0:
195,194,412033,2,0,P|115:194|66:254,1,149.999995422363,0|0,3:0|0:0,0:0:0:0:
236,367,412497,6,0,B|249:379|264:379|264:379|287:337|279:284,1,125,8|0,0:0|0:0,0:0:0:0:
201,199,412961,2,0,B|191:205|184:212|184:212|173:253|193:302,1,100,2|0,0:3|0:0,0:0:0:0:
380,202,413425,2,0,B|387:199|394:193|394:193|354:169|302:181,1,100,2|0,0:3|0:0,0:0:0:0:
110,84,413734,6,0,P|143:76|178:86,1,60,2|0,0:0|0:0,0:0:0:0:
190,81,414044,2,0,P|139:68|90:83,1,104.999996795654,2|0,0:0|0:0,0:0:0:0:
96,210,414353,2,0,B|101:215|108:218|108:218|143:200|141:143,1,89.9999972534181,8|0,0:0|0:0,0:0:0:0:
232,200,414662,6,0,P|286:214|345:184,1,104.999996795654,2|0,0:0|0:0,0:0:0:0:
338,191,414971,2,0,P|384:182|428:198,1,75,2|0,0:3|0:0,0:0:0:0:
365,275,415281,2,0,B|369:266|378:257|378:257|402:300|391:352|341:375,1,150,2|0,0:3|0:0,0:0:0:0:
218,291,415899,6,0,P|256:275|311:297,1,69.9999978637696,2|0,0:0|0:0,0:0:0:0:
262,351,416209,2,0,P|213:365|147:313,1,139.999995727539,8|2,0:0|0:0,0:0:0:0:
201,204,416672,5,2,0:3:0:0:
203,208,416982,5,2,0:3:0:0:
20,160,417136,2,0,B|32:181|34:204|19:197|2:248|28:296,1,139.999995727539,2|2,3:2|0:0,0:0:0:0:
174,291,417600,6,0,B|190:279|189:270|189:270|155:232|93:250,1,119.999996337891,2|0,3:2|0:0,0:0:0:0:
122,355,418064,2,0,B|178:399|236:361|222:350|260:338|292:355,1,175,8|0,0:0|0:0,0:0:0:0:
388,286,418683,2,0,P|356:273|315:284,1,75,2|0,0:3|0:0,0:0:0:0:
240,275,418992,2,0,B|223:216|243:163|257:193|307:149|331:91|334:51|303:17|262:0|217:10|187:57|197:92|231:131,1,400,2|0,0:3|0:0,0:0:0:0:
324,240,420384,5,2,0:3:0:0:
329,246,420693,5,2,0:3:0:0:
130,128,420848,2,0,B|254:35|401:124|364:160|326:195|453:287|640:181|555:-15|401:-33|341:71|363:125,1,659.999979858399,4|0,0:3|0:0,0:0:0:0:
237,262,422703,2,0,B|288:289|348:237|341:120|211:101|70:154|141:277|180:272|157:341|10:370|-118:315|32:163|80:217|56:288,1,550,2|0,0:3|0:0,0:0:0:0:
75,45,424559,2,0,B|42:21|2:34|-29:63|-37:120|-6:162|46:175|112:172|158:151|196:88|177:2,1,440,2|0,0:3|0:0,0:0:0:0:
442,91,426415,6,0,B|406:72|406:72|297:103,1,149.999995422363,0|0,3:0|0:0,0:0:0:0:
216,175,426879,2,0,B|245:159|245:159|333:184,1,125,8|0,0:0|0:0,0:0:0:0:
395,222,427343,2,0,P|375:245|339:256,1,60,0|0,3:0|0:0,0:0:0:0:
245,270,427652,6,0,L|289:278,1,29.9999990844727,2|0,0:0|0:0,0:0:0:0:
324,336,427806,2,0,L|368:328,1,29.9999990844727,8|0,0:0|0:0,0:0:0:0:
425,303,427961,6,0,L|461:309,1,30,2|0,0:0|0:0,0:0:0:0:
457,184,428270,6,0,B|454:173|442:161|442:161|378:139|315:183,1,150,4|0,3:0|0:0,0:0:0:0:
252,239,428889,2,0,P|215:241|190:226,1,50,2|0,0:3|0:0,0:0:0:0:
160,104,429198,6,0,B|151:102|151:102|141:198,1,89.9999972534181,8|0,0:0|0:0,0:0:0:0:
124,259,429508,2,0,P|101:283|28:277,1,89.9999972534181,2|0,0:3|0:0,0:0:0:0:
152,342,429817,2,0,P|173:357|231:354,1,75,2|0,0:3|0:0,0:0:0:0:
262,292,430126,6,0,P|291:284|353:299,1,75,2|0,3:0|0:0,0:0:0:0:
380,356,430435,2,0,P|416:363|454:351,1,67.4999979400635,2|0,0:3|0:0,0:0:0:0:
470,281,430745,2,0,P|440:276|411:283,1,60,4|0,0:0|0:0,0:0:0:0:
342,139,431054,6,0,B|353:141|353:141|367:224,1,89.9999972534181,8|0,0:0|0:0,0:0:0:0:
444,193,431363,2,0,P|457:152|442:104,1,75,2|0,0:3|0:0,0:0:0:0:
412,52,431672,2,0,B|436:34|475:44|475:44|438:12|376:14|346:55,1,209.999993591309,2|0,0:3|0:0,0:0:0:0:
337,137,432291,2,0,B|297:165|244:175|194:148|170:108|203:100|155:44|63:55|10:61|-9:159|49:212|95:208|133:181,1,450,2|0,0:0|0:0,0:0:0:0:
45,296,433837,6,0,B|67:323|67:323|208:297,1,149.999995422363,0|0,3:0|0:0,0:0:0:0:
216,230,434301,2,0,B|231:211|231:211|330:229,1,125,8|0,0:0|0:0,0:0:0:0:
340,304,434765,2,0,P|376:290|399:260,1,60,0|0,3:0|0:0,0:0:0:0:
401,198,435075,6,0,L|395:147,1,29.9999990844727,2|0,0:0|0:0,0:0:0:0:
330,129,435229,2,0,L|333:99,1,29.9999990844727,8|0,0:0|0:0,0:0:0:0:
396,53,435384,6,0,L|391:17,1,30,2|0,0:0|0:0,0:0:0:0:
242,38,435693,6,0,B|202:-3|297:-37|316:58|250:127|178:136|136:112,1,250,4|2,3:0|0:0,0:0:0:0:
84,31,436621,6,0,B|44:61|27:116|40:158|73:194|73:194|39:193|13:217,1,250,8|0,0:0|0:0,0:0:0:0:
51,335,437549,2,0,B|44:300|70:276|70:276|139:268|197:310|156:332|214:373|276:358|276:358|248:357|227:340,1,350,2|0,3:2|0:0,0:0:0:0:
280,215,438786,2,0,B|261:246|278:281|278:281|350:284|385:219|385:219|366:245|325:242,1,250,2|0,0:0|0:0,0:0:0:0:
352,129,439714,2,0,B|402:111|458:133|488:177|481:234|481:234|527:176|504:113|477:141|440:74|482:1,1,450,2|0,0:0|0:0,0:0:0:0:
346,48,441260,6,0,B|321:64|296:60|296:60|246:25|187:51,1,149.999995422363,2|0,3:0|0:0,0:0:0:0:
117,130,441724,2,0,B|135:118|154:121|154:121|191:147|235:127,1,125,8|0,0:0|0:0,0:0:0:0:
64,72,442188,2,0,P|39:105|35:128,1,60,2|0,3:2|0:0,0:0:0:0:
66,199,442497,2,0,L|79:253,1,29.9999990844727,2|0,0:0|0:0,0:0:0:0:
11,266,442652,2,0,L|-2:320,1,29.9999990844727,8|0,0:0|0:0,0:0:0:0:
69,328,442806,6,0,L|78:365,1,30,2|0,0:0|0:0,0:0:0:0:
159,298,443116,6,4,P|208:288|245:308,1,75,4|0,3:0|0:0,0:0:0:0:
282,354,443425,1,2,0:0:0:0:
270,231,443580,1,0,0:0:0:0:
272,226,443657,1,0,0:0:0:0:
274,221,443734,2,0,P|322:240|365:226,1,75,2|0,0:3|0:0,0:0:0:0:
371,80,444044,6,0,B|379:137|323:163|323:163|260:136|242:64|284:10,1,275,8|0,0:0|0:0,0:0:0:0:
356,0,444971,5,0,3:0:0:0:
187,36,445126,1,2,0:3:0:0:
295,93,445281,1,2,0:3:0:0:
130,165,445435,5,0,3:0:0:0:
192,39,445590,2,0,L|196:57,1,12.5,2|2,0:3|0:3,0:0:0:0:
244,202,445745,1,0,3:0:0:0:
265,16,445899,5,2,0:3:0:0:
438,100,446054,1,2,0:3:0:0:
304,154,446209,1,2,0:3:0:0:
413,213,446363,1,2,0:3:0:0:
334,264,446518,1,2,0:3:0:0:
392,311,446672,1,2,0:3:0:0:
252,224,446827,6,0,P|221:226|172:259,1,75,4|0,3:0|0:0,0:0:0:0:
172,329,447136,2,0,B|118:322|88:276|81:219|132:179|132:179|83:174|47:138|46:86|77:53|77:53|68:102|103:132,1,450,2|0,0:0|0:0,0:0:0:0:
181,38,448683,6,0,B|155:70|155:70|290:85,1,149.999995422363,0|0,3:0|0:0,0:0:0:0:
335,129,449147,2,0,B|355:154|355:154|247:166,1,125,8|0,3:0|0:0,0:0:0:0:
187,146,449611,6,0,P|185:186|202:218,1,60,2|0,3:2|0:0,0:0:0:0:
260,242,449920,2,0,P|262:290|241:329,1,89.9999972534181,2|0,0:0|0:0,0:0:0:0:
169,350,450229,2,0,P|137:336|121:319,1,44.999998626709,2|0,0:0|0:0,0:0:0:0:
123,252,450538,6,0,P|83:245|37:274,1,75,4|0,3:0|0:0,0:0:0:0:
17,322,450848,1,0,0:0:0:0:
0,205,451002,1,0,0:0:0:0:
3,200,451080,1,0,0:0:0:0:
6,196,451157,2,0,P|44:191|92:219,1,75,2|0,0:3|0:0,0:0:0:0:
27,111,451466,6,0,B|34:78|61:60|61:60|127:146|227:116,1,250,10|0,0:3|0:0,0:0:0:0:
231,40,452394,2,0,B|284:46|305:82|315:128|281:169|281:169|256:203|262:255|305:279|305:279|282:257|286:228,1,350,2|0,3:0|0:0,0:0:0:0:
374,170,453631,2,0,B|391:163|406:165|406:165|436:216|411:279,1,150,2|0,0:0|0:0,0:0:0:0:
331,344,454250,6,0,P|289:312|225:320,1,100,2|2,3:2|0:0,0:0:0:0:
181,370,454714,2,0,P|135:371|88:339,1,100,2|0,0:3|0:0,0:0:0:0:
202,164,455178,2,0,B|230:208|215:265|158:287|158:287|102:245|128:187,1,250,8|0,0:2|0:0,0:0:0:0:
113,75,456105,6,0,B|73:83|73:83|193:95,1,149.999995422363,0|0,3:0|0:0,0:0:0:0:
281,42,456569,2,0,L|228:37,1,50,8|0,0:0|0:0,0:0:0:0:
292,125,456801,6,0,P|333:128|356:121,1,50
455,49,457033,2,0,P|418:41|349:52,1,100,0|2,3:0|0:0,0:0:0:0:
375,224,457497,2,0,B|386:232|386:232|405:129,1,100,8|0,0:0|0:0,0:0:0:0:
207,299,457961,2,0,B|198:353|248:382|248:382|311:332|310:267|278:211|220:200|169:215|169:215|78:242|-40:249|-61:100|12:-1|164:23|192:126|157:189|120:207|86:196,1,850,4|0,3:0|0:0,0:0:0:0:
238,1,460745,2,0,B|248:71,1,50,8|2,0:0|0:0,0:0:0:0:
392,89,461054,6,0,B|347:69|293:98|321:117|267:155|210:123|210:123|234:134|261:122,1,250,2|0,0:0|0:0,0:0:0:0:
365,162,461982,2,0,B|420:204|408:297|324:311|324:311|268:295|261:245|261:245|263:311|205:314|205:314|235:300|238:271,1,450,2|0,0:0|0:0,0:0:0:0:
112,209,463528,6,0,P|56:222|17:311,1,149.999995422363,2|0,3:0|0:0,0:0:0:0:
202,206,463992,2,0,P|188:156|124:120,1,125,8|0,0:3|0:0,0:0:0:0:
234,293,464456,2,0,P|274:266|292:214,1,100,2|0,3:0|0:0,0:0:0:0:
170,347,464920,2,0,P|197:370|241:376,1,74.9999977111817,8|0,0:0|0:0,0:0:0:0:
203,207,465384,6,0,P|170:197|114:216,1,75,4|0,3:0|0:0,0:0:0:0:
93,279,465693,1,0,0:0:0:0:
15,150,465848,1,0,0:0:0:0:
18,146,465925,1,0,0:0:0:0:
21,142,466002,6,0,P|54:132|110:151,1,75,2|0,0:0|0:0,0:0:0:0:
241,97,466312,2,0,B|277:68|270:26|235:-28|170:-19|122:46|121:108|140:187|260:203|260:203|312:159|395:173|423:239|423:239|344:168|249:244|287:294|330:325|368:290,1,850,8|0,0:0|0:0,0:0:0:0:
153,372,469095,6,0,B|132:390|97:369|110:338|149:332|173:360|168:365|197:374|221:372|251:355,1,174.999994659424,2|0,3:2|0:0,0:0:0:0:
324,286,469559,2,0,B|348:306|385:283|371:249|329:244|304:273|309:278|279:296|251:291|222:274,1,187.500007152558,2|0,0:0|0:0,0:0:0:0:
148,209,470023,2,0,B|124:230|84:206|99:170|144:164|171:195|165:201|191:214|230:210|258:188,1,200,8|0,0:0|0:0,0:0:0:0:
338,97,470487,2,0,B|349:104|354:117|354:117|354:161|321:199,1,100,2|0,0:0|0:0,0:0:0:0:
249,38,470951,6,0,B|222:15|222:15|132:41,1,125,2|0,3:0|0:0,0:0:0:0:
99,100,471415,2,0,B|120:118|120:118|194:97,1,100,8|0,0:0|0:0,0:0:0:0:
55,28,471879,2,0,B|16:49|2:91|12:127|35:156|35:156|53:178|59:216|35:251,1,250,2|2,3:2|0:0,0:0:0:0:
124,124,472806,6,0,B|154:92|154:92|254:112,1,120,4|0,3:0|0:0,0:0:0:0:
280,193,473116,6,0,B|268:200|268:200|164:179,1,100,0|0,3:0|3:0,0:0:0:0:
74,277,473425,2,0,B|86:284|86:284|190:263,1,100,0|0,3:0|3:0,0:0:0:0:
360,384,473734,6,0,B|290:370|290:370|281:357|281:357|201:340,2,160,12|2|2,3:0|0:3|0:3,0:0:0:0:
424,157,474662,6,0,B|452:181|452:181|427:290,1,120,2|0,0:3|0:0,0:0:0:0:
356,304,474971,6,0,B|344:288|344:288|366:182,1,100,0|0,3:0|3:0,0:0:0:0:
275,104,475281,2,0,B|263:119|263:119|285:225,1,100,0|0,3:0|3:0,0:0:0:0:
191,351,475590,6,0,B|161:383|161:383|61:363,1,120,12|0,3:0|0:0,0:0:0:0:
35,282,475900,6,0,B|46:275|46:275|143:296,1,100,2|0,0:3|3:0,0:0:0:0:
254,200,476209,2,0,B|242:194|242:194|146:218,1,100,2|0,0:3|3:0,0:0:0:0:
83,70,476518,6,0,B|181:81|181:81|207:105|207:105|328:117,1,224.999993133545,4|0,3:0|0:0,0:0:0:0:
391,10,476982,2,0,B|354:35|354:35|385:148,1,134.999995880127,2|0,3:2|0:0,0:0:0:0:
438,167,477291,1,2,0:0:0:0:
237,214,477446,5,8,3:0:0:0:
387,274,477600,1,0,3:0:0:0:
179,138,477755,5,8,3:0:0:0:
202,297,477909,1,0,3:0:0:0:
317,98,478064,5,8,3:0:0:0:
38,133,478219,1,8,3:0:0:0:
393,229,478374,6,0,B|409:188|380:165|380:165|317:170|308:242,1,179.999994506836,4|0,3:0|0:0,0:0:0:0:
355,301,478683,1,10,0:0:0:0:
439,113,478837,6,0,B|450:100|472:97|472:97|515:129|512:215,1,150,4|0,3:0|0:0,0:0:0:0:
465,262,479147,1,2,0:0:0:0:
355,137,479301,6,0,L|350:164,1,25,2|0,0:3|0:0,0:0:0:0:
324,294,479456,1,0,3:0:0:0:
260,181,479611,5,2,3:3:0:0:
316,290,479765,1,2,3:3:0:0:
223,281,479920,5,2,0:3:0:0:
306,291,480075,1,2,0:3:0:0:
285,106,480229,6,0,B|256:90|220:100|220:100|198:154|128:147,1,165.000005035401,4|0,3:0|0:0,0:0:0:0:
76,114,480538,1,8,3:0:0:0:
308,38,480693,6,0,B|357:21|401:55|385:77|425:100|474:89,1,179.999994506836,4|0,3:0|0:0,0:0:0:0:
452,17,481002,1,0,3:0:0:0:
242,187,481157,2,0,B|315:193|315:193|321:201|321:201|388:207,1,150,8|0,3:0|0:0,0:0:0:0:
499,265,481466,2,0,B|433:270|433:270|428:277|428:277|368:282,1,134.999995880127,2|0,0:3|0:0,0:0:0:0:
271,340,481776,2,0,B|329:344|329:344|333:351|333:351|387:355,1,120,2|0,0:3|0:0,0:0:0:0:
272,262,482085,6,0,B|224:258|198:293|210:300|183:334|126:328,1,165.000005035401,2|0,0:3|0:0,0:0:0:0:
58,292,482394,1,0,3:0:0:0:
166,142,482549,2,0,B|126:159|126:159|142:261,1,134.999995880127,2|0,3:0|0:0,0:0:0:0:
204,203,482858,1,0,3:0:0:0:
64,39,483013,6,0,B|30:52|30:52|181:74,1,165.000005035401,8|0,3:0|0:0,0:0:0:0:
279,36,483322,2,0,B|270:19|270:19|180:4,1,110.000003356934,2|0,3:0|0:0,0:0:0:0:
0,167,483631,2,0,B|9:150|9:150|99:135,1,110.000003356934,2|0,3:0|3:0,0:0:0:0:
295,264,483941,6,0,B|327:246|323:207|323:207|273:180|215:198|189:251,1,224.999993133545,4|0,3:0|0:0,0:0:0:0:
54,240,484404,2,0,B|30:245|12:266|12:266|25:222|78:199|123:218,1,179.999994506836,0|0,3:0|0:0,0:0:0:0:
125,294,484714,1,0,3:0:0:0:
153,68,484868,5,8,3:0:0:0:
3,126,485023,1,0,3:0:0:0:
277,173,485178,5,8,3:0:0:0:
102,151,485332,1,0,3:0:0:0:
319,298,485487,5,8,3:0:0:0:
281,29,485642,1,8,3:0:0:0:
174,290,485796,6,0,B|196:278|199:252|199:252|159:229|95:241|69:288,1,194.999991073609,4|0,3:0|0:0,0:0:0:0:
63,362,486105,1,8,0:0:0:0:
309,335,486260,6,0,B|319:352|308:377|308:377|245:341|275:257,1,165.000005035401,4|0,3:0|0:0,0:0:0:0:
337,232,486569,1,0,0:0:0:0:
150,360,486724,5,2,2:3:0:0:
139,321,486801,1,2,2:3:0:0:
128,281,486879,1,2,2:3:0:0:
118,242,486956,1,2,2:3:0:0:
89,232,487033,5,2,2:3:0:0:
95,202,487111,1,2,2:3:0:0:
101,172,487188,1,2,2:3:0:0:
107,142,487265,1,2,2:3:0:0:
125,134,487343,5,2,2:3:0:0:
122,114,487420,1,2,2:3:0:0:
120,94,487497,1,2,2:3:0:0:
117,73,487575,1,2,2:3:0:0:
66,51,487652,5,4,3:0:0:0:
58,105,487729,1,0,3:0:0:0:
89,149,487806,1,0,3:0:0:0:
140,169,487884,1,0,3:0:0:0:
193,156,487961,1,4,3:0:0:0:
227,113,488038,1,0,3:0:0:0:
228,57,488116,1,0,3:0:0:0:
264,15,488193,1,0,3:0:0:0:
317,3,488270,1,4,3:0:0:0:
366,27,488348,1,0,3:0:0:0:
388,77,488425,1,0,3:0:0:0:
372,129,488502,1,0,3:0:0:0:
323,155,488580,5,12,3:0:0:0:
314,95,488657,1,0,3:0:0:0:
341,41,488734,1,0,3:0:0:0:
396,17,488812,1,0,3:0:0:0:
455,26,488889,1,4,3:0:0:0:
496,61,488966,1,0,3:0:0:0:
510,114,489044,1,0,3:0:0:0:
496,161,489121,1,0,3:0:0:0:
463,192,489198,1,4,3:0:0:0:
451,230,489276,1,0,3:0:0:0:
458,264,489353,1,0,3:0:0:0:
479,284,489430,1,0,3:0:0:0:
502,291,489508,5,4,3:0:0:0:
507,236,489585,1,0,3:0:0:0:
473,192,489662,1,0,3:0:0:0:
419,179,489739,1,0,3:0:0:0:
369,203,489817,1,4,3:0:0:0:
345,252,489894,1,0,3:0:0:0:
359,304,489971,1,0,3:0:0:0:
341,356,490049,1,0,3:0:0:0:
292,382,490126,1,4,3:0:0:0:
237,373,490203,1,0,3:0:0:0:
203,329,490281,1,0,3:0:0:0:
205,274,490358,1,0,3:0:0:0:
246,238,490435,5,12,3:0:0:0:
251,298,490513,1,0,3:0:0:0:
216,347,490590,1,0,3:0:0:0:
156,355,490667,1,0,3:0:0:0:
104,323,490745,2,0,P|85:288|85:264,1,50,4|0,3:0|3:0,0:0:0:0:
311,364,490899,5,0,3:0:0:0:
371,361,490977,1,0,3:0:0:0:
412,317,491054,1,4,3:0:0:0:
417,257,491131,1,0,3:0:0:0:
380,208,491209,2,0,P|351:194|308:198,1,50,0|0,3:0|3:0,3:0:0:0:
215,331,491363,5,4,3:0:0:0:
165,296,491441,1,0,3:0:0:0:
152,237,491518,1,0,3:0:0:0:
176,182,491595,1,0,3:0:0:0:
228,153,491672,1,4,3:0:0:0:
253,103,491750,1,0,3:0:0:0:
241,54,491827,1,0,3:0:0:0:
204,27,491904,1,0,3:0:0:0:
163,25,491982,1,4,3:0:0:0:
132,42,492059,1,0,3:0:0:0:
116,67,492136,2,0,P|111:94|125:130,1,50,0|0,3:0|3:0,0:0:0:0:
233,169,492291,5,12,3:0:0:0:
280,183,492368,1,0,3:0:0:0:
329,171,492446,1,0,3:0:0:0:
359,131,492523,1,0,3:0:0:0:
358,81,492600,5,4,3:0:0:0:
312,101,492678,1,0,3:0:0:0:
290,146,492755,2,0,P|294:171|306:193,1,50,0|0,3:0|3:0,0:0:0:0:
505,221,492910,5,4,3:0:0:0:
490,173,492987,1,0,3:0:0:0:
449,143,493064,2,0,P|424:138|397:142,1,50,0|0,3:0|3:0,0:0:0:0:
352,308,493219,5,6,3:2:0:0:
297,331,493296,1,0,3:0:0:0:
238,315,493374,1,2,3:2:0:0:
204,265,493451,1,0,3:0:0:0:
148,242,493528,1,2,3:2:0:0:
89,255,493605,1,0,3:0:0:0:
50,301,493683,5,6,3:2:0:0:
98,311,493760,1,0,3:0:0:0:
145,296,493837,1,2,3:2:0:0:
167,250,493915,1,0,3:0:0:0:
160,200,493992,1,2,3:2:0:0:
120,169,494069,1,0,3:0:0:0:
69,167,494147,5,12,3:2:0:0:
86,202,494224,1,0,3:0:0:0:
120,222,494301,1,4,3:2:0:0:
160,222,494379,1,0,3:0:0:0:
192,198,494456,1,0,3:0:0:0:
231,190,494533,1,0,3:0:0:0:
270,197,494611,1,4,3:0:0:0:
301,222,494688,1,0,3:0:0:0:
309,260,494765,5,0,3:0:0:0:
259,271,494843,1,0,3:0:0:0:
212,252,494920,2,0,P|204:224|208:192,1,50,0|0,3:0|3:0,0:0:0:0:
251,58,495075,5,4,3:2:0:0:
310,64,495152,1,0,3:0:0:0:
354,103,495229,1,0,3:0:0:0:
364,161,495306,1,0,3:0:0:0:
333,213,495384,1,4,3:0:0:0:
276,232,495461,1,0,3:0:0:0:
247,284,495538,1,0,3:0:0:0:
257,343,495616,1,0,3:0:0:0:
308,372,495693,1,4,3:0:0:0:
357,368,495770,1,0,3:0:0:0:
387,341,495848,2,0,P|401:315|398:279,1,50,0|0,3:0|3:0,0:0:0:0:
226,198,496002,5,12,3:0:0:0:
172,213,496080,1,0,3:0:0:0:
144,261,496157,1,0,3:0:0:0:
155,314,496234,1,0,3:0:0:0:
125,361,496312,1,4,3:0:0:0:
73,379,496389,1,0,3:0:0:0:
21,360,496466,5,0,3:0:0:0:
48,312,496544,1,0,3:0:0:0:
100,298,496621,2,0,P|129:309|151:332,1,50,4|0,3:0|3:0,0:0:0:0:
275,380,496776,5,0,3:0:0:0:
333,369,496853,1,0,3:0:0:0:
372,324,496930,1,4,3:0:0:0:
366,263,497008,1,0,3:0:0:0:
327,217,497085,1,0,3:0:0:0:
267,211,497162,1,0,3:0:0:0:
215,241,497239,1,4,3:0:0:0:
199,299,497317,1,0,3:0:0:0:
150,334,497394,1,0,3:0:0:0:
90,331,497471,1,0,3:0:0:0:
42,294,497549,1,4,3:0:0:0:
31,235,497626,1,0,3:0:0:0:
58,181,497703,1,0,3:0:0:0:
114,158,497781,1,0,3:0:0:0:
172,170,497858,1,12,3:0:0:0:
225,143,497935,1,0,3:0:0:0:
249,87,498013,1,0,3:0:0:0:
229,30,498090,1,0,3:0:0:0:
177,0,498167,1,4,3:0:0:0:
122,9,498245,1,0,3:0:0:0:
87,44,498322,1,0,3:0:0:0:
79,88,498399,1,0,3:0:0:0:
92,126,498477,1,4,3:0:0:0:
118,148,498554,1,0,3:0:0:0:
146,155,498631,2,0,P|175:156|205:146,1,50,0|0,3:0|3:0,0:0:0:0:
234,9,498786,5,4,3:2:0:0:
288,0,498863,1,0,3:0:0:0:
338,22,498941,1,0,3:0:0:0:
364,70,499018,1,0,3:0:0:0:
354,123,499095,1,4,3:2:0:0:
312,158,499172,1,0,3:0:0:0:
256,157,499250,5,0,3:0:0:0:
280,108,499327,1,0,3:0:0:0:
329,85,499404,2,0,P|359:86|384:104,1,50,4|0,3:0|3:0,0:0:0:0:
448,235,499559,5,0,3:0:0:0:
422,288,499636,1,0,3:0:0:0:
367,313,499714,1,12,3:0:0:0:
308,303,499791,1,0,3:0:0:0:
272,254,499868,1,0,3:0:0:0:
270,193,499946,1,0,3:0:0:0:
310,149,500023,1,4,3:0:0:0:
320,90,500100,1,0,3:0:0:0:
295,34,500178,1,0,3:0:0:0:
239,12,500255,1,0,3:0:0:0:
180,24,500332,1,4,3:0:0:0:
141,71,500410,1,0,3:0:0:0:
141,130,500487,2,0,P|153:152|182:178,1,50,0|0,3:0|3:0,0:0:0:0:
397,129,500642,5,6,3:2:0:0:
366,77,500719,1,0,3:0:0:0:
310,54,500796,1,2,3:2:0:0:
251,68,500874,1,0,3:0:0:0:
217,117,500951,1,6,3:2:0:0:
157,122,501028,1,0,3:0:0:0:
105,90,501105,5,2,3:2:0:0:
149,65,501183,1,0,3:0:0:0:
198,68,501260,1,6,3:2:0:0:
237,97,501337,1,0,3:0:0:0:
244,146,501415,2,0,P|237:169|217:198,1,50,2|0,3:2|3:0,0:0:0:0:
12,234,501569,5,12,3:0:0:0:
25,185,501647,1,0,3:0:0:0:
62,152,501724,1,0,3:0:0:0:
111,146,501801,1,0,3:0:0:0:
156,167,501879,2,0,P|172:188|183:219,1,50,4|0,3:0|3:0,3:0:0:0:
155,328,502033,5,0,3:0:0:0:
191,368,502111,1,0,3:0:0:0:
243,384,502188,1,4,3:0:0:0:
296,372,502265,1,0,3:0:0:0:
329,327,502343,2,0,P|329:281|315:244,1,50,0|0,3:0|3:0,3:0:0:0:
223,133,502497,5,12,3:0:0:0:
155,100,502574,1,0,3:0:0:0:
80,104,502651,1,0,3:0:0:0:
22,152,502728,1,0,3:0:0:0:
9,226,502806,2,0,L|83:216,1,50,0|0,3:0|3:0,3:0:0:0:
221,45,502961,5,12,3:0:0:0:
294,31,503038,1,0,3:0:0:0:
365,56,503116,1,0,3:0:0:0:
406,118,503193,1,0,3:0:0:0:
403,192,503270,2,0,L|344:185,1,50,0|0,3:0|3:0,3:0:0:0:
156,73,503425,6,0,P|183:56|230:51,1,80,2|0,3:2|3:0,3:0:0:0:
477,44,503580,2,0,P|453:59|411:63,1,69.9999978637696,2|0,3:2|3:0,3:0:0:0:
208,202,503734,2,0,P|228:189|263:185,1,59.9999981689454,2|0,3:2|3:0,3:0:0:0:
423,199,503889,2,0,P|406:209|377:212,1,50,10|0,3:2|3:0,3:0:0:0:
266,327,504044,5,2,3:2:0:0:
251,308,504121,1,0,3:0:0:0:
249,284,504198,2,0,P|253:260|265:241,1,29.9999990844727,2|0,3:2|3:0,0:0:0:0:
499,123,504353,6,0,P|468:95|443:88,1,50,2|0,3:2|3:0,0:0:0:0:
228,111,504508,2,0,P|219:152|225:178,1,59.9999981689454,2|0,3:2|3:0,0:0:0:0:
355,353,504662,2,0,P|395:339|414:320,1,69.9999978637696,2|0,3:2|3:0,0:0:0:0:
358,67,504817,6,0,P|327:86|315:106,1,59.9999981689454,10|0,3:2|3:0,3:0:0:0:
250,272,504972,2,0,P|279:287|300:287,1,55.0000016784668,2|0,3:2|3:0,3:0:0:0:
479,253,505126,2,0,P|477:221|467:203,1,50,2|0,3:2|3:0,3:0:0:0:
230,170,505281,6,0,L|183:161,1,44.999998626709,2|0,3:2|3:0,3:0:0:0:
366,250,505435,2,0,L|432:241,1,40,2|0,3:2|3:0,0:0:0:0:
255,312,505590,2,0,L|206:297,1,34.9999989318848,2|0,3:2|3:0,3:0:0:0:
330,384,505745,5,12,3:2:0:0:
335,375,505822,1,0,3:0:0:0:
338,365,505899,1,0,3:2:0:0:
339,354,505977,1,0,3:0:0:0:
337,342,506054,2,0,P|332:329|320:315,1,29.9999990844727,0|0,3:2|3:0,0:0:0:0:
98,148,506209,6,0,P|85:183|88:221,1,64.9999970245363,2|0,3:2|3:0,0:0:0:0:
172,384,506363,2,0,P|139:364|117:333,1,57.5000010967255,2|0,3:2|3:0,0:0:0:0:
186,158,506518,2,0,P|173:193|176:231,1,50,2|0,3:2|3:0,0:0:0:0:
241,328,506672,2,0,P|208:308|186:277,1,40,10|0,3:2|3:0,3:0:0:0:
272,167,506827,2,0,P|265:185|267:205,1,32.4999985122681,2|0,3:2|3:0,3:0:0:0:
512,340,506982,6,0,P|474:331|429:341,1,64.9999970245363,2|0,3:2|3:0,0:0:0:0:
295,382,507136,2,0,P|325:357|370:347,1,57.5000010967255,2|0,3:2|3:0,0:0:0:0:
485,259,507291,2,0,P|446:257|398:275,1,50,2|0,3:2|3:0,0:0:0:0:
301,290,507446,2,0,P|323:277|350:275,1,40,2|0,3:2|3:0,3:0:0:0:
457,186,507600,2,0,P|436:186|413:194,1,32.4999985122681,10|0,3:2|3:0,3:0:0:0:
122,269,507755,6,0,P|133:308|168:340,1,89.9999972534181,2|0,3:2|3:0,0:0:0:0:
422,109,507910,2,0,P|412:74|381:45,1,80,2|0,3:2|3:0,0:0:0:0:
122,20,508064,6,0,L|130:97,1,69.9999978637696,2|2,3:2|3:2,0:0:0:0:
211,252,508219,2,0,L|203:182,1,62.5,2|2,3:2|3:2,0:0:0:0:
243,34,508374,2,0,L|251:111,1,55.0000016784668,2|2,3:2|3:2,0:0:0:0:
333,225,508528,2,0,L|325:155,1,47.4999987316132,10|2,3:2|3:2,0:0:0:0:
370,43,508683,2,0,L|378:120,1,40,2|2,3:2|3:2,0:0:0:0:
455,201,508837,2,0,L|450:156,1,32.4999985122681,2|2,3:2|3:2,0:0:0:0:
512,34,508992,6,0,L|445:19,1,40,2|2,3:2|3:2,3:2:0:0:
503,43,509147,2,0,L|436:28,1,40,2|2,3:2|3:2,0:0:0:0:
378,113,509301,2,0,L|445:98,1,50,2|2,3:2|3:2,0:0:0:0:
462,198,509456,1,10,3:2:0:0:
468,206,509533,1,2,3:2:0:0:
470,216,509611,1,2,3:2:0:0:
471,225,509688,1,2,3:2:0:0:
470,234,509765,2,0,P|466:251|454:269,1,29.9999990844727,2|2,3:2|3:2,0:0:0:0:
299,292,509920,6,0,L|309:229,1,50,4|0,3:0|3:0,3:0:0:0:
319,311,510075,2,0,L|329:248,1,50,2|0,3:2|3:0,3:0:0:0:
339,330,510229,2,0,L|349:267,1,50,2|0,3:2|3:0,3:0:0:0:
424,262,510384,6,0,L|414:199,1,50,10|0,3:2|3:0,3:0:0:0:
327,159,510538,2,0,L|337:96,1,59.9999981689454,2|0,3:2|3:0,3:0:0:0:
448,49,510693,1,2,3:2:0:0:
448,49,510770,1,0,3:0:0:0:
448,49,510848,2,0,L|437:-21,1,50,2|0,3:2|3:0,0:0:0:0:
309,155,511002,6,0,L|229:137,1,69.9999978637696,2|0,3:2|3:0,3:0:0:0:
454,208,511157,2,0,L|534:190,1,59.9999981689454,2|0,3:2|3:0,3:0:0:0:
252,262,511312,2,0,L|172:244,1,69.9999978637696,10|0,3:2|3:0,0:0:0:0:
423,363,511466,6,0,L|415:309,1,50,2|0,3:2|3:0,0:0:0:0:
319,141,511621,2,0,L|328:209,1,59.9999981689454,2|0,3:2|3:0,0:0:0:0:
276,351,511776,5,2,3:2:0:0:
261,353,511853,1,0,3:0:0:0:
246,350,511930,1,2,3:2:0:0:
219,335,512008,1,0,3:0:0:0:
205,302,512085,1,2,3:2:0:0:
171,280,512162,1,0,3:0:0:0:
126,288,512239,5,10,3:2:0:0:
166,339,512317,1,0,3:0:0:0:
223,339,512394,1,2,3:2:0:0:
249,296,512471,1,0,3:0:0:0:
242,253,512549,2,0,P|226:237|188:233,1,50,2|0,3:2|3:0,3:0:0:0:
26,345,512703,6,0,L|90:360,1,50,2|0,3:2|3:0,3:0:0:0:
295,377,512858,1,2,3:2:0:0:
346,337,512935,1,0,3:0:0:0:
348,281,513013,1,2,3:2:0:0:
320,245,513090,1,0,3:0:0:0:
286,237,513167,1,12,3:2:0:0:
248,211,513245,1,0,3:0:0:0:
233,158,513322,1,0,3:2:0:0:
264,101,513399,1,0,3:0:0:0:
332,85,513477,2,0,P|358:97|386:123,1,50,0|0,3:2|3:0,0:0:0:0:
314,309,513631,5,2,3:2:0:0:
292,321,513709,1,0,3:0:0:0:
262,323,513786,1,2,3:2:0:0:
229,310,513863,1,0,3:0:0:0:
189,309,513941,1,2,3:2:0:0:
153,336,514018,1,0,3:0:0:0:
144,384,514095,5,10,3:2:0:0:
207,373,514172,1,0,3:0:0:0:
243,312,514250,1,2,3:2:0:0:
228,247,514327,1,0,3:0:0:0:
177,217,514404,1,2,3:2:0:0:
167,161,514482,1,0,3:0:0:0:
192,118,514559,5,2,3:2:0:0:
217,182,514636,1,0,3:0:0:0:
280,212,514714,1,2,3:2:0:0:
348,192,514791,1,0,3:0:0:0:
380,131,514868,1,2,3:2:0:0:
446,108,514946,1,0,3:0:0:0:
511,133,515023,5,10,3:2:0:0:
458,170,515100,1,0,3:0:0:0:
399,154,515178,1,2,3:2:0:0:
370,106,515255,1,0,3:0:0:0:
378,57,515332,2,0,P|402:38|424:30,1,50,2|0,3:2|3:0,0:0:0:0:
490,275,515487,5,2,3:2:0:0:
463,317,515564,1,2,3:0:0:0:
415,333,515642,1,2,3:2:0:0:
366,320,515719,1,2,3:0:0:0:
335,280,515796,1,2,3:2:0:0:
334,229,515874,1,2,3:0:0:0:
373,184,515951,5,8,3:0:0:0:
374,228,516028,1,2,3:0:0:0:
354,268,516105,1,2,3:2:0:0:
311,284,516183,1,2,3:0:0:0:
266,279,516260,1,2,3:0:0:0:
231,251,516337,1,2,3:0:0:0:
222,196,516415,5,0,3:0:0:0:
236,198,516492,1,2,3:0:0:0:
248,205,516569,1,2,3:0:0:0:
259,214,516647,1,2,3:0:0:0:
268,225,516724,1,2,3:0:0:0:
273,238,516801,1,2,3:0:0:0:
271,284,516879,5,8,3:2:0:0:
248,257,516956,1,2,3:0:0:0:
208,251,517033,1,2,3:0:0:0:
166,268,517111,1,2,3:0:0:0:
144,312,517188,1,2,3:0:0:0:
90,323,517265,1,2,3:0:0:0:
27,289,517343,5,4,3:0:0:0:
73,244,517420,1,0,3:0:0:0:
137,236,517497,1,2,3:2:0:0:
197,260,517575,1,0,3:0:0:0:
219,320,517652,1,2,3:2:0:0:
271,349,517729,1,0,3:0:0:0:
325,347,517806,1,10,3:2:0:0:
364,316,517884,1,0,3:0:0:0:
378,273,517961,1,2,3:2:0:0:
370,233,518038,1,0,3:0:0:0:
348,205,518116,1,2,3:2:0:0:
322,190,518193,1,0,3:0:0:0:
292,185,518270,5,2,3:2:0:0:
317,234,518348,1,0,3:0:0:0:
367,256,518425,1,2,3:2:0:0:
421,249,518502,1,0,3:0:0:0:
462,212,518580,1,2,3:2:0:0:
465,157,518657,1,0,3:0:0:0:
437,109,518734,1,10,3:2:0:0:
386,85,518812,1,0,3:0:0:0:
332,95,518889,1,2,3:2:0:0:
295,135,518966,1,0,3:0:0:0:
240,143,519044,1,2,3:2:0:0:
190,120,519121,1,0,3:0:0:0:
169,69,519198,5,2,3:2:0:0:
224,75,519276,1,0,3:0:0:0:
263,113,519353,1,2,3:2:0:0:
270,167,519430,1,0,3:0:0:0:
246,217,519508,2,0,P|218:239|184:244,1,50,2|0,3:2|3:0,0:0:0:0:
87,90,519662,5,10,3:2:0:0:
122,48,519739,1,0,3:0:0:0:
177,40,519817,2,0,P|202:49|225:71,1,50,2|0,3:2|3:0,0:0:0:0:
89,217,519971,5,2,3:2:0:0:
100,276,520049,1,0,3:0:0:0:
140,312,520126,1,2,3:2:0:0:
188,323,520203,1,0,3:0:0:0:
232,312,520281,1,2,3:2:0:0:
261,284,520358,1,0,3:0:0:0:
268,249,520435,2,0,P|272:221|264:194,1,50,2|0,3:2|3:0,0:0:0:0:
163,96,520590,5,10,3:2:0:0:
186,41,520667,1,0,3:0:0:0:
234,13,520745,1,2,3:2:0:0:
283,10,520822,1,0,3:0:0:0:
325,23,520899,2,0,P|344:40|357:66,1,50,2|0,3:2|3:0,0:0:0:0:
262,215,521054,5,2,3:2:0:0:
283,270,521131,1,0,3:0:0:0:
335,299,521209,1,2,3:2:0:0:
394,300,521286,1,0,3:0:0:0:
439,261,521363,2,0,P|452:231|452:206,1,50,2|0,3:2|3:0,0:0:0:0:
304,140,521518,5,10,3:2:0:0:
245,130,521595,1,0,3:0:0:0:
191,156,521672,1,2,3:2:0:0:
165,205,521750,1,0,3:0:0:0:
167,254,521827,1,2,3:2:0:0:
145,293,521904,1,0,3:0:0:0:
110,313,521982,1,2,3:2:0:0:
75,313,522059,1,0,3:0:0:0:
46,304,522136,1,2,3:2:0:0:
27,286,522214,1,0,3:0:0:0:
21,266,522291,2,0,P|19:239|30:211,1,50,2|0,3:2|3:0,0:0:0:0:
190,188,522446,5,10,3:2:0:0:
244,180,522523,1,0,3:0:0:0:
295,197,522600,1,2,3:2:0:0:
328,240,522678,1,0,3:0:0:0:
326,294,522755,2,0,P|317:320|293:343,1,50,2|0,3:2|3:0,0:0:0:0:
314,126,522910,5,2,3:2:0:0:
373,99,522987,1,0,3:0:0:0:
437,107,523064,1,2,3:2:0:0:
486,150,523142,1,0,3:0:0:0:
499,213,523219,2,0,L|418:206,1,50,2|0,3:2|3:0,0:0:0:0:
277,61,523374,5,10,3:2:0:0:
220,79,523451,1,0,3:0:0:0:
191,131,523528,1,2,3:2:0:0:
200,190,523605,1,0,3:0:0:0:
243,232,523683,2,0,L|276:153,1,50,2|0,3:2|3:0,0:0:0:0:
77,131,523837,5,2,3:2:0:0:
45,176,523915,1,0,3:0:0:0:
44,228,523992,1,2,3:2:0:0:
74,267,524069,1,0,3:0:0:0:
119,283,524147,1,2,3:2:0:0:
163,276,524224,1,0,3:0:0:0:
195,248,524301,1,10,3:2:0:0:
233,236,524379,1,0,3:0:0:0:
269,242,524456,1,2,3:2:0:0:
297,262,524533,1,0,3:0:0:0:
310,292,524611,2,0,P|305:327|284:358,1,50,2|0,3:2|3:0,0:0:0:0:
154,186,524765,5,4,3:0:0:0:
193,147,524843,1,0,3:0:0:0:
246,134,524920,1,2,3:2:0:0:
298,149,524997,1,0,3:0:0:0:
330,194,525075,1,2,3:2:0:0:
383,205,525152,1,0,3:0:0:0:
433,184,525229,1,10,3:2:0:0:
449,131,525306,1,0,3:0:0:0:
427,79,525384,1,2,3:2:0:0:
380,61,525461,1,0,3:0:0:0:
337,76,525538,1,2,3:2:0:0:
320,112,525616,1,0,3:0:0:0:
331,145,525693,5,2,3:2:0:0:
292,106,525770,1,0,3:0:0:0:
236,105,525848,1,2,3:2:0:0:
194,140,525925,1,0,3:0:0:0:
178,192,526002,1,2,3:2:0:0:
132,214,526080,1,0,3:0:0:0:
87,207,526157,1,10,3:2:0:0:
59,178,526234,2,0,P|55:159|57:125,1,50,0|2,3:0|3:2,0:0:0:0:
153,28,526389,5,0,3:0:0:0:
211,17,526466,1,2,3:2:0:0:
269,32,526544,1,0,3:0:0:0:
303,80,526621,1,2,3:2:0:0:
296,139,526698,1,0,3:0:0:0:
328,190,526776,1,2,3:2:0:0:
384,209,526853,1,0,3:0:0:0:
441,194,526930,2,0,P|463:165|474:132,1,50,2|0,3:2|3:0,0:0:0:0:
321,71,527085,5,10,3:2:0:0:
308,79,527162,1,0,3:0:0:0:
296,88,527239,1,2,3:2:0:0:
287,100,527317,1,0,3:0:0:0:
281,113,527394,2,0,P|279:142|292:174,1,50,2|0,3:2|3:0,0:0:0:0:
453,217,527549,5,2,3:2:0:0:
417,168,527626,1,0,3:0:0:0:
358,156,527703,2,0,P|328:160|302:176,1,50,2|0,3:2|3:0,0:0:0:0:
292,370,527858,5,2,3:2:0:0:
349,354,527935,1,0,3:0:0:0:
376,312,528013,1,10,3:2:0:0:
374,272,528090,1,0,3:0:0:0:
352,250,528167,1,2,3:2:0:0:
333,241,528245,1,0,3:0:0:0:
309,215,528322,1,2,3:2:0:0:
306,165,528399,1,0,3:0:0:0:
348,115,528477,5,4,3:0:0:0:
366,177,528554,1,0,3:0:0:0:
338,235,528631,1,2,3:2:0:0:
278,262,528709,1,0,3:0:0:0:
217,240,528786,1,2,3:2:0:0:
182,185,528863,1,0,3:0:0:0:
190,119,528941,1,10,3:2:0:0:
157,62,529018,1,0,3:0:0:0:
97,53,529095,1,2,3:2:0:0:
46,73,529172,1,0,3:0:0:0:
26,124,529250,1,2,3:2:0:0:
36,172,529327,1,0,3:0:0:0:
71,199,529404,1,2,3:2:0:0:
110,205,529482,1,0,3:0:0:0:
143,195,529559,1,2,3:2:0:0:
162,172,529636,1,0,3:0:0:0:
163,146,529714,2,0,P|154:118|141:98,1,50,2|0,3:2|3:0,0:0:0:0:
76,271,529868,5,10,3:2:0:0:
84,281,529946,1,0,3:0:0:0:
98,288,530023,1,2,3:2:0:0:
110,292,530100,1,0,3:0:0:0:
126,294,530178,2,0,P|154:288|184:266,1,50,2|0,3:2|3:0,0:0:0:0:
202,93,530332,5,4,3:0:0:0:
266,86,530410,1,0,3:0:0:0:
324,112,530487,1,0,3:2:0:0:
354,169,530564,1,0,3:0:0:0:
414,192,530642,1,4,3:0:0:0:
477,178,530719,1,0,3:0:0:0:
506,119,530796,5,0,3:0:0:0:
483,107,530874,1,0,3:0:0:0:
458,112,530951,1,4,3:0:0:0:
436,125,531028,1,0,3:0:0:0:
424,146,531105,1,0,3:0:0:0:
423,170,531183,1,0,3:0:0:0:
440,188,531260,5,12,3:0:0:0:
405,132,531337,1,0,3:0:0:0:
339,124,531415,1,0,3:0:0:0:
288,163,531492,1,0,3:0:0:0:
275,226,531569,1,4,3:0:0:0:
218,259,531647,1,0,3:0:0:0:
155,244,531724,5,0,3:0:0:0:
154,219,531801,1,0,3:0:0:0:
162,195,531879,1,4,3:0:0:0:
179,177,531956,1,0,3:0:0:0:
202,168,532033,1,0,3:0:0:0:
227,168,532111,1,0,3:0:0:0:
249,178,532188,5,4,3:0:0:0:
225,238,532265,1,0,3:0:0:0:
249,298,532343,1,0,3:0:0:0:
305,330,532420,1,0,3:0:0:0:
366,310,532497,1,4,3:0:0:0:
427,330,532575,1,0,3:0:0:0:
461,384,532652,5,0,3:0:0:0:
435,382,532729,1,0,3:0:0:0:
414,369,532806,1,4,3:0:0:0:
401,346,532884,1,0,3:0:0:0:
403,321,532961,1,0,3:0:0:0:
418,301,533038,1,0,3:0:0:0:
441,292,533116,5,12,3:0:0:0:
399,307,533193,1,0,3:0:0:0:
357,291,533270,1,0,3:0:0:0:
327,256,533348,1,0,3:0:0:0:
327,211,533425,1,4,3:0:0:0:
353,174,533502,1,0,3:0:0:0:
396,162,533580,5,0,3:0:0:0:
383,230,533657,1,0,3:0:0:0:
341,286,533734,1,4,3:0:0:0:
273,302,533812,1,0,3:0:0:0:
205,287,533889,1,0,3:0:0:0:
152,240,533966,1,0,3:0:0:0:
138,170,534043,6,0,B|179:123|234:181|201:235|156:237|113:214|84:192|115:176|47:162|2:178|2:178|77:172|133:232|144:308|93:365|93:365|122:301|83:249,1,674.999979400635,4|0,2:0|2:0,2:0:0:0:
256,192,555643,12,0,562468,0:0:0:0:
108,137,562543,6,0,B|119:128|137:129|137:129|175:161|229:146,1,119.999996337891,0|0,0:3|0:0,0:3:0:0:
202,43,562843,5,2,0:3:0:0:
200,49,562918,1,0,0:3:0:0:
199,55,562993,1,0,0:3:0:0:
336,83,563143,2,0,L|262:90,3,59.9999981689454,2|0|2|0,0:3|0:3|0:3|0:3,0:3:0:0:
455,126,563743,5,2,0:3:0:0:
457,132,563818,1,0,0:3:0:0:
458,138,563893,1,0,0:3:0:0:
321,166,564043,2,0,L|395:173,5,59.9999981689454,2|0|2|0|2|0,0:3|0:3|0:3|0:3|0:3|0:3,0:3:0:0:
206,204,564943,5,2,0:3:0:0:
204,210,565018,1,0,0:3:0:0:
203,216,565093,1,0,0:3:0:0:
340,244,565243,2,0,L|266:251,1,59.9999981689454,2|0,0:3|0:3,0:0:0:0:
407,305,565543,5,2,0:3:0:0:
408,299,565618,1,0,0:3:0:0:
410,293,565693,1,0,0:3:0:0:
476,220,565843,1,2,0:3:0:0:
475,214,565918,1,0,0:3:0:0:
473,208,565993,1,0,0:3:0:0:
407,135,566143,1,2,0:3:0:0:
408,129,566218,1,0,0:3:0:0:
410,123,566293,1,0,0:3:0:0:
476,50,566443,5,2,0:3:0:0:
475,44,566518,1,0,0:3:0:0:
473,38,566593,1,0,0:3:0:0:
329,4,566743,2,0,L|338:84,3,59.9999981689454,2|0|2|0,0:3|0:3|0:3|0:3,0:3:0:0:
253,160,567343,5,2,0:3:0:0:
255,154,567418,1,0,0:3:0:0:
257,148,567493,1,0,0:3:0:0:
175,229,567643,2,0,L|184:309,5,59.9999981689454,2|0|2|0|2|0,0:3|0:3|0:3|0:3|0:3|0:3,0:3:0:0:
104,154,568543,5,2,0:3:0:0:
106,148,568618,1,0,0:3:0:0:
108,142,568693,1,0,0:3:0:0:
215,60,568843,2,0,L|134:48,1,59.9999981689454,2|0,0:3|0:3,0:0:0:0:
283,143,569143,5,2,0:3:0:0:
289,141,569218,1,0,0:3:0:0:
295,139,569293,1,0,0:3:0:0:
209,221,569443,1,2,0:3:0:0:
203,219,569518,1,0,0:3:0:0:
197,217,569593,1,0,0:3:0:0:
283,299,569743,1,2,0:3:0:0:
289,297,569818,1,0,0:3:0:0:
295,295,569893,1,0,0:3:0:0:
209,377,570043,5,2,0:3:0:0:
203,375,570118,1,0,0:3:0:0:
197,373,570193,1,0,0:3:0:0:
113,277,570343,2,0,L|119:343,3,59.9999981689454,2|0|2|0,0:3|0:3|0:3|0:3,0:3:0:0:
30,252,570943,5,2,0:3:0:0:
32,246,571018,1,0,0:3:0:0:
34,240,571093,1,0,0:3:0:0:
109,136,571243,2,0,L|115:202,5,59.9999981689454,2|0|2|0|2|0,0:3|0:3|0:3|0:3|0:3|0:3,0:0:0:0:
206,100,572143,5,2,0:3:0:0:
200,98,572218,1,0,0:3:0:0:
194,96,572293,1,0,0:3:0:0:
287,42,572443,2,0,L|346:36,1,59.9999981689454,2|0,0:3|0:3,0:3:0:0:
439,112,572743,5,2,0:3:0:0:
433,110,572818,1,0,0:3:0:0:
427,108,572893,1,0,0:3:0:0:
344,189,573043,1,2,0:3:0:0:
350,187,573118,1,0,0:3:0:0:
356,185,573193,1,0,0:3:0:0:
439,266,573343,1,2,0:3:0:0:
433,264,573418,1,0,0:3:0:0:
427,262,573493,1,0,0:3:0:0:
344,343,573643,5,2,0:3:0:0:
350,341,573718,1,0,0:3:0:0:
356,339,573793,1,0,0:3:0:0:
244,259,573943,2,0,L|303:264,3,59.9999981689454,2|0|2|0,0:3|0:3|0:3|0:3,0:3:0:0:
190,337,574543,5,2,0:3:0:0:
184,335,574618,1,0,0:3:0:0:
178,333,574693,1,0,0:3:0:0:
77,263,574843,2,0,L|136:257,5,59.9999981689454,2|0|2|0|2|0,0:3|0:3|0:3|0:3|0:3|0:3,0:3:0:0:
201,189,575743,5,2,0:3:0:0:
195,187,575818,1,0,0:3:0:0:
189,185,575893,1,0,0:3:0:0:
90,115,576043,2,0,L|149:109,1,59.9999981689454,2|0,0:3|0:3,0:0:0:0:
212,17,576343,5,2,0:3:0:0:
205,15,576418,1,0,0:3:0:0:
199,13,576493,1,0,0:3:0:0:
279,101,576643,1,2,0:3:0:0:
286,99,576718,1,0,0:3:0:0:
292,97,576793,1,0,0:3:0:0:
212,185,576943,1,2,0:3:0:0:
205,183,577018,1,0,0:3:0:0:
199,181,577093,1,0,0:3:0:0:
279,269,577243,5,2,0:3:0:0:
286,267,577318,1,0,0:3:0:0:
292,265,577393,1,0,0:3:0:0:
375,189,577543,2,0,L|315:183,3,59.9999981689454,2|0|2|0,0:3|0:3|0:3|0:3,0:3:0:0:
359,81,578143,5,2,0:3:0:0:
366,79,578218,1,0,0:3:0:0:
372,77,578293,1,0,0:3:0:0:
456,174,578443,2,0,L|450:114,5,59.9999981689454,2|0|2|0|2|0,0:3|0:3|0:3|0:3|0:3|0:3,0:0:0:0:
377,206,579343,5,2,0:3:0:0:
375,213,579418,1,0,0:3:0:0:
373,219,579493,1,0,0:3:0:0:
450,320,579643,2,0,L|444:260,1,59.9999981689454,2|0,0:3|0:3,0:3:0:0:
362,338,579943,5,2,0:3:0:0:
360,345,580018,1,0,0:3:0:0:
358,351,580093,1,0,0:3:0:0:
280,279,580243,1,2,0:3:0:0:
278,273,580318,1,0,0:3:0:0:
276,266,580393,1,0,0:3:0:0:
198,338,580543,1,2,0:3:0:0:
196,344,580618,1,0,0:3:0:0:
194,351,580693,1,0,0:3:0:0:
116,279,580843,5,2,0:3:0:0:
114,273,580918,1,0,0:3:0:0:
112,266,580993,1,0,0:3:0:0:
50,367,581143,2,0,L|109:361,3,59.9999981689454,2|0|2|0,0:3|0:3|0:3|0:3,0:3:0:0:
13,291,581743,5,2,0:3:0:0:
7,289,581818,1,0,0:3:0:0:
0,287,581893,1,0,0:3:0:0:
40,156,582043,2,0,L|45:215,5,59.9999981689454,2|0|2|0|2|0,0:3|0:3|0:3|0:3|0:3|0:3,0:0:0:0:
130,118,582943,5,2,0:3:0:0:
128,125,583018,1,0,0:3:0:0:
126,131,583093,1,0,0:3:0:0:
208,240,583243,2,0,L|203:181,1,59.9999981689454,2|0,0:3|0:3,0:3:0:0:
257,87,583543,5,2,0:3:0:0:
259,80,583618,1,0,0:3:0:0:
261,74,583693,1,0,0:3:0:0:
313,186,583843,1,2,0:3:0:0:
311,179,583918,1,0,0:3:0:0:
309,172,583993,1,0,0:3:0:0:
257,285,584143,1,2,0:3:0:0:
259,278,584218,1,0,0:3:0:0:
261,272,584293,1,0,0:3:0:0:
313,384,584443,5,2,0:3:0:0:
311,377,584518,1,0,0:3:0:0:
309,371,584593,1,0,0:3:0:0:
366,287,584743,2,0,L|425:282,3,59.9999981689454,2|0|2|0,0:3|0:3|0:3|0:3,0:3:0:0:
500,192,585343,5,2,0:3:0:0:
493,190,585418,1,0,0:3:0:0:
487,188,585493,1,0,0:3:0:0:
376,185,585643,2,0,L|381:125,5,59.9999981689454,2|0|2|0|2|0,0:3|0:3|0:3|0:3|0:3|0:3,0:0:0:0:
288,61,586543,5,2,0:3:0:0:
289,54,586618,1,0,0:3:0:0:
291,48,586693,1,0,0:3:0:0:
208,137,586843,2,0,L|267:142,1,59.9999981689454,2|0,0:3|0:3,0:0:0:0:
190,45,587143,5,2,0:3:0:0:
184,47,587218,1,0,0:3:0:0:
177,48,587293,1,0,0:3:0:0:
103,129,587443,1,2,0:3:0:0:
109,131,587518,1,0,0:3:0:0:
116,132,587593,1,0,0:3:0:0:
196,215,587743,1,2,0:3:0:0:
190,217,587818,1,0,0:3:0:0:
183,218,587893,1,0,0:3:0:0:
103,301,588043,5,2,0:3:0:0:
109,303,588118,1,0,0:3:0:0:
116,304,588193,1,0,0:3:0:0:
226,366,588343,2,0,L|221:307,3,59.9999981689454,2|0|2|0,0:3|0:3|0:3|0:3,0:3:0:0:
309,237,588943,5,2,0:3:0:0:
315,239,589018,1,0,0:3:0:0:
322,240,589093,1,0,0:3:0:0:
383,353,589243,2,0,L|388:293,5,59.9999981689454,2|0|2|0|2|0,0:3|0:3|0:3|0:3|0:3|0:3,0:0:0:0:
491,241,590143,5,2,0:3:0:0:
497,243,590218,1,0,0:3:0:0:
504,244,590293,1,0,0:3:0:0:
437,168,590443,2,0,L|377:173,1,59.9999981689454,2|0,0:3|0:3,0:3:0:0:
499,97,590743,5,2,0:3:0:0:
505,95,590818,1,0,0:3:0:0:
512,94,590893,1,0,0:3:0:0:
422,8,591043,1,2,0:3:0:0:
428,10,591118,1,0,0:3:0:0:
435,11,591193,1,0,0:3:0:0:
340,98,591343,1,2,0:3:0:0:
346,96,591418,1,0,0:3:0:0:
353,95,591493,1,0,0:3:0:0:
200,19,591643,5,2,3:3:0:0:
186,23,591718,1,0,0:3:0:0:
172,26,591793,1,0,0:3:0:0:
263,132,591943,2,0,L|280:23,1,80,2|0,0:3|0:3,0:0:0:0:
167,121,592243,2,0,L|184:230,1,80,2|0,3:3|0:3,0:3:0:0:
90,122,592543,5,2,0:3:0:0:
76,125,592618,1,0,0:3:0:0:
62,129,592693,1,0,0:3:0:0:
4,233,592843,2,0,L|83:245,3,80,2|0|2|0,3:3|0:3|0:3|0:3,0:3:0:0:
168,335,593443,2,0,L|72:346,1,80,2|0,3:3|0:3,0:3:0:0:
199,236,593743,5,2,0:3:0:0:
213,239,593818,1,0,0:3:0:0:
227,243,593893,1,0,0:3:0:0:
338,351,594043,2,0,L|326:255,1,80,2|0,3:3|0:3,0:0:0:0:
262,320,594343,5,2,0:3:0:0:
259,334,594418,1,0,0:3:0:0:
255,348,594493,1,0,0:3:0:0:
194,206,594643,1,2,3:3:0:0:
197,220,594718,1,0,0:3:0:0:
201,234,594793,1,0,0:3:0:0:
113,306,594943,1,2,0:3:0:0:
116,292,595018,1,0,0:3:0:0:
120,278,595093,1,0,0:3:0:0:
37,148,595243,5,2,3:3:0:0:
40,162,595318,1,0,0:3:0:0:
44,176,595393,1,0,0:3:0:0:
130,55,595543,2,0,L|118:150,1,80,2|0,0:3|0:3,0:0:0:0:
219,208,595843,2,0,L|209:128,1,80,2|0,3:3|0:3,0:3:0:0:
315,81,596143,5,2,0:3:0:0:
312,95,596218,1,0,0:3:0:0:
308,109,596293,1,0,0:3:0:0:
454,159,596443,2,0,L|374:168,3,80,2|0|2|0,3:3|0:3|0:3|0:3,0:3:0:0:
286,258,597043,2,0,L|365:267,1,80,2|0,3:3|0:3,0:3:0:0:
446,346,597343,5,2,0:3:0:0:
432,349,597418,1,0,0:3:0:0:
418,353,597493,1,0,0:3:0:0:
296,248,597643,2,0,L|375:257,1,80,2|0,3:3|0:3,0:0:0:0:
239,362,597943,5,2,0:3:0:0:
236,348,598018,1,0,0:3:0:0:
232,334,598093,1,0,0:3:0:0:
298,275,598243,1,2,3:3:0:0:
300,264,598318,1,0,0:3:0:0:
303,253,598393,1,0,0:3:0:0:
228,211,598543,5,2,0:3:0:0:
231,224,598618,1,0,0:3:0:0:
237,231,598693,1,0,0:3:0:0:
295,175,598843,5,2,3:3:0:0:
299,168,598918,1,0,0:3:0:0:
299,160,598993,1,0,0:3:0:0:
232,78,599143,2,0,L|152:69,1,80,2|0,0:3|0:3,0:0:0:0:
27,140,599443,2,0,L|106:131,1,80,2|0,3:3|0:3,0:3:0:0:
85,16,599743,5,2,0:3:0:0:
82,30,599818,1,0,0:3:0:0:
78,44,599893,1,0,0:3:0:0:
180,154,600043,2,0,L|170:74,3,80,2|0|2|0,3:3|0:3|0:3|0:3,0:3:0:0:
270,146,600643,2,0,L|260:225,1,80,2|0,3:3|0:3,0:3:0:0:
352,72,600943,5,2,0:3:0:0:
348,58,601018,1,0,0:3:0:0:
345,44,601093,1,0,0:3:0:0:
451,136,601243,2,0,L|372:146,1,80,2|0,3:3|0:3,0:0:0:0:
307,217,601543,5,2,0:3:0:0:
321,214,601618,1,0,0:3:0:0:
335,210,601693,1,0,0:3:0:0:
447,274,601843,1,2,3:3:0:0:
433,271,601918,1,0,0:3:0:0:
419,267,601993,1,0,0:3:0:0:
307,327,602143,1,2,0:3:0:0:
321,324,602218,1,0,0:3:0:0:
335,320,602293,1,0,0:3:0:0:
447,384,602443,5,2,3:3:0:0:
433,381,602518,1,0,0:3:0:0:
419,377,602593,1,0,0:3:0:0:
347,256,602743,2,0,L|426:266,1,80,2|0,0:3|0:3,0:0:0:0:
321,363,603043,2,8,L|242:373,1,80,2|0,3:3|0:3,0:3:0:0:
165,251,603343,5,2,0:3:0:0:
179,248,603418,1,0,0:3:0:0:
193,244,603493,1,0,0:3:0:0:
152,336,603643,2,0,L|73:326,3,80,2|0|2|0,3:3|0:3|0:3|0:3,0:3:0:0:
0,235,604243,2,0,L|79:225,1,80,2|0,3:3|0:3,0:3:0:0:
84,114,604543,5,2,0:3:0:0:
70,111,604618,1,0,0:3:0:0:
56,107,604693,1,0,0:3:0:0:
80,215,604843,2,0,L|159:205,1,80,2|0,3:3|0:3,0:0:0:0:
223,30,605143,5,2,0:3:0:0:
209,34,605218,1,0,0:3:0:0:
195,36,605293,1,0,0:3:0:0:
303,121,605443,1,2,3:3:0:0:
289,117,605518,1,0,0:3:0:0:
275,114,605593,1,0,0:3:0:0:
195,206,605743,5,2,0:3:0:0:
208,199,605818,1,0,0:3:0:0:
222,198,605893,1,0,0:3:0:0:
306,293,606043,5,2,3:3:0:0:
291,282,606118,1,0,0:3:0:0:
273,280,606193,1,0,0:3:0:0:
197,384,606343,2,0,L|276:374,1,80,2|0,0:3|0:3,0:0:0:0:
357,278,606643,2,0,L|278:268,1,80,2|0,3:0|0:3,0:0:0:0:
421,384,606943,5,2,0:3:0:0:
426,367,607018,1,0,0:3:0:0:
430,350,607093,1,0,0:3:0:0:
340,200,607243,2,0,L|350:279,3,80,2|0|2|0,3:3|0:3|0:3|0:3,0:3:0:0:
229,351,607843,2,0,L|239:272,1,80,2|0,3:3|0:3,0:0:0:0:
137,212,608143,5,2,0:3:0:0:
120,216,608218,1,0,0:3:0:0:
103,221,608293,1,0,0:3:0:0:
42,301,608443,2,0,L|121:311,1,80,2|0,3:3|0:3,0:0:0:0:
35,167,608743,5,2,0:3:0:0:
31,184,608818,1,0,0:3:0:0:
26,201,608893,1,0,0:3:0:0:
117,157,609043,1,2,3:3:0:0:
113,140,609118,1,0,0:3:0:0:
108,123,609193,1,0,0:3:0:0:
30,57,609343,1,2,0:3:0:0:
25,74,609418,1,0,0:3:0:0:
21,91,609493,1,0,0:3:0:0:
110,34,609643,5,2,3:3:0:0:
106,17,609718,1,0,0:3:0:0:
101,0,609793,1,0,0:3:0:0:
254,67,609943,2,0,L|175:77,1,80,2|0,0:3|0:3,0:0:0:0:
287,150,610243,2,0,L|366:160,1,80,2|0,3:0|0:3,0:0:0:0:
387,55,610543,5,2,0:3:0:0:
370,59,610618,1,0,0:3:0:0:
353,64,610693,1,0,0:3:0:0:
466,117,610843,2,0,L|476:38,3,80,2|0|2|0,3:3|0:3|0:3|0:3,0:3:0:0:
377,154,611443,2,0,L|387:233,1,80,2|0,3:3|0:3,0:0:0:0:
495,256,611743,5,2,0:3:0:0:
500,239,611818,1,0,0:3:0:0:
504,222,611893,1,0,0:3:0:0:
425,323,612043,2,0,L|504:333,1,80,2|0,3:3|0:3,0:0:0:0:
377,245,612343,5,2,0:3:0:0:
360,250,612418,1,0,0:3:0:0:
343,254,612493,1,0,0:3:0:0:
300,332,612643,1,2,3:3:0:0:
286,328,612718,1,0,0:3:0:0:
272,324,612793,1,0,0:3:0:0:
197,259,612943,5,2,0:3:0:0:
206,257,613018,1,0,0:3:0:0:
215,258,613093,1,0,0:3:0:0:
157,327,613243,5,2,3:3:0:0:
150,330,613318,1,0,0:3:0:0:
143,331,613393,1,0,0:3:0:0:
37,201,613543,2,0,L|27:280,1,69.9999978637696,2|0,0:3|0:3,0:0:0:0:
139,199,613843,2,0,L|129:120,1,69.9999978637696,2|0,3:0|0:3,0:0:0:0:
60,73,614143,5,2,0:3:0:0:
58,81,614218,1,0,0:3:0:0:
57,88,614293,1,0,0:3:0:0:
192,21,614443,2,0,L|113:11,3,69.9999978637696,2|0|2|0,3:3|0:3|0:3|0:3,0:3:0:0:
216,102,615043,2,0,L|285:93,1,69.9999978637696,2|0,3:3|0:3,0:0:0:0:
162,173,615343,5,2,0:3:0:0:
154,171,615418,1,0,0:3:0:0:
147,170,615493,1,0,0:3:0:0:
233,254,615643,2,0,L|241:184,1,69.9999978637696,2|0,3:3|0:3,0:0:0:0:
151,288,615943,5,2,0:3:0:0:
152,295,616018,1,0,0:3:0:0:
154,303,616093,1,0,0:3:0:0:
244,360,616243,1,2,3:3:0:0:
245,353,616318,1,0,0:3:0:0:
247,345,616393,1,0,0:3:0:0:
337,288,616543,1,2,0:3:0:0:
338,295,616618,1,0,0:3:0:0:
340,303,616693,1,0,0:3:0:0:
430,360,616843,5,2,3:3:0:0:
431,353,616918,1,0,0:0:0:0:
433,345,616993,1,0,0:3:0:0:
493,244,617143,2,0,B|476:237|476:237|402:252,1,80,2|0,0:3|0:3,0:0:0:0:
315,174,617443,2,0,B|332:167|332:167|406:182,1,80,2|0,3:3|0:3,0:3:0:0:
474,106,617743,5,2,0:3:0:0:
450,110,617818,1,0,0:3:0:0:
426,114,617893,1,0,0:3:0:0:
349,15,618043,2,0,B|342:32|342:32|357:106,3,80,2|0|2|0,3:3|0:3|0:3|0:3,0:0:0:0:
263,51,618643,2,0,B|246:44|246:44|172:59,1,80,2|0,3:3|0:3,0:3:0:0:
127,128,618943,5,2,0:3:0:0:
151,132,619018,1,0,0:3:0:0:
175,136,619093,1,0,0:3:0:0:
235,228,619243,2,0,B|218:235|218:235|144:220,1,80,2|0,3:3|0:3,0:3:0:0:
83,312,619543,5,2,0:3:0:0:
107,308,619618,1,0,0:3:0:0:
131,304,619693,1,0,0:3:0:0:
204,373,619843,1,2,3:3:0:0:
228,377,619918,1,0,0:3:0:0:
252,381,619993,1,0,0:3:0:0:
313,300,620143,5,2,0:3:0:0:
301,302,620218,1,0,0:3:0:0:
289,305,620293,1,0,0:3:0:0:
438,372,620443,5,4,3:0:0:0:
449,323,620518,1,0,3:0:0:0:
460,274,620593,1,0,3:0:0:0:
348,273,620743,5,2,3:0:0:0:
349,277,620893,1,0,3:0:0:0:
407,205,621043,5,2,3:0:0:0:
406,209,621193,1,0,3:0:0:0:
302,97,621343,5,10,3:0:0:0:
313,146,621418,1,0,3:0:0:0:
324,195,621493,1,0,3:0:0:0:
216,165,621643,5,2,3:0:0:0:
217,161,621793,1,0,3:0:0:0:
245,262,621943,5,2,3:0:0:0:
244,258,622093,1,0,3:0:0:0:
215,355,622243,5,2,3:0:0:0:
216,351,622393,1,0,3:0:0:0:
141,231,622543,5,2,3:0:0:0:
190,242,622618,1,0,3:0:0:0:
239,253,622693,1,0,3:0:0:0:
133,316,622843,5,2,3:0:0:0:
129,317,622993,1,0,3:0:0:0:
61,210,623143,5,2,3:0:0:0:
50,259,623218,1,0,3:0:0:0:
39,308,623293,1,0,3:0:0:0:
159,193,623443,1,2,3:0:0:0:
148,242,623518,1,0,3:0:0:0:
137,291,623593,1,0,3:0:0:0:
251,166,623743,1,2,3:0:0:0:
240,215,623818,1,0,3:0:0:0:
229,264,623893,1,0,3:0:0:0:
346,144,624043,1,2,3:0:0:0:
335,193,624118,1,0,3:0:0:0:
324,242,624193,1,0,3:0:0:0:
255,159,624343,5,2,3:0:0:0:
256,163,624493,1,0,3:0:0:0:
201,238,624643,5,2,3:0:0:0:
202,234,624793,1,0,3:0:0:0:
150,134,624943,5,10,3:0:0:0:
199,145,625018,1,0,3:0:0:0:
248,156,625093,1,0,3:0:0:0:
195,56,625243,5,2,3:0:0:0:
191,57,625393,1,0,3:0:0:0:
283,85,625543,5,2,3:0:0:0:
279,84,625693,1,0,3:0:0:0:
346,19,625843,5,2,3:0:0:0:
342,20,625993,1,0,3:0:0:0:
465,84,626143,5,4,3:2:0:0:
416,95,626218,1,0,3:0:0:0:
367,106,626293,1,0,3:0:0:0:
459,167,626443,5,2,3:0:0:0:
463,168,626593,1,0,3:0:0:0:
360,111,626743,5,10,3:0:0:0:
362,160,626818,1,0,3:0:0:0:
394,197,626893,1,0,3:0:0:0:
323,241,627043,5,2,3:0:0:0:
351,267,627118,1,0,3:0:0:0:
390,270,627193,1,0,3:0:0:0:
387,340,627343,5,2,3:0:0:0:
416,338,627418,1,0,3:0:0:0:
438,319,627493,1,0,3:0:0:0:
491,367,627643,5,4,3:0:0:0:
504,352,627718,1,0,3:0:0:0:
505,332,627793,1,0,3:0:0:0:
406,273,627943,5,2,3:0:0:0:
407,277,628093,1,0,3:0:0:0:
345,345,628243,5,2,3:0:0:0:
346,341,628393,1,0,3:0:0:0:
286,253,628543,1,10,3:0:0:0:
305,256,628618,1,0,3:0:0:0:
324,259,628693,1,0,3:0:0:0:
250,330,628843,5,2,3:0:0:0:
246,329,628993,1,0,3:0:0:0:
188,263,629143,5,2,3:0:0:0:
184,264,629293,1,0,3:0:0:0:
122,331,629443,5,2,3:0:0:0:
118,330,629593,1,4,3:2:0:0:
62,236,629743,1,2,3:0:0:0:
81,239,629818,1,0,3:0:0:0:
100,242,629893,1,0,3:0:0:0:
37,158,630043,5,2,3:0:0:0:
33,159,630193,1,0,3:0:0:0:
149,159,630343,5,2,3:0:0:0:
130,162,630418,1,0,3:0:0:0:
111,165,630493,1,0,3:0:0:0:
215,224,630643,1,2,3:0:0:0:
196,227,630718,1,0,3:0:0:0:
177,230,630793,1,0,3:0:0:0:
273,290,630943,1,2,3:0:0:0:
254,293,631018,1,0,3:0:0:0:
235,296,631093,1,0,3:0:0:0:
331,356,631243,1,2,3:0:0:0:
312,359,631318,1,0,3:0:0:0:
293,362,631393,1,0,3:0:0:0:
353,274,631543,5,2,3:0:0:0:
352,278,631693,1,0,3:0:0:0:
412,338,631843,5,2,3:0:0:0:
413,342,631993,1,0,3:0:0:0:
472,254,632143,1,12,3:0:0:0:
453,257,632218,1,0,3:0:0:0:
434,260,632293,1,0,3:0:0:0:
494,176,632443,5,2,3:0:0:0:
490,175,632593,1,0,3:0:0:0:
415,131,632743,5,2,3:0:0:0:
420,129,632893,1,0,3:0:0:0:
498,85,633043,5,2,3:0:0:0:
494,84,633193,1,0,3:0:0:0:
411,8,633343,1,2,3:0:0:0:
414,27,633418,1,0,3:0:0:0:
417,46,633493,1,0,3:0:0:0:
318,9,633643,5,2,3:0:0:0:
319,5,633793,1,0,3:0:0:0:
341,120,633943,5,10,3:0:0:0:
344,101,634018,1,0,3:0:0:0:
347,82,634093,1,0,3:0:0:0:
261,145,634243,1,2,3:0:0:0:
263,129,634318,1,0,3:0:0:0:
265,114,634393,1,0,3:0:0:0:
181,170,634543,1,2,3:0:0:0:
182,158,634618,1,0,3:0:0:0:
184,147,634693,1,0,3:0:0:0:
16,161,634843,5,4,3:2:0:0:
61,146,634918,1,0,3:0:0:0:
105,163,634993,1,4,3:2:0:0:
22,252,635143,1,4,3:2:0:0:
11,74,635293,2,0,B|36:55|36:55|132:77,1,110.000003356934,4|0,3:2|0:0,3:0:0:0:
9,162,635593,1,0,3:0:0:0:
183,13,635743,5,8,3:0:0:0:
191,60,635818,1,0,3:0:0:0:
199,107,635893,1,0,3:0:0:0:
102,281,636043,2,0,B|93:275|93:275|111:152,1,110.000003356934,4|0,3:2|0:0,3:0:0:0:
180,309,636343,5,0,3:0:0:0:
67,353,636493,1,0,3:0:0:0:
184,184,636643,5,2,3:2:0:0:
267,339,636793,1,0,3:0:0:0:
353,141,636943,1,2,3:0:0:0:
305,147,637018,1,0,3:0:0:0:
279,187,637093,2,0,B|314:218|314:218|431:203,1,119.999996337891,0|2,3:0|3:0,3:0:0:0:
320,77,637393,1,0,3:0:0:0:
225,276,637543,5,14,3:2:0:0:
270,289,637618,1,0,3:0:0:0:
315,303,637693,1,0,3:0:0:0:
175,190,637843,5,6,3:2:0:0:
220,203,637918,1,0,3:0:0:0:
265,217,637993,1,0,3:0:0:0:
125,104,638143,5,6,3:2:0:0:
170,117,638218,1,0,3:0:0:0:
215,131,638293,1,0,3:0:0:0:
133,13,638443,5,6,3:0:0:0:
85,17,638518,1,0,3:0:0:0:
51,51,638593,1,0,3:0:0:0:
201,47,638743,1,0,3:0:0:0:
42,144,638893,6,0,B|53:166|80:172|80:172|133:132|189:160,1,165.000005035401,2|0,3:0|3:0,3:0:0:0:
142,241,639193,1,0,3:0:0:0:
332,134,639343,5,10,3:0:0:0:
355,171,639418,1,0,3:0:0:0:
360,214,639493,1,0,3:0:0:0:
261,353,639643,2,0,B|253:345|253:345|277:238,1,100,2|0,3:0|3:0,3:0:0:0:
340,324,639943,5,2,3:0:0:0:
238,190,640093,1,0,3:0:0:0:
338,129,640243,2,0,B|344:135|344:135|325:221,1,89.9999972534181,2|0,3:0|3:0,3:0:0:0:
247,116,640543,1,2,3:0:0:0:
255,82,640618,1,0,3:0:0:0:
263,47,640693,2,0,B|280:37|280:37|372:60,1,89.9999972534181,0|2,3:0|3:0,3:0:0:0:
313,149,640993,1,0,3:0:0:0:
119,62,641143,5,10,3:0:0:0:
154,55,641218,1,0,3:0:0:0:
189,49,641293,1,0,3:0:0:0:
95,154,641443,5,2,3:0:0:0:
133,146,641518,1,0,3:0:0:0:
172,139,641593,1,0,3:0:0:0:
67,241,641743,5,2,3:0:0:0:
109,237,641818,1,0,3:0:0:0:
147,256,641893,1,0,3:0:0:0:
62,369,642043,5,4,3:2:0:0:
21,352,642118,1,0,3:0:0:0:
0,312,642193,1,6,3:2:0:0:
147,334,642343,1,4,3:2:0:0:
23,180,642493,6,0,B|23:193|29:205|29:205|72:219|133:191,1,110.000003356934,4|4,3:2|3:2,3:0:0:0:
62,118,642793,1,0,3:0:0:0:
198,236,642943,5,12,3:2:0:0:
207,193,643018,1,0,3:0:0:0:
217,150,643093,1,0,3:0:0:0:
137,16,643243,2,0,B|126:22|126:22|140:147,1,110.000003356934,2|0,3:0|3:0,3:0:0:0:
214,29,643543,5,2,3:0:0:0:
69,129,643693,1,0,3:0:0:0:
143,228,643843,2,0,B|151:223|151:223|140:123,1,110.000003356934,2|0,3:0|3:0,3:0:0:0:
9,292,644143,1,2,3:0:0:0:
51,304,644218,1,0,3:0:0:0:
93,316,644293,6,0,B|105:304|105:304|2:270,1,110.000003356934,0|2,3:0|3:0,3:0:0:0:
145,384,644593,1,0,3:0:0:0:
182,202,644743,1,10,3:0:0:0:
145,212,644818,1,0,3:0:0:0:
107,221,644893,1,0,3:0:0:0:
271,257,645043,5,2,3:0:0:0:
229,267,645118,1,0,3:0:0:0:
187,277,645193,1,0,3:0:0:0:
334,320,645343,5,2,3:0:0:0:
358,278,645418,1,0,3:0:0:0:
352,230,645493,1,0,3:0:0:0:
143,261,645643,5,2,3:0:0:0:
184,284,645718,1,0,3:0:0:0:
231,278,645793,1,0,3:0:0:0:
167,175,645943,1,0,3:0:0:0:
299,318,646093,6,0,B|314:307|314:307|300:204,1,119.999996337891,0|2,3:0|3:0,3:0:0:0:
228,288,646393,1,0,3:0:0:0:
370,158,646543,1,10,3:0:0:0:
332,128,646618,1,0,3:0:0:0:
284,125,646693,1,0,3:0:0:0:
432,0,646843,6,0,B|441:11|441:11|428:136,1,119.999996337891,2|0,3:0|3:0,3:0:0:0:
357,36,647143,1,2,3:0:0:0:
502,141,647293,1,0,3:0:0:0:
255,185,647443,5,8,3:0:0:0:
275,128,647518,1,0,3:0:0:0:
327,99,647593,1,8,3:0:0:0:
386,102,647668,1,0,3:0:0:0:
431,141,647743,5,2,3:3:0:0:
416,137,647818,1,2,2:3:0:0:
401,138,647893,2,0,P|370:149|348:184,1,50,2|2,2:3|2:3,0:0:0:0:
362,301,648043,5,8,3:0:0:0:
418,332,648118,1,0,3:0:0:0:
482,324,648193,2,0,P|510:295|514:273,1,50,8|8,3:0|3:0,0:0:0:0:
324,376,648343,5,8,3:0:0:0:
259,374,648418,1,8,3:0:0:0:
211,330,648493,2,0,P|203:302|208:267,1,50,8|8,3:0|3:0,3:0:0:0:
316,192,648643,5,2,3:3:0:0:
320,221,648718,1,2,2:3:0:0:
324,250,648793,1,2,2:3:0:0:
328,279,648868,1,2,2:3:0:0:
339,288,648943,5,2,3:3:0:0:
336,302,649018,1,2,2:3:0:0:
333,316,649093,2,0,L|321:391,1,50,2|0,2:3|0:0,0:0:0:0:
110,346,649243,5,4,3:0:0:0:
99,328,649318,1,0,3:0:0:0:
96,303,649393,1,4,3:0:0:0:
104,274,649468,1,0,3:0:0:0:
128,248,649543,1,4,3:0:0:0:
166,237,649618,1,0,3:0:0:0:
195,202,649693,1,4,3:0:0:0:
198,152,649768,1,0,3:0:0:0:
163,108,649843,1,4,3:0:0:0:
103,102,649918,1,0,3:0:0:0:
60,151,649993,2,0,P|61:188|82:215,1,50,4|0,3:0|3:0,3:0:0:0:
282,182,650143,5,12,3:2:0:0:
258,25,650293,1,0,3:0:0:0:
146,266,650443,5,4,3:2:0:0:
443,242,650593,1,0,3:0:0:0:
184,338,650743,1,4,3:2:0:0:
404,319,650893,1,0,3:0:0:0:
281,193,651043,5,4,3:2:0:0:
261,216,651118,1,0,3:0:0:0:
256,245,651193,1,0,3:0:0:0:
416,154,651343,5,4,3:2:0:0:
266,83,651493,1,0,3:0:0:0:
291,230,651643,1,4,3:2:0:0:
386,135,651793,1,0,3:0:0:0:
266,114,651943,1,12,3:2:0:0:
312,213,652093,1,0,3:0:0:0:
383,64,652243,5,4,3:2:0:0:
353,70,652318,1,0,3:0:0:0:
331,90,652393,1,0,3:0:0:0:
481,132,652543,1,4,3:2:0:0:
275,162,652693,1,0,3:0:0:0:
498,222,652843,5,4,3:2:0:0:
496,241,652918,1,0,3:0:0:0:
488,264,652993,1,0,3:0:0:0:
464,283,653068,1,0,3:0:0:0:
429,289,653143,1,4,3:2:0:0:
391,274,653218,1,0,3:0:0:0:
371,233,653293,1,0,3:0:0:0:
326,210,653368,1,0,3:0:0:0:
271,214,653443,1,4,3:2:0:0:
228,256,653518,1,0,3:0:0:0:
225,320,653593,2,0,P|240:344|272:367,1,50,0|0,3:0|3:0,0:0:0:0:
408,133,653743,5,12,3:2:0:0:
227,153,653893,1,0,3:0:0:0:
413,370,654043,5,4,3:2:0:0:
323,95,654193,1,0,3:0:0:0:
275,337,654343,1,4,3:2:0:0:
395,43,654493,5,0,3:0:0:0:
105,262,654643,1,4,3:2:0:0:
132,290,654718,1,0,3:0:0:0:
170,300,654793,1,0,3:0:0:0:
119,99,654943,1,4,3:2:0:0:
29,281,655093,1,0,3:0:0:0:
247,1,655243,5,4,3:2:0:0:
139,279,655393,1,0,3:0:0:0:
60,60,655543,1,12,3:2:0:0:
0,205,655693,1,0,3:0:0:0:
239,134,655843,5,4,3:2:0:0:
209,129,655918,1,0,3:0:0:0:
179,124,655993,1,0,3:0:0:0:
97,254,656143,5,4,3:2:0:0:
127,249,656218,1,0,3:0:0:0:
157,244,656293,1,0,3:0:0:0:
282,351,656443,5,4,3:2:0:0:
240,378,656518,1,0,3:0:0:0:
190,369,656593,1,0,3:0:0:0:
158,330,656668,1,0,3:0:0:0:
162,280,656743,1,4,3:2:0:0:
199,247,656818,1,0,3:0:0:0:
249,247,656893,1,0,3:0:0:0:
288,277,656968,1,0,3:0:0:0:
295,326,657043,1,4,3:2:0:0:
334,357,657118,1,0,3:0:0:0:
383,364,657193,2,0,P|412:354|432:336,1,50,0|0,3:0|3:0,0:0:0:0:
390,210,657343,6,0,B|444:168|511:197|511:197|470:127|372:128|320:197|359:211|320:277|201:277|152:202,1,550,12|0,3:2|0:0,3:0:0:0:
158,105,658243,5,4,3:2:0:0:
186,113,658318,1,0,3:0:0:0:
214,121,658393,1,0,3:0:0:0:
95,169,658543,5,4,3:2:0:0:
81,62,658693,1,0,3:0:0:0:
195,232,658843,5,4,3:2:0:0:
209,125,658993,1,0,3:0:0:0:
69,265,659143,6,0,P|65:226|103:162,1,100,12|0,3:2|3:0,3:0:0:0:
128,326,659443,1,4,3:2:0:0:
104,344,659518,1,0,3:0:0:0:
74,349,659593,1,0,3:0:0:0:
218,299,659743,2,0,P|223:325|190:398,1,80,4|0,3:2|3:0,0:0:0:0:
146,241,660043,5,4,3:2:0:0:
190,209,660118,1,0,3:0:0:0:
244,210,660193,1,0,3:0:0:0:
288,242,660268,1,0,3:0:0:0:
306,293,660343,1,4,3:2:0:0:
353,320,660418,1,0,3:0:0:0:
407,321,660493,1,0,3:0:0:0:
452,290,660568,1,0,3:0:0:0:
464,236,660643,1,4,3:2:0:0:
441,185,660718,1,0,3:0:0:0:
392,158,660793,2,0,P|358:160|333:174,1,50,0|0,3:0|3:0,0:0:0:0:
417,319,660943,6,0,B|368:409|256:412|188:341|248:325|171:249|69:251|18:331|18:331|74:405|163:370,1,605.000018463135,12|0,3:2|0:0,3:0:0:0:
232,249,661843,5,8,3:0:0:0:
255,193,661918,1,8,3:0:0:0:
233,136,661993,1,8,3:0:0:0:
179,109,662068,1,8,3:0:0:0:
120,124,662143,5,2,3:3:0:0:
125,137,662218,1,2,2:3:0:0:
132,149,662293,2,0,P|151:165|187:172,1,50,2|2,2:3|2:3,0:0:0:0:
243,28,662443,5,8,3:0:0:0:
184,0,662518,1,8,3:0:0:0:
119,7,662593,2,0,P|91:26|73:54,1,50,8|8,3:0|3:0,0:0:0:0:
224,168,662743,5,8,3:0:0:0:
287,180,662818,1,8,3:0:0:0:
346,152,662893,2,8,P|361:123|363:90,1,50,8|8,3:0|3:0,3:0:0:0:
168,102,663043,5,2,3:3:0:0:
157,112,663118,1,2,2:3:0:0:
148,124,663193,2,0,P|138:167|142:190,1,50,2|0,2:3|0:0,0:0:0:0:
266,227,663343,5,2,3:3:0:0:
265,212,663418,1,2,2:3:0:0:
259,197,663493,2,0,P|247:182|215:167,1,50,2|0,2:3|0:0,0:0:0:0:
205,319,663643,5,4,3:0:0:0:
259,343,663718,1,0,3:0:0:0:
317,331,663793,1,0,3:0:0:0:
357,287,663868,1,0,3:0:0:0:
415,272,663943,1,4,3:0:0:0:
473,284,664018,1,0,3:0:0:0:
512,328,664093,2,0,P|473:342|442:337,1,50,0|0,3:0|3:0,3:0:0:0:
362,207,664243,5,4,3:0:0:0:
370,152,664318,1,0,3:0:0:0:
378,97,664393,2,0,L|389:34,1,50,0|0,3:0|3:0,3:0:0:0:
466,250,664543,5,12,3:0:0:0:
441,299,664618,1,0,3:0:0:0:
391,322,664693,2,0,P|351:317|328:304,1,50,0|0,3:0|3:0,3:0:0:0:
294,111,664843,5,4,3:0:0:0:
344,132,664918,1,0,3:0:0:0:
372,178,664993,2,0,P|379:216|373:238,1,50,0|0,3:0|3:0,3:0:0:0:
169,275,665143,5,4,3:0:0:0:
185,222,665218,1,0,3:0:0:0:
234,197,665293,2,0,P|276:199|297:212,1,50,0|0,3:0|3:0,0:0:0:0:
181,371,665443,5,4,3:0:0:0:
122,359,665518,1,0,3:0:0:0:
80,315,665593,1,0,3:0:0:0:
73,255,665668,1,0,3:0:0:0:
103,203,665743,1,4,3:0:0:0:
95,143,665818,1,0,3:0:0:0:
49,103,665893,2,0,P|42:137|52:180,1,50,0|0,3:0|3:0,3:0:0:0:
196,232,666043,5,4,3:0:0:0:
249,219,666118,1,0,3:0:0:0:
302,206,666193,2,0,L|371:190,1,50,0|0,3:0|3:0,3:0:0:0:
128,164,666343,5,12,3:0:0:0:
95,207,666418,1,0,3:0:0:0:
97,262,666493,2,0,P|115:298|135:312,1,50,0|0,3:0|3:0,3:0:0:0:
207,89,666643,5,4,3:0:0:0:
159,63,666718,1,0,3:0:0:0:
103,68,666793,2,0,P|75:86|53:112,1,50,0|0,3:0|3:0,3:0:0:0:
312,134,666943,5,4,3:0:0:0:
326,80,667018,1,0,3:0:0:0:
311,27,667093,2,0,P|290:8|265:-2,1,50,0|0,3:0|3:0,0:0:0:0:
198,166,667243,5,4,3:0:0:0:
219,220,667318,1,0,3:0:0:0:
269,249,667393,1,0,3:0:0:0:
329,249,667468,1,0,3:0:0:0:
375,212,667543,1,4,3:0:0:0:
435,209,667618,1,0,3:0:0:0:
488,237,667693,2,0,P|498:255|502:295,1,50,0|0,3:0|3:0,3:0:0:0:
331,301,667843,5,4,3:0:0:0:
319,247,667918,1,0,3:0:0:0:
307,193,667993,2,0,L|297:145,1,50,0|0,3:0|3:0,3:0:0:0:
491,121,668143,5,12,3:0:0:0:
512,166,668218,1,0,3:0:0:0:
502,219,668293,2,0,P|480:239|459:248,1,50,0|0,3:0|3:0,3:0:0:0:
290,95,668443,5,4,3:0:0:0:
344,88,668518,1,0,3:0:0:0:
393,110,668593,2,0,P|419:140|422:162,1,50,0|0,3:0|3:0,3:0:0:0:
209,261,668743,5,4,3:0:0:0:
223,205,668818,1,0,3:0:0:0:
265,171,668893,2,0,P|298:167|321:176,1,50,0|0,3:0|3:0,3:0:0:0:
336,355,669043,5,4,3:0:0:0:
283,384,669118,1,0,3:0:0:0:
223,378,669193,1,0,3:0:0:0:
180,335,669268,1,0,3:0:0:0:
122,318,669343,1,4,3:0:0:0:
63,332,669418,1,0,3:0:0:0:
26,379,669493,5,0,3:0:0:0:
85,383,669568,1,0,3:0:0:0:
125,338,669643,1,4,3:0:0:0:
130,278,669718,1,0,3:0:0:0:
92,230,669793,2,0,P|58:219|36:221,1,50,0|0,3:0|3:0,0:0:0:0:
302,300,669943,5,12,3:0:0:0:
352,279,670018,1,0,3:0:0:0:
378,230,670093,2,0,P|377:203|354:162,1,50,0|0,3:0|3:0,0:0:0:0:
213,290,670243,5,4,3:0:0:0:
219,334,670318,1,0,3:0:0:0:
245,370,670393,2,0,P|275:382|312:381,1,50,0|0,3:0|3:0,0:0:0:0:
198,209,670543,5,4,3:0:0:0:
165,221,670618,1,0,3:0:0:0:
141,248,670693,2,0,P|132:277|135:304,1,50,0|0,3:0|3:0,0:0:0:0:
172,84,670843,5,4,3:0:0:0:
149,63,670918,1,0,3:0:0:0:
116,62,670993,1,0,3:0:0:0:
86,87,671068,1,0,3:0:0:0:
86,127,671143,1,0,3:0:0:0:
123,154,671218,1,0,3:0:0:0:
174,140,671293,1,0,3:0:0:0:
202,91,671368,1,0,3:0:0:0:
257,66,671443,1,0,3:0:0:0:
320,78,671518,1,0,3:0:0:0:
365,132,671593,2,0,P|367:162|355:196,1,50,0|0,3:0|3:0,3:0:0:0:
202,20,671743,6,0,L|278:31,1,59.9999981689454,12|0,3:0|3:0,3:0:0:0:
449,9,671893,2,0,L|383:0,1,64.9999970245363,0|0,3:0|3:0,3:0:0:0:
224,134,672043,2,0,L|300:145,1,57.5000010967255,0|0,3:0|3:0,3:0:0:0:
415,120,672193,2,0,L|349:110,1,50,0|0,3:0|3:0,3:0:0:0:
243,242,672343,2,0,L|319:253,1,42.5000008106232,0|0,3:0|3:0,0:0:0:0:
384,224,672493,2,0,L|334:216,1,34.9999989318848,0|0,3:0|3:0,0:0:0:0:
349,305,672643,5,4,3:0:0:0:
366,281,672718,1,0,3:0:0:0:
372,248,672793,1,0,3:0:0:0:
360,213,672868,1,0,3:0:0:0:
328,187,672943,1,0,3:0:0:0:
285,183,673018,1,0,3:0:0:0:
244,160,673093,1,0,3:0:0:0:
219,115,673168,1,0,3:0:0:0:
226,61,673243,1,0,3:0:0:0:
271,24,673318,1,0,3:0:0:0:
331,24,673393,2,0,P|369:52|381:79,1,50,0|0,3:0|3:0,3:0:0:0:
147,122,673543,6,0,L|218:108,1,69.9999978637696,12|0,3:0|3:0,3:0:0:0:
385,183,673693,2,0,L|325:193,1,59.9999981689454,0|0,3:0|3:0,3:0:0:0:
287,54,673843,2,0,L|297:113,1,50,0|0,3:0|3:0,3:0:0:0:
246,226,673993,2,0,L|237:176,1,40,0|0,3:0|3:0,3:0:0:0:
380,112,674143,5,0,3:0:0:0:
394,111,674218,1,0,3:0:0:0:
408,114,674293,1,0,3:0:0:0:
421,119,674368,1,0,3:0:0:0:
432,128,674443,5,4,3:0:0:0:
411,82,674518,1,0,3:0:0:0:
364,70,674593,1,0,3:0:0:0:
321,84,674668,1,0,3:0:0:0:
297,119,674743,1,0,3:0:0:0:
260,134,674818,1,0,3:0:0:0:
222,132,674893,1,0,3:0:0:0:
191,114,674968,1,0,3:0:0:0:
173,86,675043,1,0,3:0:0:0:
171,56,675118,1,0,3:0:0:0:
182,31,675193,2,0,P|196:14|224:0,1,50,0|0,3:0|3:0,0:0:0:0:
348,174,675343,5,12,3:0:0:0:
310,227,675418,1,0,3:0:0:0:
248,237,675493,1,0,3:0:0:0:
192,213,675568,1,0,3:0:0:0:
168,160,675643,1,0,3:0:0:0:
117,137,675718,1,0,3:0:0:0:
64,142,675793,1,0,3:0:0:0:
26,175,675868,1,0,3:0:0:0:
17,221,675943,1,0,3:0:0:0:
33,262,676018,1,0,3:0:0:0:
66,288,676093,2,0,P|106:294|132:285,1,50,0|0,3:0|3:0,3:0:0:0:
241,126,676243,5,8,3:0:0:0:
181,118,676318,1,8,3:0:0:0:
121,110,676393,1,8,3:0:0:0:
61,102,676468,1,8,3:0:0:0:
5,95,676543,5,2,3:3:0:0:
19,90,676618,1,2,2:3:0:0:
33,85,676693,1,2,2:3:0:0:
47,80,676768,1,2,2:3:0:0:
61,76,676843,5,8,3:0:0:0:
119,103,676918,1,8,3:0:0:0:
146,161,676993,1,8,3:0:0:0:
130,224,677068,1,8,3:0:0:0:
74,258,677143,5,8,3:0:0:0:
14,0,677293,1,8,3:0:0:0:
238,225,677443,1,8,3:0:0:0:
202,23,677593,1,8,3:0:0:0:
391,190,677743,1,8,3:0:0:0:
369,41,677893,1,8,3:0:0:0:
322,298,678043,6,0,B|349:321|383:317|383:317|429:274|491:296,1,179.999994506836,4|0,3:0|0:0,3:0:0:0:
450,381,678343,1,0,3:0:0:0:
395,157,678493,2,0,B|426:161|435:198|435:198|401:240|338:242|295:199,1,209.999993591309,8|0,3:0|0:0,0:0:0:0:
317,102,678793,1,0,3:0:0:0:
174,244,678943,6,0,L|202:248,1,25,2|2,3:3|0:3,3:0:0:0:
356,269,679093,1,0,3:0:0:0:
371,149,679243,6,0,L|381:174,1,25,2|2,3:3|0:3,3:0:0:0:
426,285,679393,1,0,3:0:0:0:
512,268,679543,6,0,L|493:292,1,25,2|2,3:3|0:3,0:0:0:0:
444,355,679693,1,0,3:0:0:0:
503,108,679843,6,0,B|506:91|496:72|496:72|422:48|350:87,1,179.999994506836,4|0,3:0|0:0,3:0:0:0:
429,141,680143,1,0,3:0:0:0:
270,56,680293,2,0,B|258:125|309:159|309:159|331:223|284:260|284:260|299:237|293:203,1,279.999991455078,4|0,3:0|3:0,3:0:0:0:
339,320,680743,5,2,3:0:0:0:
294,343,680818,1,2,3:0:0:0:
249,341,680893,1,2,3:0:0:0:
215,319,680968,1,2,3:0:0:0:
197,288,681043,1,2,3:0:0:0:
195,258,681118,1,2,3:0:0:0:
205,235,681193,2,0,P|219:220|254:207,1,50,2|2,3:0|3:0,0:0:0:0:
120,332,681343,5,2,3:0:0:0:
100,332,681418,1,2,3:0:0:0:
85,327,681493,2,0,P|63:304|57:282,1,50,2|2,3:0|3:0,0:0:0:0:
111,66,681643,6,0,B|142:87|143:121|143:121|99:168|120:234,1,179.999994506836,4|0,3:0|0:0,3:0:0:0:
54,116,681943,1,0,3:0:0:0:
292,68,682093,2,0,B|321:71|346:94|346:94|325:45|258:35|215:68,1,209.999993591309,8|0,3:0|0:0,0:0:0:0:
271,144,682393,1,0,3:0:0:0:
395,10,682543,6,0,L|390:39,1,29.9999990844727,2|2,3:0|0:3,3:0:0:0:
370,192,682693,1,0,3:0:0:0:
482,107,682843,6,0,L|486:140,1,29.9999990844727,2|2,3:0|0:3,3:0:0:0:
502,252,682993,1,0,3:0:0:0:
379,195,683143,6,0,L|373:232,1,29.9999990844727,2|2,3:0|0:3,0:0:0:0:
364,304,683293,1,2,3:0:0:0:
264,81,683443,5,4,3:0:0:0:
498,242,683593,1,8,3:0:0:0:
244,361,683743,2,0,B|226:332|226:332|254:233,1,119.999996337891,8|4,3:0|3:0,0:0:0:0:
438,372,684043,5,2,3:0:0:0:
364,199,684193,1,2,3:0:0:0:
195,329,684343,5,0,3:0:0:0:
215,326,684418,1,0,3:0:0:0:
235,323,684493,2,0,L|327:314,1,59.9999981689454,2|2,0:3|0:3,0:0:0:0:
92,231,684643,5,0,3:0:0:0:
75,228,684718,1,2,0:3:0:0:
59,226,684793,2,0,L|-14:218,1,59.9999981689454,2|2,0:3|0:3,0:0:0:0:
225,152,684943,5,2,3:0:0:0:
237,150,685018,1,2,3:0:0:0:
249,148,685093,2,0,L|315:141,1,59.9999981689454,2|2,3:0|3:0,0:0:0:0:
41,43,685243,6,0,B|42:76|66:96|66:96|139:116|184:52,1,179.999994506836,4|0,3:0|0:0,3:0:0:0:
116,3,685543,1,0,3:0:0:0:
174,241,685693,2,0,B|172:293|109:310|109:310|53:274|75:218,1,209.999993591309,12|0,3:0|0:0,0:0:0:0:
139,171,685993,1,0,3:0:0:0:
274,337,686143,6,0,L|270:309,1,25,2|2,3:0|0:3,3:0:0:0:
249,155,686293,1,0,3:0:0:0:
379,244,686443,6,0,L|346:219,1,25,2|2,3:0|0:3,3:0:0:0:
261,154,686593,1,0,3:0:0:0:
377,129,686743,6,0,L|343:133,1,25,2|2,3:0|0:3,0:0:0:0:
267,144,686893,1,2,3:0:0:0:
354,356,687043,6,0,B|386:372|410:352|410:352|369:303|386:237,1,179.999994506836,4|0,3:0|0:0,3:0:0:0:
490,276,687343,1,0,3:0:0:0:
417,74,687493,2,0,B|460:67|489:95|489:95|460:162|377:175|321:118,1,279.999991455078,8|0,3:0|3:0,0:0:0:0:
260,25,687943,5,2,0:3:0:0:
223,58,688018,1,2,0:3:0:0:
206,102,688093,1,2,0:3:0:0:
212,145,688168,1,2,0:3:0:0:
234,179,688243,1,2,0:3:0:0:
238,213,688318,1,2,0:3:0:0:
224,242,688393,1,2,0:3:0:0:
200,259,688468,1,2,0:3:0:0:
174,262,688543,1,2,3:3:0:0:
151,255,688618,1,2,3:3:0:0:
136,241,688693,2,0,P|125:209|136:174,1,50,2|2,3:3|3:3,0:3:0:0:
335,121,688843,6,0,B|369:122|385:147|385:147|331:192|353:268,1,179.999994506836,4|0,3:0|0:0,3:0:0:0:
445,227,689143,1,0,3:0:0:0:
391,37,689293,2,0,B|331:2|263:43|263:43|222:117|135:98,1,279.999991455078,8|0,3:0|3:0,0:0:0:0:
202,219,689743,6,0,L|198:194,1,25,2|2,3:0|0:3,0:0:0:0:
171,0,689893,1,0,3:0:0:0:
87,165,690043,6,0,L|100:138,1,25,2|2,3:0|0:3,0:0:0:0:
167,8,690193,1,0,3:0:0:0:
41,71,690343,6,0,L|66:57,1,25,2|2,3:0|0:3,0:0:0:0:
158,8,690493,1,0,3:0:0:0:
3,231,690643,5,4,3:0:0:0:
159,15,690793,1,8,3:0:0:0:
248,264,690943,2,0,B|210:279|210:279|109:229,1,119.999996337891,8|4,3:0|3:0,0:0:0:0:
269,57,691243,5,8,3:0:0:0:
374,186,691393,1,8,3:0:0:0:
243,263,691543,1,0,3:0:0:0:
313,344,691693,5,0,3:0:0:0:
324,309,691768,1,0,3:0:0:0:
315,280,691843,1,2,3:0:0:0:
297,262,691918,1,2,3:0:0:0:
280,255,691993,1,2,3:0:0:0:
253,240,692068,1,2,3:0:0:0:
232,210,692143,1,2,3:0:0:0:
233,168,692218,1,2,3:0:0:0:
267,134,692293,2,0,P|307:132|351:161,1,59.9999981689454,2|2,3:0|3:0,0:0:0:0:
500,257,692443,5,4,3:0:0:0:
448,275,692518,1,0,3:0:0:0:
393,265,692593,1,0,3:0:0:0:
355,225,692668,1,0,3:0:0:0:
345,170,692743,1,4,3:0:0:0:
369,121,692818,1,0,3:0:0:0:
367,66,692893,1,0,3:0:0:0:
327,26,692968,1,0,3:0:0:0:
273,14,693043,1,4,3:0:0:0:
222,33,693118,1,0,3:0:0:0:
199,83,693193,1,0,3:0:0:0:
213,135,693268,1,0,3:0:0:0:
256,168,693343,5,12,3:0:0:0:
266,114,693418,1,0,3:0:0:0:
231,70,693493,1,0,3:0:0:0:
177,58,693568,1,0,3:0:0:0:
126,78,693643,1,4,3:0:0:0:
101,126,693718,1,0,3:0:0:0:
114,179,693793,1,0,3:0:0:0:
156,214,693868,1,0,3:0:0:0:
171,267,693943,1,4,3:0:0:0:
157,319,694018,1,0,3:0:0:0:
116,354,694093,1,0,3:0:0:0:
61,350,694168,1,0,3:0:0:0:
17,317,694243,5,4,3:0:0:0:
63,289,694318,1,0,3:0:0:0:
117,293,694393,1,0,3:0:0:0:
166,318,694468,1,0,3:0:0:0:
191,367,694543,1,4,3:0:0:0:
243,383,694618,1,0,3:0:0:0:
297,380,694693,1,0,3:0:0:0:
334,339,694768,1,0,3:0:0:0:
337,284,694843,1,4,3:0:0:0:
305,238,694918,1,0,3:0:0:0:
251,225,694993,2,0,P|219:234|195:275,1,50,0|0,3:0|3:0,0:0:0:0:
444,381,695143,5,12,3:0:0:0:
453,363,695218,1,0,3:0:0:0:
458,343,695293,1,0,3:0:0:0:
456,323,695368,1,0,3:0:0:0:
445,305,695443,5,4,3:0:0:0:
410,344,695518,1,0,3:0:0:0:
360,347,695593,1,0,3:0:0:0:
320,319,695668,1,0,3:0:0:0:
307,275,695743,1,4,3:0:0:0:
323,235,695818,1,0,3:0:0:0:
358,215,695893,1,0,3:0:0:0:
395,214,695968,1,0,3:0:0:0:
426,229,696043,1,4,3:0:0:0:
458,231,696118,1,0,3:0:0:0:
486,220,696193,1,0,3:0:0:0:
504,200,696268,1,0,3:0:0:0:
510,175,696343,5,4,3:0:0:0:
471,163,696418,1,0,3:0:0:0:
433,176,696493,1,0,3:0:0:0:
409,208,696568,1,0,3:0:0:0:
402,247,696643,1,4,3:0:0:0:
420,282,696718,1,0,3:0:0:0:
454,302,696793,2,0,P|476:306|523:293,1,50,0|0,3:0|3:0,0:0:0:0:
426,99,696943,5,12,3:0:0:0:
397,70,697018,1,0,3:0:0:0:
358,60,697093,1,0,3:0:0:0:
318,67,697168,1,0,3:0:0:0:
292,97,697243,1,4,3:0:0:0:
289,136,697318,1,0,3:0:0:0:
268,170,697393,1,0,3:0:0:0:
229,182,697468,1,0,3:0:0:0:
190,172,697543,1,4,3:0:0:0:
163,141,697618,1,0,3:0:0:0:
159,101,697693,2,0,P|172:74|192:55,1,50,0|0,3:0|3:0,0:0:0:0:
200,262,697843,5,4,3:0:0:0:
185,315,697918,1,0,3:0:0:0:
138,344,697993,1,0,3:0:0:0:
83,339,698068,1,0,3:0:0:0:
41,302,698143,2,0,P|28:268|27:234,1,50,2|0,3:0|3:0,0:0:0:0:
184,196,698293,5,0,3:0:0:0:
223,198,698368,1,0,3:0:0:0:
258,216,698443,1,2,3:0:0:0:
284,245,698518,1,0,3:0:0:0:
294,283,698593,2,0,P|292:306|273:339,1,50,0|0,3:0|3:0,0:0:0:0:
114,214,698743,5,12,3:0:0:0:
112,189,698818,1,0,3:0:0:0:
121,165,698893,1,4,3:0:0:0:
138,146,698968,1,0,3:0:0:0:
160,136,699043,1,4,3:2:0:0:
184,134,699118,1,0,3:0:0:0:
207,141,699193,1,0,3:0:0:0:
226,156,699268,1,0,3:0:0:0:
249,164,699343,1,4,3:2:0:0:
273,166,699418,1,0,3:0:0:0:
297,159,699493,1,0,3:0:0:0:
317,144,699568,1,0,3:0:0:0:
326,120,699643,5,4,3:0:0:0:
286,120,699718,1,0,3:0:0:0:
251,140,699793,1,0,3:0:0:0:
235,177,699868,1,0,3:0:0:0:
243,216,699943,1,4,3:0:0:0:
271,244,700018,1,0,3:0:0:0:
308,256,700093,1,0,3:0:0:0:
334,286,700168,1,0,3:0:0:0:
339,325,700243,1,4,3:0:0:0:
325,362,700318,1,0,3:0:0:0:
289,379,700393,2,0,P|262:381|228:363,1,50,0|0,3:0|3:0,0:0:0:0:
410,213,700543,5,12,3:0:0:0:
451,241,700618,1,0,3:0:0:0:
468,287,700693,1,0,3:0:0:0:
455,335,700768,1,0,3:0:0:0:
413,363,700843,1,4,3:0:0:0:
363,358,700918,1,0,3:0:0:0:
325,324,700993,1,0,3:0:0:0:
316,274,701068,1,0,3:0:0:0:
337,228,701143,1,4,3:0:0:0:
334,178,701218,1,0,3:0:0:0:
305,136,701293,1,0,3:0:0:0:
257,120,701368,1,0,3:0:0:0:
208,132,701443,5,12,3:0:0:0:
233,175,701518,1,0,3:0:0:0:
280,191,701593,1,0,3:0:0:0:
329,183,701668,1,0,3:0:0:0:
358,142,701743,1,4,3:0:0:0:
361,92,701818,1,0,3:0:0:0:
392,52,701893,1,0,3:0:0:0:
441,42,701968,1,0,3:0:0:0:
488,57,702043,1,4,3:0:0:0:
511,101,702118,1,0,3:0:0:0:
508,150,702193,2,0,P|493:170|454:188,1,50,0|0,3:0|3:0,0:0:0:0:
357,97,702343,5,12,3:0:0:0:
343,81,702418,1,0,3:0:0:0:
335,62,702493,1,0,3:0:0:0:
337,43,702568,1,0,3:0:0:0:
344,25,702643,5,4,3:0:0:0:
331,52,702718,1,0,3:0:0:0:
308,71,702793,1,0,3:0:0:0:
278,76,702868,1,0,3:0:0:0:
249,66,702943,1,4,3:0:0:0:
228,44,703018,1,0,3:0:0:0:
198,37,703093,1,0,3:0:0:0:
168,43,703168,1,0,3:0:0:0:
144,61,703243,1,4,3:0:0:0:
131,88,703318,1,0,3:0:0:0:
131,118,703393,1,0,3:0:0:0:
146,143,703468,1,0,3:0:0:0:
172,157,703543,5,4,3:0:0:0:
204,119,703618,1,0,3:0:0:0:
204,69,703693,1,0,3:0:0:0:
172,30,703768,1,0,3:0:0:0:
125,12,703843,1,4,3:0:0:0:
75,21,703918,1,0,3:0:0:0:
41,57,703993,2,0,P|32:86|41:133,1,50,0|0,3:0|3:0,0:0:0:0:
153,255,704143,5,12,3:0:0:0:
115,287,704218,1,0,3:0:0:0:
66,288,704293,1,0,3:0:0:0:
28,255,704368,1,0,3:0:0:0:
26,204,704443,1,4,3:0:0:0:
50,167,704518,1,0,3:0:0:0:
89,156,704593,1,0,3:0:0:0:
122,168,704668,1,0,3:0:0:0:
135,194,704743,1,4,3:0:0:0:
132,218,704818,1,0,3:0:0:0:
121,233,704893,2,0,P|99:237|66:228,1,50,0|0,3:0|3:0,0:0:0:0:
271,266,705043,5,4,3:0:0:0:
304,224,705118,1,0,3:0:0:0:
308,171,705193,1,0,3:0:0:0:
285,120,705268,1,0,3:0:0:0:
237,90,705343,2,0,P|205:91|169:112,1,50,2|0,3:0|3:0,0:0:0:0:
194,288,705493,5,4,3:2:0:0:
217,320,705568,1,0,3:0:0:0:
253,341,705643,1,4,3:2:0:0:
294,342,705718,1,0,3:0:0:0:
331,325,705793,2,0,P|352:299|360:261,1,50,4|0,3:0|3:0,0:0:0:0:
197,197,705943,5,12,3:0:0:0:
172,195,706018,1,0,3:0:0:0:
147,201,706093,1,0,3:0:0:0:
128,217,706168,1,0,3:0:0:0:
118,240,706243,1,4,3:0:0:0:
118,264,706318,1,0,3:0:0:0:
128,286,706393,1,0,3:0:0:0:
131,310,706468,1,0,3:0:0:0:
124,334,706543,1,4,3:0:0:0:
106,351,706618,1,0,3:0:0:0:
82,358,706693,1,0,3:0:0:0:
57,358,706768,1,0,3:0:0:0:
36,343,706843,5,4,3:0:0:0:
64,314,706918,1,0,3:0:0:0:
102,303,706993,1,0,3:0:0:0:
141,305,707068,1,0,3:0:0:0:
175,324,707143,1,4,3:0:0:0:
195,358,707218,1,0,3:0:0:0:
229,377,707293,1,0,3:0:0:0:
268,378,707368,1,0,3:0:0:0:
306,365,707443,1,4,3:0:0:0:
329,332,707518,1,0,3:0:0:0:
331,292,707593,2,0,P|322:261|298:236,1,50,0|0,3:0|3:0,0:0:0:0:
120,204,707743,5,12,3:0:0:0:
117,253,707818,1,0,3:0:0:0:
140,297,707893,1,0,3:0:0:0:
184,320,707968,1,0,3:0:0:0:
233,322,708043,1,4,3:0:0:0:
277,299,708118,1,0,3:0:0:0:
301,255,708193,1,0,3:0:0:0:
297,205,708268,1,0,3:0:0:0:
269,162,708343,1,4,3:0:0:0:
272,117,708418,1,0,3:0:0:0:
297,85,708493,1,0,3:0:0:0:
330,75,708568,1,0,3:0:0:0:
358,83,708643,5,4,3:0:0:0:
331,125,708718,1,0,3:0:0:0:
285,145,708793,1,0,3:0:0:0:
235,137,708868,1,0,3:0:0:0:
200,100,708943,1,4,3:0:0:0:
191,50,709018,1,0,3:0:0:0:
155,15,709093,1,0,3:0:0:0:
106,2,709168,1,0,3:0:0:0:
58,16,709243,1,4,3:0:0:0:
28,56,709318,1,0,3:0:0:0:
26,105,709393,2,0,P|35:130|63:157,1,50,0|0,3:0|3:0,0:0:0:0:
213,0,709543,5,12,3:0:0:0:
262,4,709618,1,0,3:0:0:0:
304,31,709693,1,0,3:0:0:0:
327,75,709768,1,0,3:0:0:0:
321,124,709843,1,4,3:0:0:0:
342,169,709918,1,0,3:0:0:0:
386,191,709993,1,0,3:0:0:0:
435,196,710068,1,0,3:0:0:0:
480,174,710143,5,4,3:0:0:0:
455,156,710218,1,0,3:0:0:0:
425,155,710293,2,0,P|399:167|383:197,1,50,0|0,3:0|3:0,0:0:0:0:
457,327,710443,5,4,3:0:0:0:
415,354,710518,1,0,3:0:0:0:
366,355,710593,1,0,3:0:0:0:
321,335,710668,1,0,3:0:0:0:
293,294,710743,1,4,3:0:0:0:
246,279,710818,1,0,3:0:0:0:
197,288,710893,1,0,3:0:0:0:
162,323,710968,1,0,3:0:0:0:
164,373,711043,5,4,3:0:0:0:
214,364,711118,1,0,3:0:0:0:
243,323,711193,2,0,P|247:299|241:272,1,50,0|0,3:0|3:0,3:0:0:0:
9,237,711343,5,12,3:0:0:0:
20,285,711418,1,0,3:0:0:0:
58,313,711493,1,0,3:0:0:0:
102,314,711568,1,0,3:0:0:0:
140,295,711643,1,4,3:0:0:0:
152,256,711718,1,0,3:0:0:0:
143,219,711793,1,0,3:0:0:0:
113,199,711868,1,0,3:0:0:0:
80,204,711943,1,4,3:0:0:0:
63,228,712018,1,0,3:0:0:0:
65,255,712093,2,0,P|77:277|127:279,1,50,0|0,3:0|3:0,3:0:0:0:
209,166,712243,5,2,3:2:0:0:
177,120,712318,1,2,3:2:0:0:
128,94,712393,1,2,3:2:0:0:
72,98,712468,1,2,3:2:0:0:
25,124,712543,2,0,P|10:144|-7:190,1,50,2|2,3:2|3:2,0:0:0:0:
243,242,712693,5,2,3:2:0:0:
278,224,712768,1,2,3:2:0:0:
301,190,712843,1,2,3:2:0:0:
301,150,712918,1,2,3:2:0:0:
278,115,712993,2,0,P|254:103|210:94,1,50,2|2,3:2|3:2,0:0:0:0:
351,242,713143,5,10,3:2:0:0:
379,251,713218,1,2,3:2:0:0:
408,248,713293,1,2,3:2:0:0:
434,233,713368,1,2,3:2:0:0:
449,207,713443,1,2,3:2:0:0:
449,177,713518,1,2,3:2:0:0:
435,150,713593,5,2,3:2:0:0:
426,162,713668,1,2,3:2:0:0:
421,176,713743,1,2,3:2:0:0:
421,190,713818,1,2,3:2:0:0:
424,204,713893,1,2,3:2:0:0:
432,216,713968,1,2,3:2:0:0:
443,225,714043,5,4,3:0:0:0:
403,194,714118,1,0,3:0:0:0:
353,203,714193,1,0,3:0:0:0:
315,236,714268,1,0,3:0:0:0:
305,285,714343,1,4,3:0:0:0:
264,314,714418,1,0,3:0:0:0:
214,313,714493,1,0,3:0:0:0:
174,281,714568,1,0,3:0:0:0:
164,231,714643,1,4,3:0:0:0:
191,189,714718,1,0,3:0:0:0:
238,173,714793,2,0,P|270:180|298:199,1,50,0|0,3:0|3:0,0:0:0:0:
54,285,714943,5,12,3:0:0:0:
70,332,715018,1,0,3:0:0:0:
114,355,715093,1,0,3:0:0:0:
163,354,715168,1,0,3:0:0:0:
201,321,715243,1,4,3:0:0:0:
213,272,715318,1,0,3:0:0:0:
189,227,715393,1,0,3:0:0:0:
145,201,715468,1,0,3:0:0:0:
95,209,715543,1,4,3:0:0:0:
53,190,715618,1,0,3:0:0:0:
34,154,715693,1,0,3:0:0:0:
40,119,715768,1,0,3:0:0:0:
62,99,715843,5,4,3:0:0:0:
62,133,715918,1,0,3:0:0:0:
81,161,715993,1,0,3:0:0:0:
112,176,716068,1,0,3:0:0:0:
146,170,716143,1,4,3:0:0:0:
172,147,716218,1,0,3:0:0:0:
206,138,716293,1,0,3:0:0:0:
239,148,716368,1,0,3:0:0:0:
266,170,716443,5,4,3:0:0:0:
236,196,716518,1,0,3:0:0:0:
196,196,716593,2,0,P|171:183|152:165,1,50,0|0,3:0|3:0,0:0:0:0:
351,57,716743,5,12,3:0:0:0:
377,86,716818,1,0,3:0:0:0:
381,125,716893,1,0,3:0:0:0:
365,161,716968,1,0,3:0:0:0:
331,182,717043,1,4,3:0:0:0:
313,217,717118,1,0,3:0:0:0:
309,256,717193,1,0,3:0:0:0:
325,292,717268,1,0,3:0:0:0:
355,317,717343,5,4,3:0:0:0:
380,274,717418,1,0,3:0:0:0:
375,224,717493,1,0,3:0:0:0:
343,185,717568,1,0,3:0:0:0:
296,167,717643,1,4,3:0:0:0:
246,173,717718,1,0,3:0:0:0:
206,204,717793,1,0,3:0:0:0:
188,250,717868,1,0,3:0:0:0:
200,298,717943,1,4,3:0:0:0:
232,335,718018,1,0,3:0:0:0:
281,344,718093,5,0,3:0:0:0:
256,312,718168,1,0,3:0:0:0:
218,298,718243,1,4,3:0:0:0:
178,300,718318,1,0,3:0:0:0:
145,323,718393,2,0,P|131:348|129:386,1,50,0|0,3:0|3:0,0:0:0:0:
229,172,718543,5,12,3:0:0:0:
205,139,718618,1,0,3:0:0:0:
167,125,718693,1,0,3:0:0:0:
127,132,718768,1,0,3:0:0:0:
98,160,718843,1,4,3:0:0:0:
88,198,718918,1,0,3:0:0:0:
101,235,718993,1,0,3:0:0:0:
128,257,719068,1,0,3:0:0:0:
157,263,719143,1,4,3:0:0:0:
180,255,719218,1,0,3:0:0:0:
195,242,719293,2,0,P|206:215|197:179,1,50,0|0,3:0|3:0,0:0:0:0:
16,202,719443,5,4,3:0:0:0:
22,261,719518,1,0,3:0:0:0:
60,307,719593,1,0,3:0:0:0:
115,330,719668,1,0,3:0:0:0:
174,332,719743,2,0,P|208:319|237:292,1,50,4|0,3:0|3:0,0:0:0:0:
103,146,719893,5,0,3:0:0:0:
92,156,719968,1,0,3:0:0:0:
84,169,720043,5,4,3:0:0:0:
119,187,720118,1,0,3:0:0:0:
159,187,720193,2,0,P|188:171|204:140,1,50,0|0,3:0|3:0,0:0:0:0:
175,0,720343,5,12,3:0:0:0:
155,34,720418,1,0,3:0:0:0:
160,73,720493,1,0,3:0:0:0:
188,101,720568,1,0,3:0:0:0:
226,110,720643,1,4,3:0:0:0:
264,97,720718,1,0,3:0:0:0:
303,104,720793,1,0,3:0:0:0:
335,127,720868,1,0,3:0:0:0:
347,165,720943,5,4,3:0:0:0:
307,172,721018,1,0,3:0:0:0:
270,156,721093,2,0,P|254:133|256:92,1,50,0|0,3:0|3:0,0:0:0:0:
413,33,721243,6,0,L|423:101,1,50,4|0,3:0|3:0,0:0:0:0:
279,210,721393,2,0,L|271:160,1,50,2|0,3:2|3:0,0:0:0:0:
421,22,721543,2,0,L|431:90,1,50,2|0,3:2|3:0,0:0:0:0:
183,139,721693,5,10,3:2:0:0:
205,94,721768,1,0,3:0:0:0:
249,70,721843,1,2,3:2:0:0:
298,71,721918,1,0,3:0:0:0:
338,100,721993,2,0,P|353:127|357:159,1,50,2|0,3:2|3:0,0:0:0:0:
193,269,722143,6,0,L|204:215,1,50,2|0,3:2|3:0,3:0:0:0:
64,43,722293,2,0,L|73:91,1,50,2|0,3:2|3:0,3:0:0:0:
181,253,722443,2,0,L|192:199,1,50,2|0,3:2|3:0,3:0:0:0:
2,123,722593,5,10,3:2:0:0:
24,156,722668,1,0,3:0:0:0:
60,174,722743,2,0,P|88:172|132:149,1,50,2|0,3:2|3:0,0:0:0:0:
205,9,722893,6,0,L|156:0,1,50,2|0,3:2|3:0,0:0:0:0:
9,113,723043,2,0,L|57:103,1,50,2|0,3:2|3:0,0:0:0:0:
185,210,723193,2,0,L|136:200,1,50,2|0,3:2|3:0,0:0:0:0:
47,292,723343,2,0,L|95:282,1,50,2|0,3:2|3:0,0:0:0:0:
259,384,723493,5,10,3:2:0:0:
247,330,723568,1,0,3:0:0:0:
205,293,723643,1,2,3:2:0:0:
150,283,723718,1,0,3:0:0:0:
100,307,723793,2,0,P|75:345|72:381,1,50,2|0,3:2|3:0,3:0:0:0:
316,343,723943,6,0,L|364:333,1,50,2|0,3:2|3:0,3:0:0:0:
162,184,724093,2,0,L|113:175,1,50,2|0,3:2|3:0,3:0:0:0:
311,326,724243,2,0,L|359:316,1,50,2|0,3:2|3:0,3:0:0:0:
318,98,724393,5,10,3:2:0:0:
290,109,724468,1,0,3:0:0:0:
271,132,724543,2,0,P|262:167|267:199,1,50,2|0,3:2|3:0,0:0:0:0:
512,252,724693,2,0,L|463:243,1,50,2|0,3:2|3:0,0:0:0:0:
349,68,724843,5,2,3:2:0:0:
299,61,724918,1,0,3:0:0:0:
253,81,724993,1,2,3:2:0:0:
230,125,725068,1,0,3:0:0:0:
190,155,725143,1,2,3:2:0:0:
140,157,725218,1,0,3:0:0:0:
98,129,725293,5,10,3:2:0:0:
142,119,725368,1,0,3:0:0:0:
184,134,725443,1,2,3:2:0:0:
211,169,725518,1,0,3:0:0:0:
253,184,725593,1,2,3:2:0:0:
297,182,725668,1,0,3:0:0:0:
336,160,725743,5,2,3:2:0:0:
296,152,725818,1,0,3:0:0:0:
259,168,725893,1,2,3:2:0:0:
244,205,725968,1,0,3:0:0:0:
212,229,726043,1,2,3:2:0:0:
172,228,726118,1,0,3:0:0:0:
137,207,726193,5,10,3:2:0:0:
182,192,726268,1,0,3:0:0:0:
226,203,726343,1,2,3:2:0:0:
255,235,726418,1,0,3:0:0:0:
263,276,726493,1,2,3:2:0:0:
249,313,726568,1,0,3:0:0:0:
218,335,726643,1,2,3:2:0:0:
182,339,726718,1,0,3:0:0:0:
149,329,726793,1,2,3:2:0:0:
125,306,726868,1,0,3:0:0:0:
113,278,726943,1,2,3:2:0:0:
116,250,727018,1,0,3:0:0:0:
130,228,727093,1,10,3:2:0:0:
135,204,727168,1,0,3:0:0:0:
129,182,727243,1,2,3:2:0:0:
115,167,727318,1,0,3:0:0:0:
99,158,727393,1,2,3:2:0:0:
83,156,727468,1,0,3:0:0:0:
69,158,727543,5,2,3:2:0:0:
70,172,727618,1,0,3:0:0:0:
79,186,727693,1,0,3:0:0:0:
96,195,727768,1,0,3:0:0:0:
118,197,727843,1,2,3:2:0:0:
141,188,727918,1,0,3:0:0:0:
154,164,727993,1,2,3:0:0:0:
175,142,728068,1,0,3:0:0:0:
206,135,728143,1,4,3:2:0:0:
239,144,728218,1,0,3:0:0:0:
262,173,728293,1,4,3:0:0:0:
261,212,728368,1,0,3:0:0:0:
229,240,728443,5,4,3:0:0:0:
206,189,728518,1,0,3:0:0:0:
218,135,728593,1,0,3:0:0:0:
258,97,728668,1,0,3:0:0:0:
313,97,728743,2,0,P|334:102|375:132,1,50,0|0,3:0|3:0,0:0:0:0:
294,295,728893,5,12,3:0:0:0:
250,329,728968,1,0,3:0:0:0:
195,332,729043,1,2,3:2:0:0:
146,309,729118,1,0,3:0:0:0:
118,262,729193,1,2,3:2:0:0:
121,208,729268,1,0,3:0:0:0:
157,166,729343,1,2,3:2:0:0:
210,152,729418,1,0,3:0:0:0:
263,165,729493,1,2,3:2:0:0:
313,144,729568,1,0,3:0:0:0:
339,95,729643,1,2,3:2:0:0:
334,40,729718,1,0,3:0:0:0:
290,6,729793,5,10,3:2:0:0:
279,58,729868,1,0,3:0:0:0:
306,105,729943,1,2,3:2:0:0:
352,132,730018,1,0,3:0:0:0:
407,133,730093,1,2,3:2:0:0:
454,161,730168,1,0,3:0:0:0:
474,212,730243,1,2,3:2:0:0:
459,263,730318,1,0,3:0:0:0:
412,292,730393,1,2,3:2:0:0:
358,281,730468,1,0,3:0:0:0:
319,240,730543,1,2,3:2:0:0:
319,184,730618,1,0,3:0:0:0:
353,142,730693,5,10,3:2:0:0:
378,190,730768,1,0,3:0:0:0:
370,244,730843,1,2,3:2:0:0:
333,285,730918,1,0,3:0:0:0:
278,294,730993,1,2,3:2:0:0:
228,270,731068,1,0,3:0:0:0:
200,222,731143,1,2,3:2:0:0:
202,167,731218,1,0,3:0:0:0:
168,123,731293,1,2,3:2:0:0:
115,105,731368,1,0,3:0:0:0:
61,116,731443,1,2,3:2:0:0:
27,159,731518,1,0,3:0:0:0:
27,213,731593,5,10,3:2:0:0:
77,190,731668,1,0,3:0:0:0:
108,144,731743,1,2,3:2:0:0:
111,89,731818,1,0,3:0:0:0:
80,43,731893,2,0,P|59:25|23:11,1,50,2|0,3:2|3:0,3:0:0:0:
170,196,732043,5,2,3:2:0:0:
226,216,732118,1,0,3:0:0:0:
285,209,732193,1,2,3:2:0:0:
335,176,732268,1,0,3:0:0:0:
358,120,732343,1,2,3:2:0:0:
412,95,732418,1,0,3:0:0:0:
469,113,732493,5,10,3:2:0:0:
429,157,732568,1,0,3:0:0:0:
369,159,732643,1,2,3:2:0:0:
316,129,732718,1,0,3:0:0:0:
308,69,732793,2,0,P|321:37|350:9,1,50,2|0,3:2|3:0,3:0:0:0:
471,272,732943,5,2,3:2:0:0:
440,298,733018,1,0,3:0:0:0:
402,298,733093,1,2,3:2:0:0:
370,282,733168,1,0,3:0:0:0:
352,254,733243,1,2,3:2:0:0:
324,241,733318,1,0,3:0:0:0:
296,243,733393,5,10,3:2:0:0:
314,260,733468,1,0,3:0:0:0:
335,266,733543,1,2,3:2:0:0:
355,266,733618,1,0,3:0:0:0:
372,263,733693,2,0,P|394:242|406:213,1,50,2|0,3:2|3:0,0:0:0:0:
343,56,733843,6,0,L|350:118,1,50,2|0,3:2|3:0,3:0:0:0:
189,153,733993,1,10,3:2:0:0:
179,154,734068,1,0,3:0:0:0:
169,156,734143,2,0,L|158:249,1,50,2|0,3:2|3:0,3:0:0:0:
373,248,734293,1,4,3:0:0:0:
384,249,734368,1,0,3:0:0:0:
395,251,734443,2,0,L|402:318,1,50,0|0,3:0|3:0,0:0:0:0:
133,335,734593,2,0,L|126:390,1,50,8|0,3:0|3:0,3:0:0:0:
356,184,734743,5,10,3:2:0:0:
353,174,734818,1,0,3:0:0:0:
344,164,734893,1,2,3:2:0:0:
329,159,734968,1,0,3:0:0:0:
312,160,735043,1,10,3:2:0:0:
296,172,735118,1,0,3:0:0:0:
289,193,735193,1,2,3:2:0:0:
297,216,735268,1,0,3:0:0:0:
319,231,735343,1,10,3:2:0:0:
348,233,735418,1,0,3:0:0:0:
373,211,735493,1,2,3:2:0:0:
375,176,735568,1,0,3:0:0:0:
348,148,735643,5,4,3:0:0:0:
336,180,735718,1,10,3:0:0:0:
339,214,735793,1,2,3:2:0:0:
356,244,735868,1,10,3:0:0:0:
385,262,735943,1,2,3:2:0:0:
419,267,736018,1,10,3:0:0:0:
452,255,736093,5,2,3:2:0:0:
402,231,736168,1,10,3:0:0:0:
347,240,736243,1,2,3:2:0:0:
309,280,736318,1,10,3:0:0:0:
296,333,736393,1,2,3:2:0:0:
253,367,736468,1,10,3:0:0:0:
198,367,736543,1,2,3:2:0:0:
152,336,736618,1,10,3:0:0:0:
133,284,736693,1,2,3:2:0:0:
149,231,736768,1,10,3:0:0:0:
194,199,736843,1,2,3:2:0:0:
248,199,736918,1,10,3:0:0:0:
293,229,736993,1,2,3:2:0:0:
347,238,737068,1,10,3:0:0:0:
399,221,737143,1,2,3:2:0:0:
426,173,737218,1,10,3:0:0:0:
424,118,737293,1,2,3:2:0:0:
393,72,737368,1,10,3:0:0:0:
341,53,737443,1,2,3:2:0:0:
286,61,737518,1,10,3:0:0:0:
248,100,737593,1,2,3:2:0:0:
236,153,737668,1,10,3:0:0:0:
258,203,737743,1,2,3:2:0:0:
307,227,737818,1,10,3:0:0:0:
361,224,737893,1,2,3:2:0:0:
400,185,737968,1,10,3:0:0:0:
404,130,738043,5,2,3:2:0:0:
386,140,738118,1,10,3:0:0:0:
383,159,738193,1,2,3:2:0:0:
402,165,738268,1,10,3:0:0:0:
416,151,738343,1,2,3:2:0:0:
372,137,738418,1,10,3:0:0:0:
328,147,738493,1,2,3:2:0:0:
296,179,738568,1,10,3:0:0:0:
285,222,738643,1,2,3:2:0:0:
250,250,738718,1,10,3:0:0:0:
205,250,738793,5,2,3:2:0:0:
214,232,738868,1,10,3:0:0:0:
234,232,738943,1,2,3:2:0:0:
249,244,739018,1,10,3:0:0:0:
246,263,739093,1,2,3:2:0:0:
228,271,739168,1,10,3:0:0:0:
208,265,739243,1,2,3:2:0:0:
195,232,739318,1,10,3:0:0:0:
164,215,739393,1,2,3:2:0:0:
129,219,739468,1,10,3:0:0:0:
101,240,739543,1,2,3:2:0:0:
92,273,739618,1,10,3:0:0:0:
105,305,739693,5,2,3:2:0:0:
147,306,739768,1,10,3:0:0:0:
182,279,739843,1,2,3:2:0:0:
199,237,739918,1,10,3:0:0:0:
190,194,739993,1,2,3:2:0:0:
155,165,740068,1,10,3:0:0:0:
110,159,740143,1,2,3:2:0:0:
72,136,740218,1,10,3:0:0:0:
52,95,740293,1,2,3:2:0:0:
60,50,740368,1,10,3:0:0:0:
92,20,740443,1,2,3:2:0:0:
134,13,740518,1,10,3:0:0:0:
175,27,740593,1,2,3:2:0:0:
199,63,740668,1,8,3:0:0:0:
197,108,740743,1,2,3:2:0:0:
169,142,740818,1,10,3:0:0:0:
126,151,740893,1,2,3:2:0:0:
83,136,740968,1,10,3:0:0:0:
67,88,741043,5,2,3:2:0:0:
125,74,741118,1,10,3:0:0:0:
182,92,741193,1,2,3:2:0:0:
222,136,741268,1,10,3:0:0:0:
226,195,741343,1,2,3:2:0:0:
270,234,741418,1,10,3:0:0:0:
328,249,741493,1,2,3:2:0:0:
381,222,741568,1,10,3:0:0:0:
399,165,741643,1,2,3:2:0:0:
385,106,741718,1,10,3:0:0:0:
332,76,741793,1,2,3:2:0:0:
272,77,741868,1,10,3:0:0:0:
229,119,741943,1,4,3:2:0:0:
222,178,742018,1,10,3:0:0:0:
183,224,742093,1,4,3:2:0:0:
124,235,742168,1,10,3:0:0:0:
71,206,742243,1,4,3:2:0:0:
49,152,742318,1,10,3:0:0:0:
68,100,742393,1,4,3:0:0:0:
112,72,742468,1,10,3:0:0:0:
161,74,742543,1,2,3:2:0:0:
200,101,742618,1,10,3:0:0:0:
215,143,742693,1,2,3:2:0:0:
195,180,742768,1,10,3:0:0:0:
158,197,742843,1,2,3:2:0:0:
121,188,742918,1,10,3:0:0:0:
99,160,742993,1,2,3:2:0:0:
99,127,743068,1,10,3:0:0:0:
117,104,743143,5,2,3:2:0:0:
134,161,743218,1,10,3:0:0:0:
187,188,743293,1,2,3:2:0:0:
246,185,743368,1,10,3:0:0:0:
287,141,743443,1,2,3:2:0:0:
290,81,743518,1,10,3:0:0:0:
326,33,743593,1,2,3:2:0:0:
384,18,743668,1,10,3:0:0:0:
441,35,743743,1,2,3:2:0:0:
478,81,743818,1,10,3:0:0:0:
480,140,743893,1,2,3:2:0:0:
450,191,743968,1,10,3:0:0:0:
391,204,744043,1,2,3:2:0:0:
332,189,744118,1,10,3:0:0:0:
275,209,744193,1,2,3:2:0:0:
243,259,744268,1,10,3:0:0:0:
249,318,744343,1,2,3:2:0:0:
288,362,744418,1,10,3:0:0:0:
345,379,744493,1,2,3:2:0:0:
402,362,744568,1,10,3:0:0:0:
433,311,744643,1,2,3:2:0:0:
431,251,744718,1,10,3:0:0:0:
389,207,744793,1,2,3:2:0:0:
330,193,744868,1,10,3:0:0:0:
273,214,744943,1,2,3:2:0:0:
242,265,745018,1,10,3:0:0:0:
186,286,745093,1,2,3:2:0:0:
127,274,745168,1,10,3:0:0:0:
84,231,745243,1,2,3:2:0:0:
74,171,745318,1,10,3:0:0:0:
102,118,745393,1,2,3:2:0:0:
155,91,745468,1,10,3:0:0:0:
214,98,745543,1,2,3:2:0:0:
260,135,745618,1,10,3:0:0:0:
273,193,745693,1,2,3:2:0:0:
321,228,745768,1,10,3:0:0:0:
380,237,745843,1,2,3:2:0:0:
433,208,745918,1,10,3:0:0:0:
454,151,745993,1,2,3:2:0:0:
439,91,746068,1,10,3:0:0:0:
388,54,746143,1,2,3:2:0:0:
325,52,746218,1,10,3:0:0:0:
276,92,746293,1,2,3:2:0:0:
261,153,746368,1,10,3:0:0:0:
288,211,746443,1,2,3:2:0:0:
282,275,746518,1,10,3:0:0:0:
235,320,746593,1,2,3:2:0:0:
170,320,746668,1,10,3:0:0:0:
117,282,746743,1,2,3:2:0:0:
101,218,746818,1,10,3:0:0:0:
126,158,746893,1,2,3:2:0:0:
183,128,746968,1,10,3:0:0:0:
247,137,747043,1,2,3:2:0:0:
291,183,747118,1,10,3:0:0:0:
305,246,747193,1,2,3:2:0:0:
355,287,747268,1,10,3:0:0:0:
418,300,747343,1,2,3:2:0:0:
478,277,747418,1,10,3:0:0:0:
509,220,747493,1,2,3:2:0:0:
509,155,747568,1,10,3:0:0:0:
469,103,747643,1,2,3:2:0:0:
407,80,747718,1,10,3:0:0:0:
343,94,747793,1,2,3:2:0:0:
299,142,747868,1,10,3:0:0:0:
287,205,747943,1,2,3:2:0:0:
239,248,748018,1,10,3:0:0:0:
174,245,748093,1,2,3:2:0:0:
123,204,748168,1,10,3:0:0:0:
116,139,748243,5,8,3:0:0:0:
185,167,748318,1,8,3:0:0:0:
219,233,748393,1,8,3:0:0:0:
202,306,748468,1,8,3:0:0:0:
138,346,748543,1,8,3:0:0:0:
63,337,748618,1,8,3:0:0:0:
16,278,748693,5,2,3:3:0:0:
36,263,748768,1,2,2:3:0:0:
60,261,748843,1,2,2:3:0:0:
84,264,748918,1,2,2:3:0:0:
105,276,748993,1,2,2:3:0:0:
120,295,749068,1,2,2:3:0:0:
125,319,749143,5,2,3:3:0:0:
147,286,749218,1,2,2:3:0:0:
152,246,749293,1,2,2:3:0:0:
141,207,749368,1,2,2:3:0:0:
110,181,749443,1,2,2:3:0:0:
70,172,749518,1,2,2:3:0:0:
30,179,749593,5,8,3:0:0:0:
73,240,749668,1,8,3:0:0:0:
145,257,749743,1,8,3:0:0:0:
213,226,749818,1,8,3:0:0:0:
235,154,749893,1,8,3:0:0:0:
211,82,749968,1,8,3:0:0:0:
142,52,750043,5,2,3:3:0:0:
142,77,750118,1,2,2:3:0:0:
151,99,750193,1,2,2:3:0:0:
168,116,750268,1,2,2:3:0:0:
189,127,750343,1,2,2:3:0:0:
213,128,750418,1,2,2:3:0:0:
236,119,750493,5,2,3:3:0:0:
215,153,750568,1,2,2:3:0:0:
219,192,750643,1,2,2:3:0:0:
243,223,750718,1,2,2:3:0:0:
281,233,750793,1,2,2:3:0:0:
304,265,750868,1,2,2:3:0:0:
295,304,750943,5,2,3:0:0:0:
253,267,751018,1,2,3:0:0:0:
246,211,751093,1,2,3:0:0:0:
280,168,751168,1,2,3:0:0:0:
334,160,751243,1,2,3:0:0:0:
381,190,751318,1,2,3:0:0:0:
393,243,751393,5,2,3:0:0:0:
327,218,751468,1,2,3:0:0:0:
285,161,751543,1,2,3:0:0:0:
290,91,751618,1,2,3:0:0:0:
337,39,751693,1,2,3:0:0:0:
406,30,751768,1,2,3:0:0:0:
479,68,751843,6,0,B|421:140|309:123|274:36|274:36|326:164|239:236|226:193|143:225|153:357|153:357|144:241|84:200|67:248|-38:233|-58:93|-22:-57|120:-44|184:53|116:123,1,1199.99996337891,4|0,0:0|0:0,0:0:0:0:
