osu file format v14

[General]
AudioFilename: audio.mp3
AudioLeadIn: 0
PreviewTime: 141803
Countdown: 0
SampleSet: Normal
StackLeniency: 0.9
Mode: 0
LetterboxInBreaks: 0
WidescreenStoryboard: 0

[Editor]
Bookmarks: 53,22695,49196,141803
DistanceSpacing: 1
BeatDivisor: 4
GridSize: 4
TimelineZoom: 1

[Metadata]
Title:And Plague Flowers The Kaleidoscope
TitleUnicode:And Plague Flowers The Kaleidoscope
Artist:Ne Obliviscaris
ArtistUnicode:Ne Obliviscaris
Creator:gamescreator
Version:Death
Source:
Tags:metal rsi
BeatmapID:1298892
BeatmapSetID:615816

[Difficulty]
HPDrainRate:7
CircleSize:4
OverallDifficulty:9
ApproachRate:10
SliderMultiplier:0.8
SliderTickRate:1

[Events]
//Background and Video events
0,0,"9a93272fc30e4c8e7ec372fa77bf7e82.jpg",0,0
//Break Periods
2,86537,141353
//Storyboard Layer 0 (Background)
//Storyboard Layer 1 (Fail)
//Storyboard Layer 2 (Pass)
//Storyboard Layer 3 (Foreground)
//Storyboard Sound Samples

[TimingPoints]
22696,571.428571428571,4,1,0,100,1,0
23482,-50,4,1,0,100,0,0
24625,-100,4,1,0,100,0,0
27624,-50,4,1,0,100,0,0
29624,-100,4,1,0,100,0,0
30981,-50,4,1,0,100,0,0
32695,-100,4,1,0,100,0,0
33838,-50,4,1,0,100,0,0
35838,-100,4,1,0,100,0,0
36981,-50,4,1,0,100,0,0
38695,-100,4,1,0,100,0,0
39981,-50,4,1,0,100,0,0
41981,-100,4,1,0,100,0,0
43267,-50,4,1,0,100,0,0
44981,-100,4,1,0,100,0,0
46124,-50,4,1,0,100,0,0
48695,-200,4,1,0,100,0,0
49195,571.428571428571,4,1,0,100,1,0
49266,-66.6666666666667,4,1,0,100,0,0
141803,571.428571428571,4,1,0,100,1,0
146945,-66.6666666666667,4,1,0,100,0,0

[Colours]
Combo1 : 0,139,41
Combo2 : 0,255,0

[HitObjects]
64,56,22695,6,0,L|152:80,1,80
92,108,23553,2,0,L|180:132,1,80
116,188,24695,2,0,P|180:192|216:144,1,120
248,96,26410,2,0,L|252:128,3,20
312,88,27695,2,0,P|284:172|232:156,2,160
300,216,29695,2,0,L|297:196,3,20
224,228,30981,2,0,B|272:268|272:268|336:272|340:204|324:172|324:172|292:156|264:172,1,240
164,88,32695,2,0,L|167:108,3,20
208,284,33838,2,0,P|120:240|136:176,2,160
188,216,35838,6,0,L|208:188,2,20
237,119,36981,2,0,B|294:146|294:146|326:182|274:218|238:234|238:234|194:222|162:202,1,240
96,136,38695,2,0,L|116:128,3,20
128,52,39981,2,0,P|168:68|184:184,2,160
312,136,41981,2,0,L|304:168,3,20
412,292,43267,2,0,B|312:296|220:244|140:256,1,240
244,124,44981,2,0,L|236:160,3,20
200,332,46124,2,0,B|188:304|172:296|172:296|156:280|164:256|168:216|160:176,1,160
256,36,48695,6,0,L|256:72,1,35
256,256,49480,5,0,0:0:0:0:
392,220,49623,2,0,L|376:188,1,30.0000011444092
220,72,50052,2,0,L|184:80,1,30.0000011444092
268,144,50337,2,0,L|236:148,1,30.0000011444092
336,72,50623,2,0,L|304:76,1,30.0000011444092
238,147,50909,2,0,L|272:144,2,30.0000011444092
256,288,51337,2,0,L|256:228,1,60.0000022888184
256,288,51909,1,0,0:0:0:0:
108,148,52052,5,0,0:0:0:0:
116,176,52195,1,0,0:0:0:0:
128,204,52337,1,0,0:0:0:0:
144,228,52480,1,0,0:0:0:0:
160,252,52623,1,0,0:0:0:0:
328,192,52909,2,0,L|292:188,1,30.0000011444092
328,192,53195,1,0,0:0:0:0:
192,116,53480,5,0,0:0:0:0:
220,104,53623,1,0,0:0:0:0:
248,92,53765,1,0,0:0:0:0:
276,80,53908,1,0,0:0:0:0:
304,68,54051,1,0,0:0:0:0:
112,48,54337,2,0,L|76:44,1,30.0000011444092
112,48,54623,1,0,0:0:0:0:
88,144,54909,6,0,L|96:184,2,30.0000011444092
132,248,55337,1,0,0:0:0:0:
204,296,55480,1,0,0:0:0:0:
296,316,55623,1,0,0:0:0:0:
396,316,55766,2,0,L|456:300,1,60.0000022888184
440,184,56337,6,0,L|448:224,2,30.0000011444092
440,184,56766,1,0,0:0:0:0:
392,76,57052,2,0,L|312:84,1,60.0000022888184
220,92,57623,1,0,0:0:0:0:
144,160,57766,5,0,0:0:0:0:
116,256,57909,2,0,L|156:256,1,30.0000011444092
168,336,58194,2,0,L|200:316,1,30.0000011444092
272,336,58623,1,0,0:0:0:0:
336,236,58909,1,0,0:0:0:0:
356,124,59194,5,0,0:0:0:0:
328,120,59337,1,0,0:0:0:0:
300,116,59480,1,0,0:0:0:0:
272,112,59623,1,0,0:0:0:0:
136,184,59909,1,0,0:0:0:0:
140,212,60052,1,0,0:0:0:0:
144,240,60194,1,0,0:0:0:0:
148,268,60337,1,0,0:0:0:0:
344,320,60623,5,0,0:0:0:0:
260,272,60766,2,0,P|256:236|244:200,1,60.0000022888184
232,188,61194,1,0,0:0:0:0:
216,164,61337,1,0,0:0:0:0:
196,144,61480,2,0,P|168:112|132:92,1,60.0000022888184
76,204,62052,6,0,L|88:240,2,30.0000011444092
84,124,62480,1,0,0:0:0:0:
156,180,62766,2,0,L|240:192,1,60.0000022888184
368,204,63337,1,0,0:0:0:0:
312,276,63480,6,0,L|320:320,3,30.0000011444092
292,320,64052,1,0,0:0:0:0:
264,328,64194,1,0,0:0:0:0:
232,328,64337,1,0,0:0:0:0:
204,320,64480,1,0,0:0:0:0:
176,312,64623,1,0,0:0:0:0:
148,296,64766,1,0,0:0:0:0:
120,284,64909,2,0,L|116:240,3,30.0000011444092
72,96,65623,1,0,0:0:0:0:
168,144,65766,2,0,L|132:148,2,30.0000011444092
240,84,66337,5,0,0:0:0:0:
288,148,66480,1,0,0:0:0:0:
332,276,66766,1,0,0:0:0:0:
288,148,66909,2,0,L|284:192,1,30.0000011444092
240,300,67194,1,0,0:0:0:0:
152,288,67480,5,0,0:0:0:0:
92,228,67766,2,0,L|136:208,3,30.0000011444092
104,136,68480,2,0,L|176:128,1,60.0000022888184
288,92,69052,1,0,0:0:0:0:
268,168,69194,1,0,0:0:0:0:
320,252,69480,2,0,L|352:236,2,30.0000011444092
416,288,70052,2,0,L|356:320,1,60.0000022888184
272,324,70623,5,0,0:0:0:0:
244,320,70766,1,0,0:0:0:0:
216,316,70909,1,0,0:0:0:0:
188,312,71052,1,0,0:0:0:0:
144,196,71337,1,0,0:0:0:0:
172,188,71480,1,0,0:0:0:0:
200,180,71623,1,0,0:0:0:0:
228,172,71766,1,0,0:0:0:0:
328,88,72052,6,0,L|336:136,1,30.0000011444092
416,256,72480,2,0,L|384:268,1,30.0000011444092
312,340,72766,2,0,L|288:316,1,30.0000011444092
120,264,73194,1,0,0:0:0:0:
144,152,73480,2,0,L|152:184,3,30.0000011444092
272,328,74194,2,0,L|288:252,1,60.0000022888184
400,120,74766,1,0,0:0:0:0:
400,120,74909,5,0,0:0:0:0:
400,120,75052,1,0,0:0:0:0:
404,128,75194,2,0,L|420:168,2,30.0000011444092
400,120,75623,1,0,0:0:0:0:
408,196,75766,1,0,0:0:0:0:
392,272,75909,1,0,0:0:0:0:
348,328,76052,2,0,P|320:344|280:352,1,60.0000022888184
284,248,76623,2,0,L|296:280,2,30.0000011444092
252,244,77052,1,0,0:0:0:0:
224,240,77194,2,0,L|208:204,2,30.0000011444092
144,244,77766,6,0,L|157:276,1,30.0000011444092
208,324,78194,1,0,0:0:0:0:
328,328,78480,2,0,L|292:340,2,30.0000011444092
400,296,78909,1,0,0:0:0:0:
412,268,79052,1,0,0:0:0:0:
420,240,79194,1,0,0:0:0:0:
428,212,79337,1,0,0:0:0:0:
432,184,79480,1,0,0:0:0:0:
432,152,79623,1,0,0:0:0:0:
408,44,79909,2,0,L|336:64,1,60.0000022888184
324,72,80337,1,0,0:0:0:0:
300,88,80480,1,0,0:0:0:0:
284,116,80623,6,0,L|264:156,3,30.0000011444092
160,180,81337,2,0,L|208:180,1,30.0000011444092
288,276,81766,2,0,L|256:208,1,60.0000022888184
220,148,82194,2,0,L|188:148,3,30.0000011444092
160,136,82766,1,0,0:0:0:0:
132,124,82909,1,0,0:0:0:0:
108,104,83052,1,0,0:0:0:0:
92,80,83194,1,0,0:0:0:0:
88,20,83480,6,0,L|128:28,1,30.0000011444092
208,40,83909,1,0,0:0:0:0:
336,80,84194,1,0,0:0:0:0:
336,80,84337,2,0,L|344:160,1,60.0000022888184
284,224,84909,2,0,L|320:212,3,30.0000011444092
212,340,85623,2,0,L|244:268,1,60.0000022888184
248,256,86052,1,0,0:0:0:0:
264,232,86194,1,0,0:0:0:0:
280,208,86337,5,0,0:0:0:0:
64,52,141803,5,0,0:0:0:0:
85,73,141945,1,0,0:0:0:0:
111,87,142088,1,0,0:0:0:0:
140,94,142231,1,0,0:0:0:0:
170,91,142374,1,0,0:0:0:0:
198,81,142517,1,0,0:0:0:0:
232,76,142660,5,0,0:0:0:0:
256,93,142803,1,0,0:0:0:0:
276,116,142945,1,0,0:0:0:0:
291,141,143088,1,0,0:0:0:0:
300,170,143231,1,0,0:0:0:0:
304,200,143374,1,0,0:0:0:0:
292,220,143517,5,0,0:0:0:0:
272,236,143660,1,0,0:0:0:0:
252,248,143803,1,0,0:0:0:0:
228,256,143945,1,0,0:0:0:0:
204,260,144088,1,0,0:0:0:0:
180,264,144231,1,0,0:0:0:0:
156,264,144374,5,0,0:0:0:0:
132,236,144517,1,0,0:0:0:0:
116,204,144660,1,0,0:0:0:0:
116,168,144803,1,0,0:0:0:0:
124,132,144945,1,0,0:0:0:0:
140,100,145088,1,0,0:0:0:0:
160,72,145231,5,0,0:0:0:0:
188,64,145374,1,0,0:0:0:0:
216,60,145517,1,0,0:0:0:0:
244,56,145660,1,0,0:0:0:0:
272,52,145803,1,0,0:0:0:0:
300,48,145945,1,0,0:0:0:0:
328,44,146088,5,0,0:0:0:0:
340,72,146231,1,0,0:0:0:0:
348,100,146374,1,0,0:0:0:0:
356,128,146517,1,0,0:0:0:0:
360,156,146660,1,0,0:0:0:0:
364,184,146803,1,0,0:0:0:0:
328,232,146945,6,0,L|288:220,1,30.0000011444092
185,234,147231,2,0,L|215:205,1,30.0000011444092
254,109,147517,2,0,L|264:150,1,30.0000011444092
204,255,147803,6,0,L|222:218,1,30.0000011444092
226,115,148089,2,0,L|249:149,1,30.0000011444092
337,204,148375,2,0,L|295:207,1,30.0000011444092
204,280,148660,5,0,0:0:0:0:
179,262,148802,1,0,0:0:0:0:
158,241,148945,1,0,0:0:0:0:
139,217,149088,1,0,0:0:0:0:
124,191,149231,1,0,0:0:0:0:
113,164,149374,1,0,0:0:0:0:
108,140,149517,5,0,0:0:0:0:
130,120,149659,1,0,0:0:0:0:
156,105,149802,1,0,0:0:0:0:
185,96,149945,1,0,0:0:0:0:
214,94,150088,1,0,0:0:0:0:
244,97,150231,1,0,0:0:0:0:
272,108,150374,5,0,0:0:0:0:
260,135,150516,1,0,0:0:0:0:
250,164,150659,1,0,0:0:0:0:
243,193,150802,1,0,0:0:0:0:
238,222,150945,1,0,0:0:0:0:
236,252,151088,1,0,0:0:0:0:
240,284,151231,5,0,0:0:0:0:
277,287,151373,1,0,0:0:0:0:
314,287,151516,1,0,0:0:0:0:
351,282,151659,1,0,0:0:0:0:
388,272,151802,1,0,0:0:0:0:
420,260,151945,1,0,0:0:0:0:
444,240,152088,5,0,0:0:0:0:
440,210,152230,1,0,0:0:0:0:
434,180,152373,1,0,0:0:0:0:
424,152,152516,1,0,0:0:0:0:
411,125,152659,1,0,0:0:0:0:
395,100,152802,1,0,0:0:0:0:
368,88,152945,5,0,0:0:0:0:
340,100,153088,1,0,0:0:0:0:
312,112,153231,1,0,0:0:0:0:
284,128,153374,1,0,0:0:0:0:
256,144,153517,1,0,0:0:0:0:
228,160,153660,1,0,0:0:0:0:
180,212,153802,6,0,L|168:252,1,30.0000011444092
182,355,154088,2,0,L|153:325,1,30.0000011444092
57,286,154374,2,0,L|98:276,1,30.0000011444092
203,336,154661,6,0,L|166:318,1,30.0000011444092
63,314,154947,2,0,L|97:291,1,30.0000011444092
152,203,155233,2,0,L|155:245,1,30.0000011444092
232,192,155517,5,0,0:0:0:0:
214,168,155659,1,0,0:0:0:0:
204,139,155802,1,0,0:0:0:0:
205,109,155945,1,0,0:0:0:0:
215,81,156088,1,0,0:0:0:0:
233,58,156231,1,0,0:0:0:0:
264,48,156374,5,0,0:0:0:0:
293,45,156516,1,0,0:0:0:0:
323,50,156659,1,0,0:0:0:0:
351,62,156802,1,0,0:0:0:0:
375,79,156945,1,0,0:0:0:0:
400,100,157088,1,0,0:0:0:0:
416,124,157231,5,0,0:0:0:0:
413,153,157373,1,0,0:0:0:0:
411,183,157516,1,0,0:0:0:0:
408,213,157659,1,0,0:0:0:0:
406,243,157802,1,0,0:0:0:0:
404,273,157945,1,0,0:0:0:0:
396,304,158088,5,0,0:0:0:0:
352,308,158231,1,0,0:0:0:0:
308,308,158374,1,0,0:0:0:0:
264,308,158517,1,0,0:0:0:0:
220,304,158660,1,0,0:0:0:0:
176,300,158803,1,0,0:0:0:0:
148,292,158945,5,0,0:0:0:0:
148,262,159087,1,0,0:0:0:0:
146,232,159230,1,0,0:0:0:0:
142,202,159373,1,0,0:0:0:0:
136,172,159516,1,0,0:0:0:0:
129,143,159659,1,0,0:0:0:0:
112,120,159803,5,0,0:0:0:0:
138,105,159945,1,0,0:0:0:0:
166,95,160088,1,0,0:0:0:0:
195,89,160231,1,0,0:0:0:0:
225,87,160374,1,0,0:0:0:0:
255,89,160517,1,0,0:0:0:0:
284,96,160660,5,0,0:0:0:0:
303,119,160802,1,0,0:0:0:0:
324,140,160945,1,0,0:0:0:0:
347,159,161088,1,0,0:0:0:0:
371,176,161231,1,0,0:0:0:0:
398,191,161374,1,0,0:0:0:0:
448,256,161517,6,0,L|409:272,1,30.0000011444092
339,349,161803,2,0,L|343:307,1,30.0000011444092
312,209,162089,2,0,L|346:233,1,30.0000011444092
