osu file format v14

[General]
AudioFilename: audio.mp3
AudioLeadIn: 0
PreviewTime: -1
Countdown: 1
SampleSet: None
StackLeniency: 0.7
Mode: 0
LetterboxInBreaks: 0
WidescreenStoryboard: 1

[Editor]
DistanceSpacing: 0.8
BeatDivisor: 2
GridSize: 32
TimelineZoom: 1

[Metadata]
Title:Tobi Pizda
TitleUnicode:Tobi Pizda
Artist:Ndmc X Thorz
ArtistUnicode:Ndmc X Thorz
Creator:Harmunaku
Version:Insane
Source:
Tags:
BeatmapID:2063456
BeatmapSetID:986312

[Difficulty]
HPDrainRate:4.5
CircleSize:3
OverallDifficulty:5.5
ApproachRate:7.5
SliderMultiplier:1.4
SliderTickRate:1

[Events]
//Background and Video events
0,0,"maynkraft_204522800_orig_.jpg",0,0
//Break Periods
2,5146,17912
//Storyboard Layer 0 (Background)
//Storyboard Layer 1 (Fail)
//Storyboard Layer 2 (Pass)
//Storyboard Layer 3 (Foreground)
//Storyboard Sound Samples

[TimingPoints]
149.691767206378,399.733510992672,4,1,0,100,1,0

[HitObjects]
256,192,149,12,0,4946,0:0:0:0:
136,304,18737,5,0,0:0:0:0:
392,154,18937,1,0,0:0:0:0:
178,121,19137,1,0,0:0:0:0:
253,220,19336,2,8,P|342:299|378:298,1,140
67,250,20136,1,0,0:0:0:0:
148,80,20336,1,0,0:0:0:0:
197,257,20536,1,0,0:0:0:0:
296,172,20735,2,8,P|373:229|427:191,1,140
351,56,21468,6,0,L|419:88,1,46.6666666666667
447,157,21868,2,0,L|397:198,1,46.6666666666667
106,92,22201,5,8,0:0:0:0:
272,277,22534,1,8,0:0:0:0:
300,102,22934,1,8,0:0:0:0:
377,300,23334,1,8,0:0:0:0:
451,78,23733,1,8,0:0:0:0:
122,271,24133,1,8,0:0:0:0:
118,137,24533,2,8,P|197:140|207:174,1,70
259,140,25133,2,8,P|335:166|352:144,1,70
319,289,25532,5,0,0:0:0:0:
319,289,25732,1,0,0:0:0:0:
398,261,25932,2,0,P|442:154|405:105,1,140
405,62,26731,2,0,P|256:51|189:109,1,210
164,166,27731,2,0,B|207:324|207:322,5,140
366,84,30129,1,0,0:0:0:0:
366,84,30329,1,0,0:0:0:0:
384,175,30529,2,0,L|322:251,1,70
262,187,31129,2,0,P|162:245|155:199,1,210
133,124,31928,6,0,L|64:85,1,70
242,50,32528,1,0,0:0:0:0:
350,154,32927,1,0,0:0:0:0:
206,279,33127,1,0,0:0:0:0:
104,143,33327,1,0,0:0:0:0:
205,65,33527,2,0,L|287:42,1,70
361,56,34127,1,0,0:0:0:0:
353,174,34526,2,0,L|398:243,1,70
412,322,34926,1,0,0:0:0:0:
254,335,35126,5,0,0:0:0:0:
65,331,35326,1,0,0:0:0:0:
139,165,35725,1,0,0:0:0:0:
266,58,36125,1,0,0:0:0:0:
400,183,36325,1,0,0:0:0:0:
259,273,36525,1,0,0:0:0:0:
265,164,36725,1,0,0:0:0:0:
344,100,36925,2,0,L|434:28,2,70
430,168,37857,1,0,0:0:0:0:
108,103,38324,5,0,0:0:0:0:
174,61,38524,1,0,0:0:0:0:
181,140,38723,1,0,0:0:0:0:
256,207,39123,2,0,P|311:260|326:256,1,70
380,262,39523,2,0,P|449:263|443:189,1,140
422,128,40123,2,0,P|331:97|288:122,1,140
185,109,40722,1,0,0:0:0:0:
339,132,41122,2,0,L|395:213,1,70
69,336,41522,5,0,0:0:0:0:
102,181,41721,1,0,0:0:0:0:
249,200,41921,1,0,0:0:0:0:
334,268,42388,2,0,L|379:295,1,46.6666666666667
423,223,42787,2,0,L|360:181,1,46.6666666666667
191,90,43121,2,0,L|179:104,4,17.5
277,57,43520,2,0,L|293:69,4,17.5
372,102,43987,1,0,0:0:0:0:
371,198,44120,2,0,P|340:299|309:280,1,140
262,295,44719,5,0,0:0:0:0:
172,188,45119,1,0,0:0:0:0:
257,74,45319,1,0,0:0:0:0:
331,109,45519,2,0,L|392:176,2,70
405,256,46119,1,0,0:0:0:0:
328,178,46518,2,0,L|275:118,2,70
234,75,47318,1,0,0:0:0:0:
249,200,47717,2,0,B|253:279|288:215|293:172|294:176,1,70
365,278,48117,6,0,L|414:279,3,35
452,215,48917,1,0,0:0:0:0:
394,86,49316,1,0,0:0:0:0:
290,69,49716,1,0,0:0:0:0:
199,70,50116,2,0,L|93:110,1,70
368,94,50915,1,0,0:0:0:0:
285,213,51315,1,0,0:0:0:0:
228,268,51515,1,0,0:0:0:0:
168,320,51715,1,0,0:0:0:0:
92,127,52115,6,0,P|132:63|159:83,1,70
194,64,52714,2,0,P|245:135|235:153,1,70
280,184,53314,2,0,P|318:252|363:246,1,70
405,78,54313,1,0,0:0:0:0:
308,202,54713,1,0,0:0:0:0:
240,101,54913,1,0,0:0:0:0:
168,209,55113,1,0,0:0:0:0:
429,284,55512,1,0,0:0:0:0:
432,109,55912,1,0,0:0:0:0:
312,181,56312,5,0,0:0:0:0:
208,36,56512,1,0,0:0:0:0:
97,190,56711,1,0,0:0:0:0:
97,190,56911,1,0,0:0:0:0:
97,190,57111,1,0,0:0:0:0:
256,192,57511,12,0,57911,0:0:0:0:
329,75,58310,5,0,0:0:0:0:
425,240,58710,1,0,0:0:0:0:
249,181,59110,1,0,0:0:0:0:
156,291,59510,1,0,0:0:0:0:
112,203,59909,2,0,L|91:106,1,70
99,49,60509,1,0,0:0:0:0:
248,40,60909,2,0,L|285:39,1,35
290,129,61308,2,0,L|232:132,1,35
134,281,61708,5,0,0:0:0:0:
308,247,61908,1,0,0:0:0:0:
403,203,62108,1,0,0:0:0:0:
403,32,62308,1,0,0:0:0:0:
300,33,62707,2,0,L|144:35,1,140
293,138,63307,1,0,0:0:0:0:
293,138,63707,1,0,0:0:0:0:
256,192,64107,12,0,64506,0:0:0:0:
349,64,64706,6,0,L|407:117,1,70
415,221,65306,2,0,L|333:275,1,70
143,258,65905,2,0,L|97:199,1,70
126,92,66505,2,0,L|180:39,2,70
253,36,67304,2,0,L|294:36,1,35
298,123,67704,2,0,L|234:124,1,35
271,234,68104,1,0,0:0:0:0:
271,234,68304,1,0,0:0:0:0:
372,228,68504,6,0,L|445:228,1,70
138,101,69303,1,0,0:0:0:0:
252,36,69503,1,0,0:0:0:0:
351,49,69703,2,0,L|458:124,1,70
452,173,70103,1,0,0:0:0:0:
379,254,70302,2,0,L|458:254,1,70
199,115,70702,1,0,0:0:0:0:
202,243,71102,1,0,0:0:0:0:
322,326,71302,1,0,0:0:0:0:
428,241,71502,5,0,0:0:0:0:
428,94,71901,1,0,0:0:0:0:
305,75,72301,1,0,0:0:0:0:
110,85,72701,1,0,0:0:0:0:
110,164,72901,1,0,0:0:0:0:
109,242,73101,1,0,0:0:0:0:
192,244,73300,1,0,0:0:0:0:
199,153,73500,2,0,L|284:154,1,70
442,108,74100,1,0,0:0:0:0:
379,243,74500,5,0,0:0:0:0:
270,272,74699,1,0,0:0:0:0:
162,224,74899,1,0,0:0:0:0:
277,115,75299,1,0,0:0:0:0:
420,66,75699,2,0,L|421:149,1,70
421,234,76099,2,0,L|420:323,1,70
329,311,76498,2,0,L|224:313,1,70
171,308,76898,2,0,L|92:307,1,70
236,161,77298,2,0,P|310:154|280:130,2,140
391,289,78497,5,0,0:0:0:0:
87,67,78897,1,0,0:0:0:0:
222,158,79097,1,0,0:0:0:0:
96,222,79296,1,0,0:0:0:0:
224,288,79496,1,0,0:0:0:0:
97,352,79696,1,0,0:0:0:0:
300,340,79896,2,0,L|326:263,1,70
146,122,80695,1,0,0:0:0:0:
338,120,81095,5,0,0:0:0:0:
338,120,81295,1,0,0:0:0:0:
338,120,81495,1,0,0:0:0:0:
455,69,81895,2,0,L|458:156,1,70
340,252,82294,2,0,L|296:251,6,35
219,252,83094,1,0,0:0:0:0:
240,154,83294,2,0,P|274:68|334:72,1,140
449,49,83893,2,0,L|396:185,1,140
360,281,84493,5,0,0:0:0:0:
281,279,84693,2,0,P|200:276|197:235,1,140
229,86,85492,1,0,0:0:0:0:
309,82,85692,1,0,0:0:0:0:
397,83,85892,2,0,P|472:106|438:159,2,140
152,153,87091,2,0,L|211:219,1,70
263,269,87491,2,0,L|325:172,2,70
216,346,88290,1,0,0:0:0:0:
97,186,88690,5,0,0:0:0:0:
201,54,88890,1,0,0:0:0:0:
265,189,89090,1,0,0:0:0:0:
442,193,89290,2,0,P|442:112|386:98,1,140
316,95,90089,1,0,0:0:0:0:
109,232,90489,1,0,0:0:0:0:
256,229,90889,1,0,0:0:0:0:
361,228,91089,1,0,0:0:0:0:
309,136,91288,1,0,0:0:0:0:
440,43,91688,6,0,L|440:120,1,70
99,142,92288,2,0,P|160:79|182:140,1,140
275,118,93087,2,0,P|326:171|258:198,1,140
252,263,93887,2,0,L|330:264,1,70
241,101,94353,2,0,L|300:125,2,46.6666666666667
386,156,95086,1,0,0:0:0:0:
81,84,95486,2,0,L|125:151,1,70
169,240,95885,1,0,0:0:0:0:
253,101,96085,1,0,0:0:0:0:
367,69,96285,1,0,0:0:0:0:
420,149,96685,2,0,L|339:241,1,70
256,192,97085,12,0,98652,0:0:0:0:
