osu file format v14

[General]
AudioFilename: audio.mp3
AudioLeadIn: 0
PreviewTime: 76150
Countdown: 0
SampleSet: Normal
StackLeniency: 0.7
Mode: 0
LetterboxInBreaks: 0
WidescreenStoryboard: 1

[Editor]
DistanceSpacing: 1.2
BeatDivisor: 4
GridSize: 4
TimelineZoom: 1

[Metadata]
Title:Dance Robot Dance
TitleUnicode:ダンスロボットダンス
Artist:Nayutan Seijin
ArtistUnicode:ナユタン星人
Creator:jieusieu
Version:Dance
Source:
Tags:Nayut alieN
BeatmapID:1173208
BeatmapSetID:554130

[Difficulty]
HPDrainRate:6
CircleSize:4
OverallDifficulty:8
ApproachRate:9.2
SliderMultiplier:1.7
SliderTickRate:1

[Events]
//Background and Video events
0,0,"drd.png",0,0
//Break Periods
//Storyboard Layer 0 (Background)
//Storyboard Layer 1 (Fail)
//Storyboard Layer 2 (Pass)
//Storyboard Layer 3 (Foreground)
//Storyboard Sound Samples

[TimingPoints]
400,315.789473684211,4,1,0,50,1,0
400,-133.333333333333,4,1,0,50,0,0
5452,-133.333333333333,4,1,0,55,0,0
10505,-100,4,1,0,60,0,0
20610,-100,4,1,0,50,0,0
30715,-100,4,1,0,60,0,0
35768,-100,4,1,0,55,0,0
45873,-133.333333333333,4,2,0,60,0,0
54400,-100,4,1,0,60,0,0
55978,-100,4,1,0,65,0,0
70505,-133.333333333333,4,1,0,65,0,0
71136,-100,4,1,0,65,0,0
76189,-100,4,1,0,65,0,1
77768,-100,4,1,0,65,0,0
78715,-100,4,1,0,65,0,1
80294,-100,4,1,0,65,0,0
81242,-100,4,1,0,65,0,1
82821,-100,4,1,0,65,0,0
83768,-100,4,1,0,65,0,1
85347,-100,4,1,0,65,0,0

[Colours]
Combo1 : 226,13,1
Combo2 : 255,131,128
Combo3 : 253,56,40
Combo4 : 243,58,86

[HitObjects]
128,328,400,6,0,L|108:172,1,127.500004863739,4|8,0:0|0:0,0:0:0:0:
200,88,1031,2,0,L|204:164,1,63.7500024318696
224,256,1347,1,8,0:0:0:0:
472,196,1663,6,0,L|348:120,1,127.500004863739,0|8,0:0|0:0,0:0:0:0:
256,184,2136,1,0,0:0:0:0:
304,316,2294,2,0,L|300:228,1,63.7500024318696
384,252,2610,1,8,0:0:0:0:
156,192,2847,5,0,0:0:0:0:
156,192,2926,2,0,L|292:168,1,127.500004863739,0|8,0:0|0:0,0:0:0:0:
400,48,3557,2,0,L|316:48,1,63.7500024318696
260,16,3873,1,8,0:0:0:0:
152,132,4189,6,0,L|160:244,1,95.6250036478044
188,248,4505,1,8,0:0:0:0:
360,168,4821,1,8,0:0:0:0:
80,216,5136,1,8,0:0:0:0:
232,100,5294,5,0,0:0:0:0:
232,100,5373,1,0,0:0:0:0:
232,100,5452,1,0,0:0:0:0:
200,184,5610,1,0,0:0:0:0:
300,272,5768,2,0,L|292:168,1,95.6250036478044,8|0,0:0|0:0,0:0:0:0:
308,156,6084,1,0,0:0:0:0:
380,248,6242,1,0,0:0:0:0:
208,260,6400,1,8,0:0:0:0:
368,344,6557,5,0,0:0:0:0:
368,344,6636,1,8,0:0:0:0:
368,344,6715,1,0,0:0:0:0:
368,344,6794,1,8,0:0:0:0:
368,344,6873,1,0,0:0:0:0:
448,308,7031,1,8,0:0:0:0:
276,324,7189,1,0,0:0:0:0:
276,324,7268,1,8,0:0:0:0:
364,216,7426,1,8,0:0:0:0:
364,216,7505,1,0,0:0:0:0:
220,116,7663,2,0,L|232:240,1,95.6250036478044,8|0,0:0|0:0,0:0:0:0:
216,236,7978,5,0,0:0:0:0:
112,164,8136,1,0,0:0:0:0:
296,168,8294,1,8,0:0:0:0:
180,56,8452,1,0,0:0:0:0:
180,56,8531,1,8,0:0:0:0:
180,56,8610,1,0,0:0:0:0:
180,56,8689,1,8,0:0:0:0:
180,56,8768,1,0,0:0:0:0:
328,96,8926,1,8,0:0:0:0:
200,200,9084,1,0,0:0:0:0:
200,200,9163,1,0,0:0:0:0:
200,200,9242,2,0,L|216:124,1,63.7500024318696
256,24,9557,1,8,0:0:0:0:
96,168,9715,5,0,0:0:0:0:
96,168,9794,1,0,0:0:0:0:
96,168,9873,1,8,0:0:0:0:
104,180,9952,1,8,0:0:0:0:
112,196,10031,1,8,0:0:0:0:
120,212,10110,1,8,0:0:0:0:
124,228,10189,1,8,0:0:0:0:
132,244,10268,1,8,0:0:0:0:
140,260,10347,1,8,0:0:0:0:
144,276,10426,1,8,0:0:0:0:
152,296,10505,6,0,L|252:292,1,85,4|2,0:0|0:0,0:0:0:0:
352,344,10821,1,0,0:0:0:0:
488,176,10978,2,0,L|388:156,1,85,2|0,0:0|0:0,0:0:0:0:
172,96,11294,2,0,L|268:72,1,85,2|0,0:0|0:0,0:0:0:0:
408,256,11610,1,2,0:0:0:0:
204,232,11768,5,0,0:0:0:0:
324,52,11926,2,0,L|328:168,1,85,2|0,0:0|0:0,0:0:0:0:
272,344,12242,2,0,L|376:332,1,85,2|0,0:0|0:0,0:0:0:0:
120,248,12557,2,0,L|28:268,1,85,2|0,0:0|0:0,0:0:0:0:
204,96,12873,1,2,0:0:0:0:
140,296,13031,6,0,L|160:396,1,85,0|2,0:0|0:0,0:0:0:0:
264,244,13347,1,0,0:0:0:0:
60,180,13505,2,0,L|72:76,1,85,2|0,0:0|0:0,0:0:0:0:
268,0,13821,2,0,L|284:108,1,85,2|0,0:0|0:0,0:0:0:0:
420,236,14136,1,2,0:0:0:0:
216,188,14294,5,0,0:0:0:0:
316,64,14452,2,0,L|412:72,1,85,2|0,0:0|0:0,0:0:0:0:
336,328,14768,2,0,L|328:224,1,85,2|0,0:0|0:0,0:0:0:0:
200,84,15084,1,2,0:0:0:0:
148,260,15242,1,8,0:0:0:0:
148,260,15321,1,8,0:0:0:0:
148,260,15400,1,8,0:0:0:0:
148,260,15478,1,8,0:0:0:0:
148,260,15557,6,0,L|236:252,1,85,4|2,0:0|0:0,0:0:0:0:
300,112,15874,1,0,0:0:0:0:
368,304,16031,2,0,L|408:220,1,85,2|0,0:0|0:0,0:0:0:0:
212,76,16347,2,0,L|227:159,1,85,2|0,0:0|0:0,0:0:0:0:
416,40,16663,1,2,0:0:0:0:
484,208,16821,5,0,0:0:0:0:
356,124,16979,2,0,L|324:212,1,85,2|0,0:0|0:0,0:0:0:0:
208,348,17295,2,0,L|308:332,1,85,2|0,0:0|0:0,0:0:0:0:
132,188,17610,2,0,L|80:112,1,85,2|0,0:0|0:0,0:0:0:0:
108,316,17926,1,2,0:0:0:0:
248,232,18084,6,0,L|152:220,1,85,0|2,0:0|0:0,0:0:0:0:
40,120,18400,1,0,0:0:0:0:
244,56,18558,2,0,L|234:140,1,85,2|0,0:0|0:0,0:0:0:0:
336,352,18874,2,0,L|355:259,1,85,2|0,0:0|0:0,0:0:0:0:
460,128,19189,1,2,0:0:0:0:
436,292,19347,5,0,0:0:0:0:
300,216,19505,2,0,L|200:228,1,85,8|8,0:0|0:0,0:0:0:0:
80,288,19821,1,8,0:0:0:0:
80,288,19900,1,8,0:0:0:0:
80,288,19978,1,0,0:0:0:0:
88,104,20136,1,8,0:0:0:0:
124,104,20215,1,8,0:0:0:0:
156,112,20294,1,8,0:0:0:0:
184,120,20374,1,8,0:0:0:0:
212,144,20453,1,8,0:0:0:0:
244,152,20531,1,8,0:0:0:0:
284,168,20610,6,0,L|300:56,1,85,4|0,0:0|0:0,0:0:0:0:
156,28,20926,1,0,0:0:0:0:
120,176,21084,2,0,L|212:156,1,85
392,272,21400,2,0,L|216:248,1,170
356,148,21873,5,0,0:0:0:0:
248,52,22031,1,0,0:0:0:0:
248,52,22110,1,0,0:0:0:0:
248,52,22189,1,0,0:0:0:0:
160,168,22347,2,0,L|132:335,1,170
48,164,22821,1,0,0:0:0:0:
180,72,22978,5,0,0:0:0:0:
180,72,23057,1,0,0:0:0:0:
180,72,23136,2,0,L|248:152,1,85
380,184,23452,1,0,0:0:0:0:
284,272,23610,2,0,L|312:104,1,170
192,252,24084,1,0,0:0:0:0:
420,244,24242,6,0,L|396:188,1,42.5,4|0,0:0|0:0,0:0:0:0:
236,48,24557,6,0,L|244:100,1,42.5,4|0,0:0|0:0,0:0:0:0:
152,308,24873,6,0,L|148:240,1,42.5,4|0,0:0|0:0,0:0:0:0:
60,176,25031,5,0,0:0:0:0:
196,104,25189,1,8,0:0:0:0:
196,104,25268,1,8,0:0:0:0:
196,104,25347,1,8,0:0:0:0:
60,264,25505,1,0,0:0:0:0:
240,264,25663,6,0,L|340:220,1,85
304,360,25978,1,0,0:0:0:0:
416,200,26136,2,0,L|328:120,1,85
168,72,26452,2,0,L|340:48,1,170
220,212,26926,5,0,0:0:0:0:
76,152,27084,1,0,0:0:0:0:
76,152,27163,1,0,0:0:0:0:
76,152,27242,1,0,0:0:0:0:
264,132,27400,2,0,L|244:308,1,170
372,368,27873,1,0,0:0:0:0:
428,224,28031,5,0,0:0:0:0:
428,224,28110,1,0,0:0:0:0:
428,224,28189,2,0,L|420:124,1,85
276,216,28505,1,0,0:0:0:0:
216,56,28663,2,0,L|324:68,1,85
152,184,28978,1,0,0:0:0:0:
112,4,29136,2,0,L|51:64,1,85
232,140,29452,5,8,0:0:0:0:
80,224,29610,1,0,0:0:0:0:
80,224,29689,1,0,0:0:0:0:
80,224,29768,1,8,0:0:0:0:
144,92,29926,1,0,0:0:0:0:
224,296,30084,1,8,0:0:0:0:
280,96,30242,1,0,0:0:0:0:
280,96,30321,1,0,0:0:0:0:
280,96,30400,1,8,0:0:0:0:
168,216,30557,1,0,0:0:0:0:
336,316,30715,6,0,L|436:320,1,85,4|2,0:0|0:0,0:0:0:0:
372,160,31031,1,8,0:0:0:0:
240,288,31188,2,0,L|156:328,1,85,2|0,0:0|0:0,0:0:0:0:
108,96,31504,2,0,L|196:124,1,85,2|8,0:0|0:0,0:0:0:0:
12,212,31820,1,2,0:0:0:0:
220,216,31978,5,0,0:0:0:0:
280,44,32136,2,0,L|296:160,1,85,2|8,0:0|0:0,0:0:0:0:
360,324,32452,2,0,L|408:224,1,85,2|0,0:0|0:0,0:0:0:0:
184,288,32767,2,0,L|172:392,1,85,2|8,0:0|0:0,0:0:0:0:
124,144,33083,1,2,0:0:0:0:
312,52,33241,6,0,L|220:72,1,85,0|2,0:0|0:0,0:0:0:0:
80,44,33557,1,8,0:0:0:0:
104,280,33715,2,0,L|142:203,1,85,2|0,0:0|0:0,0:0:0:0:
368,120,34031,2,0,L|378:204,1,85,2|8,0:0|0:0,0:0:0:0:
228,360,34346,1,2,0:0:0:0:
432,288,34505,5,0,0:0:0:0:
232,216,34663,2,0,L|252:112,1,85,8|8,0:0|0:0,0:0:0:0:
312,300,34979,1,8,0:0:0:0:
312,300,35058,1,8,0:0:0:0:
312,300,35136,1,0,0:0:0:0:
132,352,35294,1,8,0:0:0:0:
120,320,35373,1,8,0:0:0:0:
112,288,35452,1,8,0:0:0:0:
104,260,35532,1,8,0:0:0:0:
80,232,35611,1,8,0:0:0:0:
72,200,35689,1,8,0:0:0:0:
56,160,35768,6,0,L|68:60,1,85
52,44,36005,1,0,0:0:0:0:
52,44,36084,1,8,0:0:0:0:
240,40,36242,1,0,0:0:0:0:
240,40,36321,1,8,0:0:0:0:
240,40,36400,1,0,0:0:0:0:
240,40,36478,1,8,0:0:0:0:
240,40,36557,1,0,0:0:0:0:
352,224,36715,1,8,0:0:0:0:
212,168,36873,1,0,0:0:0:0:
192,348,37031,6,0,L|284:352,1,85
304,328,37268,1,0,0:0:0:0:
304,328,37347,1,8,0:0:0:0:
168,216,37505,1,0,0:0:0:0:
168,216,37584,1,8,0:0:0:0:
168,216,37663,1,0,0:0:0:0:
168,216,37742,1,8,0:0:0:0:
168,216,37821,1,0,0:0:0:0:
252,56,37978,1,8,0:0:0:0:
16,116,38136,5,8,0:0:0:0:
16,116,38215,1,8,0:0:0:0:
16,116,38294,2,0,L|68:184,1,85
76,216,38531,1,0,0:0:0:0:
76,216,38610,1,8,0:0:0:0:
216,128,38768,1,0,0:0:0:0:
216,128,38847,1,8,0:0:0:0:
216,128,38926,1,0,0:0:0:0:
216,128,39005,1,8,0:0:0:0:
216,128,39084,1,0,0:0:0:0:
220,328,39242,1,8,0:0:0:0:
72,316,39400,6,0,L|128:300,1,42.5,4|0,0:0|0:0,0:0:0:0:
336,224,39715,6,0,L|268:208,1,42.5,4|0,0:0|0:0,0:0:0:0:
64,88,40031,6,0,L|120:48,1,42.5,4|0,0:0|0:0,0:0:0:0:
236,64,40189,5,8,0:0:0:0:
216,240,40347,1,8,0:0:0:0:
216,240,40426,1,8,0:0:0:0:
216,240,40505,1,8,0:0:0:0:
128,140,40663,1,0,0:0:0:0:
304,136,40821,6,0,L|320:236,1,85,4|0,0:0|0:0,0:0:0:0:
300,248,41057,1,0,0:0:0:0:
300,248,41137,1,8,0:0:0:0:
460,316,41295,1,0,0:0:0:0:
460,316,41374,1,8,0:0:0:0:
460,316,41453,1,0,0:0:0:0:
460,316,41531,1,8,0:0:0:0:
460,316,41610,1,0,0:0:0:0:
412,148,41768,1,8,0:0:0:0:
272,236,41926,1,0,0:0:0:0:
184,104,42084,6,0,L|176:12,1,85
144,8,42320,1,0,0:0:0:0:
144,8,42400,1,8,0:0:0:0:
72,168,42558,1,0,0:0:0:0:
72,168,42637,1,8,0:0:0:0:
72,168,42716,1,0,0:0:0:0:
72,168,42795,1,8,0:0:0:0:
72,168,42874,1,0,0:0:0:0:
188,304,43031,1,8,0:0:0:0:
292,104,43189,5,8,0:0:0:0:
292,104,43268,1,8,0:0:0:0:
292,104,43347,2,0,L|276:192,1,85
284,216,43583,1,0,0:0:0:0:
284,216,43663,1,8,0:0:0:0:
360,336,43821,1,0,0:0:0:0:
360,336,43900,1,8,0:0:0:0:
360,336,43978,1,0,0:0:0:0:
360,336,44057,1,8,0:0:0:0:
360,336,44136,1,0,0:0:0:0:
104,368,44295,5,8,0:0:0:0:
104,368,44373,1,8,0:0:0:0:
104,368,44452,1,8,0:0:0:0:
104,368,44531,1,8,0:0:0:0:
104,368,44610,2,0,L|80:256,1,85,8|0,0:0|0:0,0:0:0:0:
272,168,44926,2,0,L|256:280,1,85,8|0,0:0|0:0,0:0:0:0:
20,140,45242,2,0,L|68:44,1,85,8|0,0:0|0:0,0:0:0:0:
288,84,45557,5,4,0:0:0:0:
408,152,45873,6,0,P|412:112|416:84,1,63.7500024318696
399,75,46110,1,0,0:0:0:0:
399,75,46189,1,8,0:0:0:0:
380,0,46347,1,0,0:0:0:0:
296,208,46505,6,0,P|292:168|288:140,1,63.7500024318696
305,131,46742,1,0,0:0:0:0:
305,131,46821,1,8,0:0:0:0:
324,56,46979,1,0,0:0:0:0:
208,168,47136,6,0,P|212:128|216:100,1,63.7500024318696
199,91,47373,1,0,0:0:0:0:
199,91,47452,1,8,0:0:0:0:
180,16,47610,1,0,0:0:0:0:
120,72,47768,6,0,P|124:100|128:140,1,63.7500024318696
111,149,48005,1,0,0:0:0:0:
111,149,48084,1,8,0:0:0:0:
92,224,48242,1,0,0:0:0:0:
180,268,48400,6,0,P|176:228|172:200,1,63.7500024318696
189,191,48637,1,0,0:0:0:0:
189,191,48716,1,8,0:0:0:0:
208,116,48874,1,0,0:0:0:0:
272,176,49031,6,0,P|268:204|264:244,1,63.7500024318696
281,253,49268,1,0,0:0:0:0:
281,253,49347,1,8,0:0:0:0:
300,328,49505,1,0,0:0:0:0:
380,284,49663,6,0,P|376:244|372:216,1,63.7500024318696,8|0,0:0|0:0,0:0:0:0:
389,207,49900,1,0,0:0:0:0:
389,207,49979,1,8,0:0:0:0:
408,132,50137,1,0,0:0:0:0:
468,188,50294,5,8,0:0:0:0:
432,356,50452,1,8,0:0:0:0:
432,356,50532,1,8,0:0:0:0:
432,356,50611,1,8,0:0:0:0:
308,240,50769,1,0,0:0:0:0:
276,348,50926,6,0,P|236:352|208:356,1,63.7500024318696
199,339,51163,1,0,0:0:0:0:
199,339,51242,1,8,0:0:0:0:
124,320,51400,1,0,0:0:0:0:
332,236,51558,6,0,P|292:232|264:228,1,63.7500024318696
255,245,51795,1,0,0:0:0:0:
255,245,51874,1,8,0:0:0:0:
180,264,52032,1,0,0:0:0:0:
292,148,52189,6,0,P|252:152|224:156,1,63.7500024318696
215,139,52426,1,0,0:0:0:0:
215,139,52505,1,8,0:0:0:0:
140,120,52663,1,0,0:0:0:0:
196,60,52821,6,0,P|224:64|264:68,1,63.7500024318696
273,51,53058,1,0,0:0:0:0:
273,51,53136,1,8,0:0:0:0:
348,32,53295,1,0,0:0:0:0:
215,139,53452,6,0,P|175:135|147:131,1,63.7500024318696
297,245,53689,1,0,0:0:0:0:
297,245,53768,2,0,P|328:240|360:237,1,63.7500024318696,8|0,0:0|0:0,0:0:0:0:
309,151,54084,6,0,P|313:111|317:83,1,63.7500024318696
203,233,54400,1,8,0:0:0:0:
203,233,54478,1,8,0:0:0:0:
203,233,54557,1,8,0:0:0:0:
203,233,54636,1,8,0:0:0:0:
203,233,54715,6,0,P|208:256|216:320,1,85,8|0,0:0|0:0,0:0:0:0:
424,152,55031,2,0,P|401:144|342:119,1,85,8|0,0:0|0:0,0:0:0:0:
384,384,55347,2,0,P|401:368|452:329,1,85,8|0,0:0|0:0,0:0:0:0:
116,112,55978,5,4,0:0:0:0:
164,300,56136,1,2,0:0:0:0:
192,152,56294,1,8,0:0:0:0:
80,304,56452,1,2,0:0:0:0:
264,96,56610,2,0,P|272:132|280:188,1,85,0|2,0:0|0:0,0:0:0:0:
496,248,56925,2,0,P|460:256|408:272,1,85,8|2,0:0|0:0,0:0:0:0:
416,100,57241,5,0,0:0:0:0:
252,256,57399,1,2,0:0:0:0:
436,180,57557,1,8,0:0:0:0:
264,96,57715,1,2,0:0:0:0:
200,332,57873,2,0,P|185:292|162:256,1,85,0|2,0:0|0:0,0:0:0:0:
44,84,58189,2,0,P|88:112|136:128,1,85,8|2,0:0|0:0,0:0:0:0:
252,256,58504,5,0,0:0:0:0:
316,72,58662,1,2,0:0:0:0:
328,276,58820,1,8,0:0:0:0:
200,104,58978,1,2,0:0:0:0:
400,40,59136,2,0,P|396:80|384:140,1,85,0|2,0:0|0:0,0:0:0:0:
452,340,59452,2,0,P|456:300|468:240,1,85,8|2,0:0|0:0,0:0:0:0:
272,152,59768,5,0,0:0:0:0:
308,316,59925,1,2,0:0:0:0:
200,104,60084,1,8,0:0:0:0:
140,288,60242,1,2,0:0:0:0:
388,200,60399,2,0,P|424:204|492:212,1,85,0|2,0:0|0:0,0:0:0:0:
272,64,60715,1,8,0:0:0:0:
272,64,60794,1,8,0:0:0:0:
272,64,60873,1,8,0:0:0:0:
272,64,60952,1,8,0:0:0:0:
272,64,61031,5,0,0:0:0:0:
220,264,61189,1,2,0:0:0:0:
200,104,61346,1,8,0:0:0:0:
368,240,61504,1,0,0:0:0:0:
176,344,61662,2,0,P|144:328|88:316,1,85,0|2,0:0|0:0,0:0:0:0:
272,156,61978,2,0,P|316:148|384:136,1,85,8|2,0:0|0:0,0:0:0:0:
156,200,62294,5,0,0:0:0:0:
332,232,62452,1,2,0:0:0:0:
256,64,62610,1,8,0:0:0:0:
212,268,62768,1,2,0:0:0:0:
32,124,62926,2,0,P|40:156|44:220,1,85,0|2,0:0|0:0,0:0:0:0:
208,364,63242,2,0,P|172:336|128:316,1,85,8|2,0:0|0:0,0:0:0:0:
120,76,63557,5,0,0:0:0:0:
300,172,63715,1,2,0:0:0:0:
140,232,63873,1,8,0:0:0:0:
288,88,64031,1,2,0:0:0:0:
260,304,64189,5,0,0:0:0:0:
224,136,64347,1,2,0:0:0:0:
360,364,64505,1,8,0:0:0:0:
420,124,64663,1,2,0:0:0:0:
500,272,64821,5,8,0:0:0:0:
280,212,64978,1,8,0:0:0:0:
280,212,65057,1,8,0:0:0:0:
280,212,65136,1,8,0:0:0:0:
496,180,65294,1,8,0:0:0:0:
496,180,65373,1,8,0:0:0:0:
496,180,65452,1,8,0:0:0:0:
260,56,65610,1,8,0:0:0:0:
225,45,65689,1,8,0:0:0:0:
192,43,65768,1,8,0:0:0:0:
161,49,65847,1,8,0:0:0:0:
131,62,65926,1,8,0:0:0:0:
106,83,66005,1,8,0:0:0:0:
86,110,66083,5,4,0:0:0:0:
56,308,66241,1,2,0:0:0:0:
176,140,66399,1,8,0:0:0:0:
8,240,66557,1,2,0:0:0:0:
212,308,66715,2,0,P|200:248|188:212,1,85,0|2,0:0|0:0,0:0:0:0:
336,80,67031,2,0,P|300:92|236:104,1,85,8|2,0:0|0:0,0:0:0:0:
284,360,67346,5,0,0:0:0:0:
424,276,67504,1,2,0:0:0:0:
272,192,67662,1,8,0:0:0:0:
364,340,67820,1,2,0:0:0:0:
455,143,67978,2,0,P|459:101|469:60,1,85,0|2,0:0|0:0,0:0:0:0:
213,132,68294,2,0,P|246:158|272:192,1,85,8|2,0:0|0:0,0:0:0:0:
328,28,68610,5,0,0:0:0:0:
384,232,68768,1,2,0:0:0:0:
288,100,68925,1,8,0:0:0:0:
244,292,69083,1,2,0:0:0:0:
80,168,69241,2,0,P|84:120|108:72,1,85,0|2,0:0|0:0,0:0:0:0:
160,328,69557,2,0,P|199:355|229:400,1,85,8|2,0:0|0:0,0:0:0:0:
352,232,69873,5,8,0:0:0:0:
168,141,70031,2,0,L|252:128,1,85,2|8,0:0|0:0,0:0:0:0:
280,320,70346,1,2,0:0:0:0:
432,264,70505,6,0,P|424:300|420:327,1,63.7500024318696,0|10,0:0|0:0,0:0:0:0:
344,80,70821,2,0,P|340:108|333:142,1,63.7500024318696,0|8,0:0|0:0,0:0:0:0:
200,204,71136,5,4,0:0:0:0:
348,240,71294,1,2,0:0:0:0:
168,125,71452,1,8,0:0:0:0:
216,340,71610,1,2,0:0:0:0:
256,132,71768,2,0,P|246:90|239:48,1,85,0|2,0:0|0:0,0:0:0:0:
348,240,72084,2,0,P|389:246|431:256,1,85,8|2,0:0|0:0,0:0:0:0:
200,204,72399,5,4,0:0:0:0:
344,152,72557,1,2,0:0:0:0:
188,288,72715,1,8,0:0:0:0:
372,328,72873,1,2,0:0:0:0:
120,340,73031,2,0,P|79:346|37:356,1,85,0|2,0:0|0:0,0:0:0:0:
200,204,73347,2,0,P|210:162|217:120,1,85,8|2,0:0|0:0,0:0:0:0:
188,288,73663,5,4,0:0:0:0:
308,184,73821,1,0,0:0:0:0:
136,144,73978,1,8,0:0:0:0:
268,260,74136,1,8,0:0:0:0:
304,96,74294,5,4,0:0:0:0:
252,348,74452,1,0,0:0:0:0:
388,208,74610,1,8,0:0:0:0:
124,232,74768,1,8,0:0:0:0:
336,324,74926,5,0,0:0:0:0:
384,124,75084,1,8,0:0:0:0:
252,348,75242,1,8,0:0:0:0:
196,144,75399,1,8,0:0:0:0:
196,144,75478,1,8,0:0:0:0:
196,144,75557,1,0,0:0:0:0:
40,296,75715,1,8,0:0:0:0:
44,252,75794,1,8,0:0:0:0:
48,208,75873,1,8,0:0:0:0:
52,164,75952,1,8,0:0:0:0:
56,120,76031,1,8,0:0:0:0:
60,76,76110,1,8,0:0:0:0:
64,36,76189,6,0,P|100:32|160:24,1,85,4|2,0:0|0:0,0:0:0:0:
224,216,76505,1,8,0:0:0:0:
376,88,76662,2,0,P|372:120|359:171,1,85,2|0,0:0|0:0,0:0:0:0:
480,356,76978,2,0,P|440:324|404:304,1,85,2|8,0:0|0:0,0:0:0:0:
456,144,77294,1,2,0:0:0:0:
240,104,77452,5,0,0:0:0:0:
280,328,77610,2,0,P|320:320|368:312,1,85,2|8,0:0|0:0,0:0:0:0:
104,200,77926,2,0,P|72:188|20:164,1,85,2|0,0:0|0:0,0:0:0:0:
328,128,78241,2,0,P|360:92|392:64,1,85,2|8,0:0|0:0,0:0:0:0:
156,276,78557,1,2,0:0:0:0:
200,0,78715,6,0,P|192:32|184:88,1,85,0|2,0:0|0:0,0:0:0:0:
268,288,79031,1,8,0:0:0:0:
76,252,79189,2,0,P|72:209|60:164,1,85,2|0,0:0|0:0,0:0:0:0:
212,360,79505,2,0,P|256:368|300:384,1,85,2|8,0:0|0:0,0:0:0:0:
408,240,79820,1,2,0:0:0:0:
440,368,79978,5,0,0:0:0:0:
348,176,80136,2,0,P|360:124|380:68,1,85,2|8,0:0|0:0,0:0:0:0:
116,299,80452,2,0,P|140:339|156:375,1,85,2|0,0:0|0:0,0:0:0:0:
280,76,80768,2,0,P|244:53|212:25,1,85,2|8,0:0|0:0,0:0:0:0:
173,37,81005,1,8,0:0:0:0:
133,45,81084,1,8,0:0:0:0:
93,53,81162,1,8,0:0:0:0:
53,65,81241,6,0,P|33:105|5:149,1,85,4|2,0:0|0:0,0:0:0:0:
253,177,81558,1,8,0:0:0:0:
92,340,81715,2,0,P|68:312|20:276,1,85,2|0,0:0|0:0,0:0:0:0:
165,189,82031,2,0,L|81:203,1,85,2|8,0:0|0:0,0:0:0:0:
296,296,82347,1,2,0:0:0:0:
192,108,82505,5,0,0:0:0:0:
396,16,82663,2,0,P|384:64|380:108,1,85,2|8,0:0|0:0,0:0:0:0:
468,336,82978,2,0,P|436:304|396:276,1,85,2|0,0:0|0:0,0:0:0:0:
168,236,83294,2,0,P|208:224|255:203,1,85,2|8,0:0|0:0,0:0:0:0:
456,144,83610,1,2,0:0:0:0:
196,136,83768,6,0,P|204:100|210:53,1,85,0|2,0:0|0:0,0:0:0:0:
76,208,84084,1,8,0:0:0:0:
260,280,84242,2,0,P|252:312|246:363,1,85,2|0,0:0|0:0,0:0:0:0:
400,168,84558,2,0,P|444:160|483:153,1,85,2|8,0:0|0:0,0:0:0:0:
259,190,84873,1,2,0:0:0:0:
400,296,85031,5,0,0:0:0:0:
264,44,85189,1,0,0:0:0:0:
316,312,85347,5,0,0:0:0:0:
328,100,85505,1,0,0:0:0:0:
276,384,85663,5,0,0:0:0:0:
411,84,85821,1,0,0:0:0:0:
184,220,85978,5,8,0:0:0:0:
480,332,86136,1,0,0:0:0:0:
104,244,86294,5,4,0:0:0:0:
