osu file format v14

[General]
AudioFilename: audio.mp3
AudioLeadIn: 0
PreviewTime: 57038
Countdown: 1
SampleSet: Normal
StackLeniency: 0.7
Mode: 0
LetterboxInBreaks: 0
WidescreenStoryboard: 0

[Editor]
DistanceSpacing: 0.6
BeatDivisor: 4
GridSize: 16
TimelineZoom: 1

[Metadata]
Title:Alien Alien (DIVELA Remix)
TitleUnicode:Alien Alien (DIVELA Remix)
Artist:Nayutan Seijin
ArtistUnicode:Nayutan Seijin
Creator:Nitronic Techno
Version:Normal
Source:
Tags:Nayutan Seijin Alien DIVELA Remix Hatsune Miku Beat Nitro Nitronic Techno
BeatmapID:1453801
BeatmapSetID:686964

[Difficulty]
HPDrainRate:4
CircleSize:3.5
OverallDifficulty:4
ApproachRate:4.5
SliderMultiplier:1.25
SliderTickRate:1

[Events]
//Background and Video events
0,0,"Alien.jpg",0,0
//Break Periods
2,32330,37187
2,85226,94029
2,127068,136858
//Storyboard Layer 0 (Background)
//Storyboard Layer 1 (Fail)
//Storyboard Layer 2 (Pass)
//Storyboard Layer 3 (Foreground)
//Storyboard Sound Samples

[TimingPoints]
553,394.736842105263,4,2,0,80,1,0
6868,-95.2380952380952,4,1,0,80,0,0
19500,-105.263157894737,4,1,0,60,0,0
32131,-100,4,1,0,60,0,0
38447,-105.263157894737,4,1,0,60,0,0
49500,-105.263157894737,4,2,0,80,0,0
51079,-111.111111111111,4,1,0,60,0,0
57395,-90.9090909090909,4,1,0,80,0,1
82658,-100,4,1,0,80,0,0
95289,-111.111111111111,4,2,0,50,0,0
107921,-105.263157894737,4,1,0,60,0,0
126868,-100,4,2,0,60,0,0
138118,-100,4,1,0,60,0,0
139500,-90.9090909090909,4,1,0,80,0,1
152131,-89.2857142857143,4,1,0,85,0,1
164763,-100,4,1,0,80,0,0

[HitObjects]
96,96,553,6,2,P|80:144|96:224,1,125
128,272,1145,1,0,0:0:0:0:
256,256,1539,2,8,L|288:192,2,62.5
288,304,2131,6,2,P|336:304|400:240,1,125
400,192,2724,1,0,0:0:0:0:
320,96,3118,2,8,L|272:160,2,62.5
272,64,3710,6,2,L|144:64,1,125
112,128,4303,2,0,L|240:128,1,125,0|8,0:0|0:0,0:0:0:0:
256,192,4895,2,8,L|256:256,1,62.5
256,192,5289,12,4,6474,0:0:0:0:
160,80,6868,6,8,P|128:128|144:224,1,131.249995994568
224,304,7658,2,2,P|256:256|256:208,2,98.437496995926
192,240,8447,6,8,P|192:192|256:144,1,131.249995994568
384,160,9237,2,2,P|400:192|400:256,2,98.437496995926
336,112,10026,6,8,B|288:48|224:32,1,131.249995994568
256,160,10816,2,2,P|224:176|160:176,2,98.437496995926
320,192,11605,6,0,B|320:256|320:256|224:272,1,131.249995994568,8|0,0:0|0:0,0:0:0:0:
240,208,12197,2,0,B|176:208|176:208|160:288,1,131.249995994568,8|0,0:0|0:0,0:0:0:0:
96,304,12789,2,0,P|80:272|96:176,2,131.249995994568,8|8|8,0:0|0:0|0:0,0:0:0:0:
224,336,13974,2,2,L|336:352,2,98.437496995926
208,272,14763,6,8,P|224:224|208:144,1,131.249995994568
96,80,15553,2,2,P|80:112|80:176,2,98.437496995926
144,128,16342,6,8,L|240:32,1,131.249995994568
368,80,17131,2,2,P|384:112|368:176,2,98.437496995926
320,128,17921,6,2,P|288:160|192:160,1,131.249995994568
80,144,18710,2,2,P|110:87|170:64,1,131.249995994568
288,48,19500,6,2,P|320:64|368:144,1,118.749996829033
320,160,20092,1,0,0:0:0:0:
320,160,20289,2,0,P|288:176|208:192,1,118.749996829033
96,176,21079,6,0,L|48:240,1,59.3749984145165,2|0,0:0|0:0,0:0:0:0:
32,272,21474,2,0,L|96:320,1,59.3749984145165,2|0,0:0|0:0,0:0:0:0:
128,336,21868,2,0,L|176:272,1,59.3749984145165,2|0,0:0|0:0,0:0:0:0:
192,240,22263,2,0,L|128:192,1,59.3749984145165,2|0,0:0|0:0,0:0:0:0:
144,144,22658,6,2,P|176:128|272:144,1,118.749996829033
304,160,23250,1,0,0:0:0:0:
304,160,23447,2,0,P|352:176|416:160,1,118.749996829033
352,64,24237,6,0,L|320:128,1,59.3749984145165,2|0,0:0|0:0,0:0:0:0:
272,96,24631,2,0,L|240:160,1,59.3749984145165,2|0,0:0|0:0,0:0:0:0:
224,208,25026,1,2,0:0:0:0:
224,208,25224,1,0,0:0:0:0:
256,256,25421,2,0,L|224:320,1,59.3749984145165,2|0,0:0|0:0,0:0:0:0:
176,320,25816,6,2,P|144:336|64:288,1,118.749996829033
48,256,26408,1,0,0:0:0:0:
32,192,26605,2,0,P|48:160|128:128,1,118.749996829033
208,48,27395,6,0,L|192:128,1,59.3749984145165,2|0,0:0|0:0,0:0:0:0:
256,128,27789,2,0,L|240:192,1,59.3749984145165,2|0,0:0|0:0,0:0:0:0:
304,208,28184,2,0,L|288:272,1,59.3749984145165,2|0,0:0|0:0,0:0:0:0:
336,304,28579,2,0,L|320:368,1,59.3749984145165,2|0,0:0|0:0,0:0:0:0:
384,368,28974,6,8,L|432:240,1,118.749996829033
320,192,29763,2,8,L|288:64,1,118.749996829033
256,192,30552,12,4,32130,0:0:0:0:
176,48,38447,6,2,P|160:112|176:176,1,118.749996829033
224,192,39039,1,0,0:0:0:0:
224,192,39237,2,0,P|240:240|224:320,1,118.749996829033
352,320,40026,6,2,L|416:208,1,118.749996829033
384,160,40618,2,0,L|432:96,2,59.3749984145165,0|2|0,0:0|0:0|0:0,0:0:0:0:
320,176,41210,2,0,L|272:224,1,59.3749984145165,2|0,0:0|0:0,0:0:0:0:
224,224,41605,6,2,P|176:208|176:144,1,118.749996829033
208,96,42197,1,0,0:0:0:0:
208,96,42395,2,0,P|256:112|320:96,1,118.749996829033
416,176,43184,6,0,L|384:240,1,59.3749984145165,2|0,0:0|0:0,0:0:0:0:
336,224,43579,2,0,L|288:288,1,59.3749984145165,2|0,0:0|0:0,0:0:0:0:
240,304,43974,2,2,P|208:304|144:240,1,118.749996829033
208,240,44566,1,0,0:0:0:0:
208,240,44763,6,2,P|176:192|112:160,1,118.749996829033
80,128,45355,1,0,0:0:0:0:
80,128,45553,2,0,P|64:176|80:256,1,118.749996829033
176,288,46342,6,2,P|224:320|288:304,1,118.749996829033
320,256,46934,2,0,L|368:192,2,59.3749984145165,0|2|0,0:0|0:0|0:0,0:0:0:0:
304,192,47526,2,0,L|256:256,1,59.3749984145165
224,288,47921,6,2,P|176:288|112:240,1,118.749996829033
160,144,48710,2,2,P|218:147|265:182,1,118.749996829033
400,64,49697,6,0,L|400:128,1,59.3749984145165,8|0,0:0|0:0,0:0:0:0:
336,112,50092,2,0,L|336:176,1,59.3749984145165,8|0,0:0|0:0,0:0:0:0:
272,160,50487,2,0,L|272:224,2,59.3749984145165,8|0|8,0:0|0:0|0:0,0:0:0:0:
208,144,51079,5,4,0:0:0:0:
208,144,51474,1,0,0:0:0:0:
208,144,51868,1,8,0:0:0:0:
208,144,52263,1,8,0:0:0:0:
128,240,52658,5,4,0:0:0:0:
128,240,53053,1,0,0:0:0:0:
128,240,53447,1,8,0:0:0:0:
128,240,53842,1,8,0:0:0:0:
256,192,54237,12,8,56605,0:0:0:0:
256,192,57000,5,4,0:0:0:0:
144,272,57395,6,2,P|128:208|144:128,1,137.500004196167
160,80,57987,2,2,P|192:96|288:80,1,137.500004196167
352,80,58579,2,0,L|336:160,1,68.7500020980835
304,208,58974,2,8,P|320:256|400:288,2,137.500004196167
160,192,60158,2,0,L|128:256,1,68.7500020980835
80,304,60553,6,0,L|160:336,1,68.7500020980835,8|0,0:0|0:0,0:0:0:0:
208,336,60947,2,0,L|288:304,1,68.7500020980835,8|0,0:0|0:0,0:0:0:0:
320,256,61342,2,8,B|320:208|320:208|256:144,1,137.500004196167
432,80,62131,6,0,L|352:48,1,68.7500020980835,8|0,0:0|0:0,0:0:0:0:
304,48,62526,2,0,L|224:80,1,68.7500020980836,8|0,0:0|0:0,0:0:0:0:
192,128,62921,2,0,B|192:176|192:176|256:240,1,137.500004196167,8|4,0:0|0:0,0:0:0:0:
112,256,63710,6,2,L|80:320,2,68.7500020980835
240,192,64500,2,2,L|272:128,2,68.7500020980835
320,304,65289,6,0,L|368:240,1,68.7500020980835,8|0,0:0|0:0,0:0:0:0:
352,176,65684,2,0,L|288:144,1,68.7500020980835,8|0,0:0|0:0,0:0:0:0:
224,176,66079,2,0,L|192:240,2,68.7500020980835,8|0|0,0:0|0:0|0:0,0:0:0:0:
176,128,66671,2,2,P|112:112|80:192,1,137.500004196167
64,224,67263,5,0,0:0:0:0:
64,224,67460,1,0,0:0:0:0:
112,272,67658,2,0,L|176:240,1,68.7500020980835,8|0,0:0|0:0,0:0:0:0:
240,256,68053,2,0,L|304:224,1,68.7500020980835,8|0,0:0|0:0,0:0:0:0:
208,128,68645,5,2,0:0:0:0:
208,128,68842,1,2,0:0:0:0:
304,256,69237,5,2,0:0:0:0:
304,256,69434,1,2,0:0:0:0:
416,80,70026,6,2,P|432:128|400:208,1,137.500004196167
336,192,70618,2,2,P|304:176|192:192,1,137.500004196167
144,192,71210,1,0,0:0:0:0:
144,192,71408,1,0,0:0:0:0:
144,192,71605,2,8,L|80:48,2,137.500004196167
256,16,72987,1,0,0:0:0:0:
256,16,73184,6,0,L|320:80,1,68.7500020980836,2|0,0:0|0:0,0:0:0:0:
256,112,73579,2,0,L|304:160,1,68.7500020980836,2|0,0:0|0:0,0:0:0:0:
368,192,73974,2,2,P|352:240|272:272,1,137.500004196167
208,256,74566,1,0,0:0:0:0:
144,224,74763,6,0,L|80:176,1,68.7500020980836,2|0,0:0|0:0,0:0:0:0:
144,144,75158,2,0,L|80:80,1,68.7500020980836,2|0,0:0|0:0,0:0:0:0:
160,64,75552,2,0,L|96:16,2,68.7500020980836,2|8|8,0:0|0:0|0:0,0:0:0:0:
304,80,76342,6,2,L|384:80,2,68.7500020980836
192,160,77131,2,2,L|112:160,2,68.7500020980836
288,256,77921,2,4,L|432:256,2,137.500004196167
96,352,79302,1,0,0:0:0:0:
96,352,79500,6,2,P|128:288|112:224,1,137.500004196167
80,160,80092,1,0,0:0:0:0:
80,160,80289,2,0,L|144:96,1,68.7500020980836,8|0,0:0|0:0,0:0:0:0:
160,176,80684,2,0,L|208:128,1,68.7500020980836,8|0,0:0|0:0,0:0:0:0:
336,96,81276,5,2,0:0:0:0:
336,96,81474,2,2,P|368:144|368:224,1,137.500004196167
304,192,82066,2,2,P|288:224|336:320,1,137.500004196167
384,320,82658,1,2,0:0:0:0:
256,192,82756,12,4,85026,0:0:0:0:
128,80,95289,6,0,L|240:80,1,112.499996566773,2|2,0:0|0:0,0:0:0:0:
336,144,96079,2,0,L|336:256,1,112.499996566773,2|2,0:0|0:0,0:0:0:0:
240,320,96868,6,0,L|176:320,1,56.2499982833863,2|0,0:0|0:0,0:0:0:0:
160,272,97263,2,0,L|160:208,1,56.2499982833863,2|0,0:0|0:0,0:0:0:0:
160,160,97658,2,0,L|272:160,1,112.499996566773,2|2,0:0|0:0,0:0:0:0:
320,192,98250,1,2,0:0:0:0:
320,192,98447,6,0,L|432:192,1,112.499996566773,2|2,0:0|0:0,0:0:0:0:
400,80,99237,2,0,L|288:80,1,112.499996566773,2|2,0:0|0:0,0:0:0:0:
176,64,100026,6,0,L|176:144,1,56.2499982833863,2|0,0:0|0:0,0:0:0:0:
128,144,100421,2,0,L|128:208,1,56.2499982833863,2|0,0:0|0:0,0:0:0:0:
80,224,100816,2,0,P|96:256|176:288,1,112.499996566773,2|2,0:0|0:0,0:0:0:0:
208,256,101408,1,2,0:0:0:0:
208,256,101605,6,0,L|208:128,1,112.499996566773,2|2,0:0|0:0,0:0:0:0:
304,96,102395,2,0,L|304:208,1,112.499996566773,2|2,0:0|0:0,0:0:0:0:
400,272,103184,6,0,L|400:208,1,56.2499982833863,2|0,0:0|0:0,0:0:0:0:
368,176,103579,2,0,L|304:176,1,56.2499982833863,2|0,0:0|0:0,0:0:0:0:
256,144,103974,2,0,L|192:144,2,56.2499982833863,2|0|2,0:0|0:0|0:0,0:0:0:0:
304,112,104566,1,2,0:0:0:0:
304,112,104763,6,0,L|192:64,1,112.499996566773,2|2,0:0|0:0,0:0:0:0:
144,64,105355,1,0,0:0:0:0:
144,64,105552,2,0,L|32:112,1,112.499996566773,2|2,0:0|0:0,0:0:0:0:
96,208,106342,6,8,L|208:272,2,112.499996566773
208,192,107526,1,4,0:0:0:0:
304,128,107921,6,2,P|320:160|304:256,1,118.749996829033
272,288,108513,1,0,0:0:0:0:
272,288,108710,2,0,P|208:304|144:288,1,118.749996829033
96,192,109500,6,0,L|64:128,1,59.3749984145165,2|0,0:0|0:0,0:0:0:0:
112,96,109895,2,0,L|144:160,1,59.3749984145165,2|0,0:0|0:0,0:0:0:0:
192,160,110289,2,0,L|256:128,1,59.3749984145165,2|0,0:0|0:0,0:0:0:0:
288,160,110684,2,0,L|352:128,1,59.3749984145165,2|0,0:0|0:0,0:0:0:0:
400,144,111079,6,2,P|416:176|400:272,1,118.749996829033
352,288,111671,1,0,0:0:0:0:
352,288,111868,2,0,P|304:256|240:272,1,118.749996829033
128,256,112658,6,0,P|80:256|48:240,1,59.3749984145165,2|0,0:0|0:0,0:0:0:0:
48,208,113052,2,0,P|32:176|32:144,1,59.3749984145165,2|0,0:0|0:0,0:0:0:0:
64,112,113447,2,0,P|96:96|192:112,1,118.749996829033,2|2,0:0|0:0,0:0:0:0:
224,144,114039,1,0,0:0:0:0:
224,144,114237,6,2,P|256:160|352:144,1,118.749996829033
368,112,114829,1,0,0:0:0:0:
368,112,115026,2,0,P|432:144|432:208,1,118.749996829033
336,256,115816,6,0,L|304:320,1,59.3749984145165,2|0,0:0|0:0,0:0:0:0:
256,320,116210,2,0,L|192:320,1,59.3749984145165,2|0,0:0|0:0,0:0:0:0:
144,304,116605,1,2,0:0:0:0:
144,304,116802,1,0,0:0:0:0:
96,272,117000,2,0,L|112:208,1,59.3749984145165,2|0,0:0|0:0,0:0:0:0:
96,160,117395,6,8,P|128:144|224:160,1,118.749996829033
304,208,118184,2,8,P|336:224|432:208,1,118.749996829033
416,96,118974,6,2,P|368:80|304:112,1,118.749996829033
256,144,119566,1,2,0:0:0:0:
256,144,119763,2,2,L|224:208,1,59.3749984145165
176,192,120158,2,2,L|144:256,1,59.3749984145165
96,272,120552,6,0,P|144:304|224:288,1,118.749996829033,4|0,0:0|0:0,0:0:0:0:
320,288,121342,2,8,P|368:256|384:176,1,118.749996829033
400,80,122131,6,0,P|352:64|272:80,1,118.749996829033,4|0,0:0|0:0,0:0:0:0:
160,80,122921,2,8,P|128:112|128:192,1,118.749996829033
240,224,123710,6,0,P|288:240|304:224,1,59.3749984145165,4|0,0:0|0:0,0:0:0:0:
320,176,124105,2,8,P|320:144|288:112,1,59.3749984145165
256,96,124500,6,0,P|224:96|208:128,1,59.3749984145165,4|0,0:0|0:0,0:0:0:0:
176,160,124895,2,8,P|176:192|192:224,1,59.3749984145165
176,272,125289,6,2,P|208:304|384:256,1,237.499993658066
256,48,126868,5,4,0:0:0:0:
144,80,138118,6,8,L|80:80,1,62.5
192,144,138710,2,0,L|256:144,2,62.5,8|8|4,0:0|0:0|0:0,0:0:0:0:
160,272,139500,6,2,P|208:304|288:304,1,137.500004196167
304,240,140092,2,2,P|304:192|352:112,1,137.500004196167
320,48,140684,2,0,L|240:48,1,68.7500020980836
192,64,141079,2,8,L|192:224,2,137.500004196167
64,224,142460,1,0,0:0:0:0:
64,224,142658,6,0,L|112:304,1,68.7500020980836,8|0,0:0|0:0,0:0:0:0:
160,288,143052,2,0,L|208:224,1,68.7500020980836,8|0,0:0|0:0,0:0:0:0:
256,192,143447,2,2,L|400:144,1,137.500004196167,8|8,0:0|0:0,0:0:0:0:
288,64,144237,6,0,L|240:128,1,68.7500020980836,8|0,0:0|0:0,0:0:0:0:
192,144,144631,2,0,L|192:224,1,68.7500020980836,8|0,0:0|0:0,0:0:0:0:
144,272,145026,2,2,P|176:304|288:304,1,137.500004196167,8|8,0:0|0:0,0:0:0:0:
368,224,145816,6,2,L|416:144,2,68.7500020980836
224,224,146605,2,2,L|176:304,2,68.7500020980836
176,96,147395,2,0,L|144:160,1,68.7500020980836,8|0,0:0|0:0,0:0:0:0:
80,176,147789,2,0,L|80:256,1,68.7500020980836,8|0,0:0|0:0,0:0:0:0:
96,304,148184,2,8,P|144:320|240:288,1,137.500004196167
368,288,148974,6,0,L|368:208,1,68.7500020980836,2|0,0:0|0:0,0:0:0:0:
368,144,149368,2,0,L|288:144,1,68.7500020980836,2|0,0:0|0:0,0:0:0:0:
224,144,149763,2,0,L|224:224,1,68.7500020980836,2|0,0:0|0:0,0:0:0:0:
224,288,150158,2,0,L|320:288,1,68.7500020980836,2|0,0:0|0:0,0:0:0:0:
160,320,150750,5,8,0:0:0:0:
160,320,150947,1,8,0:0:0:0:
80,208,151342,5,8,0:0:0:0:
80,208,151539,1,8,0:0:0:0:
192,32,152131,6,2,B|208:112|208:112|272:112,1,140.000001708984,6|2,0:0|0:0,0:0:0:0:
304,64,152724,2,2,B|352:64|352:64|384:160,1,140.000001708984
336,208,153316,1,0,0:0:0:0:
336,208,153513,1,0,0:0:0:0:
336,208,153710,2,8,B|272:240|272:240|208:208,2,140.000001708984
144,112,155092,1,0,0:0:0:0:
144,112,155289,6,0,B|128:144|128:144|128:192,1,70.0000008544922,8|0,0:0|0:0,0:0:0:0:
128,256,155684,2,0,B|160:288|160:288|192:288,1,70.0000008544922,8|0,0:0|0:0,0:0:0:0:
256,272,156079,1,8,0:0:0:0:
256,272,156276,1,0,0:0:0:0:
304,224,156474,2,0,L|256:160,1,70.0000008544922,8|0,0:0|0:0,0:0:0:0:
256,96,156868,6,2,L|336:96,1,70.0000008544922
368,144,157263,2,2,L|416:208,1,70.0000008544922
464,160,157658,2,0,L|512:224,2,70.0000008544922,2|8|8,0:0|0:0|0:0,0:0:0:0:
368,48,158447,6,0,B|336:64|336:64|304:48,1,70.0000008544922,8|0,0:0|0:0,0:0:0:0:
256,96,158842,2,0,B|272:128|272:128|256:160,1,70.0000008544922
304,208,159237,2,0,B|336:192|336:192|368:208,1,70.0000008544922,8|0,0:0|0:0,0:0:0:0:
432,176,159631,2,0,B|416:144|416:144|432:112,1,70.0000008544922
368,128,160026,6,8,L|368:272,2,140.000001708984
160,80,161408,1,8,0:0:0:0:
160,80,161605,6,0,L|144:160,1,70.0000008544922,2|0,0:0|0:0,0:0:0:0:
208,192,162000,2,0,L|192:272,1,70.0000008544922,2|0,0:0|0:0,0:0:0:0:
240,304,162395,1,2,0:0:0:0:
240,304,162592,1,0,0:0:0:0:
304,336,162789,1,2,0:0:0:0:
304,336,162987,1,0,0:0:0:0:
400,240,163381,6,8,L|400:160,1,70.0000008544922
272,96,163974,2,8,L|272:176,1,70.0000008544922
144,208,164566,2,0,L|144:128,1,70.0000008544922,8|4,0:0|0:0,0:0:0:0:
256,192,164862,12,4,169105,0:0:0:0:
