osu file format v14

[General]
AudioFilename: audio.mp3
AudioLeadIn: 0
PreviewTime: 57038
Countdown: 1
SampleSet: Normal
StackLeniency: 0.7
Mode: 0
LetterboxInBreaks: 0
WidescreenStoryboard: 1

[Editor]
DistanceSpacing: 0.6
BeatDivisor: 4
GridSize: 4
TimelineZoom: 1

[Metadata]
Title:Alien Alien (DIVELA Remix)
TitleUnicode:Alien Alien (DIVELA Remix)
Artist:Nayutan Seijin
ArtistUnicode:Nayutan Seijin
Creator:Nitronic Techno
Version:Insane
Source:
Tags:Nayutan Seijin Alien DIVELA Remix Hatsune Miku Beat Nitro Nitronic Techno
BeatmapID:1455753
BeatmapSetID:686964

[Difficulty]
HPDrainRate:7
CircleSize:4
OverallDifficulty:7
ApproachRate:8.8
SliderMultiplier:1.9
SliderTickRate:1

[Events]
//Background and Video events
0,0,"Alien.jpg",0,0
//Break Periods
2,33713,37226
2,85226,93081
//Storyboard Layer 0 (Background)
//Storyboard Layer 1 (Fail)
//Storyboard Layer 2 (Pass)
//Storyboard Layer 3 (Foreground)
//Storyboard Sound Samples

[TimingPoints]
553,394.736842105263,4,2,0,80,1,0
6079,-200,4,2,0,80,0,0
6868,-90.9090909090909,4,1,0,80,0,0
19500,-111.111111111111,4,1,0,60,0,0
32131,-100,4,1,0,60,0,0
38447,-105.263157894737,4,1,0,60,0,0
49500,-125,4,2,0,40,0,0
51079,-125,4,1,0,60,0,0
57000,-100,4,1,0,80,0,0
57395,-83.3333333333333,4,1,0,85,0,1
78710,-166.666666666667,4,1,0,85,0,1
79500,-83.3333333333333,4,1,0,85,0,1
82658,-100,4,1,0,85,0,0
95289,-133.333333333333,4,2,0,60,0,0
106342,-111.111111111111,4,1,0,60,0,0
107921,-105.263157894737,4,1,0,60,0,0
126868,-105.263157894737,4,2,0,60,0,0
137921,-100,4,1,0,60,0,0
139500,-83.3333333333333,4,1,0,85,0,1
152131,-76.9230769230769,4,1,0,85,0,1
160816,-153.846153846154,4,1,0,85,0,1
161605,-76.9230769230769,4,1,0,85,0,1
164763,-100,4,1,0,80,0,0
177395,-200,4,2,0,60,0,0
180552,-133.333333333333,4,2,0,60,0,0

[HitObjects]
120,48,553,6,2,P|106:115|197:228,1,190
234,56,1145,1,2,0:0:0:0:
234,56,1539,1,8,0:0:0:0:
247,63,1737,1,8,0:0:0:0:
263,72,1934,1,8,0:0:0:0:
276,83,2131,6,2,P|337:140|461:134,1,190
371,273,2724,1,2,0:0:0:0:
371,273,3118,1,8,0:0:0:0:
340,278,3316,1,8,0:0:0:0:
305,287,3513,1,8,0:0:0:0:
233,302,3710,6,0,L|166:292,3,47.5,8|0|8|0,0:0|0:0|0:0|0:0,0:0:0:0:
283,247,4105,2,0,L|336:237,3,47.5,8|0|8|0,0:0|0:0|0:0|0:0,0:0:0:0:
226,195,4500,2,0,L|172:186,3,47.5,8|0|8|0,0:0|0:0|0:0|0:0,0:0:0:0:
279,139,4895,2,0,L|339:126,3,47.5,8|0|8|0,0:0|0:0|0:0|0:0,0:0:0:0:
225,63,5289,5,2,0:0:0:0:
189,52,5684,1,2,0:0:0:0:
165,41,6079,2,0,P|130:40|72:61,1,95,2|4,0:0|0:0,0:0:0:0:
87,143,6868,5,2,0:0:0:0:
56,248,7066,1,2,0:0:0:0:
102,345,7263,2,2,L|141:384,1,52.2500015945435
153,262,7559,1,0,0:0:0:0:
179,266,7658,2,8,P|243:273|362:231,2,156.750004783631
153,262,8349,1,0,0:0:0:0:
126,252,8447,5,2,0:0:0:0:
149,139,8645,1,2,0:0:0:0:
230,68,8842,2,2,L|288:101,1,52.2500015945435
313,201,9138,1,0,0:0:0:0:
270,204,9237,2,8,P|201:232|160:302,2,156.750004783631
313,201,9927,1,0,0:0:0:0:
354,204,10026,5,2,0:0:0:0:
439,132,10224,1,2,0:0:0:0:
386,39,10421,2,2,L|323:36,1,52.2500015945435
252,97,10717,1,0,0:0:0:0:
214,91,10816,2,8,P|93:72|62:45,2,156.750004783631
252,97,11506,1,0,0:0:0:0:
288,108,11605,5,2,0:0:0:0:
287,214,11802,1,2,0:0:0:0:
287,214,11901,1,2,0:0:0:0:
209,288,12099,1,2,0:0:0:0:
209,288,12197,1,2,0:0:0:0:
108,203,12395,2,8,P|100:137|143:44,2,156.750004783631
132,220,13085,1,0,0:0:0:0:
166,235,13184,6,2,P|220:246|294:235,1,104.500003189087
338,160,13579,1,2,0:0:0:0:
361,180,13677,1,2,0:0:0:0:
358,68,13875,1,0,0:0:0:0:
327,78,13974,2,8,P|257:91|169:72,2,156.750004783631
358,68,14664,1,0,0:0:0:0:
398,60,14763,6,2,P|405:136|399:207,1,104.500003189087
301,222,15158,1,2,0:0:0:0:
299,259,15256,1,2,0:0:0:0:
215,224,15454,1,0,0:0:0:0:
220,261,15552,2,8,P|152:294|64:292,2,156.750004783631
253,253,16243,1,0,0:0:0:0:
285,241,16342,6,2,P|344:226|407:240,1,104.500003189087
397,126,16737,1,2,0:0:0:0:
367,109,16835,1,2,0:0:0:0:
142,111,17033,1,0,0:0:0:0:
115,126,17131,2,8,P|96:197|123:311,2,156.750004783631
149,108,17822,1,0,0:0:0:0:
180,90,17921,6,2,L|238:59,2,52.2500015945435
188,182,18316,2,2,L|130:216,2,52.2500015945435
267,209,18710,6,8,P|301:193|325:159,2,69.6666687927247
244,275,19105,2,8,P|194:285|162:317,2,69.6666687927247
302,322,19500,6,2,P|358:321|448:239,1,170.999994781494
408,181,20092,1,0,0:0:0:0:
339,112,20289,2,0,P|329:62|339:24,1,85.4999973907472
276,155,20684,2,0,P|283:203|271:253,1,85.4999973907472
201,128,21079,5,2,0:0:0:0:
126,86,21276,1,2,0:0:0:0:
44,153,21474,1,2,0:0:0:0:
120,189,21671,1,2,0:0:0:0:
138,281,21868,2,2,P|86:297|66:323,1,85.4999973907472
206,324,22263,2,2,P|256:301|282:269,1,85.4999973907472
374,357,22658,6,2,P|431:337|452:223,1,170.999994781494
356,260,23250,1,0,0:0:0:0:
289,161,23447,2,0,P|269:204|275:250,1,85.4999973907472
219,125,23842,2,0,P|189:180|195:228,1,85.4999973907472
134,291,24237,5,2,0:0:0:0:
70,199,24434,1,2,0:0:0:0:
70,199,24631,1,2,0:0:0:0:
141,112,24829,1,2,0:0:0:0:
200,208,25026,2,2,P|244:224|296:214,1,85.4999973907472,10|2,0:0|0:0,0:0:0:0:
411,153,25421,2,2,P|345:138|315:142,1,85.4999973907472,10|2,0:0|0:0,0:0:0:0:
158,51,25816,6,2,P|156:135|199:207,1,170.999994781494
294,114,26408,1,0,0:0:0:0:
377,93,26605,2,0,P|372:151|346:197,1,85.4999973907472
212,92,27000,2,0,P|217:150|243:196,1,85.4999973907472
212,205,27296,1,0,0:0:0:0:
236,233,27395,6,2,P|230:290|207:331,1,85.4999973907472
151,188,27789,1,2,0:0:0:0:
159,271,27987,1,2,0:0:0:0:
227,168,28184,2,2,P|237:109|226:70,1,85.4999973907472
153,185,28579,2,2,P|147:233|166:287,1,85.4999973907472
230,178,28974,6,0,P|274:184|328:167,1,85.4999973907472,8|0,0:0|0:0,0:0:0:0:
190,113,29368,2,0,P|211:67|208:23,1,85.4999973907472,8|0,0:0|0:0,0:0:0:0:
112,130,29763,2,0,P|68:118|22:129,1,85.4999973907472,8|0,0:0|0:0,0:0:0:0:
153,185,30158,2,0,P|147:233|166:287,1,85.4999973907472,8|0,0:0|0:0,0:0:0:0:
255,310,30552,5,8,0:0:0:0:
280,305,30651,1,8,0:0:0:0:
305,301,30750,1,8,0:0:0:0:
388,216,30947,2,2,P|338:210|288:224,1,85.4999973907472
278,212,31243,1,0,0:0:0:0:
254,201,31342,1,8,0:0:0:0:
235,182,31441,1,8,0:0:0:0:
222,160,31539,1,8,0:0:0:0:
217,134,31638,1,0,0:0:0:0:
217,108,31737,1,8,0:0:0:0:
114,75,31934,1,8,0:0:0:0:
256,192,32131,12,2,33513,0:0:0:0:
120,58,37855,5,8,0:0:0:0:
140,64,38052,1,8,0:0:0:0:
159,71,38250,1,8,0:0:0:0:
173,77,38447,6,2,P|229:55|343:82,1,180.49999518013
256,156,39039,1,0,0:0:0:0:
167,165,39237,2,0,P|168:224|194:257,1,90.2499975900651
345,165,39631,2,0,P|344:224|318:257,1,90.2499975900651
202,306,40026,5,2,0:0:0:0:
117,335,40224,1,2,0:0:0:0:
76,226,40421,2,2,L|177:235,1,90.2499975900651
165,149,40816,1,2,0:0:0:0:
121,155,40914,1,2,0:0:0:0:
75,158,41013,1,2,0:0:0:0:
117,49,41210,2,2,L|206:81,1,90.2499975900651
311,55,41605,6,2,B|356:85|356:85|335:107|346:169|419:217,1,180.49999518013
432,127,42197,1,0,0:0:0:0:
287,163,42395,2,0,P|248:204|241:251,1,90.2499975900651
266,345,42789,2,0,P|301:283|303:232,1,90.2499975900651
158,252,43184,5,2,0:0:0:0:
135,342,43381,1,2,0:0:0:0:
149,172,43579,1,2,0:0:0:0:
178,86,43776,1,2,0:0:0:0:
257,188,43974,2,2,L|311:174,2,45.1249987950325
108,251,44368,2,2,L|16:277,1,90.2499975900651
114,161,44763,6,2,B|176:199|175:224|175:224|182:245|258:277,1,180.49999518013
397,247,45355,1,0,0:0:0:0:
304,152,45552,2,0,P|283:102|288:66,1,90.2499975900651
241,204,45947,2,0,P|247:260|233:315,1,90.2499975900651
206,306,46243,1,0,0:0:0:0:
166,317,46342,6,2,P|107:308|60:312,1,90.2499975900651
188,223,46737,2,2,P|261:233|310:217,1,90.2499975900651
163,136,47131,1,2,0:0:0:0:
48,141,47329,1,2,0:0:0:0:
184,43,47526,1,2,0:0:0:0:
286,66,47724,1,2,0:0:0:0:
193,143,47921,6,0,P|166:220|136:233,1,90.2499975900651,8|0,0:0|0:0,0:0:0:0:
147,355,48316,2,0,P|184:296|224:275,1,90.2499975900651,8|0,0:0|0:0,0:0:0:0:
309,226,48710,2,0,P|278:296|243:324,1,90.2499975900651,8|0,0:0|0:0,0:0:0:0:
319,384,49105,2,0,P|333:336|371:306,1,90.2499975900651,8|0,0:0|0:0,0:0:0:0:
426,192,49697,5,2,0:0:0:0:
256,78,50092,1,2,0:0:0:0:
86,192,50487,1,2,0:0:0:0:
256,306,50882,1,2,0:0:0:0:
323,268,51079,5,4,0:0:0:0:
322,240,51474,1,0,0:0:0:0:
190,240,51868,1,8,0:0:0:0:
189,268,52263,1,8,0:0:0:0:
190,144,52658,5,4,0:0:0:0:
189,116,53053,1,0,0:0:0:0:
323,116,53447,1,8,0:0:0:0:
322,144,53842,1,8,0:0:0:0:
200,192,54237,6,0,P|150:200|110:187,1,76,4|0,0:0|0:0,0:0:0:0:
256,136,54631,2,8,P|248:86|261:46,1,76
312,191,55026,2,0,P|362:184|402:197,1,76,4|0,0:0|0:0,0:0:0:0:
256,248,55421,2,8,P|264:298|251:338,1,76
186,281,55816,5,2,0:0:0:0:
187,247,55914,1,2,0:0:0:0:
206,218,56013,1,2,0:0:0:0:
236,202,56112,1,2,0:0:0:0:
265,186,56210,1,2,0:0:0:0:
287,160,56309,1,2,0:0:0:0:
305,131,56408,1,2,0:0:0:0:
308,97,56506,1,2,0:0:0:0:
285,66,56605,6,0,P|234:50|154:107,1,152,2|4,0:0|0:0,0:0:0:0:
92,343,57395,6,0,P|117:283|119:226,1,113.999996520996,8|0,0:0|0:0,0:0:0:0:
217,342,57789,2,0,P|192:277|197:212,1,113.999996520996,8|0,0:0|0:0,0:0:0:0:
147,88,58184,1,8,0:0:0:0:
40,166,58381,1,2,0:0:0:0:
228,107,58579,1,2,0:0:0:0:
39,31,58776,1,2,0:0:0:0:
161,195,58974,5,8,0:0:0:0:
188,223,59072,1,0,0:0:0:0:
217,249,59171,1,0,0:0:0:0:
247,275,59270,1,0,0:0:0:0:
282,295,59368,2,0,P|340:305|409:286,1,113.999996520996,8|0,0:0|0:0,0:0:0:0:
308,369,59763,1,8,0:0:0:0:
355,229,59960,1,0,0:0:0:0:
298,86,60158,2,0,P|278:157|280:211,1,113.999996520996,2|0,0:0|0:0,0:0:0:0:
163,304,60552,5,8,0:0:0:0:
197,213,60750,1,0,0:0:0:0:
300,72,60947,1,8,0:0:0:0:
266,174,61145,1,0,0:0:0:0:
280,297,61342,2,0,L|331:342,3,56.9999982604981,8|0|0|0,0:0|0:0|0:0|0:0,0:0:0:0:
366,273,61737,2,0,P|313:232|208:265,1,170.999994781494,8|0,0:0|0:0,0:0:0:0:
187,263,62131,6,0,L|120:358,1,113.999996520996,2|0,0:0|0:0,0:0:0:0:
142,170,62526,2,0,L|75:264,1,113.999996520996,2|0,0:0|0:0,0:0:0:0:
87,102,62921,1,2,0:0:0:0:
256,34,63118,5,8,0:0:0:0:
255,131,63316,1,8,0:0:0:0:
255,228,63513,1,0,0:0:0:0:
317,330,63710,6,0,P|377:306|416:240,1,113.999996520996,8|0,0:0|0:0,0:0:0:0:
275,253,64105,2,0,P|204:237|100:260,1,170.999994781494,2|0,0:0|0:0,0:0:0:0:
76,238,64500,2,0,P|115:181|126:112,1,113.999996520996,8|0,0:0|0:0,0:0:0:0:
231,26,64895,2,0,P|196:98|196:144,1,113.999996520996,2|0,0:0|0:0,0:0:0:0:
324,39,65289,5,8,0:0:0:0:
297,129,65487,1,0,0:0:0:0:
421,187,65684,1,8,0:0:0:0:
451,279,65881,1,0,0:0:0:0:
328,345,66079,2,0,P|266:330|202:344,1,113.999996520996,8|0,0:0|0:0,0:0:0:0:
131,247,66474,2,0,P|211:258|265:238,1,113.999996520996,2|0,0:0|0:0,0:0:0:0:
186,78,66868,6,0,P|175:140|189:191,1,113.999996520996,8|0,0:0|0:0,0:0:0:0:
274,295,67263,1,8,0:0:0:0:
251,194,67460,1,0,0:0:0:0:
350,56,67658,2,0,P|352:119|338:172,1,113.999996520996,8|0,0:0|0:0,0:0:0:0:
435,125,68052,2,0,P|425:187|394:234,1,113.999996520996,8|0,0:0|0:0,0:0:0:0:
309,272,68447,5,0,0:0:0:0:
272,288,68546,1,0,0:0:0:0:
232,296,68645,2,2,L|169:315,1,56.9999982604981,2|0,0:0|0:0,0:0:0:0:
156,239,68842,2,2,L|94:254,1,56.9999982604981,2|0,0:0|0:0,0:0:0:0:
118,320,69039,2,0,L|37:342,1,56.9999982604981
41,262,69237,2,8,P|-8:272|-42:293,2,75.9999976806641
114,288,69631,5,4,0:0:0:0:
404,280,70026,6,0,P|446:195|440:152,1,113.999996520996,8|0,0:0|0:0,0:0:0:0:
361,74,70421,2,0,P|351:148|361:202,1,113.999996520996,8|0,0:0|0:0,0:0:0:0:
257,272,70816,1,8,0:0:0:0:
163,144,71013,1,2,0:0:0:0:
163,144,71112,1,2,0:0:0:0:
163,144,71210,1,8,0:0:0:0:
85,264,71408,1,0,0:0:0:0:
253,165,71605,5,8,0:0:0:0:
283,139,71704,1,0,0:0:0:0:
309,109,71802,1,0,0:0:0:0:
337,80,71901,1,0,0:0:0:0:
368,65,72000,2,0,L|485:49,1,113.999996520996,8|0,0:0|0:0,0:0:0:0:
377,158,72395,2,0,P|308:174|201:161,1,170.999994781494,8|2,0:0|0:0,0:0:0:0:
194,132,72789,2,2,L|80:191,1,113.999996520996
162,263,73184,5,2,0:0:0:0:
183,347,73381,1,0,0:0:0:0:
268,267,73579,1,2,0:0:0:0:
252,347,73776,1,0,0:0:0:0:
336,244,73974,1,2,0:0:0:0:
317,208,74072,1,0,0:0:0:0:
298,172,74171,1,0,0:0:0:0:
278,136,74270,1,0,0:0:0:0:
255,107,74368,2,8,L|217:214,1,113.999996520996
332,115,74763,5,2,0:0:0:0:
395,207,74960,2,0,L|369:320,1,113.999996520996,0|2,0:0|0:0,0:0:0:0:
479,141,75355,2,0,L|454:275,1,113.999996520996,0|2,0:0|0:0,0:0:0:0:
405,85,75750,5,8,0:0:0:0:
405,85,75947,1,8,0:0:0:0:
300,145,76145,1,0,0:0:0:0:
256,294,76342,6,0,P|189:307|102:283,1,113.999996520996,8|0,0:0|0:0,0:0:0:0:
98,221,76737,1,0,0:0:0:0:
98,221,76934,1,0,0:0:0:0:
241,140,77131,6,0,P|313:142|367:121,1,113.999996520996,8|0,0:0|0:0,0:0:0:0:
387,51,77526,1,0,0:0:0:0:
387,51,77724,1,0,0:0:0:0:
180,45,77921,6,0,P|134:113|143:177,1,113.999996520996,8|0,0:0|0:0,0:0:0:0:
246,273,78316,2,0,P|236:210|201:175,1,113.999996520996,8|0,0:0|0:0,0:0:0:0:
26,243,78710,2,0,B|85:247|85:247|131:207,1,113.999996520996,8|0,0:0|0:0,0:0:0:0:
108,317,79302,1,2,0:0:0:0:
245,269,79500,6,0,P|302:260|359:275,1,113.999996520996,8|0,0:0|0:0,0:0:0:0:
480,215,79895,2,0,P|409:212|371:190,1,113.999996520996,8|0,0:0|0:0,0:0:0:0:
306,125,80289,1,2,0:0:0:0:
276,27,80487,1,2,0:0:0:0:
245,207,80684,1,2,0:0:0:0:
215,109,80882,1,2,0:0:0:0:
79,141,81079,6,2,L|54:217,3,56.9999982604981
132,215,81474,2,2,L|138:281,3,56.9999982604981
67,308,81868,2,8,L|55:390,2,75.9999976806641
110,177,82263,5,8,0:0:0:0:
228,127,82460,1,8,0:0:0:0:
341,179,82658,1,8,0:0:0:0:
256,192,82756,12,4,85026,0:0:0:0:
157,77,93710,6,2,L|148:140,3,47.5
221,140,94105,2,2,L|230:197,3,47.5
162,217,94500,2,8,L|149:287,2,63.3333333333333
235,265,94895,2,8,L|241:341,2,63.3333333333333
162,324,95289,6,0,P|115:335|78:332,1,71.2500027179719,2|0,0:0|0:0,0:0:0:0:
184,241,95684,2,0,P|227:234|261:243,1,71.2500027179719,2|0,0:0|0:0,0:0:0:0:
312,322,96079,1,2,0:0:0:0:
381,307,96276,1,0,0:0:0:0:
428,253,96474,1,2,0:0:0:0:
433,182,96671,1,0,0:0:0:0:
372,82,96868,5,2,0:0:0:0:
343,87,96967,1,0,0:0:0:0:
315,94,97066,1,0,0:0:0:0:
287,99,97164,1,0,0:0:0:0:
260,109,97263,1,2,0:0:0:0:
233,119,97362,1,0,0:0:0:0:
206,129,97460,1,0,0:0:0:0:
179,139,97559,1,0,0:0:0:0:
151,146,97658,5,2,0:0:0:0:
133,240,97855,1,0,0:0:0:0:
122,335,98052,1,8,0:0:0:0:
253,238,98250,1,8,0:0:0:0:
77,154,98447,6,0,P|52:197|52:229,1,71.2500027179719,2|0,0:0|0:0,0:0:0:0:
152,155,98842,2,0,P|182:114|193:81,1,71.2500027179719,2|0,0:0|0:0,0:0:0:0:
301,58,99237,1,2,0:0:0:0:
281,126,99434,1,0,0:0:0:0:
262,194,99631,1,2,0:0:0:0:
238,261,99829,1,0,0:0:0:0:
331,339,100026,5,2,0:0:0:0:
341,312,100125,1,0,0:0:0:0:
352,285,100224,1,0,0:0:0:0:
363,259,100322,1,0,0:0:0:0:
339,230,100421,1,2,0:0:0:0:
348,203,100520,1,0,0:0:0:0:
359,177,100618,1,0,0:0:0:0:
371,151,100717,1,0,0:0:0:0:
359,124,100816,1,2,0:0:0:0:
333,112,100914,1,0,0:0:0:0:
305,102,101013,1,0,0:0:0:0:
277,93,101112,1,0,0:0:0:0:
249,86,101210,5,8,0:0:0:0:
169,206,101408,1,8,0:0:0:0:
243,334,101605,6,0,P|275:303|286:261,1,71.2500027179719,2|0,0:0|0:0,0:0:0:0:
260,157,102000,2,0,P|230:203|230:246,1,71.2500027179719,2|0,0:0|0:0,0:0:0:0:
126,187,102395,1,2,0:0:0:0:
57,205,102592,1,0,0:0:0:0:
75,136,102789,1,2,0:0:0:0:
145,121,102987,1,0,0:0:0:0:
256,59,103184,5,2,0:0:0:0:
285,79,103283,1,0,0:0:0:0:
314,98,103381,1,0,0:0:0:0:
342,119,103480,1,0,0:0:0:0:
363,147,103579,1,2,0:0:0:0:
373,180,103677,1,0,0:0:0:0:
375,215,103776,1,0,0:0:0:0:
370,250,103875,1,0,0:0:0:0:
354,282,103974,1,2,0:0:0:0:
321,295,104072,1,0,0:0:0:0:
285,302,104171,1,0,0:0:0:0:
249,297,104270,1,0,0:0:0:0:
213,293,104368,5,8,0:0:0:0:
121,221,104566,1,8,0:0:0:0:
201,111,104763,6,2,P|225:63|232:30,1,71.2500027179719
271,154,105158,2,0,P|242:189|232:227,1,71.2500027179719,2|0,0:0|0:0,0:0:0:0:
322,214,105454,1,0,0:0:0:0:
322,214,105552,2,0,P|350:171|357:143,1,71.2500027179719,2|0,0:0|0:0,0:0:0:0:
370,274,105947,2,0,P|338:312|335:351,1,71.2500027179719,2|0,0:0|0:0,0:0:0:0:
455,272,106342,5,2,0:0:0:0:
455,272,106441,1,2,0:0:0:0:
350,193,106638,1,2,0:0:0:0:
350,193,106737,1,2,0:0:0:0:
195,192,106934,1,2,0:0:0:0:
135,88,107131,2,8,P|149:28|145:-16,2,56.9999982604981
49,159,107526,5,4,0:0:0:0:
93,277,107724,1,2,0:0:0:0:
256,354,107921,6,2,P|313:355|409:271,1,180.49999518013
478,350,108513,1,0,0:0:0:0:
437,194,108710,2,0,P|423:142|434:74,1,90.2499975900651
325,158,109105,2,0,P|334:90|323:37,1,90.2499975900651
256,37,109401,1,0,0:0:0:0:
256,37,109500,6,2,P|250:94|258:148,1,90.2499975900651
187,197,109895,1,2,0:0:0:0:
163,113,110092,1,2,0:0:0:0:
81,216,110289,2,2,P|85:277|108:315,1,90.2499975900651
209,375,110684,2,2,P|200:320|172:277,1,90.2499975900651
346,351,111079,6,2,P|323:295|216:211,1,180.49999518013
88,187,111671,1,0,0:0:0:0:
227,124,111868,2,0,P|296:113|332:88,1,90.2499975900651
483,122,112263,2,0,P|438:120|397:103,1,90.2499975900651
356,169,112559,1,0,0:0:0:0:
356,169,112658,6,2,P|362:227|356:269,1,90.2499975900651
277,368,113052,2,2,P|271:301|282:257,1,90.2499975900651
190,147,113447,1,2,0:0:0:0:
153,230,113645,1,2,0:0:0:0:
33,345,113842,1,2,0:0:0:0:
69,263,114039,1,2,0:0:0:0:
66,128,114237,6,2,P|119:109|255:136,1,180.49999518013
293,211,114829,1,0,0:0:0:0:
475,200,115026,2,0,P|432:227|388:233,1,90.2499975900651
390,74,115421,2,0,P|411:126|401:175,1,90.2499975900651
334,129,115717,1,0,0:0:0:0:
334,129,115816,6,2,P|330:178|358:226,1,90.2499975900651
459,293,116210,2,2,P|441:240|414:203,1,90.2499975900651
301,287,116605,1,2,0:0:0:0:
212,336,116802,1,2,0:0:0:0:
320,183,117000,1,2,0:0:0:0:
228,239,117197,1,2,0:0:0:0:
248,123,117395,6,0,P|260:72|247:16,1,90.2499975900651,8|0,0:0|0:0,0:0:0:0:
180,158,117789,2,0,P|129:143|77:155,1,90.2499975900651,8|0,0:0|0:0,0:0:0:0:
227,222,118184,2,0,P|205:272|212:325,1,90.2499975900651,8|0,0:0|0:0,0:0:0:0:
294,185,118579,2,0,P|373:207|400:196,1,90.2499975900651,8|0,0:0|0:0,0:0:0:0:
434,95,118974,5,8,0:0:0:0:
412,79,119072,1,8,0:0:0:0:
390,62,119171,1,8,0:0:0:0:
274,125,119368,1,2,0:0:0:0:
179,43,119566,1,2,0:0:0:0:
60,138,119763,1,8,0:0:0:0:
74,181,119895,1,8,0:0:0:0:
92,219,120026,1,8,0:0:0:0:
108,257,120158,2,2,P|157:272|200:258,1,90.2499975900651
326,128,120552,5,4,0:0:0:0:
353,147,120947,1,0,0:0:0:0:
159,147,121342,1,8,0:0:0:0:
186,128,121737,1,8,0:0:0:0:
186,256,122131,5,4,0:0:0:0:
159,237,122526,1,0,0:0:0:0:
326,256,122921,1,8,0:0:0:0:
353,237,123316,1,8,0:0:0:0:
256,136,123710,6,0,P|264:86|246:33,1,90.2499975900651,4|0,0:0|0:0,0:0:0:0:
200,191,124105,2,8,P|150:184|103:199,1,90.2499975900651
256,248,124500,2,0,P|248:298|269:351,1,90.2499975900651,4|0,0:0|0:0,0:0:0:0:
312,192,124895,2,8,P|362:200|417:177,1,90.2499975900651
326,281,125289,5,2,0:0:0:0:
325,247,125387,1,2,0:0:0:0:
306,218,125486,1,2,0:0:0:0:
276,202,125585,1,2,0:0:0:0:
247,186,125683,1,2,0:0:0:0:
225,160,125782,1,2,0:0:0:0:
207,131,125881,1,2,0:0:0:0:
204,97,125979,1,2,0:0:0:0:
227,66,126079,5,4,0:0:0:0:
255,192,126868,5,4,0:0:0:0:
255,192,128447,5,4,0:0:0:0:
255,192,130026,5,4,0:0:0:0:
255,192,131605,5,4,0:0:0:0:
255,192,133184,5,4,0:0:0:0:
255,192,133974,5,4,0:0:0:0:
255,192,134763,5,4,0:0:0:0:
255,192,135158,5,4,0:0:0:0:
255,192,135552,5,4,0:0:0:0:
255,192,136342,5,4,0:0:0:0:
256,192,137921,6,2,L|244:252,3,47.5
321,241,138316,2,2,L|305:301,3,47.5
395,233,138710,2,8,P|405:169|425:152,2,63.3333333333333
442,297,139105,1,4,0:0:0:0:
356,342,139302,1,2,0:0:0:0:
271,246,139500,6,0,P|275:181|226:121,1,113.999996520996,8|0,0:0|0:0,0:0:0:0:
190,249,139895,2,0,P|183:310|207:357,1,113.999996520996,8|0,0:0|0:0,0:0:0:0:
343,210,140289,1,8,0:0:0:0:
154,186,140487,1,2,0:0:0:0:
127,199,140585,1,2,0:0:0:0:
100,212,140684,1,8,0:0:0:0:
180,77,140881,1,0,0:0:0:0:
318,106,141079,5,8,0:0:0:0:
321,122,141177,1,0,0:0:0:0:
324,138,141276,1,0,0:0:0:0:
327,154,141375,1,0,0:0:0:0:
330,170,141474,1,8,0:0:0:0:
239,114,141671,1,0,0:0:0:0:
397,74,141868,1,8,0:0:0:0:
330,170,142066,1,0,0:0:0:0:
299,267,142263,2,0,P|365:261|409:232,1,113.999996520996,8|2,0:0|0:0,0:0:0:0:
259,205,142658,6,0,P|196:208|140:236,1,113.999996520996,2|0,0:0|0:0,0:0:0:0:
179,128,143052,2,0,P|253:129|320:155,1,113.999996520996,2|0,0:0|0:0,0:0:0:0:
474,143,143447,1,2,0:0:0:0:
332,90,143645,1,2,0:0:0:0:
304,79,143743,1,2,0:0:0:0:
271,72,143842,2,0,P|202:50|152:62,1,113.999996520996,2|0,0:0|0:0,0:0:0:0:
53,85,144237,6,0,P|35:166|52:219,1,113.999996520996,2|0,0:0|0:0,0:0:0:0:
119,294,144631,2,0,P|125:212|108:179,2,113.999996520996,2|0|2,0:0|0:0|0:0,0:0:0:0:
187,124,145224,5,8,0:0:0:0:
187,124,145421,1,8,0:0:0:0:
257,54,145618,1,0,0:0:0:0:
368,92,145816,6,0,P|424:144|425:194,1,113.999996520996,8|0,0:0|0:0,0:0:0:0:
375,309,146210,1,0,0:0:0:0:
354,167,146408,1,0,0:0:0:0:
242,68,146605,2,0,P|182:115|163:188,1,113.999996520996,8|0,0:0|0:0,0:0:0:0:
209,264,147000,1,0,0:0:0:0:
245,153,147197,1,0,0:0:0:0:
376,51,147395,6,0,P|391:135|367:189,1,113.999996520996,8|0,0:0|0:0,0:0:0:0:
290,271,147789,2,0,L|309:141,1,113.999996520996,8|0,0:0|0:0,0:0:0:0:
257,38,148184,2,0,P|226:94|230:151,1,113.999996520996,8|0,0:0|0:0,0:0:0:0:
326,63,148579,1,0,0:0:0:0:
226,236,148776,1,0,0:0:0:0:
395,257,148974,6,0,P|469:275|524:240,1,113.999996520996,2|0,0:0|0:0,0:0:0:0:
363,188,149368,2,0,P|322:169|241:191,1,113.999996520996,2|0,0:0|0:0,0:0:0:0:
101,222,149763,2,0,P|168:241|226:222,1,113.999996520996,2|0,0:0|0:0,0:0:0:0:
50,283,150158,2,0,P|123:312|179:308,1,113.999996520996,2|0,0:0|0:0,0:0:0:0:
253,298,150552,5,2,0:0:0:0:
279,276,150651,1,2,0:0:0:0:
306,254,150750,1,2,0:0:0:0:
333,233,150849,1,2,0:0:0:0:
344,201,150947,1,2,0:0:0:0:
346,166,151046,1,2,0:0:0:0:
346,131,151145,1,2,0:0:0:0:
346,97,151243,1,2,0:0:0:0:
298,33,151342,6,8,P|237:23|202:50,2,75.9999976806641
396,73,151737,1,4,0:0:0:0:
436,183,151934,1,2,0:0:0:0:
367,254,152131,6,0,P|355:327|366:381,1,123.499994346619,8|0,0:0|0:0,0:0:0:0:
279,268,152526,2,0,P|289:200|275:128,1,123.499994346619,8|0,0:0|0:0,0:0:0:0:
207,206,152921,1,8,0:0:0:0:
374,143,153118,1,2,0:0:0:0:
403,120,153217,1,2,0:0:0:0:
433,98,153316,1,8,0:0:0:0:
310,54,153513,1,0,0:0:0:0:
359,223,153710,5,8,0:0:0:0:
373,257,153809,1,0,0:0:0:0:
388,290,153908,1,0,0:0:0:0:
403,323,154006,1,0,0:0:0:0:
416,357,154105,2,0,P|470:324|487:262,1,123.499994346619,8|0,0:0|0:0,0:0:0:0:
294,242,154500,2,8,P|242:279|216:340,1,123.499994346619
185,345,154796,1,0,0:0:0:0:
159,320,154895,2,0,P|168:247|133:187,1,123.499994346619,8|2,0:0|0:0,0:0:0:0:
47,189,155289,5,2,0:0:0:0:
119,90,155487,1,0,0:0:0:0:
150,70,155585,1,0,0:0:0:0:
188,52,155684,1,2,0:0:0:0:
216,158,155881,1,0,0:0:0:0:
312,240,156079,1,2,0:0:0:0:
334,115,156276,1,0,0:0:0:0:
437,50,156474,1,2,0:0:0:0:
470,174,156671,1,0,0:0:0:0:
435,298,156868,5,2,0:0:0:0:
273,279,157066,2,0,L|399:226,1,123.499994346619,0|2,0:0|0:0,0:0:0:0:
182,235,157460,2,0,L|312:180,1,123.499994346619,0|2,0:0|0:0,0:0:0:0:
102,192,157855,5,8,0:0:0:0:
102,192,158052,1,8,0:0:0:0:
66,85,158250,1,0,0:0:0:0:
209,49,158447,6,0,P|285:41|346:55,1,123.499994346619,8|0,0:0|0:0,0:0:0:0:
395,116,158842,1,0,0:0:0:0:
395,116,159039,1,0,0:0:0:0:
253,172,159237,6,0,P|168:161|104:180,1,123.499994346619,8|0,0:0|0:0,0:0:0:0:
48,223,159631,1,0,0:0:0:0:
48,223,159829,1,0,0:0:0:0:
197,321,160026,6,0,P|253:245|244:181,1,123.499994346619,8|0,0:0|0:0,0:0:0:0:
140,75,160421,2,0,P|151:147|186:182,1,123.499994346619,8|0,0:0|0:0,0:0:0:0:
367,109,160816,2,0,B|302:110|302:110|256:150,1,123.499994346619,8|0,0:0|0:0,0:0:0:0:
262,36,161408,1,2,0:0:0:0:
144,97,161605,6,0,P|120:167|128:225,1,123.499994346619,8|0,0:0|0:0,0:0:0:0:
209,331,162000,2,0,P|216:250|196:206,1,123.499994346619,8|0,0:0|0:0,0:0:0:0:
260,91,162395,1,8,0:0:0:0:
308,161,162592,1,0,0:0:0:0:
431,257,162789,1,8,0:0:0:0:
388,188,162987,1,0,0:0:0:0:
452,68,163184,5,2,0:0:0:0:
448,104,163283,1,2,0:0:0:0:
357,215,163480,1,2,0:0:0:0:
342,180,163579,1,2,0:0:0:0:
224,110,163776,1,2,0:0:0:0:
60,146,163974,5,8,0:0:0:0:
108,156,164105,1,8,0:0:0:0:
156,167,164237,1,8,0:0:0:0:
203,180,164368,1,4,0:0:0:0:
248,302,164566,1,2,0:0:0:0:
367,344,164763,1,4,0:0:0:0:
256,192,164862,12,0,169105,0:0:0:0:
64,96,171079,6,2,P|125:76|161:81,1,95
245,125,171474,1,2,0:0:0:0:
245,125,171572,1,2,0:0:0:0:
315,195,171770,1,0,0:0:0:0:
315,195,171868,2,8,P|384:216|470:198,2,142.5
279,192,172559,1,0,0:0:0:0:
243,202,172658,6,2,P|195:228|138:220,1,95
79,172,173052,1,2,0:0:0:0:
79,172,173151,1,2,0:0:0:0:
160,88,173349,1,0,0:0:0:0:
160,88,173447,2,8,P|218:66|316:81,2,142.5
160,119,174138,1,0,0:0:0:0:
179,150,174237,6,2,P|244:159|279:152,1,95
379,183,174631,1,2,0:0:0:0:
379,183,174730,1,2,0:0:0:0:
317,277,174927,1,0,0:0:0:0:
289,288,175026,2,8,P|226:308|127:294,2,142.5
321,293,175717,1,0,0:0:0:0:
351,305,175816,6,2,L|409:320,1,47.5
369,234,176112,2,2,L|436:254,1,47.5
385,160,176408,1,2,0:0:0:0:
400,82,176605,2,8,P|352:61|329:64,2,63.3333333333333
466,46,177000,1,8,0:0:0:0:
469,136,177197,1,8,0:0:0:0:
462,163,177296,1,2,0:0:0:0:
454,199,177395,6,2,B|407:238|442:295|442:295|401:277|332:261|216:326,1,332.5
79,315,178974,6,2,B|72:254|112:227|153:243|153:243|103:43,1,332.5
214,44,180552,6,2,L|271:31,3,35.625001358986
201,120,180947,2,2,L|149:136,3,35.625001358986
265,167,181342,2,2,L|320:149,3,35.625001358986
251,249,181737,2,2,L|212:263,3,35.625001358986
256,192,182131,12,4,183710,0:0:0:0:
