osu file format v14

[General]
AudioFilename: audio.mp3
AudioLeadIn: 0
PreviewTime: 57038
Countdown: 1
SampleSet: Normal
StackLeniency: 0.7
Mode: 0
LetterboxInBreaks: 0
WidescreenStoryboard: 1

[Editor]
DistanceSpacing: 1
BeatDivisor: 4
GridSize: 4
TimelineZoom: 1

[Metadata]
Title:Alien Alien (DIVELA Remix)
TitleUnicode:Alien Alien (DIVELA Remix)
Artist:Nayutan Seijin
ArtistUnicode:Nayutan Seijin
Creator:Nitronic Techno
Version:Hard
Source:
Tags:Nayutan Seijin Alien DIVELA Remix Hatsune Miku Beat Nitro Nitronic Techno
BeatmapID:1453800
BeatmapSetID:686964

[Difficulty]
HPDrainRate:6
CircleSize:4
OverallDifficulty:6.5
ApproachRate:7.5
SliderMultiplier:1.5
SliderTickRate:1

[Events]
//Background and Video events
0,0,"Alien.jpg",0,0
//Break Periods
2,32331,37030
2,85226,94464
2,127068,137096
//Storyboard Layer 0 (Background)
//Storyboard Layer 1 (Fail)
//Storyboard Layer 2 (Pass)
//Storyboard Layer 3 (Foreground)
//Storyboard Sound Samples

[TimingPoints]
553,394.736842105263,4,2,0,80,1,0
6868,-90.9090909090909,4,1,0,80,0,0
19500,-111.111111111111,4,1,0,60,0,0
38447,-105.263157894737,4,1,0,60,0,0
49500,-125,4,2,0,40,0,0
51079,-125,4,1,0,60,0,0
57000,-100,4,1,0,80,0,0
57395,-83.3333333333333,4,1,0,85,0,1
82658,-100,4,1,0,85,0,0
95289,-133.333333333333,4,2,0,60,0,0
106342,-111.111111111111,4,1,0,60,0,0
107921,-105.263157894737,4,1,0,60,0,0
126868,-105.263157894737,4,2,0,60,0,0
137921,-100,4,1,0,60,0,0
139500,-83.3333333333333,4,1,0,85,0,1
152131,-76.9230769230769,4,1,0,85,0,1
164763,-100,4,1,0,80,0,0

[HitObjects]
98,67,553,6,2,P|92:113|149:199,1,150
177,123,1145,2,0,P|213:148|223:251,1,150,0|8,0:0|0:0,0:0:0:0:
225,246,1737,1,8,0:0:0:0:
225,246,1934,1,8,0:0:0:0:
312,345,2131,6,2,P|355:327|386:232,1,150
310,245,2724,2,0,P|304:177|370:122,1,150,0|8,0:0|0:0,0:0:0:0:
359,124,3316,1,8,0:0:0:0:
359,124,3513,1,8,0:0:0:0:
259,64,3710,6,2,P|184:64|122:115,1,150
89,176,4302,2,0,P|73:233|132:307,1,150,0|8,0:0|0:0,0:0:0:0:
203,332,4895,1,8,0:0:0:0:
282,288,5092,1,8,0:0:0:0:
304,200,5289,5,8,0:0:0:0:
283,178,5684,1,8,0:0:0:0:
262,156,6079,1,8,0:0:0:0:
238,137,6474,1,4,0:0:0:0:
75,84,6868,6,2,P|52:130|49:182,1,82.5000025177003
102,235,7263,2,2,P|117:188|120:146,1,82.5000025177003
215,87,7658,2,8,P|208:152|184:215,2,123.75000377655
241,75,8349,1,0,0:0:0:0:
267,63,8447,6,2,P|310:58|355:69,1,82.5000025177003
402,130,8842,2,2,P|357:137|317:126,1,82.5000025177003
254,196,9237,2,8,P|283:248|348:275,2,123.75000377655
225,190,9927,1,0,0:0:0:0:
196,192,10026,6,2,L|170:285,1,82.5000025177003
93,310,10421,2,2,L|122:223,1,82.5000025177003
51,194,10816,2,8,P|73:136|131:85,2,123.75000377655
39,220,11506,1,0,0:0:0:0:
47,247,11605,6,2,P|79:286|131:298,1,82.5000025177003
186,283,12000,2,2,P|158:241|110:220,1,82.5000025177003
195,150,12395,2,8,L|267:261,2,123.75000377655
210,125,13085,1,0,0:0:0:0:
230,104,13184,5,2,0:0:0:0:
299,54,13381,1,2,0:0:0:0:
369,119,13579,1,2,0:0:0:0:
297,178,13776,1,2,0:0:0:0:
300,265,13974,2,8,P|356:289|436:275,2,123.75000377655
271,261,14664,1,0,0:0:0:0:
242,261,14763,5,2,0:0:0:0:
145,261,14960,1,2,0:0:0:0:
102,178,15158,1,2,0:0:0:0:
163,98,15355,1,2,0:0:0:0:
241,162,15552,2,8,P|298:175|373:151,2,123.75000377655
218,180,16243,1,0,0:0:0:0:
192,193,16342,6,0,P|143:208|99:195,1,82.5000025177003
155,130,16737,2,2,P|199:117|244:129,1,82.5000025177003
299,188,17131,2,8,P|354:213|436:206,2,123.75000377655
270,192,17822,1,0,0:0:0:0:
245,207,17921,6,0,L|204:247,2,41.2500012588501,2|0|2,0:0|0:0|0:0,0:0:0:0:
238,122,18316,2,0,L|202:93,2,41.2500012588501,2|0|2,0:0|0:0|0:0,0:0:0:0:
324,120,18710,2,0,L|354:81,3,41.2500012588501,8|0|0|8,0:0|0:0|0:0|0:0,0:0:0:0:
377,92,19105,2,0,L|411:46,3,41.2500012588501
430,62,19500,6,2,P|443:107|430:205,1,134.999995880127
367,264,20092,1,0,0:0:0:0:
367,264,20289,2,0,P|352:181|375:108,1,134.999995880127
300,74,20881,1,0,0:0:0:0:
214,98,21079,6,2,L|218:182,1,67.4999979400635
143,137,21474,2,2,L|147:216,1,67.4999979400635
48,240,21868,2,2,P|74:192|73:155,1,67.4999979400635
33,92,22263,2,2,P|11:139|10:172,1,67.4999979400635
99,102,22658,6,2,P|136:114|180:220,1,134.999995880127
191,293,23250,1,0,0:0:0:0:
191,293,23447,2,0,P|136:270|114:189,1,134.999995880127
42,248,24039,1,0,0:0:0:0:
81,344,24237,6,2,L|144:289,1,67.4999979400635
169,364,24631,2,2,L|226:312,1,67.4999979400635
288,286,25026,1,2,0:0:0:0:
343,207,25224,1,2,0:0:0:0:
322,84,25421,5,2,0:0:0:0:
267,163,25619,1,2,0:0:0:0:
207,75,25816,6,2,P|177:110|159:216,1,134.999995880127
64,243,26408,1,0,0:0:0:0:
64,243,26605,2,0,P|69:183|33:102,1,134.999995880127
139,37,27197,1,0,0:0:0:0:
139,37,27296,1,0,0:0:0:0:
139,37,27395,6,2,L|131:113,1,67.4999979400635
208,104,27789,2,2,L|199:195,1,67.4999979400635
240,256,28184,2,2,P|273:278|323:280,1,67.4999979400635
348,175,28579,2,2,P|307:197|296:224,1,67.4999979400635
380,274,28974,6,0,P|426:271|452:256,1,67.4999979400635,8|0,0:0|0:0,0:0:0:0:
338,202,29368,2,0,P|380:202|408:181,1,67.4999979400635,8|0,0:0|0:0,0:0:0:0:
325,125,29763,2,0,P|357:103|377:71,1,67.4999979400635,8|0,0:0|0:0,0:0:0:0:
282,53,30158,2,0,P|233:41|149:63,1,134.999995880127,8|8,0:0|3:0,0:0:0:0:
139,80,30651,5,8,0:3:0:0:
126,100,30750,1,8,0:3:0:0:
88,189,30947,1,2,0:0:0:0:
155,255,31145,1,8,0:0:0:0:
239,302,31342,2,2,L|262:255,3,33.7499989700318
272,326,31737,2,0,L|253:365,3,33.7499989700318,4|0|0|0,0:0|0:0|0:0|0:0,0:0:0:0:
309,313,32131,5,4,0:0:0:0:
182,61,37855,5,8,0:0:0:0:
149,147,38052,1,8,0:0:0:0:
180,62,38250,1,8,0:0:0:0:
254,143,38447,6,2,P|312:158|402:118,1,142.49999619484
492,173,39039,1,0,0:0:0:0:
423,207,39237,2,0,B|373:239|373:239|315:204|269:252,1,142.49999619484
236,282,39829,1,0,0:0:0:0:
149,322,40026,6,2,P|139:278|145:225,1,71.2499980974198
70,209,40421,2,2,P|82:163|104:134,1,71.2499980974198
181,95,40816,1,2,0:0:0:0:
181,95,40914,1,0,0:0:0:0:
181,95,41013,1,2,0:0:0:0:
242,169,41210,2,2,P|281:174|314:150,1,71.2499980974198
394,79,41605,6,2,P|378:143|397:221,1,142.49999619484
317,282,42197,1,0,0:0:0:0:
317,282,42395,2,0,P|298:198|263:152,1,142.49999619484
287,45,42987,1,0,0:0:0:0:
158,49,43184,6,2,P|121:97|114:133,1,71.2499980974198
195,138,43579,2,2,P|177:186|175:213,1,71.2499980974198
197,303,43974,2,2,P|231:260|240:230,1,71.2499980974198
260,237,44270,1,0,0:0:0:0:
283,228,44368,2,2,P|305:193|314:143,1,71.2499980974198
397,107,44763,6,2,P|355:67|257:66,1,142.49999619484
195,131,45355,1,0,0:0:0:0:
195,131,45552,2,0,P|250:113|326:154,1,142.49999619484
339,243,46145,1,0,0:0:0:0:
258,283,46342,6,2,L|184:313,1,71.2499980974198
229,211,46737,2,2,L|148:246,1,71.2499980974198
220,132,47131,1,2,0:0:0:0:
122,175,47329,1,2,0:0:0:0:
175,52,47526,5,2,0:0:0:0:
272,7,47724,1,2,0:0:0:0:
392,71,47921,6,0,P|376:104|379:152,1,71.2499980974198,8|0,0:0|0:0,0:0:0:0:
302,102,48316,2,0,P|301:156|321:195,1,71.2499980974198,8|0,0:0|0:0,0:0:0:0:
230,164,48710,2,0,P|246:207|271:232,1,71.2499980974198,8|0,0:0|0:0,0:0:0:0:
194,272,49105,2,2,P|214:306|321:305,1,142.49999619484,10|0,0:0|0:0,0:0:0:0:
366,271,49697,5,8,0:0:0:0:
386,201,49895,1,0,0:0:0:0:
319,173,50092,1,8,0:0:0:0:
347,107,50289,1,0,0:0:0:0:
276,89,50487,1,8,0:0:0:0:
252,156,50684,1,0,0:0:0:0:
183,134,50881,1,8,0:0:0:0:
140,192,51079,5,4,0:0:0:0:
256,308,51474,1,0,0:0:0:0:
372,192,51868,1,8,0:0:0:0:
256,76,52263,1,8,0:0:0:0:
173,109,52658,5,4,0:0:0:0:
173,274,53053,1,0,0:0:0:0:
338,274,53447,1,8,0:0:0:0:
338,109,53842,1,8,0:0:0:0:
256,36,54237,6,0,P|216:35|197:50,1,60,4|0,0:0|0:0,0:0:0:0:
157,96,54631,2,8,P|148:132|149:171,1,60
151,229,55026,2,0,P|162:263|183:286,1,60,4|0,0:0|0:0,0:0:0:0:
172,351,55421,2,8,P|207:359|231:352,1,60
299,335,55816,6,8,L|320:310,3,30
315,276,56210,2,8,L|340:238,3,30
323,218,56605,2,0,P|332:181|284:97,1,120,4|4,0:0|0:0,0:0:0:0:
120,122,57395,6,0,P|93:172|96:233,1,89.9999972534181,4|0,0:0|0:0,0:0:0:0:
108,278,57789,1,2,0:0:0:0:
176,314,57987,1,2,0:0:0:0:
251,278,58184,2,0,P|265:230|263:159,1,89.9999972534181,0|2,0:0|0:0,0:0:0:0:
223,124,58579,1,2,0:0:0:0:
152,71,58776,1,2,0:0:0:0:
251,37,58974,6,0,L|354:34,1,89.9999972534181,8|0,0:0|0:0,0:0:0:0:
348,63,59270,1,0,0:0:0:0:
360,95,59368,2,0,L|259:97,1,89.9999972534181,8|0,0:0|0:0,0:0:0:0:
234,183,59763,2,0,P|283:236|360:176,1,179.999994506836,8|0,0:0|0:0,0:0:0:0:
440,202,60355,1,0,0:0:0:0:
401,306,60552,6,0,L|309:287,1,89.9999972534181,2|0,0:0|0:0,0:0:0:0:
199,287,60947,2,0,L|111:306,1,89.9999972534181,2|0,0:0|0:0,0:0:0:0:
181,199,61342,2,2,P|214:167|334:207,1,179.999994506836
255,241,61934,1,0,0:0:0:0:
169,177,62131,6,0,L|137:91,1,89.9999972534181,2|0,0:0|0:0,0:0:0:0:
256,64,62526,2,0,L|256:157,1,89.9999972534181,2|0,0:0|0:0,0:0:0:0:
343,177,62921,2,0,L|375:91,1,89.9999972534181,2|8,0:0|0:0,0:0:0:0:
467,73,63316,1,8,0:0:0:0:
443,175,63513,1,0,0:0:0:0:
355,245,63710,6,0,L|434:330,2,89.9999972534181,4|0|0,0:0|0:0|0:0,0:0:0:0:
256,192,64302,1,0,0:0:0:0:
171,192,64500,2,0,L|75:192,2,89.9999972534181,4|0|0,0:0|0:0|0:0,0:0:0:0:
256,192,65092,1,0,0:0:0:0:
347,112,65289,6,0,P|309:73|270:63,1,89.9999972534181,4|0,0:0|0:0,0:0:0:0:
279,136,65684,2,0,P|263:184|277:231,1,89.9999972534181,4|0,0:0|0:0,0:0:0:0:
331,181,66079,2,0,P|396:180|420:76,1,179.999994506836,4|0,0:0|0:0,0:0:0:0:
359,113,66671,2,2,P|315:112|274:231,1,179.999994506836
217,281,67263,2,0,L|200:374,1,89.9999972534181,2|0,0:0|0:0,0:0:0:0:
140,267,67658,2,0,L|145:358,1,89.9999972534181,2|0,0:0|0:0,0:0:0:0:
77,266,68052,2,0,L|62:364,1,89.9999972534181,2|0,0:0|0:0,0:0:0:0:
18,220,68447,5,0,0:0:0:0:
18,220,68546,1,0,0:0:0:0:
18,220,68645,1,8,0:0:0:0:
61,141,68842,1,8,0:0:0:0:
143,106,69039,1,0,0:0:0:0:
143,106,69138,1,0,0:0:0:0:
143,106,69237,1,8,0:0:0:0:
194,179,69434,1,8,0:0:0:0:
255,278,69631,5,4,0:0:0:0:
440,252,70026,6,0,P|376:222|351:218,1,89.9999972534181,2|0,0:0|0:0,0:0:0:0:
299,149,70421,1,2,0:0:0:0:
278,236,70618,1,2,0:0:0:0:
220,166,70816,2,0,P|159:160|118:174,1,89.9999972534181,0|2,0:0|0:0,0:0:0:0:
102,178,71112,1,2,0:0:0:0:
82,202,71210,1,2,0:0:0:0:
42,278,71408,1,2,0:0:0:0:
104,341,71605,5,8,0:0:0:0:
181,288,71802,2,0,L|216:326,2,44.999998626709,0|0|8,0:0|0:0|0:0,0:0:0:0:
200,196,72197,1,0,0:0:0:0:
256,110,72395,2,0,P|280:157|244:291,1,179.999994506836,8|0,0:0|0:0,0:0:0:0:
334,326,72987,1,0,0:0:0:0:
381,230,73184,6,0,L|337:131,1,89.9999972534181,2|0,0:0|0:0,0:0:0:0:
256,169,73579,2,0,L|256:280,1,89.9999972534181,2|0,0:0|0:0,0:0:0:0:
131,230,73974,2,0,L|175:131,1,89.9999972534181,2|0,0:0|0:0,0:0:0:0:
181,119,74270,1,0,0:0:0:0:
195,91,74368,1,2,0:0:0:0:
317,91,74566,1,2,0:0:0:0:
361,170,74763,6,0,L|328:265,1,89.9999972534181,2|0,0:0|0:0,0:0:0:0:
180,255,75158,2,0,L|151:170,1,89.9999972534181,2|0,0:0|0:0,0:0:0:0:
255,149,75552,1,2,0:0:0:0:
256,303,75750,5,8,0:0:0:0:
256,303,75947,1,8,0:0:0:0:
349,348,76145,1,0,0:0:0:0:
421,275,76342,6,0,P|421:209|392:180,1,89.9999972534181,8|0,0:0|0:0,0:0:0:0:
350,126,76737,1,0,0:0:0:0:
305,205,76934,1,0,0:0:0:0:
232,274,77131,2,0,P|157:290|114:273,1,89.9999972534181,8|0,0:0|0:0,0:0:0:0:
86,226,77526,1,0,0:0:0:0:
145,155,77724,1,0,0:0:0:0:
242,90,77921,6,0,P|263:134|266:189,1,89.9999972534181,8|0,0:0|0:0,0:0:0:0:
207,247,78316,2,0,P|194:186|200:146,1,89.9999972534181,8|0,0:0|0:0,0:0:0:0:
116,128,78710,2,0,P|166:91|274:128,1,179.999994506836,8|0,0:0|0:0,0:0:0:0:
196,195,79302,1,0,0:0:0:0:
167,296,79500,6,0,P|236:307|274:296,1,89.9999972534181,2|0,0:0|0:0,0:0:0:0:
340,244,79895,2,0,P|279:231|243:239,1,89.9999972534181,2|0,0:0|0:0,0:0:0:0:
168,201,80289,2,0,P|159:130|169:97,1,89.9999972534181,2|0,0:0|0:0,0:0:0:0:
227,32,80684,2,0,P|240:92|227:142,1,89.9999972534181,2|0,0:0|0:0,0:0:0:0:
333,123,81079,6,0,L|368:86,4,44.999998626709,0|0|8|0|8,0:0|0:0|0:0|0:0|0:0,0:0:0:0:
348,196,81671,2,0,L|301:243,2,44.999998626709,0|0|8,0:0|0:0|0:0,0:0:0:0:
428,193,82066,1,8,0:0:0:0:
459,280,82263,1,0,0:0:0:0:
374,324,82460,1,8,0:0:0:0:
297,276,82658,1,8,0:0:0:0:
256,192,82756,12,0,85026,0:0:0:0:
106,84,95289,6,0,L|90:140,1,56.2500021457673,2|0,0:0|0:0,0:0:0:0:
154,159,95684,2,0,L|135:221,1,56.2500021457673,2|0,0:0|0:0,0:0:0:0:
198,242,96079,2,0,L|271:266,1,56.2500021457673,2|0,0:0|0:0,0:0:0:0:
265,193,96474,2,0,L|320:211,1,56.2500021457673,2|0,0:0|0:0,0:0:0:0:
344,148,96868,6,0,L|333:110,2,28.1250010728836,2|0|0,0:0|0:0|0:0,0:0:0:0:
409,165,97263,2,0,L|431:203,2,28.1250010728836,2|0|0,0:0|0:0|0:0,0:0:0:0:
435,102,97658,2,0,L|400:44,1,56.2500021457673,2|0,0:0|0:0,0:0:0:0:
339,40,98052,1,2,0:0:0:0:
271,42,98250,1,0,0:0:0:0:
205,58,98447,6,0,L|175:123,1,56.2500021457673,2|0,0:0|0:0,0:0:0:0:
114,120,98842,2,0,L|114:190,1,56.2500021457673,2|0,0:0|0:0,0:0:0:0:
51,202,99237,2,0,L|88:256,1,56.2500021457673,2|0,0:0|0:0,0:0:0:0:
51,308,99631,2,0,L|119:335,1,56.2500021457673,2|0,0:0|0:0,0:0:0:0:
170,334,100026,6,0,L|217:335,2,28.1250010728836,2|0|0,0:0|0:0|0:0,0:0:0:0:
199,273,100421,2,0,L|235:274,2,28.1250010728836,2|0|0,0:0|0:0|0:0,0:0:0:0:
216,207,100816,2,0,L|260:207,2,28.1250010728836,2|0|0,0:0|0:0|0:0,0:0:0:0:
175,153,101210,1,2,0:0:0:0:
133,99,101408,1,0,0:0:0:0:
119,32,101605,6,0,P|164:34|179:43,1,56.2500021457673,2|0,0:0|0:0,0:0:0:0:
232,70,102000,2,0,P|266:82|295:79,1,56.2500021457673,2|0,0:0|0:0,0:0:0:0:
352,91,102395,2,0,P|395:110|411:137,1,56.2500021457673,2|0,0:0|0:0,0:0:0:0:
416,181,102789,2,0,P|447:206|470:211,1,56.2500021457673,2|0,0:0|0:0,0:0:0:0:
483,274,103184,6,0,L|493:317,2,28.1250010728836,2|0|0,0:0|0:0|0:0,0:0:0:0:
415,266,103579,2,0,L|411:303,2,28.1250010728836,2|0|0,0:0|0:0|0:0,0:0:0:0:
355,233,103974,2,0,L|332:268,2,28.1250010728836,2|0|0,0:0|0:0|0:0,0:0:0:0:
311,181,104368,1,2,0:0:0:0:
248,155,104566,1,0,0:0:0:0:
181,163,104763,6,0,L|181:233,1,56.2500021457673,2|0,0:0|0:0,0:0:0:0:
133,267,105158,2,0,L|186:296,1,56.2500021457673,2|0,0:0|0:0,0:0:0:0:
216,293,105454,1,0,0:0:0:0:
249,293,105552,2,0,L|307:266,1,56.2500021457673,2|0,0:0|0:0,0:0:0:0:
262,212,105947,2,0,L|262:146,1,56.2500021457673,2|0,0:0|0:0,0:0:0:0:
215,88,106342,6,0,P|183:109|152:109,2,67.4999979400635,8|0|8,0:0|0:0|0:0,0:0:0:0:
296,94,106934,1,0,0:0:0:0:
368,130,107131,2,0,P|388:168|395:197,2,67.4999979400635,8|0|4,0:0|0:0|0:0,0:0:0:0:
255,259,107921,6,2,P|217:275|112:261,1,142.49999619484
218,198,108513,1,0,0:0:0:0:
218,198,108710,2,0,P|264:191|376:211,1,142.49999619484
445,153,109302,1,0,0:0:0:0:
445,153,109401,1,0,0:0:0:0:
445,153,109500,6,2,P|419:114|414:71,1,71.2499980974198
338,150,109895,2,2,L|338:66,1,71.2499980974198
234,117,110289,2,2,P|264:81|266:44,1,71.2499980974198
178,50,110684,2,2,P|146:83|141:124,1,71.2499980974198
57,178,111079,6,2,P|98:191|167:269,1,142.49999619484
251,201,111671,1,0,0:0:0:0:
251,201,111868,2,0,P|302:230|410:230,1,142.49999619484
453,144,112460,1,0,0:0:0:0:
453,144,112559,1,0,0:0:0:0:
453,144,112658,6,2,P|450:193|460:237,1,71.2499980974198
370,152,113052,2,2,P|378:112|373:80,1,71.2499980974198
293,152,113447,1,2,0:0:0:0:
245,223,113645,1,2,0:0:0:0:
159,222,113842,1,2,0:0:0:0:
106,154,114039,1,2,0:0:0:0:
210,75,114237,6,2,P|228:112|191:213,1,142.49999619484
93,241,114829,1,0,0:0:0:0:
93,241,115026,2,0,P|123:292|217:315,1,142.49999619484
292,298,115618,1,0,0:0:0:0:
306,277,115717,1,0,0:0:0:0:
321,256,115816,6,2,P|338:200|337:177,1,71.2499980974198
276,124,116210,2,2,P|249:154|213:165,1,71.2499980974198
115,171,116605,2,2,P|152:126|160:97,1,71.2499980974198
60,123,117000,2,2,P|38:154|37:191,1,71.2499980974198
60,265,117395,6,0,P|100:295|132:304,1,71.2499980974198,8|0,0:0|0:0,0:0:0:0:
205,253,117789,2,0,P|154:244|130:228,1,71.2499980974198,8|0,0:0|0:0,0:0:0:0:
129,152,118184,2,0,P|173:178|208:182,1,71.2499980974198,8|0,0:0|0:0,0:0:0:0:
283,130,118579,2,8,P|214:118|171:56,1,142.49999619484,8|8,0:0|3:0,0:0:0:0:
148,55,119072,5,0,3:0:0:0:
123,48,119171,1,0,3:0:0:0:
37,83,119368,2,8,P|31:132|41:170,1,71.2499980974198,8|8,3:0|3:0,3:0:0:0:
53,231,119763,2,8,P|81:259|116:268,1,71.2499980974198,8|8,3:0|3:0,3:0:0:0:
186,320,120158,2,8,P|202:263|200:229,1,71.2499980974198,8|8,3:0|3:0,3:0:0:0:
120,276,120552,5,4,0:0:0:0:
172,56,120947,1,0,0:0:0:0:
392,108,121342,1,8,0:0:0:0:
340,328,121737,1,8,0:0:0:0:
219,347,122131,5,4,0:0:0:0:
100,155,122526,1,0,0:0:0:0:
292,36,122921,1,8,0:0:0:0:
411,228,123316,1,8,0:0:0:0:
346,267,123710,6,0,P|311:274|266:255,1,71.2499980974198,4|0,0:0|0:0,0:0:0:0:
284,184,124105,2,8,P|244:171|212:175,1,71.2499980974198
194,244,124500,2,0,P|154:243|119:231,1,71.2499980974198,4|0,0:0|0:0,0:0:0:0:
125,159,124895,2,8,P|83:164|54:175,1,71.2499980974198
39,245,125289,5,8,0:0:0:0:
47,268,125388,1,8,0:0:0:0:
56,291,125487,1,8,0:0:0:0:
64,314,125585,1,8,0:0:0:0:
71,337,125684,2,8,L|122:336,4,35.6249990487099
255,192,126868,5,4,0:0:0:0:
137,140,137921,6,0,L|137:95,4,37.5,0|0|8|0|8,0:0|0:0|0:0|0:0|0:0,0:0:0:0:
203,174,138513,2,0,L|203:218,4,37.5,0|0|8|0|8,0:0|0:0|0:0|0:0|0:0,0:0:0:0:
257,117,139105,1,4,0:0:0:0:
256,297,139500,6,0,P|301:313|370:293,1,89.9999972534181,4|0,0:0|0:0,0:0:0:0:
419,249,139895,2,2,P|365:236|325:243,1,89.9999972534181
254,205,140289,2,0,P|231:161|246:108,1,89.9999972534181,0|2,0:0|0:0,0:0:0:0:
257,98,140585,1,2,0:0:0:0:
285,83,140684,2,0,P|331:102|391:88,1,89.9999972534181,2|2,0:0|0:0,0:0:0:0:
445,156,141079,6,0,L|418:246,1,89.9999972534181,8|0,0:0|0:0,0:0:0:0:
388,248,141375,1,0,0:0:0:0:
357,254,141474,2,0,L|317:355,1,89.9999972534181,8|0,0:0|0:0,0:0:0:0:
256,290,141868,2,0,P|185:318|83:284,1,179.999994506836,8|0,0:0|0:0,0:0:0:0:
173,235,142460,1,0,0:0:0:0:
198,142,142658,6,0,L|180:43,1,89.9999972534181,2|0,0:0|0:0,0:0:0:0:
330,53,143052,2,0,L|314:142,1,89.9999972534181,2|0,0:0|0:0,0:0:0:0:
256,223,143447,1,2,0:0:0:0:
256,319,143645,1,0,0:0:0:0:
256,319,143743,1,0,0:0:0:0:
256,319,143842,2,0,L|348:342,1,89.9999972534181,2|0,0:0|0:0,0:0:0:0:
313,252,144237,6,0,L|352:161,1,89.9999972534181,2|0,0:0|0:0,0:0:0:0:
256,110,144631,2,0,L|256:212,1,89.9999972534181,2|0,0:0|0:0,0:0:0:0:
199,252,145026,2,0,L|160:161,1,89.9999972534181,2|8,0:0|0:0,0:0:0:0:
53,192,145421,1,8,0:0:0:0:
102,281,145618,1,0,0:0:0:0:
212,334,145816,6,0,P|262:345|315:331,1,89.9999972534181,8|0,0:0|0:0,0:0:0:0:
326,254,146210,1,0,0:0:0:0:
317,156,146408,1,0,0:0:0:0:
203,220,146605,2,8,P|188:164|201:129,1,89.9999972534181
195,42,147000,1,0,0:0:0:0:
317,42,147197,1,0,0:0:0:0:
319,142,147395,6,0,L|303:254,1,89.9999972534181,8|0,0:0|0:0,0:0:0:0:
193,142,147789,2,0,L|209:254,1,89.9999972534181,8|0,0:0|0:0,0:0:0:0:
172,307,148184,2,0,P|225:332|363:292,1,179.999994506836,8|0,0:0|0:0,0:0:0:0:
376,224,148776,1,0,0:0:0:0:
328,130,148974,6,0,P|325:79|348:41,1,89.9999972534181,2|0,0:0|0:0,0:0:0:0:
256,29,149368,2,0,L|256:122,1,89.9999972534181,2|0,0:0|0:0,0:0:0:0:
176,52,149763,2,0,P|189:96|178:151,1,89.9999972534181,2|0,0:0|0:0,0:0:0:0:
212,205,150158,2,0,L|304:205,1,89.9999972534181,2|0,0:0|0:0,0:0:0:0:
302,279,150552,6,0,L|338:325,4,44.999998626709,0|0|8|0|8,0:0|0:0|0:0|0:0|0:0,0:0:0:0:
210,279,151145,2,0,L|174:325,4,44.999998626709,0|0|8|0|8,0:0|0:0|0:0|0:0|0:0,0:0:0:0:
256,331,151737,1,4,0:0:0:0:
190,250,152131,6,0,L|199:143,1,97.4999955368044,4|0,0:0|0:0,0:0:0:0:
313,152,152526,2,0,L|322:250,1,97.4999955368044,2|2,0:0|0:0,0:0:0:0:
255,296,152921,1,0,0:0:0:0:
256,193,153118,1,2,0:0:0:0:
256,178,153217,1,2,0:0:0:0:
256,163,153316,1,2,0:0:0:0:
255,88,153513,1,2,0:0:0:0:
197,38,153710,5,8,0:0:0:0:
315,38,153908,2,0,L|354:9,2,48.7499977684022,0|0|8,0:0|0:0|0:0,0:0:0:0:
303,99,154302,2,0,L|357:184,1,97.4999955368044,0|8,0:0|0:0,0:0:0:0:
254,226,154697,2,0,L|255:126,1,97.4999955368044,0|2,0:0|0:0,0:0:0:0:
209,99,155092,1,0,0:0:0:0:
156,181,155289,5,2,0:0:0:0:
203,261,155487,2,0,L|194:336,2,48.7499977684022,0|0|2,0:0|0:0|0:0,0:0:0:0:
309,261,155881,1,0,0:0:0:0:
296,188,156079,2,0,L|314:73,1,97.4999955368044,2|2,0:0|0:0,0:0:0:0:
216,188,156474,2,2,L|198:73,1,97.4999955368044
119,100,156868,5,0,0:0:0:0:
122,196,157066,1,0,0:0:0:0:
215,223,157263,1,2,0:0:0:0:
269,142,157460,1,0,0:0:0:0:
210,66,157658,2,0,L|172:164,2,97.4999955368044,2|8|8,0:0|0:0|0:0,0:0:0:0:
256,134,158250,1,0,0:0:0:0:
302,66,158447,6,0,L|337:156,1,97.4999955368044,8|2,0:0|0:0,0:0:0:0:
305,243,158842,1,2,0:0:0:0:
217,284,159039,1,2,0:0:0:0:
125,251,159237,2,0,L|82:147,1,97.4999955368044,8|2,0:0|0:0,0:0:0:0:
132,87,159631,1,2,0:0:0:0:
211,50,159829,1,2,0:0:0:0:
226,161,160026,6,0,P|276:181|332:162,1,97.4999955368044,8|0,0:0|0:0,0:0:0:0:
278,107,160421,2,0,P|293:52|274:-1,1,97.4999955368044,8|0,0:0|0:0,0:0:0:0:
221,60,160816,2,0,P|169:81|146:215,1,194.999991073609,8|0,0:0|0:0,0:0:0:0:
220,154,161408,1,0,0:0:0:0:
191,230,161605,6,0,L|167:333,1,97.4999955368044,8|0,0:0|0:0,0:0:0:0:
255,361,162000,2,0,L|256:260,1,97.4999955368044,8|0,0:0|0:0,0:0:0:0:
321,230,162395,2,0,L|345:333,1,97.4999955368044,8|0,0:0|0:0,0:0:0:0:
395,240,162789,2,0,L|370:141,1,97.4999955368044,8|0,0:0|0:0,0:0:0:0:
425,75,163184,6,0,L|411:25,4,48.7499977684022,0|0|4|0|4,0:0|0:0|0:0|0:0|0:0,0:0:0:0:
348,83,163776,2,0,L|330:26,4,48.7499977684022,0|0|4|0|4,0:0|0:0|0:0|0:0|0:0,0:0:0:0:
257,87,164368,1,0,0:0:0:0:
196,163,164566,1,8,0:0:0:0:
211,258,164763,1,8,0:0:0:0:
256,192,164862,12,4,169105,0:0:0:0:
