osu file format v14

[General]
AudioFilename: audio.mp3
AudioLeadIn: 0
PreviewTime: 43292
Countdown: 0
SampleSet: Soft
StackLeniency: 0.7
Mode: 0
LetterboxInBreaks: 0
WidescreenStoryboard: 1

[Editor]
Bookmarks: 91320
DistanceSpacing: 1
BeatDivisor: 4
GridSize: 32
TimelineZoom: 2

[Metadata]
Title:Perfect Seimei
TitleUnicode:パーフェクト生命
Artist:NayutalieN
ArtistUnicode:ナユタン星人
Creator:LeQuack
Version:Normal
Source:
Tags:Perfect Life 初音ミク Hatsune Miku Vocaloid Creamy Candy Affirmation Noffy Novelty Japanese ボーカロイド ボカロ ナユタン星人からの物体X cut ver nayutan seijin kara no buttai x
BeatmapID:2116375
BeatmapSetID:1009279

[Difficulty]
HPDrainRate:3
CircleSize:3
OverallDifficulty:4
ApproachRate:5
SliderMultiplier:0.999999999999999
SliderTickRate:1

[Events]
//Background and Video events
0,0,"29be824ad3fdfd3913e8f366a3f402971df501e4_s2_n1.jpg",0,0
//Break Periods
//Storyboard Layer 0 (Background)
//Storyboard Layer 1 (Fail)
//Storyboard Layer 2 (Pass)
//Storyboard Layer 3 (Foreground)
//Storyboard Layer 4 (Overlay)
//Storyboard Sound Samples

[TimingPoints]
167,300,4,2,5,60,1,0
167,-100,4,2,5,60,0,0
4667,-100,4,2,1,40,0,0
4967,-100,4,2,1,60,0,0
6092,-100,4,2,1,5,0,0
6167,-100,4,2,1,60,0,0
6992,-100,4,2,1,5,0,0
7067,-100,4,2,1,60,0,0
7292,-100,4,2,1,5,0,0
7367,-100,4,2,1,60,0,0
8492,-100,4,2,1,5,0,0
8567,-100,4,2,1,60,0,0
9392,-100,4,2,1,5,0,0
9467,-100,4,2,1,60,0,0
9692,-100,4,2,1,5,0,0
9767,-100,4,2,1,60,0,0
10892,-100,4,2,1,5,0,0
10967,-100,4,2,1,60,0,0
11792,-100,4,2,1,5,0,0
11867,-100,4,2,1,60,0,0
12092,-100,4,2,1,5,0,0
12167,-100,4,2,1,60,0,0
13292,-100,4,2,1,5,0,0
13367,-100,4,2,1,60,0,0
14192,-100,4,2,1,5,0,0
14267,-100,4,2,1,60,0,0
14492,-100,4,2,1,5,0,0
14567,-100,4,2,1,40,0,0
24167,-100,4,3,1,40,0,0
33767,-100,4,2,1,50,0,0
33917,-100,4,2,2,50,0,0
38567,-100,4,2,1,50,0,0
38717,-100,4,2,2,50,0,0
39992,-100,4,2,2,5,0,0
40067,-100,4,2,2,50,0,0
42617,-100,4,2,1,50,0,0
43367,-100,4,2,2,80,0,1
43667,-100,4,2,2,80,0,1
45767,-100,4,2,1,80,0,1
46142,-100,4,2,0,5,0,1
46217,-100,4,2,2,80,0,1
46367,-100,4,2,1,80,0,1
46592,-100,4,2,0,5,0,1
46667,-100,4,2,1,80,0,1
46817,-100,4,2,1,80,0,1
47042,-100,4,2,0,5,0,1
47117,-100,4,2,2,80,0,1
47267,-100,4,2,1,80,0,1
47417,-100,4,2,2,80,0,1
47492,-100,4,2,0,5,0,1
47567,-100,4,2,2,80,0,1
48317,-100,4,2,2,80,0,1
50567,-100,4,2,2,80,0,1
50717,-100,4,2,2,80,0,1
51017,-100,4,2,3,80,0,1
51317,-100,4,2,2,80,0,1
51767,-100,4,2,3,80,0,1
51917,-100,4,2,2,80,0,1
52967,-100,4,2,2,80,0,1
53267,-100,4,2,2,80,0,1
55367,-100,4,2,2,80,0,1
56567,-100,4,2,3,80,0,1
56717,-100,4,2,2,80,0,1
57917,-100,4,2,2,80,0,1
60167,-100,4,2,1,80,0,1
60317,-100,4,2,2,80,0,1
60467,-100,4,2,1,80,0,1
60917,-100,4,2,2,80,0,1
61067,-100,4,2,1,80,0,1
61517,-100,4,2,2,80,0,1
61667,-100,4,2,1,80,0,1
61817,-100,4,2,2,80,0,1
62567,-100,4,2,2,80,0,0
67367,-100,4,2,2,80,0,1
67517,-100,4,2,2,80,0,1
69767,-100,4,2,1,80,0,1
69917,-100,4,2,2,80,0,1
70217,-100,4,2,3,80,0,1
70517,-100,4,2,2,80,0,1
70667,-100,4,2,1,80,0,1
70817,-100,4,2,3,80,0,1
71117,-100,4,2,2,80,0,1
72167,-100,4,2,2,70,0,0
75767,-100,4,2,1,80,0,0
75992,-100,4,2,0,5,0,0
76067,-100,4,2,1,80,0,0
76292,-100,4,2,0,5,0,0
76367,-100,4,2,1,80,0,0
76592,-100,4,2,0,5,0,0
76667,-100,4,2,1,70,0,0
76967,-100,4,2,2,80,0,1
77117,-100,4,2,2,80,0,1
79367,-100,4,2,1,80,0,1
79517,-100,4,2,2,80,0,1
79667,-100,4,2,1,80,0,1
80117,-100,4,2,2,80,0,1
80267,-100,4,2,1,80,0,1
80717,-100,4,2,2,80,0,1
80867,-100,4,2,1,80,0,1
81017,-100,4,2,2,80,0,1
81767,-100,4,2,2,60,0,0
82592,-100,4,2,2,5,0,0
82667,-100,4,2,2,60,0,0
82892,-100,4,2,2,5,0,0
82967,-100,4,2,2,60,0,0
84992,-100,4,2,2,5,0,0
85067,-100,4,2,2,60,0,0
85292,-100,4,2,2,5,0,0
85367,-100,4,2,2,60,0,0
86567,-100,4,2,2,80,0,0
87392,-100,4,2,2,5,0,0
87467,-100,4,2,2,80,0,0
87692,-100,4,2,2,5,0,0
87767,-100,4,2,2,80,0,0
88592,-100,4,2,2,5,0,0
88667,-100,4,2,2,80,0,0
88892,-100,4,2,2,5,0,0
88967,-100,4,2,2,80,0,0
89792,-100,4,2,2,5,0,0
89867,-100,4,2,2,80,0,0
90092,-100,4,2,2,5,0,0
90167,-100,4,2,2,80,0,0
90992,-100,4,2,2,5,0,0
91067,-100,4,2,2,80,0,0
91292,-100,4,2,2,5,0,0
91367,-100,4,2,5,20,0,0
92867,-100,4,2,1,60,0,0

[Colours]
Combo1 : 185,185,185
Combo2 : 21,234,234

[HitObjects]
336,290,4967,6,0,P|390:280|433:239,1,99.9999999999999,12|8,0:0|0:0,0:0:0:0:
436,156,5567,1,12,0:0:0:0:
347,194,5867,1,12,0:0:0:0:
255,158,6167,6,0,B|224:115|224:115|219:58,1,99.9999999999999,8|8,0:0|0:0,0:0:0:0:
123,41,6767,2,0,L|132:152,1,99.9999999999999,12|12,0:0|0:0,0:0:0:0:
178,228,7367,6,0,P|113:234|72:212,1,99.9999999999999,8|8,0:0|0:0,0:0:0:0:
15,145,7967,1,12,0:0:0:0:
23,45,8267,1,12,0:0:0:0:
123,41,8567,6,0,L|236:41,1,99.9999999999999,8|8,0:0|0:0,0:0:0:0:
322,38,9167,2,0,B|306:68|306:68|320:137,1,99.9999999999999,12|12,0:0|0:0,0:0:0:0:
387,206,9767,6,0,P|410:160|465:132,1,99.9999999999999,12|8,0:0|0:0,0:0:0:0:
483,229,10367,1,12,0:0:0:0:
415,300,10667,1,12,0:0:0:0:
318,275,10967,6,0,P|275:267|212:280,1,99.9999999999999,8|8,0:0|0:0,0:0:0:0:
137,332,11567,2,0,P|94:340|31:327,1,99.9999999999999,12|12,0:0|0:0,0:0:0:0:
11,234,12167,6,0,L|18:126,1,99.9999999999999,8|8,0:0|0:0,0:0:0:0:
24,34,12767,1,12,0:0:0:0:
107,89,13067,1,12,0:0:0:0:
187,30,13367,6,0,B|216:47|216:47|291:47,1,99.9999999999999,8|8,0:0|0:0,0:0:0:0:
343,126,13967,2,0,B|372:109|372:109|447:109,1,99.9999999999999,12|12,0:0|0:0,0:0:0:0:
491,194,14567,6,0,B|491:247|491:247|464:285|464:285|465:353,1,150,6|0,0:0|0:0,0:0:0:0:
444,381,15167,2,0,P|377:349|298:361,1,150,2|0,0:0|0:0,0:0:0:0:
253,353,15767,2,0,P|229:320|222:210,1,150,2|0,0:0|0:0,0:0:0:0:
244,170,16367,1,2,0:0:0:0:
115,16,16967,6,0,B|76:45|76:45|76:156,1,150,2|0,0:0|0:0,0:0:0:0:
50,189,17567,2,0,P|68:249|39:332,1,150,2|0,0:0|0:0,0:0:0:0:
5,364,18167,2,0,L|161:364,1,150,2|0,0:0|0:0,0:0:0:0:
204,362,18767,1,2,0:0:0:0:
257,169,19367,6,0,B|292:200|292:200|299:313,1,150,2|0,0:0|0:0,0:0:0:0:
320,348,19967,2,0,P|384:358|456:317,1,150,2|0,0:0|0:0,0:0:0:0:
487,278,20567,2,0,L|493:118,1,150,2|0,0:0|0:0,0:0:0:0:
497,78,21167,1,2,0:0:0:0:
301,38,21767,6,0,B|230:27|231:70|139:42,1,150,2|0,0:0|0:0,0:0:0:0:
104,35,22367,2,0,P|122:105|102:180,1,150,2|0,0:0|0:0,0:0:0:0:
71,217,22967,2,0,P|57:266|68:325,2,99.9999999999999,2|2|2,0:0|0:0|0:0,0:0:0:0:
241,322,24167,6,0,L|396:327,1,150,4|4,0:0|0:0,0:0:0:0:
441,326,24767,1,4,0:0:0:0:
504,190,25217,1,4,0:0:0:0:
455,202,25367,2,0,P|400:190|347:112,1,150,4|4,0:0|0:0,0:0:0:0:
338,67,25967,1,4,0:0:0:0:
139,45,26567,6,0,B|183:76|183:76|175:178,1,150,4|4,0:0|0:0,0:0:0:0:
168,221,27167,1,4,0:0:0:0:
248,347,27617,1,4,0:0:0:0:
292,369,27767,2,0,P|366:376|434:340,1,150,4|4,0:0|0:0,0:0:0:0:
470,311,28367,1,4,0:0:0:0:
471,112,28967,6,0,P|410:111|339:45,1,150,6|4,0:0|0:0,0:0:0:0:
317,13,29567,1,4,0:0:0:0:
170,43,30017,1,4,0:0:0:0:
150,88,30167,2,0,L|151:242,1,150,4|4,0:0|0:0,0:0:0:0:
152,287,30767,1,4,0:0:0:0:
343,343,31367,6,0,B|314:302|314:302|314:198,1,150,4|4,0:0|0:0,0:0:0:0:
313,152,31967,1,4,0:0:0:0:
462,157,32417,1,4,0:0:0:0:
467,107,32567,2,0,L|477:4,2,99.9999999999999,4|8|4,0:0|0:0|0:0,0:0:0:0:
463,307,33767,5,6,0:0:0:0:
368,341,34067,1,10,0:0:0:0:
274,304,34367,2,0,P|221:293|173:306,1,99.9999999999999,2|10,0:0|0:0,0:0:0:0:
97,364,34967,2,0,B|79:340|79:340|77:263,2,99.9999999999999,2|10|2,0:0|0:0|0:0,0:0:0:0:
167,176,36167,5,2,0:0:0:0:
93,107,36467,1,10,0:0:0:0:
137,17,36767,2,0,P|182:12|246:32,1,99.9999999999999,2|10,0:0|0:0,0:0:0:0:
327,64,37367,2,0,B|292:97|292:97|292:162,2,99.9999999999999,2|10|2,0:0|0:0|0:0,0:0:0:0:
482,189,38567,5,6,0:0:0:0:
501,287,38867,1,8,0:0:0:0:
429,356,39167,2,0,P|387:375|331:368,1,99.9999999999999,2|10,0:0|0:0,0:0:0:0:
370,276,39767,2,0,L|365:168,2,99.9999999999999,2|10|2,0:0|0:0|0:0,0:0:0:0:
172,305,40967,6,0,B|146:277|146:277|145:206,1,99.9999999999999,2|10,0:0|0:0,0:0:0:0:
156,115,41567,1,2,0:0:0:0:
231,49,41867,1,10,0:0:0:0:
325,81,42167,2,0,P|359:90|432:72,1,99.9999999999999,2|10,0:0|0:0,0:0:0:0:
458,43,42617,2,0,P|483:39|517:49,1,50,8|4,0:3|0:3,0:0:0:0:
492,243,43367,6,0,B|402:223|401:294|285:266,1,200,4|0,0:0|0:0,0:0:0:0:
214,213,44267,1,8,0:0:0:0:
223,113,44567,2,0,L|326:112,1,99.9999999999999,2|10,0:0|0:0,0:0:0:0:
271,26,45167,2,0,L|168:25,1,99.9999999999999,2|10,0:0|0:0,0:0:0:0:
71,32,45767,6,0,P|55:61|57:128,1,99.9999999999999,4|8,0:0|0:3,0:0:0:0:
82,169,46217,2,0,P|97:211|85:271,1,99.9999999999999,10|4,0:0|0:3,0:0:0:0:
61,307,46667,1,12,0:0:0:0:
160,310,46967,1,4,0:3:0:0:
206,328,47117,2,0,P|253:343|311:324,1,99.9999999999999,10|4,0:0|0:3,0:0:0:0:
345,307,47567,1,12,0:0:0:0:
387,216,47867,1,8,0:0:0:0:
300,165,48167,6,0,P|332:131|435:127,1,150,4|2,0:0|0:0,0:0:0:0:
473,151,48767,2,0,L|469:48,1,99.9999999999999,0|8,0:0|0:0,0:0:0:0:
371,30,49367,1,2,0:0:0:0:
272,49,49667,1,10,0:0:0:0:
175,24,49967,2,0,B|128:13|128:13|76:21,1,99.9999999999999,2|10,0:0|0:0,0:0:0:0:
20,104,50567,6,0,P|38:134|40:207,1,99.9999999999999,4|8,0:0|0:0,0:0:0:0:
28,245,51017,1,8,0:3:0:0:
32,294,51167,2,0,B|67:310|67:310|150:309,1,99.9999999999999,10|8,0:3|0:0,0:0:0:0:
178,305,51617,1,4,0:3:0:0:
219,276,51767,2,0,L|337:276,1,99.9999999999999,6|8,0:3|0:0,0:0:0:0:
418,277,52367,1,0,0:0:0:0:
482,200,52667,1,8,0:0:0:0:
445,107,52967,6,0,B|380:107|380:107|318:139|318:139|246:138,1,200,4|0,0:0|0:0,0:0:0:0:
152,136,53867,1,8,0:0:0:0:
203,221,54167,2,0,P|214:272|201:326,1,99.9999999999999,2|10,0:0|0:0,0:0:0:0:
104,316,54767,2,0,P|93:265|106:211,1,99.9999999999999,2|10,0:0|0:0,0:0:0:0:
152,136,55367,5,4,0:0:0:0:
203,221,55667,1,8,0:0:0:0:
254,136,55967,1,8,0:0:0:0:
305,221,56267,1,8,0:0:0:0:
356,136,56567,6,0,P|346:91|308:49,1,99.9999999999999,6|4,0:3|0:3,0:0:0:0:
210,54,57167,1,4,0:3:0:0:
152,136,57467,1,8,0:0:0:0:
203,221,57767,6,0,P|219:269|210:331,1,99.9999999999999,6|10,0:0|0:0,0:0:0:0:
313,335,58367,2,0,P|326:287|357:248,1,99.9999999999999,2|10,0:0|0:0,0:0:0:0:
405,160,58967,2,0,L|294:144,1,99.9999999999999,2|10,0:0|0:0,0:0:0:0:
350,56,59567,2,0,L|461:72,1,99.9999999999999,2|10,0:0|0:0,0:0:0:0:
494,159,60167,6,0,P|479:211|437:243,1,99.9999999999999,6|8,0:0|0:3,0:0:0:0:
396,253,60617,1,4,0:3:0:0:
346,246,60767,2,0,P|294:240|246:259,1,99.9999999999999,6|8,0:0|0:3,0:0:0:0:
209,285,61217,1,4,0:3:0:0:
165,309,61367,6,0,B|130:328|130:328|61:328,1,99.9999999999999,6|12,0:0|0:0,0:0:0:0:
3,253,61967,2,0,B|38:234|38:234|107:234,1,99.9999999999999,10|10,0:0|0:0,0:0:0:0:
194,205,62567,6,0,P|211:161|174:59,1,150,4|2,0:0|0:0,0:0:0:0:
155,23,63167,2,0,P|203:36|269:22,1,99.9999999999999,2|10,0:0|0:0,0:0:0:0:
351,17,63767,1,2,0:0:0:0:
500,16,64217,1,2,0:0:0:0:
462,48,64367,2,0,B|436:77|436:77|436:154,1,99.9999999999999,2|10,0:0|0:0,0:0:0:0:
484,225,64967,6,0,P|439:238|384:222,1,99.9999999999999,2|10,0:0|0:0,0:0:0:0:
300,176,65567,2,0,P|255:163|200:179,1,99.9999999999999,2|10,0:0|0:0,0:0:0:0:
114,221,66167,1,2,0:0:0:0:
107,21,66767,2,0,B|129:44|129:44|129:126,1,99.9999999999999,0|8,0:0|0:0,0:0:0:0:
34,145,67367,6,0,B|12:168|12:168|12:250,1,99.9999999999999,6|8,0:0|0:0,0:0:0:0:
13,286,67817,2,0,B|86:278|86:327|167:305,1,150,2|10,0:0|0:0,0:0:0:0:
248,262,68567,2,0,P|259:293|244:360,1,99.9999999999999,2|8,0:0|0:0,0:0:0:0:
158,307,69167,1,2,0:0:0:0:
157,207,69467,1,10,0:0:0:0:
245,159,69767,6,0,B|281:172|281:172|363:166,1,99.9999999999999,12|8,0:0|0:0,0:0:0:0:
431,212,70367,2,0,B|444:176|444:176|438:94,1,99.9999999999999,6|8,0:3|0:0,0:0:0:0:
397,23,70967,2,0,L|290:32,1,99.9999999999999,10|8,0:3|0:0,0:0:0:0:
247,34,71417,1,2,0:0:0:0:
197,34,71567,2,0,L|97:25,1,99.9999999999999,2|10,0:0|0:0,0:0:0:0:
41,108,72167,6,0,P|31:172|72:250,1,150,4|2,0:0|0:0,0:0:0:0:
111,271,72767,2,0,P|62:283|22:328,1,99.9999999999999,2|10,0:0|0:0,0:0:0:0:
112,371,73367,1,2,0:0:0:0:
308,333,73967,2,0,P|287:290|289:234,1,99.9999999999999,2|8,0:0|0:0,0:0:0:0:
367,178,74567,6,0,B|343:142|343:142|269:141,1,99.9999999999999,2|10,0:0|0:0,0:0:0:0:
205,81,75167,2,0,B|229:45|229:45|303:44,1,99.9999999999999,2|10,0:0|0:0,0:0:0:0:
385,44,75767,1,6,0:0:0:0:
484,43,76067,1,12,0:0:0:0:
430,127,76367,1,6,0:0:0:0:
482,212,76667,1,8,0:0:0:0:
429,297,76967,6,0,P|389:310|331:301,1,99.9999999999999,6|10,0:0|0:0,0:0:0:0:
239,264,77567,2,0,P|199:251|141:260,1,99.9999999999999,2|10,0:0|0:0,0:0:0:0:
57,312,78167,1,2,0:0:0:0:
5,226,78467,1,10,0:0:0:0:
5,125,78767,2,0,L|-1:19,1,99.9999999999999,2|10,0:0|0:0,0:0:0:0:
97,47,79367,6,0,P|142:66|241:40,1,150,6|4,0:0|0:3,0:0:0:0:
288,45,79967,2,0,B|323:80|323:80|324:190,1,150,6|4,0:0|0:3,0:0:0:0:
323,229,80567,2,0,P|333:289|364:318,1,99.9999999999999,6|12,0:0|0:0,0:0:0:0:
405,334,81017,1,2,0:0:0:0:
438,297,81167,2,0,P|443:236|421:200,1,99.9999999999999,10|10,0:0|0:0,0:0:0:0:
452,107,81767,6,0,L|329:111,1,99.9999999999999,12|8,0:0|0:0,0:0:0:0:
251,108,82367,1,12,0:0:0:0:
166,54,82667,1,12,0:0:0:0:
75,95,82967,6,0,B|52:124|52:124|52:194,1,99.9999999999999,8|8,0:0|0:0,0:0:0:0:
105,272,83567,2,0,B|128:301|128:301|128:371,1,99.9999999999999,12|12,0:0|0:0,0:0:0:0:
217,318,84167,6,0,P|256:309|318:322,1,99.9999999999999,8|8,0:0|0:0,0:0:0:0:
406,359,84767,1,12,0:0:0:0:
474,285,85067,1,12,0:0:0:0:
431,195,85367,6,0,L|329:195,1,99.9999999999999,8|8,0:0|0:0,0:0:0:0:
236,226,85967,2,0,L|134:226,1,99.9999999999999,12|8,0:0|0:0,0:0:0:0:
162,129,86567,6,0,B|189:107|189:107|257:108,1,99.9999999999999,12|8,0:0|0:0,0:0:0:0:
351,84,87167,1,12,0:0:0:0:
450,82,87467,1,12,0:0:0:0:
420,177,87767,6,0,L|321:177,1,99.9999999999999,8|8,0:0|0:0,0:0:0:0:
220,175,88367,1,12,0:0:0:0:
159,254,88667,1,12,0:0:0:0:
104,170,88967,6,0,P|88:121|39:84,1,99.9999999999999,8|8,0:0|0:0,0:0:0:0:
6,178,89567,1,12,0:0:0:0:
66,256,89867,1,12,0:0:0:0:
16,343,90167,6,0,B|64:363|64:363|121:343,1,99.9999999999999,8|8,0:0|0:0,0:0:0:0:
203,313,90767,1,12,0:0:0:0:
302,325,91067,1,12,0:0:0:0:
302,325,92867,5,8,0:0:0:0:
