osu file format v14

[General]
AudioFilename: audio.mp3
AudioLeadIn: 0
PreviewTime: 43292
Countdown: 0
SampleSet: Soft
StackLeniency: 0.7
Mode: 0
LetterboxInBreaks: 0
WidescreenStoryboard: 1

[Editor]
DistanceSpacing: 1.1
BeatDivisor: 4
GridSize: 32
TimelineZoom: 1.9

[Metadata]
Title:Perfect Seimei
TitleUnicode:パーフェクト生命
Artist:NayutalieN
ArtistUnicode:ナユタン星人
Creator:LeQuack
Version:Noffy's Hard
Source:
Tags:Perfect Life 初音ミク Hatsune Miku Vocaloid Creamy Candy Affirmation Noffy Novelty Japanese ボーカロイド ボカロ ナユタン星人からの物体X cut ver nayutan seijin kara no buttai x
BeatmapID:2176536
BeatmapSetID:1009279

[Difficulty]
HPDrainRate:4.5
CircleSize:4
OverallDifficulty:5
ApproachRate:8
SliderMultiplier:1.3
SliderTickRate:1

[Events]
//Background and Video events
0,0,"29be824ad3fdfd3913e8f366a3f402971df501e4_s2_n1.jpg",0,0
//Break Periods
//Storyboard Layer 0 (Background)
//Storyboard Layer 1 (Fail)
//Storyboard Layer 2 (Pass)
//Storyboard Layer 3 (Foreground)
//Storyboard Layer 4 (Overlay)
//Storyboard Sound Samples

[TimingPoints]
167,300,4,2,5,60,1,0
4667,-100,4,2,1,40,0,0
4967,-100,4,2,1,60,0,0
6092,-100,4,2,1,5,0,0
6167,-100,4,2,1,60,0,0
6992,-100,4,2,1,5,0,0
7067,-100,4,2,1,60,0,0
7292,-100,4,2,1,5,0,0
7367,-100,4,2,1,60,0,0
8492,-100,4,2,1,5,0,0
8567,-100,4,2,1,60,0,0
9392,-100,4,2,1,5,0,0
9467,-100,4,2,1,60,0,0
9692,-100,4,2,1,5,0,0
9767,-100,4,2,1,60,0,0
10892,-100,4,2,1,5,0,0
10967,-100,4,2,1,60,0,0
11792,-100,4,2,1,5,0,0
11867,-100,4,2,1,60,0,0
12092,-100,4,2,1,5,0,0
12167,-100,4,2,1,60,0,0
13292,-100,4,2,1,5,0,0
13367,-100,4,2,1,60,0,0
14192,-100,4,2,1,5,0,0
14267,-100,4,2,1,60,0,0
14492,-100,4,2,1,5,0,0
14567,-133.333333333333,4,2,1,40,0,0
24167,-111.111111111111,4,3,1,40,0,0
33767,-100,4,2,1,50,0,0
33917,-100,4,2,2,50,0,0
38567,-100,4,2,1,50,0,0
38717,-100,4,2,2,50,0,0
39992,-100,4,2,2,5,0,0
40067,-100,4,2,2,50,0,0
42617,-100,4,2,1,50,0,0
43367,-80,4,2,2,80,0,1
43667,-80,4,2,2,80,0,1
45767,-80,4,2,1,80,0,1
46142,-80,4,2,0,5,0,1
46217,-80,4,2,2,80,0,1
46367,-80,4,2,1,80,0,1
46592,-80,4,2,0,5,0,1
46667,-80,4,2,1,80,0,1
47042,-80,4,2,0,5,0,1
47117,-80,4,2,2,80,0,1
47267,-80,4,2,1,80,0,1
47417,-80,4,2,2,80,0,1
47492,-80,4,2,0,5,0,1
47567,-80,4,2,2,80,0,1
48317,-80,4,2,2,80,0,1
50567,-80,4,2,2,80,0,1
50717,-80,4,2,2,80,0,1
51017,-80,4,2,3,80,0,1
51317,-80,4,2,2,80,0,1
51767,-80,4,2,3,80,0,1
51917,-80,4,2,2,80,0,1
52967,-80,4,2,2,80,0,1
53267,-80,4,2,2,80,0,1
55367,-80,4,2,2,80,0,1
56567,-80,4,2,3,80,0,1
56717,-80,4,2,2,80,0,1
57917,-80,4,2,2,80,0,1
60167,-80,4,2,1,80,0,1
60317,-80,4,2,2,80,0,1
60467,-80,4,2,1,80,0,1
60917,-80,4,2,2,80,0,1
61067,-80,4,2,1,80,0,1
61517,-80,4,2,2,80,0,1
61667,-80,4,2,1,80,0,1
61817,-80,4,2,2,80,0,1
62567,-100,4,2,2,80,0,0
62717,-100,4,2,4,70,0,0
67367,-100,4,2,2,80,0,0
67517,-100,4,2,2,80,0,0
69767,-100,4,2,1,80,0,0
69917,-100,4,2,2,80,0,0
70217,-100,4,2,3,80,0,0
70517,-100,4,2,2,80,0,0
70667,-100,4,2,1,80,0,0
70817,-100,4,2,3,80,0,0
71117,-100,4,2,2,80,0,0
72167,-100,4,2,2,70,0,0
72317,-100,4,2,4,70,0,0
75767,-100,4,2,1,80,0,0
75992,-100,4,2,0,5,0,0
76067,-100,4,2,1,80,0,0
76292,-100,4,2,0,5,0,0
76367,-100,4,2,1,80,0,0
76592,-100,4,2,0,5,0,0
76667,-100,4,2,1,70,0,0
76967,-80,4,2,2,80,0,1
77117,-80,4,2,2,80,0,1
79367,-80,4,2,1,80,0,1
79517,-80,4,2,2,80,0,1
79667,-80,4,2,1,80,0,1
80117,-80,4,2,2,80,0,1
80267,-80,4,2,1,80,0,1
80717,-80,4,2,2,80,0,1
80867,-80,4,2,1,80,0,1
81017,-80,4,2,2,80,0,1
81767,-100,4,2,2,60,0,0
82592,-100,4,2,2,5,0,0
82667,-100,4,2,2,60,0,0
82892,-100,4,2,2,5,0,0
82967,-100,4,2,2,60,0,0
84992,-100,4,2,2,5,0,0
85067,-100,4,2,2,60,0,0
85292,-100,4,2,2,5,0,0
85367,-100,4,2,2,60,0,0
86567,-100,4,2,2,80,0,0
87392,-100,4,2,2,5,0,0
87467,-100,4,2,2,80,0,0
87692,-100,4,2,2,5,0,0
87767,-100,4,2,2,80,0,0
88592,-100,4,2,2,5,0,0
88667,-100,4,2,2,80,0,0
88892,-100,4,2,2,5,0,0
88967,-100,4,2,2,80,0,0
89792,-100,4,2,2,5,0,0
89867,-100,4,2,2,80,0,0
90092,-100,4,2,2,5,0,0
90167,-100,4,2,2,80,0,0
90992,-100,4,2,2,5,0,0
91067,-100,4,2,2,80,0,0
91292,-100,4,2,2,5,0,0
91367,-100,4,2,5,20,0,0
91517,-100,4,2,5,20,0,0
92867,-80,4,2,1,60,0,0
93167,-80,4,2,1,60,0,0

[Colours]
Combo1 : 185,185,185
Combo2 : 21,234,234

[HitObjects]
485,61,4967,6,0,L|504:146,1,65,12|0,0:0|0:0,0:0:0:0:
429,158,5267,2,0,L|410:243,1,65,8|0,0:0|0:0,0:0:0:0:
470,275,5567,1,12,0:0:0:0:
470,275,5867,1,12,0:0:0:0:
499,124,6167,6,0,P|477:94|439:78,1,65,8|0,0:0|0:0,0:0:0:0:
374,81,6467,2,0,P|346:97|328:123,1,65,8|0,0:0|0:0,0:0:0:0:
323,202,6767,1,12,0:0:0:0:
323,202,7067,1,12,0:0:0:0:
205,304,7367,6,0,L|224:219,1,65,8|0,0:0|0:0,0:0:0:0:
149,207,7667,2,0,L|130:122,1,65,8|0,0:0|0:0,0:0:0:0:
190,90,7967,1,12,0:0:0:0:
190,90,8267,1,12,0:0:0:0:
219,241,8567,6,0,P|197:271|159:287,1,65,8|0,0:0|0:0,0:0:0:0:
94,284,8867,2,0,P|66:267|48:241,1,65,8|0,0:0|0:0,0:0:0:0:
43,163,9167,1,12,0:0:0:0:
43,163,9467,1,12,0:0:0:0:
133,36,9767,6,0,L|216:52,1,65,12|0,0:0|0:0,0:0:0:0:
234,117,10067,2,0,L|317:133,1,65,8|0,0:0|0:0,0:0:0:0:
338,196,10367,1,12,0:0:0:0:
338,196,10667,1,12,0:0:0:0:
183,177,10967,6,0,P|145:174|109:193,1,65,8|0,0:0|0:0,0:0:0:0:
70,245,11267,2,0,P|64:276|72:307,1,65,8|0,0:0|0:0,0:0:0:0:
129,361,11567,1,12,0:0:0:0:
129,361,11867,1,12,0:0:0:0:
283,340,12167,6,0,L|366:324,1,65,8|0,0:0|0:0,0:0:0:0:
384,259,12467,2,0,L|467:243,1,65,8|0,0:0|0:0,0:0:0:0:
488,180,12767,1,12,0:0:0:0:
488,180,13067,1,12,0:0:0:0:
333,199,13367,6,0,P|295:201|259:182,1,65,8|0,0:0|0:0,0:0:0:0:
220,131,13667,2,0,P|214:99|222:68,1,65,8|0,0:0|0:0,0:0:0:0:
279,15,13967,1,12,0:0:0:0:
279,15,14267,1,12,0:0:0:0:
279,15,14567,6,0,P|367:42|435:40,1,146.250005578995,6|0,0:0|0:0,0:0:0:0:
477,29,15167,2,0,L|488:138,1,97.50000371933,2|2,0:0|0:0,0:0:0:0:
494,185,15617,1,0,0:0:0:0:
494,185,15767,2,0,P|421:187|352:212,1,146.250005578995,2|0,0:0|0:0,0:0:0:0:
309,251,16367,1,2,0:0:0:0:
83,313,16967,6,0,P|154:336|227:339,1,146.250005578995,2|0,0:0|0:0,0:0:0:0:
283,329,17567,2,0,L|275:228,1,97.50000371933,2|2,0:0|0:0,0:0:0:0:
269,173,18017,1,0,0:0:0:0:
269,173,18167,2,0,P|199:196|126:200,1,146.250005578995,2|0,0:0|0:0,0:0:0:0:
69,186,18767,1,2,0:0:0:0:
264,314,19367,6,0,P|332:317|428:344,1,146.250005578995,2|0,0:0|0:0,0:0:0:0:
462,355,19967,2,0,L|473:244,1,97.50000371933,2|2,0:0|0:0,0:0:0:0:
488,201,20417,1,0,0:0:0:0:
488,201,20567,2,0,P|420:198|324:171,1,146.250005578995,2|0,0:0|0:0,0:0:0:0:
295,145,21167,1,2,0:0:0:0:
71,74,21767,6,0,P|141:56|214:53,1,146.250005578995,2|0,0:0|0:0,0:0:0:0:
272,63,22367,2,0,P|323:69|380:61,1,97.50000371933,2|2,0:0|0:0,0:0:0:0:
423,43,22817,1,0,0:0:0:0:
470,8,22967,1,2,0:0:0:0:
477,124,23267,1,2,0:0:0:0:
439,234,23567,2,0,P|390:228|342:234,1,97.50000371933,2|2,0:0|0:0,0:0:0:0:
216,296,24167,6,0,P|154:303|94:296,1,116.999996429443,4|8,0:0|0:0,0:0:0:0:
59,239,24617,1,4,0:0:0:0:
59,239,24767,2,0,P|25:229|-9:229,2,58.4999982147217,4|4|8,0:0|0:0|0:0,0:0:0:0:
129,220,25217,1,4,0:0:0:0:
129,220,25367,2,0,L|143:103,1,116.999996429443,4|8,0:0|0:0,0:0:0:0:
213,98,25817,1,4,0:0:0:0:
283,94,25967,2,0,L|269:211,1,116.999996429443,4|8,0:0|0:0,0:0:0:0:
258,350,26567,6,0,P|319:357|379:350,1,116.999996429443,4|8,0:0|0:0,0:0:0:0:
415,293,27017,1,4,0:0:0:0:
415,293,27167,2,0,P|449:283|483:283,2,58.4999982147217,4|4|8,0:0|0:0|0:0,0:0:0:0:
355,245,27617,1,4,0:0:0:0:
355,245,27767,2,0,P|402:218|472:207,1,116.999996429443,4|8,0:0|0:0,0:0:0:0:
495,136,28217,1,4,0:0:0:0:
446,84,28367,2,0,P|395:112|337:122,1,116.999996429443,4|8,0:0|0:0,0:0:0:0:
209,181,28967,6,0,L|93:174,1,116.999996429443,6|8,0:0|0:0,0:0:0:0:
45,121,29417,1,4,0:0:0:0:
45,121,29567,2,0,P|16:100|-2:69,2,58.4999982147217,4|4|8,0:0|0:0|0:0,0:0:0:0:
117,98,30017,1,4,0:0:0:0:
117,98,30167,2,0,L|233:105,1,116.999996429443,4|8,0:0|0:0,0:0:0:0:
304,111,30617,1,4,0:0:0:0:
374,112,30767,2,0,P|436:165|452:211,1,116.999996429443,4|8,0:0|0:0,0:0:0:0:
454,336,31367,6,0,L|338:320,1,116.999996429443,4|8,0:0|0:0,0:0:0:0:
336,249,31817,1,4,0:0:0:0:
336,249,31967,2,0,P|367:232|389:203,2,58.4999982147217,4|4|8,0:0|0:0|0:0,0:0:0:0:
266,237,32417,1,4,0:0:0:0:
195,236,32567,2,0,L|183:178,1,58.4999982147217,4|4,0:0|0:0,0:0:0:0:
115,197,32867,2,0,L|126:254,1,58.4999982147217,8|4,0:0|0:0,0:0:0:0:
59,277,33167,2,0,L|36:162,1,116.999996429443,4|8,0:0|0:0,0:0:0:0:
110,55,33767,6,0,L|127:141,1,65,6|2,0:0|0:0,0:0:0:0:
144,193,34067,1,8,0:0:0:0:
217,166,34217,1,2,0:0:0:0:
288,133,34367,2,0,L|305:219,1,65,0|2,0:0|0:0,0:0:0:0:
319,272,34667,1,8,0:0:0:0:
392,245,34817,1,2,0:0:0:0:
461,210,34967,2,0,L|448:146,1,65,0|2,0:0|0:0,0:0:0:0:
444,68,35267,2,0,P|426:136|356:165,2,130,8|0|8,0:0|0:0|0:0,0:0:0:0:
292,109,36167,6,0,L|296:194,2,65,0|2|8,0:0|0:0|0:0,0:0:0:0:
222,72,36617,1,2,0:0:0:0:
175,134,36767,2,0,L|179:219,2,65,0|2|8,0:0|0:0|0:0,0:0:0:0:
108,93,37217,1,2,0:0:0:0:
56,151,37367,2,0,L|60:236,2,65,0|2|8,0:0|0:0|0:0,0:0:0:0:
108,93,37817,1,2,0:0:0:0:
175,134,37967,2,0,L|181:283,1,130,0|8,0:0|0:0,0:0:0:0:
358,341,38567,6,0,L|341:255,1,65,6|2,0:0|0:0,0:0:0:0:
324,203,38867,1,8,0:0:0:0:
251,230,39017,1,2,0:0:0:0:
180,263,39167,2,0,L|163:177,1,65,0|2,0:0|0:0,0:0:0:0:
149,124,39467,1,8,0:0:0:0:
76,151,39617,1,2,0:0:0:0:
7,186,39767,2,0,L|20:250,1,65,0|0,0:0|0:0,0:0:0:0:
94,273,40067,2,0,P|91:335|46:384,2,130,8|0|8,0:0|0:0|0:0,0:0:0:0:
163,133,40967,6,0,L|159:48,2,65,0|2|8,0:0|0:0|0:0,0:0:0:0:
232,168,41417,1,2,0:0:0:0:
307,188,41567,2,0,L|303:103,2,65,0|2|8,0:0|0:0|0:0,0:0:0:0:
382,208,42017,1,2,0:0:0:0:
458,222,42167,2,0,L|454:137,2,65,0|2|8,0:0|0:0|0:0,0:0:0:0:
462,299,42617,1,8,0:3:0:0:
387,337,42767,1,4,0:3:0:0:
472,53,43367,6,0,P|417:98|329:82,1,162.5,4|8,0:0|0:0,0:0:0:0:
267,20,43817,1,2,0:0:0:0:
208,87,43967,2,0,B|151:85|151:85|127:107|127:107|50:105,1,162.5,0|8,0:0|0:0,0:0:0:0:
207,197,44567,2,0,L|300:200,1,81.25,0|2,0:0|0:0,0:0:0:0:
375,218,44867,2,0,P|373:177|346:120,1,81.25,8|2,0:0|0:0,0:0:0:0:
449,144,45167,2,0,P|450:103|464:65,1,81.25,0|2,0:0|0:0,0:0:0:0:
376,54,45467,2,0,L|294:51,1,81.25,8|0,0:0|0:0,0:0:0:0:
205,61,45767,6,0,B|187:100|187:100|209:135|188:174|188:174|207:220,1,162.5,4|8,0:0|0:3,0:0:0:0:
119,138,46217,2,0,B|158:120|158:120|193:142|232:121|232:121|278:140,1,162.5,10|4,0:0|0:3,0:0:0:0:
346,183,46667,2,0,B|384:198|384:198|423:177|458:199|458:199|497:181,1,162.5,12|4,0:0|0:3,0:0:0:0:
419,117,47117,2,0,B|435:156|435:156|414:195|436:230|436:230|418:269,1,162.5,10|4,0:0|0:3,0:0:0:0:
404,357,47567,2,0,B|367:332|367:332|326:332,1,81.25,12|4,0:0|0:3,0:0:0:0:
240,332,47867,1,8,0:0:0:0:
93,230,48167,6,0,P|148:185|236:201,1,162.5,4|8,0:0|0:0,0:0:0:0:
257,285,48617,1,2,0:0:0:0:
171,266,48767,2,0,B|173:209|173:209|151:185|151:185|153:108,1,162.5,0|8,0:0|0:0,0:0:0:0:
315,37,49367,2,0,L|314:145,1,81.25,0|2,0:0|0:0,0:0:0:0:
393,159,49667,2,0,P|435:156|486:172,1,81.25,8|2,0:0|0:0,0:0:0:0:
474,254,49967,2,0,P|434:263|394:260,1,81.25,0|2,0:0|0:0,0:0:0:0:
307,237,50267,1,8,0:0:0:0:
246,302,50417,1,8,0:0:0:0:
246,302,50492,1,8,0:0:0:0:
246,302,50567,6,0,P|203:364|112:374,1,162.5,4|8,0:0|0:0,0:0:0:0:
94,291,51017,1,8,0:3:0:0:
94,291,51092,1,8,0:3:0:0:
94,291,51167,2,0,P|32:248|22:157,1,162.5,10|8,0:3|0:0,0:0:0:0:
108,158,51617,1,4,0:3:0:0:
108,158,51692,1,4,0:3:0:0:
108,158,51767,2,0,P|151:96|242:86,2,162.5,6|8|0,0:3|0:0|0:0,0:0:0:0:
239,278,52667,1,8,0:0:0:0:
406,340,52967,6,0,B|452:282|452:282|435:180,1,162.5,4|8,0:0|0:0,0:0:0:0:
372,133,53417,1,2,0:0:0:0:
300,79,53567,2,0,B|285:166|285:166|331:224,1,162.5,0|8,0:0|0:0,0:0:0:0:
463,345,54167,2,0,L|369:348,1,81.25,0|2,0:0|0:0,0:0:0:0:
296,318,54467,2,0,P|278:354|246:379,1,81.25,8|2,0:0|0:0,0:0:0:0:
157,379,54767,2,0,P|125:354|107:317,1,81.25,0|2,0:0|0:0,0:0:0:0:
85,231,55067,2,0,L|3:228,1,81.25,8|2,0:0|0:0,0:0:0:0:
23,141,55367,6,0,B|62:123|62:123|97:145|136:124|136:124|182:143,1,162.5,4|8,0:0|0:0,0:0:0:0:
100,53,55817,2,0,L|106:-21,2,40.625,8|8|8,0:0|0:0|0:0,0:0:0:0:
188,63,56117,2,0,L|194:-11,2,40.625,8|8|8,0:0|0:0|0:0,0:0:0:0:
273,87,56417,1,8,0:0:0:0:
273,87,56492,1,8,0:0:0:0:
273,87,56567,2,0,B|312:105|312:105|347:83|386:104|386:104|432:85,1,162.5,6|4,0:3|0:3,0:0:0:0:
354,179,57017,2,0,L|357:244,2,40.625,4|4|4,0:3|0:3|0:3,0:0:0:0:
264,177,57317,2,0,L|270:251,2,40.625,4|4|8,0:3|0:3|0:0,0:0:0:0:
184,137,57617,1,8,0:0:0:0:
184,137,57692,1,8,0:0:0:0:
184,137,57767,6,0,L|187:234,1,81.25,4|2,0:0|0:0,0:0:0:0:
186,307,58067,2,0,L|116:349,1,81.25,8|2,0:0|0:0,0:0:0:0:
42,384,58367,2,0,L|39:302,1,81.25,0|2,0:0|0:0,0:0:0:0:
36,213,58667,2,0,L|105:170,1,81.25,8|2,0:0|0:0,0:0:0:0:
153,94,58967,2,0,P|186:132|238:147,1,81.25,0|2,0:0|0:0,0:0:0:0:
303,144,59267,2,0,P|338:125|363:93,1,81.25,8|2,0:0|0:0,0:0:0:0:
406,170,59567,2,0,L|476:213,1,81.25,0|2,0:0|0:0,0:0:0:0:
497,299,59867,1,8,0:0:0:0:
326,353,60167,6,0,B|279:317|279:317|312:259|279:209,1,162.5,6|8,0:0|0:3,0:0:0:0:
217,158,60617,1,4,0:3:0:0:
136,118,60767,2,0,B|108:158|141:216|141:216|94:252,1,162.5,6|8,0:0|0:3,0:0:0:0:
72,338,61217,1,4,0:3:0:0:
160,324,61367,2,0,B|210:294|210:294|251:346|299:336,1,162.5,6|12,0:0|0:0,0:0:0:0:
420,205,61967,2,0,L|420:164,2,40.625,8|8|8,0:0|0:0|0:0,0:0:0:0:
338,167,62267,2,0,L|338:126,2,40.625,8|8|8,0:0|0:0|0:0,0:0:0:0:
338,244,62567,6,0,P|396:302|466:306,1,130,4|8,0:0|0:0,0:0:0:0:
503,262,63017,1,2,0:0:0:0:
493,184,63167,2,0,P|486:153|488:104,1,65,0|2,0:0|0:0,0:0:0:0:
408,107,63467,2,0,P|407:139|400:171,1,65,8|2,0:0|0:0,0:0:0:0:
362,238,63767,1,0,0:0:0:0:
362,238,64217,5,2,0:0:0:0:
284,249,64367,2,0,P|241:250|199:232,1,65,0|2,0:0|0:0,0:0:0:0:
216,322,64667,2,0,P|247:329|279:327,1,65,8|2,0:0|0:0,0:0:0:0:
356,311,64967,1,0,0:0:0:0:
326,157,65267,1,8,0:0:0:0:
170,157,65567,1,0,0:0:0:0:
147,311,65867,1,8,0:0:0:0:
254,198,66167,1,0,0:0:0:0:
254,198,66767,2,0,L|254:283,1,65,0|2,0:0|0:0,0:0:0:0:
251,340,67067,2,0,L|286:388,2,32.5,8|8|8,0:0|0:0|0:0,0:0:0:0:
182,303,67367,6,0,P|127:286|44:315,1,130,4|8,0:0|0:0,0:0:0:0:
28,231,67817,2,0,B|76:197|76:197|90:117,1,130,2|2,0:0|0:0,0:0:0:0:
167,127,68267,2,0,L|176:194,1,65,8|2,0:0|0:0,0:0:0:0:
197,266,68567,2,0,P|259:252|303:176,1,130,0|8,0:0|0:0,0:0:0:0:
365,60,69167,5,0,0:0:0:0:
390,213,69467,1,8,0:0:0:0:
370,288,69617,1,8,0:0:0:0:
370,288,69692,1,8,0:0:0:0:
370,288,69767,1,12,0:0:0:0:
334,136,70067,1,8,0:0:0:0:
409,116,70217,1,4,0:3:0:0:
409,116,70292,1,4,0:3:0:0:
409,116,70367,1,6,0:3:0:0:
294,221,70667,1,8,0:0:0:0:
239,167,70817,1,8,0:3:0:0:
239,167,70892,1,8,0:3:0:0:
239,167,70967,1,10,0:3:0:0:
8,125,71417,5,2,0:0:0:0:
57,185,71567,2,0,L|61:272,1,65,0|2,0:0|0:0,0:0:0:0:
69,327,71867,2,0,L|74:382,2,32.5,8|8|8,0:0|0:0|0:0,0:0:0:0:
147,320,72167,6,0,P|213:299|271:332,1,130,4|8,0:0|0:0,0:0:0:0:
326,372,72617,1,2,0:0:0:0:
370,307,72767,2,0,P|377:276|375:227,1,65,0|2,0:0|0:0,0:0:0:0:
435,190,73067,2,0,P|428:158|426:125,1,65,8|2,0:0|0:0,0:0:0:0:
424,47,73367,2,0,P|363:28|288:62,1,130,0|8,0:0|0:0,0:0:0:0:
246,194,73967,2,0,L|177:187,1,65,0|2,0:0|0:0,0:0:0:0:
123,240,74267,2,0,L|58:233,1,65,8|2,0:0|0:0,0:0:0:0:
13,168,74567,1,0,0:0:0:0:
93,34,74867,1,8,0:0:0:0:
164,172,75167,1,0,0:0:0:0:
242,37,75467,1,8,0:0:0:0:
312,175,75767,6,0,P|316:214|301:268,1,65,6|0,0:0|0:0,0:0:0:0:
402,310,76067,2,0,P|397:277|402:245,1,65,12|0,0:0|0:0,0:0:0:0:
488,178,76367,2,0,P|493:210|489:243,1,65,6|0,0:0|0:0,0:0:0:0:
473,351,76667,2,0,L|507:390,2,32.5,8|8|8,0:0|0:0|0:0,0:0:0:0:
379,324,76967,6,0,P|363:276|365:213,1,81.25,4|2,0:0|0:0,0:0:0:0:
287,194,77267,2,0,P|282:234|268:272,1,81.25,8|2,0:0|0:0,0:0:0:0:
205,335,77567,2,0,P|190:296|186:256,1,81.25,0|2,0:0|0:0,0:0:0:0:
113,205,77867,2,0,P|108:245|94:283,1,81.25,8|2,0:0|0:0,0:0:0:0:
37,352,78167,1,0,0:0:0:0:
3,176,78467,1,8,0:0:0:0:
101,26,78767,2,0,P|123:74|159:94,1,81.25,0|2,0:0|0:0,0:0:0:0:
234,89,79067,2,0,P|264:63|278:25,1,81.25,8|2,0:0|0:0,0:0:0:0:
356,69,79367,6,0,B|403:105|403:105|370:163|403:213,1,162.5,6|8,0:0|0:3,0:0:0:0:
481,170,79817,1,4,0:3:0:0:
486,321,79967,2,0,B|450:274|450:274|392:307|352:279,1,162.5,6|8,0:0|0:3,0:0:0:0:
397,203,80417,1,4,0:3:0:0:
272,147,80567,2,0,B|302:197|302:197|250:238|260:286,1,162.5,6|12,0:0|0:0,0:0:0:0:
82,305,81167,2,0,L|84:346,2,40.625,8|8|8,0:0|0:0|0:0,0:0:0:0:
131,230,81467,2,0,L|129:189,2,40.625,8|8|8,0:0|0:0|0:0,0:0:0:0:
188,283,81767,6,0,L|268:285,1,65,12|2,0:0|0:0,0:0:0:0:
303,344,82067,2,0,L|367:345,1,65,8|2,0:0|0:0,0:0:0:0:
420,287,82367,1,12,0:0:0:0:
252,284,82667,1,12,0:0:0:0:
264,119,82967,6,0,L|344:121,1,65,8|2,0:0|0:0,0:0:0:0:
379,180,83267,2,0,L|443:181,1,65,8|2,0:0|0:0,0:0:0:0:
502,130,83567,1,12,0:0:0:0:
366,52,83867,1,12,0:0:0:0:
210,54,84167,6,0,L|130:56,1,65,8|2,0:0|0:0,0:0:0:0:
139,133,84467,2,0,L|74:134,1,65,8|2,0:0|0:0,0:0:0:0:
34,201,84767,1,12,0:0:0:0:
189,199,85067,1,12,0:0:0:0:
344,195,85367,6,0,L|264:197,1,65,8|2,0:0|0:0,0:0:0:0:
273,274,85667,2,0,L|208:275,1,65,8|2,0:0|0:0,0:0:0:0:
168,342,85967,1,12,0:0:0:0:
323,340,86267,1,8,0:0:0:0:
478,324,86567,5,12,0:0:0:0:
478,324,86717,1,2,0:0:0:0:
415,276,86867,1,8,0:0:0:0:
415,276,87017,1,2,0:0:0:0:
458,211,87167,2,0,L|446:136,1,65,12|0,0:0|0:0,0:0:0:0:
379,108,87467,2,0,L|368:172,1,65,12|0,0:0|0:0,0:0:0:0:
355,249,87767,5,8,0:0:0:0:
355,249,87917,1,2,0:0:0:0:
292,201,88067,1,8,0:0:0:0:
292,201,88217,1,2,0:0:0:0:
247,265,88367,2,0,L|257:329,1,65,12|0,0:0|0:0,0:0:0:0:
182,350,88667,2,0,L|171:285,1,65,12|0,0:0|0:0,0:0:0:0:
104,245,88967,5,8,0:0:0:0:
104,245,89117,1,2,0:0:0:0:
154,185,89267,1,8,0:0:0:0:
154,185,89417,1,2,0:0:0:0:
85,147,89567,2,0,L|73:72,1,65,12|0,0:0|0:0,0:0:0:0:
140,35,89867,2,0,L|150:99,1,65,12|0,0:0|0:0,0:0:0:0:
224,124,90167,5,8,0:0:0:0:
224,124,90317,1,2,0:0:0:0:
286,77,90467,1,8,0:0:0:0:
286,77,90617,1,2,0:0:0:0:
307,151,90767,2,0,L|319:226,1,65,12|0,0:0|0:0,0:0:0:0:
386,254,91067,2,0,L|396:189,1,65,12|0,0:0|0:0,0:0:0:0:
424,116,91367,6,0,P|455:123|489:115,3,65,0|0|2|0,0:0|0:0|0:0|0:0,0:0:0:0:
455,43,91967,1,2,0:0:0:0:
307,93,92267,1,2,0:0:0:0:
307,93,92867,6,0,B|305:150|305:150|327:174|327:174|325:251,1,162.5,8|0,0:0|0:0,0:0:0:0:
