osu file format v14

[General]
AudioFilename: audio.mp3
AudioLeadIn: 0
PreviewTime: 43292
Countdown: 0
SampleSet: Soft
StackLeniency: 0.2
Mode: 0
LetterboxInBreaks: 0
WidescreenStoryboard: 0

[Editor]
DistanceSpacing: 0.5
BeatDivisor: 4
GridSize: 32
TimelineZoom: 1

[Metadata]
Title:Perfect Seimei
TitleUnicode:パーフェクト生命
Artist:NayutalieN
ArtistUnicode:ナユタン星人
Creator:LeQuack
Version:Frustration!
Source:
Tags:Perfect Life 初音ミク Hatsune Miku Vocaloid Creamy Candy Affirmation Noffy Novelty Japanese ボーカロイド ボカロ ナユタン星人からの物体X cut ver nayutan seijin kara no buttai x
BeatmapID:2112910
BeatmapSetID:1009279

[Difficulty]
HPDrainRate:6
CircleSize:4
OverallDifficulty:8.7
ApproachRate:9.3
SliderMultiplier:1.8
SliderTickRate:1

[Events]
//Background and Video events
0,0,"29be824ad3fdfd3913e8f366a3f402971df501e4_s2_n1.jpg",0,0
//Break Periods
//Storyboard Layer 0 (Background)
//Storyboard Layer 1 (Fail)
//Storyboard Layer 2 (Pass)
//Storyboard Layer 3 (Foreground)
//Storyboard Layer 4 (Overlay)
//Storyboard Sound Samples

[TimingPoints]
167,300,4,2,5,60,1,0
167,-200,4,2,5,20,0,0
4667,-200,4,2,1,40,0,0
4967,-100,4,2,1,60,0,0
6092,-100,4,2,1,5,0,0
6167,-100,4,2,1,60,0,0
6992,-100,4,2,1,5,0,0
7067,-100,4,2,1,60,0,0
7292,-100,4,2,1,5,0,0
7367,-100,4,2,1,60,0,0
8492,-100,4,2,1,5,0,0
8567,-100,4,2,1,60,0,0
9392,-100,4,2,1,5,0,0
9467,-100,4,2,1,60,0,0
9692,-100,4,2,1,5,0,0
9767,-100,4,2,1,60,0,0
10892,-100,4,2,1,5,0,0
10967,-100,4,2,1,60,0,0
11792,-100,4,2,1,5,0,0
11867,-100,4,2,1,60,0,0
12092,-100,4,2,1,5,0,0
12167,-100,4,2,1,60,0,0
13292,-100,4,2,1,5,0,0
13367,-100,4,2,1,60,0,0
14192,-100,4,2,1,5,0,0
14267,-100,4,2,1,60,0,0
14492,-100,4,2,1,5,0,0
14567,-133.333333333333,4,2,1,40,0,0
24167,-133.333333333333,4,3,1,40,0,0
33767,-100,4,2,1,50,0,0
33917,-100,4,2,2,50,0,0
38567,-100,4,2,1,50,0,0
38717,-100,4,2,2,50,0,0
39992,-100,4,2,2,5,0,0
40067,-100,4,2,2,50,0,0
42617,-100,4,2,1,50,0,0
43367,-80,4,2,2,80,0,1
45767,-80,4,2,1,80,0,1
46142,-80,4,2,0,5,0,1
46217,-80,4,2,2,80,0,1
46367,-80,4,2,1,80,0,1
46592,-80,4,2,0,5,0,1
46667,-80,4,2,1,80,0,1
46817,-80,4,2,1,80,0,1
47042,-80,4,2,0,5,0,1
47117,-80,4,2,2,80,0,1
47267,-80,4,2,1,80,0,1
47417,-80,4,2,2,80,0,1
47492,-80,4,2,0,5,0,1
47567,-80,4,2,2,80,0,1
51017,-80,4,2,3,80,0,1
51317,-80,4,2,2,80,0,1
51767,-80,4,2,3,80,0,1
51917,-80,4,2,2,80,0,1
56567,-80,4,2,3,80,0,1
56717,-80,4,2,2,80,0,1
60167,-80,4,2,1,80,0,1
60317,-80,4,2,2,80,0,1
60467,-80,4,2,1,80,0,1
60917,-80,4,2,2,80,0,1
61067,-80,4,2,1,80,0,1
61517,-80,4,2,2,80,0,1
61667,-80,4,2,1,80,0,1
61817,-80,4,2,2,80,0,1
62717,-80,4,2,4,70,0,0
67367,-80,4,2,2,80,0,1
69767,-80,4,2,1,80,0,1
69917,-80,4,2,2,80,0,1
70217,-80,4,2,3,80,0,1
70517,-80,4,2,2,80,0,1
70667,-80,4,2,1,80,0,1
70817,-80,4,2,3,80,0,1
71117,-80,4,2,2,80,0,1
72167,-80,4,2,2,70,0,0
72317,-80,4,2,4,70,0,0
75767,-66.6666666666667,4,2,1,80,0,0
75992,-66.6666666666667,4,2,0,5,0,0
76067,-66.6666666666667,4,2,1,80,0,0
76292,-66.6666666666667,4,2,0,5,0,0
76367,-66.6666666666667,4,2,1,80,0,0
76592,-66.6666666666667,4,2,0,5,0,0
76667,-66.6666666666667,4,2,1,70,0,0
76967,-80,4,2,2,80,0,1
79367,-80,4,2,1,80,0,1
79517,-80,4,2,2,80,0,1
79667,-80,4,2,1,80,0,1
80117,-80,4,2,2,80,0,1
80267,-80,4,2,1,80,0,1
80717,-80,4,2,2,80,0,1
80867,-80,4,2,1,80,0,1
81017,-80,4,2,2,80,0,1
81767,-100,4,2,2,60,0,0
82592,-100,4,2,2,5,0,0
82667,-100,4,2,2,60,0,0
82892,-100,4,2,2,5,0,0
82967,-100,4,2,2,60,0,0
84992,-100,4,2,2,5,0,0
85067,-100,4,2,2,60,0,0
85292,-100,4,2,2,5,0,0
85367,-100,4,2,2,60,0,0
86567,-80,4,2,2,80,0,0
87392,-80,4,2,2,5,0,0
87467,-80,4,2,2,80,0,0
87692,-80,4,2,2,5,0,0
87767,-80,4,2,2,80,0,0
88592,-80,4,2,2,5,0,0
88667,-80,4,2,2,80,0,0
88892,-80,4,2,2,5,0,0
88967,-80,4,2,2,80,0,0
89792,-80,4,2,2,5,0,0
89867,-80,4,2,2,80,0,0
90092,-80,4,2,2,5,0,0
90167,-80,4,2,2,80,0,0
90992,-80,4,2,2,5,0,0
91067,-80,4,2,2,80,0,0
91292,-80,4,2,2,5,0,0
91367,-200,4,2,5,20,0,0
92867,-200,4,2,1,60,0,0

[Colours]
Combo1 : 185,185,185
Combo2 : 21,234,234

[HitObjects]
453,348,167,5,0,0:0:0:0:
453,348,317,1,0,0:0:0:0:
374,320,467,2,0,L|370:262,1,45,2|0,0:0|0:0,0:0:0:0:
459,258,767,2,0,L|452:349,1,90,2|2,0:0|0:0,0:0:0:0:
399,190,1367,5,0,0:0:0:0:
399,190,1517,1,0,0:0:0:0:
487,172,1667,2,0,P|476:145|456:121,1,45,2|0,0:0|0:0,0:0:0:0:
382,103,1967,2,0,P|401:70|458:44,1,90,2|2,0:0|0:0,0:0:0:0:
316,163,2567,5,0,0:0:0:0:
316,163,2717,1,0,0:0:0:0:
231,136,2867,2,0,B|209:131|209:131|187:135,1,45,2|0,0:0|0:0,0:0:0:0:
163,219,3167,2,0,B|206:232|206:232|251:224,1,90,2|2,0:0|0:0,0:0:0:0:
100,158,3767,5,0,0:0:0:0:
100,158,3917,1,0,0:0:0:0:
163,219,4067,2,0,L|160:276,1,45,2|0,0:0|0:0,0:0:0:0:
123,334,4367,1,2,0:0:0:0:
188,135,4667,1,8,0:0:0:0:
166,95,4742,1,8,0:0:0:0:
127,71,4817,1,8,0:0:0:0:
82,68,4892,1,8,0:0:0:0:
42,88,4967,5,12,0:0:0:0:
163,219,5117,1,0,0:0:0:0:
192,21,5267,5,8,0:0:0:0:
164,240,5417,1,0,0:0:0:0:
14,17,5567,5,12,0:0:0:0:
243,82,5717,1,0,0:0:0:0:
36,168,5867,2,0,B|13:207|13:207|17:301,1,135,12|0,0:0|0:0,0:0:0:0:
24,370,6167,5,8,0:0:0:0:
163,219,6317,1,0,0:0:0:0:
139,384,6467,5,8,0:0:0:0:
36,168,6617,1,0,0:0:0:0:
214,161,6767,2,0,P|242:202|214:288,1,135,12|0,0:0|0:0,0:0:0:0:
152,306,7067,2,0,B|228:289|228:344|303:319,1,135,12|0,0:0|0:0,0:0:0:0:
356,294,7367,5,8,0:0:0:0:
163,219,7517,1,0,0:0:0:0:
366,167,7667,5,8,0:0:0:0:
145,225,7817,1,0,0:0:0:0:
345,369,7967,5,12,0:0:0:0:
247,114,8117,1,0,0:0:0:0:
152,306,8267,2,0,P|103:294|65:224,1,135,12|0,0:0|0:0,0:0:0:0:
101,158,8567,5,8,0:0:0:0:
281,268,8717,1,0,0:0:0:0:
247,114,8867,5,8,0:0:0:0:
152,306,9017,1,0,0:0:0:0:
184,65,9167,2,0,P|231:35|311:65,1,135,12|0,0:0|0:0,0:0:0:0:
371,19,9467,2,0,B|346:62|346:62|368:156,1,135,12|0,0:0|0:0,0:0:0:0:
385,220,9767,5,12,0:0:0:0:
487,64,9917,1,0,0:0:0:0:
500,240,10067,5,8,0:0:0:0:
303,56,10217,1,0,0:0:0:0:
438,292,10367,5,12,0:0:0:0:
371,19,10517,1,0,0:0:0:0:
309,199,10667,2,0,B|296:252|296:252|318:336,1,135,12|0,0:0|0:0,0:0:0:0:
374,378,10967,5,8,0:0:0:0:
225,297,11117,1,0,0:0:0:0:
438,292,11267,5,8,0:0:0:0:
181,376,11417,1,0,0:0:0:0:
309,199,11567,2,0,B|350:191|350:191|444:214,1,135,12|0,0:0|0:0,0:0:0:0:
512,249,11867,2,0,P|476:218|471:128,1,135,12|0,0:0|0:0,0:0:0:0:
497,61,12167,5,8,0:0:0:0:
309,123,12317,1,0,0:0:0:0:
512,249,12467,5,8,0:0:0:0:
387,19,12617,1,0,0:0:0:0:
362,264,12767,5,12,0:0:0:0:
497,61,12917,1,0,0:0:0:0:
309,123,13067,2,0,B|261:124|261:124|222:103|222:103|168:103,1,135,12|0,0:0|0:0,0:0:0:0:
102,104,13367,5,8,0:0:0:0:
297,203,13517,1,0,0:0:0:0:
295,27,13667,5,8,0:0:0:0:
171,228,13817,1,0,0:0:0:0:
87,28,13967,2,0,P|150:44|179:103,1,135,12|0,0:0|0:0,0:0:0:0:
236,152,14267,2,0,B|158:151|158:151|111:186,1,135,12|0,0:0|0:0,0:0:0:0:
40,208,14567,6,0,B|109:194|109:244|183:225,1,135.000005149842,6|2,0:0|0:0,0:0:0:0:
236,152,15017,1,0,0:0:0:0:
11,141,15167,2,0,L|7:282,1,135.000005149842,2|2,0:0|0:0,0:0:0:0:
4,361,15617,1,0,0:0:0:0:
125,290,15767,6,0,B|173:273|173:273|265:301,1,135.000005149842,2|2,0:0|0:0,0:0:0:0:
343,324,16217,1,0,0:0:0:0:
175,357,16367,1,2,0:0:0:0:
175,357,16667,1,2,0:0:0:0:
476,347,16967,6,0,B|476:301|476:301|459:262|459:262|459:211,1,135.000005149842,2|2,0:0|0:0,0:0:0:0:
475,124,17417,1,0,0:0:0:0:
376,251,17567,2,0,B|315:264|315:215|236:223,1,135.000005149842,2|2,0:0|0:0,0:0:0:0:
159,253,18017,1,0,0:0:0:0:
362,158,18167,6,0,P|382:113|359:31,1,135.000005149842,2|2,0:0|0:0,0:0:0:0:
290,95,18617,1,0,0:0:0:0:
455,23,18767,1,2,0:0:0:0:
455,23,19067,1,2,0:0:0:0:
161,56,19367,6,0,B|135:87|135:87|133:185,1,135.000005149842,2|2,0:0|0:0,0:0:0:0:
179,263,19817,1,0,0:0:0:0:
229,14,19967,2,0,L|84:15,1,135.000005149842,2|2,0:0|0:0,0:0:0:0:
0,16,20417,1,0,0:0:0:0:
58,238,20567,6,0,P|114:274|179:263,1,135.000005149842,2|2,0:0|0:0,0:0:0:0:
224,180,21017,1,0,0:0:0:0:
44,145,21167,1,2,0:0:0:0:
44,145,21467,1,2,0:0:0:0:
304,133,21767,6,0,B|304:207|304:207|273:259,1,135.000005149842,2|2,0:0|0:0,0:0:0:0:
227,342,22217,1,0,0:0:0:0:
382,179,22367,2,0,P|444:180|498:233,1,135.000005149842,2|2,0:0|0:0,0:0:0:0:
412,268,22817,1,0,0:0:0:0:
383,89,22967,6,0,P|381:52|385:17,1,67.5000025749208,2|0,0:0|0:0,0:0:0:0:
464,51,23267,2,0,P|466:88|462:123,1,67.5000025749208,2|0,0:0|0:0,0:0:0:0:
304,133,23567,2,0,P|301:99|305:65,1,67.5000025749208,2|0,0:0|0:0,0:0:0:0:
382,179,23867,1,2,0:0:0:0:
102,77,24167,6,0,B|67:70|67:70|30:80,1,67.5000025749208,4|4,0:0|0:0,0:0:0:0:
177,101,24467,1,8,0:0:0:0:
160,24,24617,1,4,0:0:0:0:
119,154,24767,6,0,L|125:224,1,67.5000025749208,4|4,0:0|0:0,0:0:0:0:
177,101,25067,1,8,0:0:0:0:
194,178,25217,1,4,0:0:0:0:
317,118,25367,6,0,L|247:124,1,67.5000025749208,4|4,0:0|0:0,0:0:0:0:
350,45,25667,1,8,0:0:0:0:
397,111,25817,1,4,0:0:0:0:
288,262,25967,6,0,P|273:233|269:199,1,67.5000025749208,4|4,0:0|0:0,0:0:0:0:
263,339,26267,1,8,0:0:0:0:
343,323,26417,1,4,0:0:0:0:
209,278,26567,6,0,B|178:267|178:267|127:272,1,67.5000025749208,4|4,0:0|0:0,0:0:0:0:
263,339,26867,1,8,0:0:0:0:
289,263,27017,1,4,0:0:0:0:
63,292,27167,6,0,P|62:252|78:219,1,67.5000025749208,4|4,0:0|0:0,0:0:0:0:
121,350,27467,1,8,0:0:0:0:
41,371,27617,1,4,0:0:0:0:
147,189,27767,6,0,L|82:146,1,67.5000025749208,4|4,0:0|0:0,0:0:0:0:
143,271,28067,1,8,0:0:0:0:
217,234,28217,1,4,0:0:0:0:
233,87,28367,6,0,B|220:108|220:108|220:151,1,67.5000025749208,4|4,0:0|0:0,0:0:0:0:
294,34,28667,1,8,0:0:0:0:
311,113,28817,1,4,0:0:0:0:
149,9,28967,6,0,L|218:8,1,67.5000025749208,6|4,0:0|0:0,0:0:0:0:
68,10,29267,1,8,0:0:0:0:
110,80,29417,1,4,0:0:0:0:
22,148,29567,6,0,L|28:81,1,67.5000025749208,4|4,0:0|0:0,0:0:0:0:
89,195,29867,1,8,0:0:0:0:
15,229,30017,1,4,0:0:0:0:
168,227,30167,6,0,L|162:159,1,67.5000025749208,4|4,0:0|0:0,0:0:0:0:
241,261,30467,1,8,0:0:0:0:
175,308,30617,1,4,0:0:0:0:
295,200,30767,6,0,P|266:183|233:180,1,67.5000025749208,4|4,0:0|0:0,0:0:0:0:
375,216,31067,1,8,0:0:0:0:
321,278,31217,1,4,0:0:0:0:
429,153,31367,6,0,L|500:165,1,67.5000025749208,4|4,0:0|0:0,0:0:0:0:
403,76,31667,1,8,0:0:0:0:
349,138,31817,1,4,0:0:0:0:
255,71,31967,6,0,L|326:59,1,67.5000025749208,4|4,0:0|0:0,0:0:0:0:
202,9,32267,1,8,0:0:0:0:
175,86,32417,1,4,0:0:0:0:
79,44,32567,6,0,B|96:66|96:66|98:128,1,67.5000025749208,4|4,0:0|0:0,0:0:0:0:
53,180,32867,2,0,B|30:163|30:163|12:103,1,67.5000025749208,8|4,0:0|0:0,0:0:0:0:
175,86,33167,2,0,B|183:112|183:112|164:171,1,67.5000025749208,4|4,0:0|0:0,0:0:0:0:
127,223,33467,1,8,0:0:0:0:
97,105,33617,1,4,0:0:0:0:
212,225,33767,6,0,L|312:229,1,90,6|2,0:0|0:0,0:0:0:0:
396,229,34067,1,8,0:0:0:0:
255,310,34217,1,2,0:0:0:0:
349,147,34367,1,0,0:0:0:0:
443,310,34517,1,2,0:0:0:0:
349,117,34667,1,8,0:0:0:0:
349,340,34817,1,2,0:0:0:0:
443,147,34967,5,0,0:0:0:0:
302,229,35117,1,2,0:0:0:0:
301,65,35267,2,0,P|344:46|390:60,1,90,8|2,0:0|0:0,0:0:0:0:
231,126,35567,2,0,L|216:34,1,90,0|2,0:0|0:0,0:0:0:0:
302,229,35867,2,0,L|287:321,1,90,8|2,0:0|0:0,0:0:0:0:
99,261,36167,5,0,0:0:0:0:
278,235,36317,1,2,0:0:0:0:
77,179,36467,1,8,0:0:0:0:
291,232,36617,1,2,0:0:0:0:
60,326,36767,1,0,0:0:0:0:
302,229,36917,1,2,0:0:0:0:
44,194,37067,1,8,0:0:0:0:
313,329,37217,1,2,0:0:0:0:
231,126,37367,5,0,0:0:0:0:
80,295,37517,1,2,0:0:0:0:
59,107,37667,1,8,0:0:0:0:
208,296,37817,1,2,0:0:0:0:
284,66,37967,2,0,P|239:46|186:60,1,90,0|2,0:0|0:0,0:0:0:0:
27,33,38267,2,0,P|72:27|112:46,1,90,8|2,0:0|0:0,0:0:0:0:
360,62,38567,6,0,B|332:89|332:89|318:147,1,90,6|2,0:0|0:0,0:0:0:0:
308,223,38867,1,8,0:0:0:0:
402,131,39017,1,2,0:0:0:0:
392,265,39167,1,0,0:0:0:0:
360,62,39317,1,2,0:0:0:0:
467,194,39467,1,8,0:0:0:0:
308,223,39617,1,2,0:0:0:0:
501,130,39767,6,0,L|496:272,1,135
464,284,40067,2,0,L|467:187,1,90,8|2,0:0|0:0,0:0:0:0:
446,61,40367,2,0,P|404:51|344:72,1,90,0|2,0:0|0:0,0:0:0:0:
207,102,40667,2,0,P|165:112|105:91,1,90,8|2,0:0|0:0,0:0:0:0:
56,48,40967,5,0,0:0:0:0:
283,74,41117,1,2,0:0:0:0:
106,182,41267,2,0,P|91:237|101:279,1,90,8|2,0:0|0:0,0:0:0:0:
141,348,41567,1,0,0:0:0:0:
43,131,41717,1,2,0:0:0:0:
48,353,41867,1,8,0:0:0:0:
120,101,42017,1,2,0:0:0:0:
306,211,42167,5,0,0:0:0:0:
106,182,42317,1,2,0:0:0:0:
247,289,42467,1,8,0:0:0:0:
96,268,42617,1,8,0:3:0:0:
204,191,42767,1,4,0:3:0:0:
324,326,43367,6,0,B|336:255|336:255|287:190|287:190|303:102,1,225,4|8,0:0|0:0,0:0:0:0:
403,163,43817,1,2,0:0:0:0:
204,191,43967,2,0,L|222:79,1,112.5,0|2,0:0|0:0,0:0:0:0:
420,254,44267,2,0,L|401:365,1,112.5,8|2,0:0|0:0,0:0:0:0:
247,289,44567,5,0,0:0:0:0:
381,70,44717,1,2,0:0:0:0:
324,326,44867,2,0,P|276:370|212:368,1,112.5,8|2,0:0|0:0,0:0:0:0:
77,260,45167,2,0,P|139:279|169:335,1,112.5,0|2,0:0|0:0,0:0:0:0:
13,310,45467,2,0,P|-1:246|32:192,1,112.5,8|0,0:0|0:0,0:0:0:0:
222,80,45767,5,4,0:0:0:0:
119,175,45917,1,8,0:3:0:0:
98,194,45992,1,8,0:3:0:0:
73,207,46067,2,0,P|45:210|18:205,1,56.25,8|0,0:3|0:0,0:0:0:0:
46,116,46217,5,10,0:0:0:0:
194,153,46367,1,4,0:3:0:0:
198,157,46442,1,4,0:3:0:0:
202,161,46517,2,0,L|278:161,1,56.25,4|0,0:3|0:0,0:0:0:0:
349,159,46667,5,12,0:0:0:0:
311,34,46817,1,4,0:3:0:0:
311,34,46892,1,4,0:3:0:0:
311,34,46967,2,0,P|301:67|310:105,1,56.25,4|0,0:3|0:0,0:0:0:0:
349,159,47117,5,10,0:0:0:0:
508,115,47267,1,4,0:3:0:0:
508,115,47342,1,4,0:3:0:0:
508,115,47417,2,0,P|484:89|447:78,1,56.25,4|0,0:3|0:3,0:0:0:0:
380,85,47567,5,12,0:0:0:0:
305,238,47717,1,4,0:3:0:0:
300,247,47792,1,4,0:3:0:0:
295,256,47867,5,8,0:0:0:0:
302,311,47942,1,8,0:0:0:0:
338,353,48017,1,8,0:0:0:0:
391,368,48092,1,8,0:0:0:0:
444,350,48167,6,0,B|477:314|477:314|485:224,1,112.5,4|2,0:0|0:0,0:0:0:0:
465,80,48467,1,8,0:0:0:0:
388,273,48617,1,2,0:0:0:0:
315,41,48767,2,0,B|347:10|347:10|438:10,1,112.5,0|2,0:0|0:0,0:0:0:0:
305,238,49067,2,0,B|273:269|273:269|182:269,1,112.5,8|2,0:0|0:0,0:0:0:0:
59,47,49367,6,0,P|63:110|38:153,1,112.5,0|2,0:0|0:0,0:0:0:0:
106,305,49667,2,0,P|158:269|208:269,1,112.5,8|2,0:0|0:0,0:0:0:0:
306,136,49967,2,0,P|248:108|224:64,1,112.5,0|2,0:0|0:0,0:0:0:0:
315,41,50267,1,8,0:0:0:0:
113,122,50417,1,8,0:0:0:0:
113,122,50492,1,8,0:0:0:0:
113,122,50567,5,4,0:0:0:0:
225,67,50717,1,2,0:0:0:0:
216,191,50867,1,8,0:0:0:0:
90,87,51017,1,8,0:3:0:0:
90,87,51092,1,8,0:3:0:0:
90,87,51167,5,10,0:3:0:0:
274,67,51317,1,2,0:0:0:0:
199,236,51467,1,8,0:0:0:0:
88,36,51617,1,4,0:3:0:0:
88,36,51692,1,4,0:3:0:0:
88,36,51767,5,6,0:3:0:0:
325,94,51917,1,2,0:0:0:0:
155,270,52067,2,0,P|103:284|40:265,1,112.5,8|2,0:0|0:0,0:0:0:0:
277,188,52367,2,0,P|329:174|392:193,1,112.5,0|2,0:0|0:0,0:0:0:0:
238,339,52667,1,8,0:0:0:0:
227,284,52742,1,8,0:0:0:0:
216,229,52817,1,8,0:0:0:0:
205,174,52892,1,8,0:0:0:0:
194,119,52967,6,0,B|311:84|311:161|429:122,1,225,4|8,0:0|0:0,0:0:0:0:
367,11,53417,1,2,0:0:0:0:
132,69,53567,2,0,P|115:128|142:180,1,112.5,0|2,0:0|0:0,0:0:0:0:
477,176,53867,2,0,P|494:117|467:65,1,112.5,8|2,0:0|0:0,0:0:0:0:
252,214,54167,2,0,B|308:229|308:229|365:213,1,112.5,0|2,0:0|0:0,0:0:0:0:
132,69,54467,2,0,B|76:54|76:54|19:70,1,112.5,8|2,0:0|0:0,0:0:0:0:
307,146,54767,2,0,L|308:27,1,112.5,0|2,0:0|0:0,0:0:0:0:
77,137,55067,2,0,L|76:256,1,112.5,8|2,0:0|0:0,0:0:0:0:
75,361,55367,5,4,0:0:0:0:
179,243,55517,1,8,0:0:0:0:
218,247,55592,1,8,0:0:0:0:
257,251,55667,1,8,0:0:0:0:
210,333,55817,1,8,0:0:0:0:
249,337,55892,1,8,0:0:0:0:
288,341,55967,1,8,0:0:0:0:
355,257,56117,1,8,0:0:0:0:
394,261,56192,1,8,0:0:0:0:
433,265,56267,1,8,0:0:0:0:
386,347,56417,1,8,0:0:0:0:
425,351,56492,1,8,0:0:0:0:
464,355,56567,1,6,0:3:0:0:
496,146,56717,5,4,0:3:0:0:
494,163,56792,1,4,0:3:0:0:
492,180,56867,1,4,0:3:0:0:
430,84,57017,1,4,0:3:0:0:
422,99,57092,1,4,0:3:0:0:
414,114,57167,1,4,0:3:0:0:
389,3,57317,1,4,0:3:0:0:
376,14,57392,1,4,0:3:0:0:
363,25,57467,5,8,0:0:0:0:
316,46,57542,1,8,0:0:0:0:
265,52,57617,1,8,0:0:0:0:
214,46,57692,1,8,0:0:0:0:
166,28,57767,6,0,B|94:31|94:31|59:65,1,112.5,4|2,0:0|0:0,0:0:0:0:
124,216,58067,2,0,P|137:152|126:103,1,112.5,8|2,0:0|0:0,0:0:0:0:
54,266,58367,2,0,P|100:299|156:296,1,112.5,0|2,0:0|0:0,0:0:0:0:
317,226,58667,2,0,B|273:224|273:224|245:237|245:237|190:237,1,112.5,8|2,0:0|0:0,0:0:0:0:
392,174,58967,6,0,B|413:227|413:227|391:283,1,112.5,0|2,0:0|0:0,0:0:0:0:
339,96,59267,2,0,L|462:106,1,112.5,8|2,0:0|0:0,0:0:0:0:
397,373,59567,2,0,P|343:359|308:317,1,112.5,0|2,0:0|0:0,0:0:0:0:
243,28,59867,2,0,B|267:66|267:66|257:144,1,112.5,8|2,0:0|0:0,0:0:0:0:
154,297,60167,6,0,L|169:180,1,112.5,6|2,0:0|0:0,0:0:0:0:
243,28,60467,1,8,0:3:0:0:
259,237,60617,1,4,0:3:0:0:
41,77,60767,2,0,B|84:62|84:62|154:84,1,112.5,6|2,0:0|0:0,0:0:0:0:
258,133,61067,1,8,0:3:0:0:
85,171,61217,1,4,0:3:0:0:
348,184,61367,6,0,P|360:121|339:68,1,112.5,6|2,0:0|0:0,0:0:0:0:
259,237,61667,2,0,P|247:300|268:353,1,112.5,12|2,0:0|0:0,0:0:0:0:
393,346,61967,1,8,0:0:0:0:
362,328,62042,1,8,0:0:0:0:
328,322,62117,1,8,0:0:0:0:
293,327,62192,1,8,0:0:0:0:
262,344,62267,1,8,0:0:0:0:
231,361,62342,1,8,0:0:0:0:
197,367,62417,1,8,0:0:0:0:
162,362,62492,1,8,0:0:0:0:
131,345,62567,5,4,0:0:0:0:
160,164,62717,2,0,P|191:210|197:265,1,112.5,2|8,0:0|0:0,0:0:0:0:
96,246,63017,1,2,0:0:0:0:
109,84,63167,2,0,L|231:94,1,112.5,0|2,0:0|0:0,0:0:0:0:
364,172,63467,2,0,L|242:182,1,112.5,8|2,0:0|0:0,0:0:0:0:
438,218,63767,6,0,B|449:161|449:161|422:101,1,112.5,0|2,0:0|0:0,0:0:0:0:
221,93,64067,1,8,0:0:0:0:
364,172,64217,1,2,0:0:0:0:
147,47,64367,2,0,B|136:104|136:104|163:164,1,112.5,0|2,0:0|0:0,0:0:0:0:
264,288,64667,2,0,B|275:231|275:231|248:171,1,112.5,8|2,0:0|0:0,0:0:0:0:
77,239,64967,6,0,L|192:242,1,112.5,0|2,0:0|0:0,0:0:0:0:
334,90,65267,2,0,L|219:93,1,112.5,8|2,0:0|0:0,0:0:0:0:
9,196,65567,2,0,P|-1:258|27:303,1,112.5,0|2,0:0|0:0,0:0:0:0:
203,345,65867,2,0,P|213:283|185:238,1,112.5,8|2,0:0|0:0,0:0:0:0:
80,158,66167,5,0,0:0:0:0:
136,302,66317,1,2,0:0:0:0:
221,92,66467,2,0,L|334:90,1,112.5,8|2,0:0|0:0,0:0:0:0:
302,245,66767,2,0,L|189:242,1,112.5,0|2,0:0|0:0,0:0:0:0:
377,192,67067,1,8,0:0:0:0:
383,230,67142,1,8,0:0:0:0:
389,268,67217,1,8,0:0:0:0:
395,306,67292,1,8,0:0:0:0:
401,344,67367,6,0,L|417:231,1,112.5,4|2,0:0|0:0,0:0:0:0:
439,64,67667,1,8,0:0:0:0:
287,134,67817,2,0,L|303:247,1,112.5,2|0,0:0|0:0,0:0:0:0:
401,344,68117,1,2,0:0:0:0:
344,59,68267,2,0,P|277:40|220:68,1,112.5,8|2,0:0|0:0,0:0:0:0:
80,158,68567,5,0,0:0:0:0:
287,134,68717,1,2,0:0:0:0:
11,107,68867,2,0,B|1:164|1:164|25:231,1,112.5,8|2,0:0|0:0,0:0:0:0:
344,209,69167,2,0,P|277:228|220:200,1,112.5,0|2,0:0|0:0,0:0:0:0:
90,73,69467,1,8,0:0:0:0:
145,291,69617,1,8,0:0:0:0:
165,281,69692,1,8,0:0:0:0:
180,264,69767,6,0,P|200:210|183:147,1,112.5,12|2,0:0|0:0,0:0:0:0:
74,63,70067,1,8,0:0:0:0:
288,125,70217,1,4,0:3:0:0:
288,125,70292,1,4,0:3:0:0:
288,125,70367,2,0,B|256:157|256:157|171:157,1,112.5,6|2,0:3|0:0,0:0:0:0:
58,53,70667,1,8,0:0:0:0:
370,74,70817,1,8,0:3:0:0:
370,74,70892,1,8,0:3:0:0:
370,74,70967,6,0,L|361:190,1,112.5,10|2,0:3|0:0,0:0:0:0:
347,354,71267,1,8,0:0:0:0:
437,211,71417,1,2,0:0:0:0:
285,211,71567,2,0,P|326:259|386:264,1,112.5,0|2,0:0|0:0,0:0:0:0:
435,18,71867,1,8,0:0:0:0:
390,21,71942,1,8,0:0:0:0:
345,24,72017,1,8,0:0:0:0:
300,27,72092,1,8,0:0:0:0:
255,30,72167,6,0,B|229:53|229:53|216:142,1,112.5,4|2,0:0|0:0,0:0:0:0:
197,276,72467,1,8,0:0:0:0:
322,113,72617,1,2,0:0:0:0:
119,87,72767,2,0,L|-1:74,1,112.5,0|2,0:0|0:0,0:0:0:0:
86,264,73067,2,0,L|206:277,1,112.5,8|2,0:0|0:0,0:0:0:0:
426,332,73367,6,0,B|402:303|402:303|410:228,1,112.5,0|2,0:0|0:0,0:0:0:0:
427,60,73667,1,8,0:0:0:0:
500,273,73817,1,2,0:0:0:0:
319,184,73967,2,0,L|332:64,1,112.5,0|2,0:0|0:0,0:0:0:0:
512,161,74267,2,0,L|499:281,1,112.5,8|2,0:0|0:0,0:0:0:0:
261,235,74567,6,0,P|318:225|393:265,1,112.5,0|2,0:0|0:0,0:0:0:0:
163,282,74867,2,0,P|153:225|193:150,1,112.5,8|2,0:0|0:0,0:0:0:0:
274,18,75167,2,0,P|284:72|266:125,1,112.5,0|2,0:0|0:0,0:0:0:0:
80,98,75467,2,0,B|106:66|106:66|194:65,1,112.5,8|2,0:0|0:0,0:0:0:0:
451,27,75767,6,0,B|411:64|411:64|412:213,1,202.500007724762,6|0,0:0|0:0,0:0:0:0:
452,284,76067,2,0,B|492:247|492:247|491:98,1,202.500007724762,12|0,0:0|0:0,0:0:0:0:
333,98,76367,2,0,B|332:247|332:247|372:284,1,202.500007724762,6|0,0:0|0:0,0:0:0:0:
489,355,76667,1,8,0:0:0:0:
449,354,76742,1,8,0:0:0:0:
410,353,76817,1,8,0:0:0:0:
370,352,76892,1,8,0:0:0:0:
331,351,76967,6,0,L|206:346,1,112.5,4|2,0:0|0:0,0:0:0:0:
110,196,77267,2,0,L|235:191,1,112.5,8|2,0:0|0:0,0:0:0:0:
35,252,77567,2,0,P|16:192|32:146,1,112.5,0|2,0:0|0:0,0:0:0:0:
297,135,77867,2,0,P|316:195|300:241,1,112.5,8|2,0:0|0:0,0:0:0:0:
242,54,78167,6,0,B|297:35|297:35|356:56,1,112.5,0|2,0:0|0:0,0:0:0:0:
355,321,78467,2,0,B|300:340|300:340|241:319,1,112.5,8|2,0:0|0:0,0:0:0:0:
394,139,78767,2,0,P|422:180|395:235,1,112.5,0|2,0:0|0:0,0:0:0:0:
203,236,79067,2,0,P|175:195|202:140,1,112.5,8|2,0:0|0:0,0:0:0:0:
446,57,79367,5,6,0:0:0:0:
399,233,79517,1,2,0:0:0:0:
348,53,79667,1,8,0:3:0:0:
497,237,79817,1,4,0:3:0:0:
199,142,79967,5,6,0:0:0:0:
394,139,80117,1,2,0:0:0:0:
203,236,80267,1,8,0:3:0:0:
348,53,80417,1,4,0:3:0:0:
347,316,80567,5,6,0:0:0:0:
245,56,80717,1,2,0:0:0:0:
486,271,80867,1,12,0:0:0:0:
199,142,81017,1,2,0:0:0:0:
454,86,81167,1,8,0:0:0:0:
470,115,81242,1,8,0:0:0:0:
473,148,81317,1,8,0:0:0:0:
463,180,81392,1,8,0:0:0:0:
440,205,81467,1,8,0:0:0:0:
417,230,81542,1,8,0:0:0:0:
407,262,81617,1,8,0:0:0:0:
410,295,81692,1,8,0:0:0:0:
426,324,81767,5,12,0:0:0:0:
394,139,81917,1,2,0:0:0:0:
347,316,82067,5,8,0:0:0:0:
454,86,82217,1,2,0:0:0:0:
267,191,82367,2,0,B|224:204|224:204|128:173,1,135,12|0,0:0|0:0,0:0:0:0:
67,194,82667,2,0,L|218:244,1,135,12|0,0:0|0:0,0:0:0:0:
271,276,82967,5,8,0:0:0:0:
87,123,83117,1,2,0:0:0:0:
159,316,83267,5,8,0:0:0:0:
236,125,83417,1,2,0:0:0:0:
70,288,83567,2,0,P|69:343|88:378,1,90,12|2,0:0|0:0,0:0:0:0:
325,153,83867,2,0,P|326:98|307:63,1,90,12|2,0:0|0:0,0:0:0:0:
162,49,84167,5,8,0:0:0:0:
325,153,84317,1,2,0:0:0:0:
160,199,84467,5,8,0:0:0:0:
373,29,84617,1,2,0:0:0:0:
413,298,84767,2,0,B|379:334|379:334|287:334,1,135,12|0,0:0|0:0,0:0:0:0:
217,364,85067,2,0,P|246:317|231:238,1,135,12|0,0:0|0:0,0:0:0:0:
160,199,85367,5,8,0:0:0:0:
345,262,85517,1,2,0:0:0:0:
155,293,85667,5,8,0:0:0:0:
325,153,85817,1,2,0:0:0:0:
76,241,85967,2,0,B|63:285|63:285|71:340,1,90,12|2,0:0|0:0,0:0:0:0:
227,128,86267,1,8,0:0:0:0:
191,123,86342,1,8,0:0:0:0:
155,119,86417,1,10,0:0:0:0:
119,115,86492,1,8,0:0:0:0:
83,111,86567,6,0,L|207:101,1,112.5,12|2,0:0|0:0,0:0:0:0:
363,87,86867,5,8,0:0:0:0:
160,199,87017,1,2,0:0:0:0:
443,49,87167,2,0,B|443:111|443:111|416:150|416:150|416:230,1,168.75,12|0,0:0|0:0,0:0:0:0:
492,270,87467,2,0,P|417:235|337:282,1,168.75,12|0,0:0|0:0,0:0:0:0:
418,330,87767,5,8,0:0:0:0:
363,87,87917,1,2,0:0:0:0:
331,361,88067,5,8,0:0:0:0:
507,109,88217,1,2,0:0:0:0:
230,86,88367,2,0,B|151:77|151:128|56:101,1,168.75,12|0,0:0|0:0,0:0:0:0:
0,49,88667,2,0,B|36:92|36:92|28:220,1,168.75,12|0,0:0|0:0,0:0:0:0:
21,298,88967,5,8,0:0:0:0:
230,86,89117,1,2,0:0:0:0:
165,318,89267,5,8,0:0:0:0:
86,11,89417,1,2,0:0:0:0:
324,43,89567,2,0,L|303:215,1,168.75,12|0,0:0|0:0,0:0:0:0:
344,275,89867,2,0,L|365:103,1,168.75,12|0,0:0|0:0,0:0:0:0:
399,20,90167,5,8,0:0:0:0:
482,309,90317,1,2,0:0:0:0:
512,41,90467,5,8,0:0:0:0:
344,275,90617,1,2,0:0:0:0:
230,86,90767,2,0,P|163:47|75:88,1,168.75,12|0,0:0|0:0,0:0:0:0:
0,49,91067,2,0,B|36:92|36:92|28:220,1,168.75,12|0,0:0|0:0,0:0:0:0:
24,283,91367,5,0,0:0:0:0:
24,283,91517,1,0,0:0:0:0:
101,241,91667,2,0,L|105:184,1,45,2|0,0:0|0:0,0:0:0:0:
23,283,91967,2,0,B|56:317|56:317|98:326,1,90,2|2,0:0|0:0,0:0:0:0:
98,326,92867,5,8,0:0:0:0:
