osu file format v14

[General]
AudioFilename: audio.mp3
AudioLeadIn: 0
PreviewTime: 43292
Countdown: 0
SampleSet: Soft
StackLeniency: 0.4
Mode: 0
LetterboxInBreaks: 0
WidescreenStoryboard: 1

[Editor]
Bookmarks: 14520,24120,33720,52920,57720,91320,92820
DistanceSpacing: 1.7
BeatDivisor: 4
GridSize: 32
TimelineZoom: 2.4

[Metadata]
Title:Perfect Seimei
TitleUnicode:パーフェクト生命
Artist:NayutalieN
ArtistUnicode:ナユタン星人
Creator:LeQuack
Version:Creamy's Insane
Source:
Tags:Perfect Life 初音ミク Hatsune Miku Vocaloid Creamy Candy Affirmation Noffy Novelty Japanese ボーカロイド ボカロ ナユタン星人からの物体X cut ver nayutan seijin kara no buttai x
BeatmapID:2113868
BeatmapSetID:1009279

[Difficulty]
HPDrainRate:6
CircleSize:3.6
OverallDifficulty:7.5
ApproachRate:8.8
SliderMultiplier:1.4
SliderTickRate:1

[Events]
//Background and Video events
0,0,"29be824ad3fdfd3913e8f366a3f402971df501e4_s2_n1.jpg",0,0
//Break Periods
//Storyboard Layer 0 (Background)
//Storyboard Layer 1 (Fail)
//Storyboard Layer 2 (Pass)
//Storyboard Layer 3 (Foreground)
//Storyboard Layer 4 (Overlay)
//Storyboard Sound Samples

[TimingPoints]
167,300,4,2,5,60,1,0
4667,-100,4,2,1,40,0,0
4967,-100,4,2,1,60,0,0
6092,-100,4,2,1,5,0,0
6167,-100,4,2,1,60,0,0
6992,-100,4,2,1,5,0,0
7067,-100,4,2,1,60,0,0
7292,-100,4,2,1,5,0,0
7367,-100,4,2,1,60,0,0
8492,-100,4,2,1,5,0,0
8567,-100,4,2,1,60,0,0
9392,-100,4,2,1,5,0,0
9467,-100,4,2,1,60,0,0
9692,-100,4,2,1,5,0,0
9767,-100,4,2,1,60,0,0
10892,-100,4,2,1,5,0,0
10967,-100,4,2,1,60,0,0
11792,-100,4,2,1,5,0,0
11867,-100,4,2,1,60,0,0
12092,-100,4,2,1,5,0,0
12167,-100,4,2,1,60,0,0
13292,-100,4,2,1,5,0,0
13367,-100,4,2,1,60,0,0
14192,-100,4,2,1,5,0,0
14267,-100,4,2,1,60,0,0
14492,-100,4,2,1,5,0,0
14567,-100,4,2,1,40,0,0
24167,-250,4,3,1,40,0,0
33767,-250,4,2,1,50,0,0
33917,-250,4,2,2,50,0,0
34667,-125,4,2,2,50,0,0
38567,-125,4,2,1,50,0,0
38717,-125,4,2,2,50,0,0
39992,-125,4,2,2,5,0,0
40067,-125,4,2,2,50,0,0
42617,-125,4,2,1,50,0,0
43367,-71.4285714285714,4,2,2,80,0,1
43442,-100,4,2,2,80,0,1
43667,-100,4,2,2,80,0,1
45767,-100,4,2,1,80,0,1
46142,-100,4,2,0,5,0,1
46217,-100,4,2,2,80,0,1
46367,-100,4,2,1,80,0,1
46592,-100,4,2,0,5,0,1
46667,-100,4,2,1,80,0,1
47042,-100,4,2,0,5,0,1
47117,-100,4,2,2,80,0,1
47267,-100,4,2,1,80,0,1
47417,-100,4,2,2,80,0,1
47492,-100,4,2,0,5,0,1
47567,-100,4,2,2,80,0,1
48092,-100,4,2,2,80,0,0
48167,-71.4285714285714,4,2,2,80,0,1
48242,-100,4,2,2,80,0,1
48317,-100,4,2,2,80,0,1
50567,-100,4,2,2,80,0,1
50717,-100,4,2,2,80,0,1
51017,-100,4,2,3,80,0,1
51167,-83.3333333333333,4,2,3,80,0,1
51317,-83.3333333333333,4,2,2,80,0,1
51767,-71.4285714285714,4,2,3,80,0,1
51917,-71.4285714285714,4,2,2,80,0,1
52367,-100,4,2,2,80,0,1
52892,-100,4,2,2,80,0,0
52967,-71.4285714285714,4,2,2,80,0,1
53267,-71.4285714285714,4,2,2,80,0,1
53567,-100,4,2,2,80,0,1
55367,-100,4,2,2,80,0,1
56567,-100,4,2,3,80,0,1
56717,-100,4,2,2,80,0,1
57767,-100,4,2,2,80,0,1
57917,-100,4,2,2,80,0,1
60167,-100,4,2,1,80,0,1
60317,-100,4,2,2,80,0,1
60467,-100,4,2,1,80,0,1
60917,-100,4,2,2,80,0,1
61067,-100,4,2,1,80,0,1
61517,-100,4,2,2,80,0,1
61667,-100,4,2,1,80,0,1
61817,-100,4,2,2,80,0,1
62567,-71.4285714285714,4,2,2,80,0,0
62717,-71.4285714285714,4,2,4,70,0,0
63167,-100,4,2,4,70,0,0
67367,-71.4285714285714,4,2,2,80,0,1
67517,-71.4285714285714,4,2,2,80,0,1
67817,-100,4,2,2,80,0,1
69767,-100,4,2,1,80,0,1
69917,-100,4,2,2,80,0,1
70217,-100,4,2,3,80,0,1
70367,-83.3333333333333,4,2,3,80,0,1
70517,-83.3333333333333,4,2,2,80,0,1
70667,-83.3333333333333,4,2,1,80,0,1
70817,-83.3333333333333,4,2,3,80,0,1
70967,-71.4285714285714,4,2,3,80,0,1
71117,-71.4285714285714,4,2,2,80,0,1
71567,-100,4,2,2,80,0,1
72167,-71.4285714285714,4,2,2,70,0,0
72317,-71.4285714285714,4,2,4,70,0,0
72767,-100,4,2,4,70,0,0
75767,-100,4,2,1,80,0,0
75992,-100,4,2,0,5,0,0
76067,-100,4,2,1,80,0,0
76292,-100,4,2,0,5,0,0
76367,-100,4,2,1,80,0,0
76592,-100,4,2,0,5,0,0
76667,-100,4,2,1,70,0,0
76967,-100,4,2,2,80,0,1
77117,-100,4,2,2,80,0,1
79367,-100,4,2,1,80,0,1
79517,-100,4,2,2,80,0,1
79667,-100,4,2,1,80,0,1
80117,-100,4,2,2,80,0,1
80267,-100,4,2,1,80,0,1
80717,-100,4,2,2,80,0,1
80867,-100,4,2,1,80,0,1
81017,-100,4,2,2,80,0,1
81767,-100,4,2,2,60,0,0
82592,-100,4,2,2,5,0,0
82667,-100,4,2,2,60,0,0
82892,-100,4,2,2,5,0,0
82967,-100,4,2,2,60,0,0
84992,-100,4,2,2,5,0,0
85067,-100,4,2,2,60,0,0
85292,-100,4,2,2,5,0,0
85367,-100,4,2,2,60,0,0
86567,-100,4,2,2,80,0,0
87392,-100,4,2,2,5,0,0
87467,-100,4,2,2,80,0,0
87692,-100,4,2,2,5,0,0
87767,-100,4,2,2,80,0,0
88592,-100,4,2,2,5,0,0
88667,-100,4,2,2,80,0,0
88892,-100,4,2,2,5,0,0
88967,-100,4,2,2,80,0,0
89792,-100,4,2,2,5,0,0
89867,-100,4,2,2,80,0,0
90092,-100,4,2,2,5,0,0
90167,-100,4,2,2,80,0,0
90992,-100,4,2,2,5,0,0
91067,-100,4,2,2,80,0,0
91292,-100,4,2,2,5,0,0
91367,-250,4,2,5,20,0,0
92867,-250,4,2,1,60,0,0

[Colours]
Combo1 : 185,185,185
Combo2 : 21,234,234

[HitObjects]
130,251,167,6,0,P|95:258|62:268,2,70,0|0|2,0:0|0:0|0:0,0:0:0:0:
210,272,617,1,0,0:0:0:0:
210,272,767,1,2,0:0:0:0:
337,162,1067,1,2,0:0:0:0:
453,282,1367,6,0,P|462:316|470:350,2,70,0|0|2,0:0|0:0|0:0,0:0:0:0:
463,202,1817,1,0,0:0:0:0:
463,202,1967,1,2,0:0:0:0:
482,175,2267,1,2,0:0:0:0:
382,39,2567,6,0,P|420:33|453:23,2,70,0|0|2,0:0|0:0|0:0,0:0:0:0:
321,98,3017,1,0,0:0:0:0:
321,98,3167,1,2,0:0:0:0:
167,29,3467,1,2,0:0:0:0:
15,101,3767,6,0,P|9:66|0:32,2,70,0|0|2,0:0|0:0|0:0,0:0:0:0:
73,168,4217,1,0,0:0:0:0:
73,168,4367,1,2,0:0:0:0:
186,312,4667,5,8,0:0:0:0:
145,320,4742,1,8,0:0:0:0:
104,330,4817,1,8,0:0:0:0:
63,341,4892,1,8,0:0:0:0:
23,353,4967,5,12,0:0:0:0:
49,254,5117,1,0,0:0:0:0:
144,284,5267,1,8,0:0:0:0:
117,383,5417,1,0,0:0:0:0:
256,192,5567,5,12,0:0:0:0:
256,192,5867,1,12,0:0:0:0:
56,267,6167,5,8,0:0:0:0:
132,291,6317,1,0,0:0:0:0:
111,371,6467,1,8,0:0:0:0:
36,347,6617,1,0,0:0:0:0:
256,192,6767,5,12,0:0:0:0:
256,192,7067,1,12,0:0:0:0:
489,353,7367,5,8,0:0:0:0:
463,254,7517,1,0,0:0:0:0:
368,284,7667,1,8,0:0:0:0:
395,383,7817,1,0,0:0:0:0:
256,192,7967,5,12,0:0:0:0:
256,192,8267,1,12,0:0:0:0:
456,267,8567,5,8,0:0:0:0:
380,291,8717,1,0,0:0:0:0:
401,371,8867,1,8,0:0:0:0:
476,347,9017,1,0,0:0:0:0:
256,192,9167,5,12,0:0:0:0:
256,192,9467,1,12,0:0:0:0:
49,130,9767,5,12,0:0:0:0:
23,31,9917,1,0,0:0:0:0:
144,100,10067,1,8,0:0:0:0:
117,1,10217,1,0,0:0:0:0:
256,192,10367,5,12,0:0:0:0:
256,192,10667,1,12,0:0:0:0:
111,13,10967,5,8,0:0:0:0:
132,93,11117,1,0,0:0:0:0:
36,37,11267,1,8,0:0:0:0:
56,117,11417,1,0,0:0:0:0:
256,192,11567,5,12,0:0:0:0:
256,192,11867,1,12,0:0:0:0:
463,130,12167,5,8,0:0:0:0:
489,31,12317,1,0,0:0:0:0:
368,100,12467,1,8,0:0:0:0:
395,1,12617,1,0,0:0:0:0:
256,192,12767,5,12,0:0:0:0:
256,192,13067,1,12,0:0:0:0:
401,13,13367,5,8,0:0:0:0:
380,93,13517,1,0,0:0:0:0:
476,37,13667,1,8,0:0:0:0:
456,117,13817,1,0,0:0:0:0:
256,192,13967,5,12,0:0:0:0:
256,192,14267,1,12,0:0:0:0:
84,319,14567,5,6,0:0:0:0:
84,319,14867,1,2,0:0:0:0:
84,319,15167,1,2,0:0:0:0:
84,319,15467,1,2,0:0:0:0:
428,319,15767,5,2,0:0:0:0:
428,319,16067,1,2,0:0:0:0:
428,319,16367,1,2,0:0:0:0:
428,319,16667,1,2,0:0:0:0:
84,65,16967,5,2,0:0:0:0:
84,65,17267,1,2,0:0:0:0:
84,65,17567,1,2,0:0:0:0:
84,65,17867,1,2,0:0:0:0:
428,65,18167,5,2,0:0:0:0:
428,65,18467,1,2,0:0:0:0:
428,65,18767,1,2,0:0:0:0:
428,65,19067,1,2,0:0:0:0:
401,13,19367,5,2,0:0:0:0:
380,93,19667,1,2,0:0:0:0:
456,117,19967,1,2,0:0:0:0:
476,37,20267,1,2,0:0:0:0:
111,371,20567,5,2,0:0:0:0:
132,291,20867,1,2,0:0:0:0:
56,267,21167,1,2,0:0:0:0:
36,347,21467,1,2,0:0:0:0:
111,13,21767,5,2,0:0:0:0:
132,93,22067,1,2,0:0:0:0:
56,117,22367,1,2,0:0:0:0:
36,37,22667,1,2,0:0:0:0:
401,371,22967,5,2,0:0:0:0:
380,291,23267,1,2,0:0:0:0:
456,267,23567,1,2,0:0:0:0:
476,347,23867,1,2,0:0:0:0:
111,371,24167,6,0,L|120:335,1,28,4|4,0:0|0:0,0:0:0:0:
144,264,24467,1,8,0:0:0:0:
96,376,24617,2,0,L|105:340,4,28,4|4|4|8|4,0:0|0:0|0:0|0:0|0:0,0:0:0:0:
401,371,25367,6,0,L|392:335,1,28,4|4,0:0|0:0,0:0:0:0:
368,264,25667,1,8,0:0:0:0:
416,376,25817,2,0,L|407:340,4,28,4|4|4|8|4,0:0|0:0|0:0|0:0|0:0,0:0:0:0:
394,256,26567,6,0,L|428:247,2,28,4|4|8,0:0|0:0|0:0,0:0:0:0:
319,276,27017,5,4,0:0:0:0:
492,228,27167,2,0,L|496:199,1,28,4|4,0:0|0:0,0:0:0:0:
319,275,27467,2,0,L|297:236,1,28,8|4,0:0|0:0,0:0:0:0:
118,256,27767,6,0,L|83:247,2,28,4|4|8,0:0|0:0|0:0,0:0:0:0:
193,276,28217,5,4,0:0:0:0:
20,228,28367,2,0,L|16:199,1,28,4|4,0:0|0:0,0:0:0:0:
193,275,28667,2,0,L|215:236,1,28,8|4,0:0|0:0,0:0:0:0:
149,39,28967,5,6,0:0:0:0:
149,39,29117,1,4,0:0:0:0:
149,39,29267,1,8,0:0:0:0:
76,82,29417,5,4,0:0:0:0:
76,82,29567,2,0,L|25:85,1,28,4|4,0:0|0:0,0:0:0:0:
184,119,29867,2,0,L|218:155,1,28,8|4,0:0|0:0,0:0:0:0:
363,39,30167,5,4,0:0:0:0:
363,39,30317,1,4,0:0:0:0:
363,39,30467,1,8,0:0:0:0:
436,82,30617,5,4,0:0:0:0:
436,82,30767,2,0,L|486:85,1,28,4|4,0:0|0:0,0:0:0:0:
328,119,31067,2,0,L|293:155,1,28,8|4,0:0|0:0,0:0:0:0:
153,375,31367,5,4,0:0:0:0:
154,344,31517,1,4,0:0:0:0:
179,361,31667,1,8,0:0:0:0:
76,302,31817,5,4,0:0:0:0:
76,302,31967,2,0,L|26:299,1,28,4|4,0:0|0:0,0:0:0:0:
184,265,32267,2,0,L|219:229,1,28,8|4,0:0|0:0,0:0:0:0:
359,375,32567,5,4,0:0:0:0:
358,344,32717,1,4,0:0:0:0:
333,361,32867,1,8,0:0:0:0:
436,302,33017,5,4,0:0:0:0:
436,302,33167,2,0,L|486:299,1,28,4|4,0:0|0:0,0:0:0:0:
328,265,33467,2,0,L|293:229,1,28,8|4,0:0|0:0,0:0:0:0:
256,192,33767,5,6,0:0:0:0:
84,319,34067,1,8,0:0:0:0:
7,125,34367,1,0,0:0:0:0:
7,125,34517,1,2,0:0:0:0:
54,41,34667,2,0,P|77:55|92:79,1,56,8|2,0:0|0:0,0:0:0:0:
132,291,34967,5,0,0:0:0:0:
56,267,35117,1,2,0:0:0:0:
36,347,35267,1,8,0:0:0:0:
111,371,35417,1,2,0:0:0:0:
256,192,35567,5,0,0:0:0:0:
256,192,35867,1,8,0:0:0:0:
489,353,36167,5,0,0:0:0:0:
463,254,36317,1,2,0:0:0:0:
368,284,36467,1,8,0:0:0:0:
395,383,36617,1,2,0:0:0:0:
380,291,36767,5,0,0:0:0:0:
456,267,36917,1,2,0:0:0:0:
476,347,37067,1,8,0:0:0:0:
401,371,37217,1,2,0:0:0:0:
489,353,37367,5,0,0:0:0:0:
463,254,37517,1,2,0:0:0:0:
368,284,37667,1,8,0:0:0:0:
395,383,37817,1,2,0:0:0:0:
256,192,37967,5,0,0:0:0:0:
256,192,38267,1,8,0:0:0:0:
256,192,38567,5,6,0:0:0:0:
428,319,38867,1,8,0:0:0:0:
505,125,39167,1,0,0:0:0:0:
505,125,39317,1,2,0:0:0:0:
458,41,39467,2,0,P|435:55|420:79,1,56,8|2,0:0|0:0,0:0:0:0:
329,130,39767,6,0,P|342:166|346:206,1,56,0|0,0:0|0:0,0:0:0:0:
458,41,40067,1,8,0:0:0:0:
458,41,40217,1,2,0:0:0:0:
256,192,40367,5,0,0:0:0:0:
256,192,40667,1,8,0:0:0:0:
23,31,40967,5,0,0:0:0:0:
49,130,41117,1,2,0:0:0:0:
144,100,41267,1,8,0:0:0:0:
117,1,41417,1,2,0:0:0:0:
132,93,41567,5,0,0:0:0:0:
56,117,41717,1,2,0:0:0:0:
36,37,41867,1,8,0:0:0:0:
111,13,42017,1,2,0:0:0:0:
23,31,42167,5,0,0:0:0:0:
49,130,42317,1,2,0:0:0:0:
144,100,42467,1,8,0:0:0:0:
117,1,42617,1,8,0:3:0:0:
256,192,42767,5,4,0:3:0:0:
2,384,43367,6,0,B|111:371|33:292|174:288,1,195.999994018555,4|8,0:0|0:0,0:0:0:0:
381,379,43967,2,0,P|363:334|323:342,1,70,0|2,0:0|0:0,0:0:0:0:
243,221,44267,2,0,P|256:279|261:323,1,70,8|2,0:0|0:0,0:0:0:0:
315,81,44567,5,0,0:0:0:0:
414,145,44717,1,2,0:0:0:0:
419,26,44867,1,8,0:0:0:0:
419,26,45167,5,0,0:0:0:0:
414,145,45467,1,8,0:0:0:0:
315,81,45767,1,4,0:0:0:0:
158,135,45917,6,0,L|176:170,2,35,8|8|8,0:3|0:3|0:3,0:0:0:0:
80,25,46217,1,10,0:0:0:0:
185,52,46367,6,0,L|220:34,2,35,4|4|4,0:3|0:3|0:3,0:0:0:0:
56,119,46667,1,12,0:0:0:0:
65,313,46817,6,0,L|29:325,2,35,4|4|4,0:3|0:3|0:3,0:0:0:0:
188,268,47117,1,10,0:0:0:0:
149,349,47267,6,0,L|161:385,2,35,4|4|4,0:3|0:3|0:3,0:0:0:0:
111,236,47567,1,12,0:0:0:0:
111,236,47717,1,4,0:3:0:0:
262,111,47867,5,8,0:0:0:0:
310,94,47942,1,8,0:0:0:0:
360,110,48017,1,8,0:0:0:0:
390,152,48092,1,8,0:0:0:0:
390,203,48167,6,0,B|363:259|363:259|371:303|371:303|330:399,1,195.999994018555,4|8,0:0|0:0,0:0:0:0:
310,178,48617,1,2,0:0:0:0:
503,99,48767,2,0,P|469:89|435:80,1,70,0|2,0:0|0:0,0:0:0:0:
242,196,49067,2,0,P|275:186|309:177,1,70,8|2,0:0|0:0,0:0:0:0:
144,100,49367,5,0,0:0:0:0:
117,1,49667,1,8,0:0:0:0:
23,31,49967,1,0,0:0:0:0:
49,130,50267,1,8,0:0:0:0:
256,192,50417,5,8,0:0:0:0:
256,192,50492,1,8,0:0:0:0:
256,192,50567,2,0,B|294:181|294:181|336:187|336:187|408:168,1,140,4|8,0:0|0:0,0:0:0:0:
193,322,51017,5,8,0:3:0:0:
193,322,51092,1,8,0:3:0:0:
193,322,51167,2,0,B|92:326|158:252|24:260,1,167.999994873047,10|8,0:3|0:0,0:0:0:0:
133,113,51617,5,4,0:3:0:0:
133,113,51692,1,4,0:3:0:0:
133,113,51767,2,0,P|204:133|181:245,1,195.999994018555,6|8,0:3|0:0,0:0:0:0:
293,375,52367,2,0,P|301:340|310:307,1,70,0|2,0:0|0:0,0:0:0:0:
447,184,52667,6,0,P|436:149|436:142,3,35,8|8|8|8,0:0|0:0|0:0|0:0,0:0:0:0:
466,265,52967,6,0,B|357:283|410:185|273:220,1,195.999994018555,4|8,0:0|0:0,0:0:0:0:
103,41,53567,2,0,P|137:43|166:74,1,70,0|2,0:0|0:0,0:0:0:0:
234,134,53867,2,0,P|201:156|197:191,1,70,8|2,0:0|0:0,0:0:0:0:
197,303,54167,5,0,0:0:0:0:
98,239,54317,1,2,0:0:0:0:
93,358,54467,1,8,0:0:0:0:
93,358,54767,5,0,0:0:0:0:
98,239,55067,1,8,0:0:0:0:
197,303,55367,1,4,0:0:0:0:
424,248,55517,5,8,0:0:0:0:
424,248,55592,1,8,0:0:0:0:
424,248,55667,1,8,0:0:0:0:
331,284,55817,5,8,0:0:0:0:
331,284,55892,1,8,0:0:0:0:
331,284,55967,1,8,0:0:0:0:
364,365,56117,5,8,0:0:0:0:
364,365,56192,1,8,0:0:0:0:
364,365,56267,1,8,0:0:0:0:
457,329,56417,5,8,0:0:0:0:
457,329,56492,1,8,0:0:0:0:
457,329,56567,1,6,0:3:0:0:
348,112,56717,6,0,L|333:80,2,35,4|4|4,0:3|0:3|0:3,0:0:0:0:
436,42,57017,2,0,L|450:73,2,35,4|4|4,0:3|0:3|0:3,0:0:0:0:
207,177,57317,5,4,0:3:0:0:
207,177,57392,1,4,0:3:0:0:
207,177,57467,2,0,P|191:171|174:166,3,35,8|8|8|8,0:0|0:0|0:0|0:0,0:0:0:0:
86,101,57767,6,0,P|78:136|66:168,1,70,4|2,0:0|0:0,0:0:0:0:
108,330,58067,2,0,P|115:295|127:263,1,70,8|2,0:0|0:0,0:0:0:0:
348,112,58367,2,0,P|313:104|281:92,1,70,0|2,0:0|0:0,0:0:0:0:
200,315,58667,2,0,P|232:302|266:295,1,70,8|2,0:0|0:0,0:0:0:0:
489,353,58967,5,0,0:0:0:0:
463,254,59267,1,8,0:0:0:0:
368,284,59567,1,0,0:0:0:0:
395,383,59867,1,8,0:0:0:0:
256,192,60167,5,6,0:0:0:0:
93,135,60467,1,8,0:3:0:0:
78,39,60617,1,4,0:3:0:0:
256,192,60767,5,6,0:0:0:0:
419,135,61067,1,8,0:3:0:0:
434,39,61217,1,4,0:3:0:0:
256,192,61367,5,6,0:0:0:0:
256,192,61667,1,12,0:0:0:0:
33,372,61967,6,0,P|16:377|0:383,3,35,8|8|8|8,0:0|0:0|0:0|0:0,0:0:0:0:
46,350,62267,5,8,0:0:0:0:
60,300,62342,1,8,0:0:0:0:
98,264,62417,1,8,0:0:0:0:
149,254,62492,1,8,0:0:0:0:
197,272,62567,6,0,B|258:294|332:293|332:293|370:250|364:226,1,195.999994018555,4|8,0:0|0:0,0:0:0:0:
504,83,63017,1,2,0:0:0:0:
440,141,63167,2,0,P|449:175|469:203,1,70,0|2,0:0|0:0,0:0:0:0:
319,133,63467,2,0,P|310:99|290:71,1,70,8|2,0:0|0:0,0:0:0:0:
256,192,63767,5,0,0:0:0:0:
78,43,64217,1,2,0:0:0:0:
78,43,64367,2,0,P|111:33|145:23,1,70,0|2,0:0|0:0,0:0:0:0:
179,103,64667,2,0,P|145:113|111:122,1,70,8|2,0:0|0:0,0:0:0:0:
489,31,64967,5,0,0:0:0:0:
463,130,65267,1,8,0:0:0:0:
368,100,65567,1,0,0:0:0:0:
395,1,65867,1,8,0:0:0:0:
256,192,66167,5,0,0:0:0:0:
256,192,66467,1,8,0:0:0:0:
290,329,66767,6,0,P|256:338|222:348,1,70,0|2,0:0|0:0,0:0:0:0:
30,289,67067,5,8,0:0:0:0:
38,237,67142,1,8,0:0:0:0:
72,198,67217,1,8,0:0:0:0:
121,181,67292,1,8,0:0:0:0:
171,192,67367,6,0,P|148:274|133:396,1,195.999994018555,4|8,0:0|0:0,0:0:0:0:
236,69,67817,6,0,B|127:87|185:-3|64:18,1,140,2|2,0:0|0:0,0:0:0:0:
24,119,68267,2,0,P|70:105|95:99,1,70,8|2,0:0|0:0,0:0:0:0:
256,192,68567,5,0,0:0:0:0:
256,192,68867,1,8,0:0:0:0:
476,25,69167,5,0,0:0:0:0:
408,101,69467,1,8,0:0:0:0:
321,273,69617,5,8,0:0:0:0:
321,273,69692,1,8,0:0:0:0:
321,273,69767,2,0,P|391:288|489:298,1,140,12|8,0:0|0:0,0:0:0:0:
297,166,70217,5,4,0:3:0:0:
297,166,70292,1,4,0:3:0:0:
297,166,70367,2,0,P|231:200|213:290,1,167.999994873047,6|8,0:3|0:0,0:0:0:0:
106,363,70817,5,8,0:3:0:0:
106,363,70892,1,8,0:3:0:0:
106,363,70967,2,0,B|124:254|26:307|61:170,1,195.999994018555,10|8,0:3|0:0,0:0:0:0:
202,65,71417,1,2,0:0:0:0:
130,212,71567,2,0,P|165:204|201:196,1,70,0|2,0:0|0:0,0:0:0:0:
456,126,71867,5,8,0:0:0:0:
448,74,71942,1,8,0:0:0:0:
414,35,72017,1,8,0:0:0:0:
365,18,72092,1,8,0:0:0:0:
315,29,72167,6,0,P|338:111|353:233,1,195.999994018555,4|8,0:0|0:0,0:0:0:0:
450,384,72617,1,2,0:0:0:0:
299,295,72767,2,0,P|332:303|366:313,1,70,0|2,0:0|0:0,0:0:0:0:
127,353,73067,2,0,P|160:344|197:330,1,70,8|2,0:0|0:0,0:0:0:0:
256,192,73367,5,0,0:0:0:0:
256,192,73667,1,8,0:0:0:0:
434,43,73967,2,0,P|401:33|367:23,1,70,0|2,0:0|0:0,0:0:0:0:
333,103,74267,2,0,P|367:113|401:122,1,70,8|2,0:0|0:0,0:0:0:0:
23,31,74567,5,0,0:0:0:0:
49,130,74867,1,8,0:0:0:0:
144,100,75167,1,0,0:0:0:0:
117,1,75467,1,8,0:0:0:0:
84,65,75767,5,6,0:0:0:0:
84,319,76067,1,12,0:0:0:0:
428,319,76367,1,6,0:0:0:0:
428,65,76667,1,8,0:0:0:0:
382,40,76742,1,8,0:0:0:0:
332,51,76817,1,8,0:0:0:0:
300,92,76892,1,8,0:0:0:0:
303,144,76967,6,0,P|313:187|320:233,1,70,4|2,0:0|0:0,0:0:0:0:
428,319,77267,2,0,P|434:284|442:250,1,70,8|2,0:0|0:0,0:0:0:0:
491,147,77567,2,0,P|447:157|401:164,1,70,0|2,0:0|0:0,0:0:0:0:
313,322,77867,2,0,P|279:314|245:308,1,70,8|2,0:0|0:0,0:0:0:0:
23,353,78167,5,0,0:0:0:0:
49,254,78467,1,8,0:0:0:0:
144,284,78767,1,0,0:0:0:0:
117,383,79067,1,8,0:0:0:0:
256,192,79367,5,6,0:0:0:0:
93,249,79667,1,8,0:3:0:0:
78,345,79817,1,4,0:3:0:0:
256,192,79967,5,6,0:0:0:0:
419,249,80267,1,8,0:3:0:0:
434,345,80417,1,4,0:3:0:0:
256,192,80567,5,6,0:0:0:0:
256,192,80867,1,12,0:0:0:0:
255,43,81017,1,2,0:0:0:0:
255,43,81167,2,0,P|216:63|210:69,3,35,8|8|8|8,0:0|0:0|0:0|0:0,0:0:0:0:
326,72,81467,5,8,0:0:0:0:
368,100,81542,1,8,0:0:0:0:
420,104,81617,1,8,0:0:0:0:
465,79,81692,1,8,0:0:0:0:
489,31,81767,5,12,0:0:0:0:
463,130,81917,1,2,0:0:0:0:
368,100,82067,1,8,0:0:0:0:
395,1,82217,1,2,0:0:0:0:
256,192,82367,5,12,0:0:0:0:
256,192,82667,1,12,0:0:0:0:
476,37,82967,5,8,0:0:0:0:
401,13,83117,1,2,0:0:0:0:
380,93,83267,1,8,0:0:0:0:
456,117,83417,1,2,0:0:0:0:
256,192,83567,5,12,0:0:0:0:
256,192,83867,1,12,0:0:0:0:
23,353,84167,5,8,0:0:0:0:
49,254,84317,1,2,0:0:0:0:
144,284,84467,1,8,0:0:0:0:
117,383,84617,1,2,0:0:0:0:
256,192,84767,5,12,0:0:0:0:
256,192,85067,1,12,0:0:0:0:
36,347,85367,5,8,0:0:0:0:
111,371,85517,1,2,0:0:0:0:
132,291,85667,1,8,0:0:0:0:
56,267,85817,1,2,0:0:0:0:
256,192,85967,5,12,0:0:0:0:
186,72,86267,5,8,0:0:0:0:
144,100,86342,1,8,0:0:0:0:
92,104,86417,1,10,0:0:0:0:
47,79,86492,1,8,0:0:0:0:
23,31,86567,5,12,0:0:0:0:
116,11,86717,1,2,0:0:0:0:
11,193,86867,1,8,0:0:0:0:
186,72,87017,1,2,0:0:0:0:
256,192,87167,5,12,0:0:0:0:
256,192,87467,1,12,0:0:0:0:
34,48,87767,5,8,0:0:0:0:
109,32,87917,1,2,0:0:0:0:
25,177,88067,1,8,0:0:0:0:
168,86,88217,1,2,0:0:0:0:
256,192,88367,5,12,0:0:0:0:
256,192,88667,1,12,0:0:0:0:
489,353,88967,5,8,0:0:0:0:
396,373,89117,1,2,0:0:0:0:
501,191,89267,1,8,0:0:0:0:
326,312,89417,1,2,0:0:0:0:
256,192,89567,5,12,0:0:0:0:
256,192,89867,1,12,0:0:0:0:
478,336,90167,5,8,0:0:0:0:
403,352,90317,1,2,0:0:0:0:
487,207,90467,1,8,0:0:0:0:
344,298,90617,1,2,0:0:0:0:
256,192,90767,5,12,0:0:0:0:
256,192,91067,1,12,0:0:0:0:
32,111,91367,6,0,L|23:141,2,28,0|0|2,0:0|0:0|0:0,0:0:0:0:
1,29,91817,1,0,0:0:0:0:
1,29,91967,1,2,0:0:0:0:
7,6,92267,1,2,0:0:0:0:
512,384,92867,1,8,0:0:0:0:
