osu file format v14

[General]
AudioFilename: audio.mp3
AudioLeadIn: 0
PreviewTime: 43292
Countdown: 0
SampleSet: Soft
StackLeniency: 0.2
Mode: 0
LetterboxInBreaks: 0
WidescreenStoryboard: 1

[Editor]
DistanceSpacing: 1
BeatDivisor: 4
GridSize: 32
TimelineZoom: 0.8

[Metadata]
Title:Perfect Seimei
TitleUnicode:パーフェクト生命
Artist:NayutalieN
ArtistUnicode:ナユタン星人
Creator:LeQuack
Version:AF's Extra
Source:
Tags:Perfect Life 初音ミク Hatsune Miku Vocaloid Creamy Candy Affirmation Noffy Novelty Japanese ボーカロイド ボカロ ナユタン星人からの物体X cut ver nayutan seijin kara no buttai x
BeatmapID:2118543
BeatmapSetID:1009279

[Difficulty]
HPDrainRate:5.8
CircleSize:3.5
OverallDifficulty:8.7
ApproachRate:9.1
SliderMultiplier:0.999999999999999
SliderTickRate:1

[Events]
//Background and Video events
0,0,"29be824ad3fdfd3913e8f366a3f402971df501e4_s2_n1.jpg",0,0
//Break Periods
//Storyboard Layer 0 (Background)
//Storyboard Layer 1 (Fail)
//Storyboard Layer 2 (Pass)
//Storyboard Layer 3 (Foreground)
//Storyboard Layer 4 (Overlay)
//Storyboard Sound Samples

[TimingPoints]
167,300,4,2,5,60,1,0
4667,-62.5,4,2,1,40,0,0
4967,-55.5555555555556,4,2,1,60,0,0
6092,-55.5555555555556,4,2,1,5,0,0
6167,-55.5555555555556,4,2,1,60,0,0
6992,-55.5555555555556,4,2,1,5,0,0
7067,-55.5555555555556,4,2,1,60,0,0
7292,-55.5555555555556,4,2,1,5,0,0
7367,-55.5555555555556,4,2,1,60,0,0
8492,-55.5555555555556,4,2,1,5,0,0
8567,-55.5555555555556,4,2,1,60,0,0
9392,-55.5555555555556,4,2,1,5,0,0
9467,-55.5555555555556,4,2,1,60,0,0
9692,-55.5555555555556,4,2,1,5,0,0
9767,-55.5555555555556,4,2,1,60,0,0
10892,-55.5555555555556,4,2,1,5,0,0
10967,-55.5555555555556,4,2,1,60,0,0
11792,-55.5555555555556,4,2,1,5,0,0
11867,-55.5555555555556,4,2,1,60,0,0
12092,-55.5555555555556,4,2,1,5,0,0
12167,-55.5555555555556,4,2,1,60,0,0
13292,-55.5555555555556,4,2,1,5,0,0
13367,-55.5555555555556,4,2,1,60,0,0
14192,-55.5555555555556,4,2,1,5,0,0
14267,-55.5555555555556,4,2,1,60,0,0
14492,-55.5555555555556,4,2,1,5,0,0
14567,-83.3333333333333,4,2,1,40,0,0
24167,-83.3333333333333,4,3,1,40,0,0
33767,-71.4285714285714,4,2,1,50,0,0
33917,-71.4285714285714,4,2,2,50,0,0
38567,-71.4285714285714,4,2,1,50,0,0
38717,-71.4285714285714,4,2,2,50,0,0
39992,-71.4285714285714,4,2,2,5,0,0
40067,-71.4285714285714,4,2,2,50,0,0
42617,-71.4285714285714,4,2,1,50,0,0
43367,-55.5555555555556,4,2,2,80,0,0
43667,-55.5555555555556,4,2,2,80,0,0
45767,-55.5555555555556,4,2,1,80,0,0
46142,-55.5555555555556,4,2,0,5,0,0
46217,-55.5555555555556,4,2,2,80,0,0
46367,-55.5555555555556,4,2,1,80,0,0
46592,-55.5555555555556,4,2,0,5,0,0
46667,-55.5555555555556,4,2,1,80,0,0
47042,-55.5555555555556,4,2,0,5,0,0
47117,-55.5555555555556,4,2,2,80,0,0
47267,-55.5555555555556,4,2,1,80,0,0
47417,-55.5555555555556,4,2,2,80,0,0
47492,-55.5555555555556,4,2,0,5,0,0
47567,-55.5555555555556,4,2,2,80,0,0
48317,-55.5555555555556,4,2,2,80,0,0
50567,-55.5555555555556,4,2,2,80,0,0
50717,-55.5555555555556,4,2,2,80,0,0
51017,-55.5555555555556,4,2,3,80,0,0
51317,-55.5555555555556,4,2,2,80,0,0
51767,-55.5555555555556,4,2,3,80,0,0
51917,-55.5555555555556,4,2,2,80,0,0
52967,-55.5555555555556,4,2,2,80,0,0
53267,-55.5555555555556,4,2,2,80,0,0
55367,-55.5555555555556,4,2,2,80,0,0
56567,-55.5555555555556,4,2,3,80,0,0
56717,-55.5555555555556,4,2,2,80,0,0
57917,-55.5555555555556,4,2,2,80,0,0
60167,-55.5555555555556,4,2,1,80,0,0
60317,-55.5555555555556,4,2,2,80,0,0
60467,-55.5555555555556,4,2,1,80,0,0
60917,-55.5555555555556,4,2,2,80,0,0
61067,-55.5555555555556,4,2,1,80,0,0
61517,-55.5555555555556,4,2,2,80,0,0
61667,-55.5555555555556,4,2,1,80,0,0
61817,-55.5555555555556,4,2,2,80,0,0
62567,-55.5555555555556,4,2,2,80,0,0
62717,-55.5555555555556,4,2,4,70,0,0
67367,-55.5555555555556,4,2,2,80,0,0
67517,-55.5555555555556,4,2,2,80,0,0
69767,-55.5555555555556,4,2,1,80,0,0
69917,-55.5555555555556,4,2,2,80,0,0
70217,-55.5555555555556,4,2,3,80,0,0
70517,-55.5555555555556,4,2,2,80,0,0
70667,-55.5555555555556,4,2,1,80,0,0
70817,-55.5555555555556,4,2,3,80,0,0
71117,-55.5555555555556,4,2,2,80,0,0
72167,-55.5555555555556,4,2,2,70,0,0
72317,-55.5555555555556,4,2,4,70,0,0
75767,-55.5555555555556,4,2,1,80,0,0
75992,-55.5555555555556,4,2,0,5,0,0
76067,-55.5555555555556,4,2,1,80,0,0
76292,-55.5555555555556,4,2,0,5,0,0
76367,-55.5555555555556,4,2,1,80,0,0
76592,-55.5555555555556,4,2,0,5,0,0
76667,-55.5555555555556,4,2,1,70,0,0
76967,-55.5555555555556,4,2,2,80,0,0
77117,-55.5555555555556,4,2,2,80,0,0
79367,-55.5555555555556,4,2,1,80,0,0
79517,-55.5555555555556,4,2,2,80,0,0
79667,-55.5555555555556,4,2,1,80,0,0
80117,-55.5555555555556,4,2,2,80,0,0
80267,-55.5555555555556,4,2,1,80,0,0
80717,-55.5555555555556,4,2,2,80,0,0
80867,-55.5555555555556,4,2,1,80,0,0
81017,-55.5555555555556,4,2,2,80,0,0
81767,-55.5555555555556,4,2,2,60,0,0
82592,-55.5555555555556,4,2,2,5,0,0
82667,-55.5555555555556,4,2,2,60,0,0
82892,-55.5555555555556,4,2,2,5,0,0
82967,-55.5555555555556,4,2,2,60,0,0
84992,-55.5555555555556,4,2,2,5,0,0
85067,-55.5555555555556,4,2,2,60,0,0
85292,-55.5555555555556,4,2,2,5,0,0
85367,-55.5555555555556,4,2,2,60,0,0
86567,-55.5555555555556,4,2,2,80,0,0
87392,-55.5555555555556,4,2,2,5,0,0
87467,-55.5555555555556,4,2,2,80,0,0
87692,-55.5555555555556,4,2,2,5,0,0
87767,-55.5555555555556,4,2,2,80,0,0
88592,-55.5555555555556,4,2,2,5,0,0
88667,-55.5555555555556,4,2,2,80,0,0
88892,-55.5555555555556,4,2,2,5,0,0
88967,-55.5555555555556,4,2,2,80,0,0
89792,-55.5555555555556,4,2,2,5,0,0
89867,-55.5555555555556,4,2,2,80,0,0
90092,-55.5555555555556,4,2,2,5,0,0
90167,-55.5555555555556,4,2,2,80,0,0
90992,-55.5555555555556,4,2,2,5,0,0
91067,-55.5555555555556,4,2,2,80,0,0
91292,-55.5555555555556,4,2,2,5,0,0
91367,-100,4,2,5,20,0,0
92867,-400,4,2,1,60,0,0

[Colours]
Combo1 : 185,185,185
Combo2 : 21,234,234

[HitObjects]
57,118,4667,5,8,0:0:0:0:
59,157,4742,1,8,0:0:0:0:
61,197,4817,1,8,0:0:0:0:
64,237,4892,1,8,0:0:0:0:
66,277,4967,6,0,P|108:289|152:279,1,89.999997253418,12|0,0:0|0:0,0:0:0:0:
250,109,5267,1,8,0:0:0:0:
61,197,5417,1,0,0:0:0:0:
261,246,5567,1,12,0:0:0:0:
174,26,5717,1,0,0:0:0:0:
270,270,5867,2,0,L|277:359,1,89.999997253418,12|0,0:0|0:0,0:0:0:0:
450,192,6167,6,0,P|406:182|363:194,1,89.999997253418,8|0,0:0|0:0,0:0:0:0:
183,327,6467,1,8,0:0:0:0:
401,346,6617,1,0,0:0:0:0:
262,145,6767,2,0,L|269:55,1,89.999997253418,12|0,0:0|0:0,0:0:0:0:
450,192,7067,2,0,P|407:204|363:194,1,89.999997253418,12|0,0:0|0:0,0:0:0:0:
178,115,7367,6,0,P|134:105|91:117,1,89.999997253418,8|0,0:0|0:0,0:0:0:0:
179,302,7667,1,8,0:0:0:0:
262,145,7817,1,0,0:0:0:0:
56,320,7967,1,12,0:0:0:0:
307,367,8117,1,0,0:0:0:0:
37,314,8267,2,0,B|27:269|27:269|40:227,1,89.999997253418,12|0,0:0|0:0,0:0:0:0:
302,227,8567,6,0,P|258:237|215:225,1,89.999997253418,8|0,0:0|0:0,0:0:0:0:
397,158,8867,1,8,0:0:0:0:
307,367,9017,1,0,0:0:0:0:
130,268,9167,2,0,P|119:224|131:181,1,89.999997253418,12|0,0:0|0:0,0:0:0:0:
301,32,9467,2,0,L|297:121,1,89.999997253418,12|0,0:0|0:0,0:0:0:0:
71,83,9767,6,0,B|112:63|112:63|156:70,1,89.999997253418,12|0,0:0|0:0,0:0:0:0:
302,227,10067,1,8,0:0:0:0:
102,284,10217,1,0,0:0:0:0:
323,114,10367,1,12,0:0:0:0:
307,367,10517,1,0,0:0:0:0:
62,202,10667,2,0,P|106:192|149:204,1,89.999997253418,12|0,0:0|0:0,0:0:0:0:
361,297,10967,6,0,P|404:308|447:298,1,89.999997253418,8|0,0:0|0:0,0:0:0:0:
323,114,11267,1,8,0:0:0:0:
220,320,11417,1,0,0:0:0:0:
154,102,11567,2,0,L|157:12,1,89.999997253418,12|0,0:0|0:0,0:0:0:0:
364,207,11867,2,0,L|360:296,1,89.999997253418,12|0,0:0|0:0,0:0:0:0:
409,116,12167,6,0,P|365:104|321:113,1,89.999997253418,8|0,0:0|0:0,0:0:0:0:
256,296,12467,1,8,0:0:0:0:
479,266,12617,1,0,0:0:0:0:
240,156,12767,1,12,0:0:0:0:
357,380,12917,1,0,0:0:0:0:
499,161,13067,2,0,P|510:117|501:73,1,89.999997253418,12|0,0:0|0:0,0:0:0:0:
298,18,13367,6,0,L|208:21,1,89.999997253418,8|0,0:0|0:0,0:0:0:0:
82,237,13667,1,8,0:0:0:0:
338,186,13817,1,0,0:0:0:0:
109,26,13967,2,0,B|95:68|95:68|107:111,1,89.999997253418,12|0,0:0|0:0,0:0:0:0:
256,296,14267,2,0,B|270:254|270:254|257:210,1,89.999997253418,12|0,0:0|0:0,0:0:0:0:
66,349,14567,6,0,L|185:341,1,119.999996337891,6|2,0:0|0:0,0:0:0:0:
256,296,15017,1,0,0:0:0:0:
61,266,15167,2,0,L|180:258,1,119.999996337891,2|2,0:0|0:0,0:0:0:0:
250,212,15617,1,0,0:0:0:0:
55,182,15767,6,0,L|174:174,1,119.999996337891,2|2,0:0|0:0,0:0:0:0:
244,128,16217,1,0,0:0:0:0:
49,98,16367,2,0,L|168:90,1,119.999996337891,2|2,0:0|0:0,0:0:0:0:
446,349,16967,6,0,L|326:341,1,119.999996337891,2|2,0:0|0:0,0:0:0:0:
256,296,17417,1,0,0:0:0:0:
451,266,17567,2,0,L|331:258,1,119.999996337891,2|2,0:0|0:0,0:0:0:0:
262,212,18017,1,0,0:0:0:0:
457,182,18167,6,0,L|337:174,1,119.999996337891,2|2,0:0|0:0,0:0:0:0:
268,128,18617,1,0,0:0:0:0:
463,98,18767,2,0,L|343:90,1,119.999996337891,2|2,0:0|0:0,0:0:0:0:
92,132,19367,6,0,P|68:186|85:242,1,119.999996337891,2|2,0:0|0:0,0:0:0:0:
136,307,19817,1,0,0:0:0:0:
261,196,19967,2,0,P|206:172|150:189,1,119.999996337891,2|2,0:0|0:0,0:0:0:0:
85,242,20417,1,0,0:0:0:0:
196,366,20567,6,0,P|219:311|202:255,1,119.999996337891,2|2,0:0|0:0,0:0:0:0:
151,190,21017,1,0,0:0:0:0:
25,301,21167,2,0,P|80:324|136:307,1,119.999996337891,2|2,0:0|0:0,0:0:0:0:
478,202,21767,6,0,P|423:178|367:195,1,119.999996337891,2|2,0:0|0:0,0:0:0:0:
304,251,22217,1,0,0:0:0:0:
193,146,22367,2,0,P|247:122|303:139,1,119.999996337891,2|2,0:0|0:0,0:0:0:0:
367,195,22817,1,0,0:0:0:0:
478,90,22967,6,0,P|423:66|367:83,2,119.999996337891,2|2|2,0:0|0:0|0:0,0:0:0:0:
478,90,23867,1,2,0:0:0:0:
107,310,24167,6,0,L|104:369,1,59.9999981689453,4|4,0:0|0:0,0:0:0:0:
191,317,24467,2,0,L|188:376,1,59.9999981689453,8|4,0:0|0:0,0:0:0:0:
204,223,24767,2,0,L|201:163,1,59.9999981689453,4|4,0:0|0:0,0:0:0:0:
288,216,25067,2,0,L|285:156,1,59.9999981689453,8|4,0:0|0:0,0:0:0:0:
301,310,25367,6,0,L|298:369,1,59.9999981689453,4|4,0:0|0:0,0:0:0:0:
385,317,25667,2,0,L|382:376,1,59.9999981689453,8|4,0:0|0:0,0:0:0:0:
398,223,25967,2,0,L|395:163,1,59.9999981689453,4|4,0:0|0:0,0:0:0:0:
482,216,26267,2,0,L|479:156,1,59.9999981689453,8|4,0:0|0:0,0:0:0:0:
382,6,26567,6,0,L|380:66,1,59.9999981689453,4|4,0:0|0:0,0:0:0:0:
298,0,26867,2,0,L|296:59,1,59.9999981689453,8|4,0:0|0:0,0:0:0:0:
285,212,27167,2,0,L|283:153,1,59.9999981689453,4|4,0:0|0:0,0:0:0:0:
201,219,27467,2,0,L|199:160,1,59.9999981689453,8|4,0:0|0:0,0:0:0:0:
188,6,27767,6,0,L|186:66,1,59.9999981689453,4|4,0:0|0:0,0:0:0:0:
104,0,28067,2,0,L|102:59,1,59.9999981689453,8|4,0:0|0:0,0:0:0:0:
91,212,28367,2,0,L|89:153,1,59.9999981689453,4|4,0:0|0:0,0:0:0:0:
7,219,28667,2,0,L|5:160,1,59.9999981689453,8|4,0:0|0:0,0:0:0:0:
152,293,28967,6,0,P|123:300|93:296,1,59.9999981689453,6|4,0:0|0:0,0:0:0:0:
208,201,29267,1,8,0:0:0:0:
234,355,29417,1,4,0:0:0:0:
91,212,29567,2,0,L|89:153,1,59.9999981689453,4|4,0:0|0:0,0:0:0:0:
266,197,29867,2,0,P|237:204|207:200,1,59.9999981689453,8|4,0:0|0:0,0:0:0:0:
176,70,30167,6,0,P|204:62|234:66,1,59.9999981689453,4|4,0:0|0:0,0:0:0:0:
352,192,30467,1,8,0:0:0:0:
208,201,30617,1,4,0:0:0:0:
338,43,30767,2,0,B|344:74|344:74|337:102,1,59.9999981689453,4|4,0:0|0:0,0:0:0:0:
207,259,31067,2,0,B|201:228|201:228|207:199,1,59.9999981689453,8|4,0:0|0:0,0:0:0:0:
358,302,31367,6,0,L|298:299,1,59.9999981689453,4|4,0:0|0:0,0:0:0:0:
457,229,31667,1,8,0:0:0:0:
408,381,31817,1,4,0:0:0:0:
352,192,31967,2,0,L|354:132,1,59.9999981689453,4|4,0:0|0:0,0:0:0:0:
510,319,32267,2,0,L|507:378,1,59.9999981689453,8|4,0:0|0:0,0:0:0:0:
457,228,32567,6,0,P|482:212|511:205,1,59.9999981689453,4|4,0:0|0:0,0:0:0:0:
408,381,32867,2,0,P|379:373|353:357,1,59.9999981689453,8|4,0:0|0:0,0:0:0:0:
328,137,33167,2,0,P|344:162|351:191,1,59.9999981689453,4|4,0:0|0:0,0:0:0:0:
199,352,33467,1,8,0:0:0:0:
242,194,33617,1,4,0:0:0:0:
45,246,33767,6,0,B|125:239|100:280|180:269,1,139.999995727539,6|8,0:0|0:0,0:0:0:0:
334,215,34217,1,2,0:0:0:0:
159,87,34367,2,0,P|152:122|157:156,1,69.9999978637695,0|2,0:0|0:0,0:0:0:0:
289,304,34667,2,0,L|358:299,1,69.9999978637695,8|2,0:0|0:0,0:0:0:0:
443,132,34967,6,0,L|373:127,1,69.9999978637695,0|2,0:0|0:0,0:0:0:0:
492,230,35267,2,0,L|422:225,1,69.9999978637695,8|2,0:0|0:0,0:0:0:0:
265,325,35567,2,0,L|405:315,1,139.999995727539,0|8,0:0|0:0,0:0:0:0:
77,347,36167,6,0,P|70:312|72:277,1,69.9999978637695,0|2,0:0|0:0,0:0:0:0:
255,157,36467,1,8,0:0:0:0:
181,365,36617,1,2,0:0:0:0:
66,174,36767,2,0,P|100:170|135:165,1,69.9999978637695,0|2,0:0|0:0,0:0:0:0:
300,284,37067,2,0,P|265:279|230:275,1,69.9999978637695,8|2,0:0|0:0,0:0:0:0:
368,162,37367,5,0,0:0:0:0:
440,338,37517,1,2,0:0:0:0:
373,129,37667,1,8,0:0:0:0:
318,381,37817,1,2,0:0:0:0:
491,187,37967,2,0,B|502:105|461:130|472:50,1,139.999995727539,0|8,0:0|0:0,0:0:0:0:
142,119,38567,6,0,P|174:131|209:135,1,69.9999978637695,6|2,0:0|0:0,0:0:0:0:
43,37,38867,2,0,P|49:106|56:176,1,139.999995727539,8|0,0:0|0:0,0:0:0:0:
142,363,39317,1,2,0:0:0:0:
80,182,39467,1,8,0:0:0:0:
27,358,39617,1,2,0:0:0:0:
185,253,39767,6,0,P|219:244|254:239,1,69.9999978637695,0|0,0:0|0:0,0:0:0:0:
411,165,40067,2,0,P|376:160|342:151,1,69.9999978637695,8|2,0:0|0:0,0:0:0:0:
198,74,40367,2,0,P|257:38|326:37,1,139.999995727539,0|8,0:0|0:0,0:0:0:0:
481,284,40967,6,0,P|477:318|475:353,1,69.9999978637695,0|2,0:0|0:0,0:0:0:0:
387,174,41267,1,8,0:0:0:0:
288,351,41417,1,2,0:0:0:0:
244,216,41567,2,0,P|242:181|238:146,1,69.9999978637695,0|2,0:0|0:0,0:0:0:0:
384,288,41867,2,0,P|380:322|378:357,1,69.9999978637695,8|2,0:0|0:0,0:0:0:0:
348,156,42167,5,0,0:0:0:0:
272,370,42317,1,2,0:0:0:0:
238,146,42467,1,8,0:0:0:0:
385,288,42617,1,8,0:3:0:0:
435,90,42767,1,4,0:3:0:0:
435,90,43367,6,0,B|366:84|366:84|335:47|335:47|272:40,1,179.999994506836,4|8,0:0|0:0,0:0:0:0:
112,176,43817,1,2,0:0:0:0:
282,272,43967,2,0,P|292:228|285:183,1,89.999997253418,0|2,0:0|0:0,0:0:0:0:
134,5,44267,2,0,P|124:48|131:93,1,89.999997253418,8|2,0:0|0:0,0:0:0:0:
382,192,44567,5,0,0:0:0:0:
139,260,44717,1,2,0:0:0:0:
392,370,44867,2,0,B|410:329|410:329|394:286,1,89.999997253418,8|2,0:0|0:0,0:0:0:0:
172,343,45167,2,0,P|128:348|87:333,1,89.999997253418,0|2,0:0|0:0,0:0:0:0:
285,184,45467,2,0,L|281:273,1,89.999997253418,8|0,0:0|0:0,0:0:0:0:
131,79,45767,5,4,0:0:0:0:
412,47,45917,2,0,L|456:49,2,44.999998626709,8|8|8,0:3|0:3|0:3,0:0:0:0:
111,175,46217,5,10,0:0:0:0:
420,139,46367,2,0,L|464:141,2,44.999998626709,4|4|4,0:3|0:3|0:3,0:0:0:0:
157,259,46667,5,12,0:0:0:0:
438,227,46817,2,0,L|482:229,2,44.999998626709,4|4|4,0:3|0:3|0:3,0:0:0:0:
137,355,47117,5,10,0:0:0:0:
446,319,47267,2,0,L|490:321,2,44.999998626709,4|4|4,0:3|0:3|0:3,0:0:0:0:
157,259,47567,6,0,P|148:215|154:170,1,89.999997253418,12|4,0:0|0:3,0:0:0:0:
407,21,47867,1,8,0:0:0:0:
431,46,47942,1,8,0:0:0:0:
441,77,48017,1,8,0:0:0:0:
438,111,48092,1,8,0:0:0:0:
420,139,48167,6,0,B|312:152|358:96|246:108,1,179.999994506836,4|8,0:0|0:0,0:0:0:0:
60,242,48617,1,2,0:0:0:0:
262,339,48767,2,0,P|270:295|259:251,1,89.999997253418,0|2,0:0|0:0,0:0:0:0:
151,83,49067,2,0,P|142:126|153:170,1,89.999997253418,8|2,0:0|0:0,0:0:0:0:
372,264,49367,5,0,0:0:0:0:
144,323,49517,1,2,0:0:0:0:
390,371,49667,2,0,P|434:365|478:357,1,89.999997253418,8|2,0:0|0:0,0:0:0:0:
259,251,49967,2,0,P|250:294|261:338,1,89.999997253418,0|2,0:0|0:0,0:0:0:0:
464,188,50267,1,8,0:0:0:0:
295,76,50417,1,8,0:0:0:0:
295,76,50492,1,8,0:0:0:0:
295,76,50567,6,0,P|209:65|159:135,1,179.999994506836,4|8,0:0|0:0,0:0:0:0:
56,342,51017,1,8,0:3:0:0:
56,342,51092,1,8,0:3:0:0:
56,342,51167,2,0,B|71:237|15:283|27:169,1,179.999994506836,10|8,0:3|0:0,0:0:0:0:
327,246,51617,1,4,0:3:0:0:
327,246,51692,1,4,0:3:0:0:
327,246,51767,6,0,P|238:263|150:279,1,179.999994506836,6|8,0:3|0:0,0:0:0:0:
302,114,52217,1,2,0:0:0:0:
451,280,52367,2,0,P|444:324|440:369,1,89.999997253418,0|2,0:0|0:0,0:0:0:0:
463,121,52667,1,8,0:0:0:0:
477,91,52742,1,8,0:0:0:0:
476,57,52817,1,8,0:0:0:0:
459,28,52892,1,8,0:0:0:0:
430,11,52967,6,0,L|250:28,1,179.999994506836,4|8,0:0|0:0,0:0:0:0:
85,186,53417,1,2,0:0:0:0:
254,270,53567,2,0,P|263:227|275:183,1,89.999997253418,0|2,0:0|0:0,0:0:0:0:
148,45,53867,2,0,P|160:88|169:132,1,89.999997253418,8|2,0:0|0:0,0:0:0:0:
129,349,54167,5,0,0:0:0:0:
363,275,54317,1,2,0:0:0:0:
110,361,54467,2,0,P|94:318|97:274,1,89.999997253418,8|2,0:0|0:0,0:0:0:0:
275,183,54767,2,0,P|263:227|254:270,1,89.999997253418,0|2,0:0|0:0,0:0:0:0:
83,157,55067,2,0,P|126:145|169:131,1,89.999997253418,8|2,0:0|0:0,0:0:0:0:
337,47,55367,5,4,0:0:0:0:
142,279,55517,2,0,L|97:274,2,44.999998626709,8|8|8,0:0|0:0|0:0,0:0:0:0:
418,166,55817,2,0,L|462:161,2,44.999998626709,8|8|8,0:0|0:0|0:0,0:0:0:0:
125,69,56117,2,0,L|120:24,2,44.999998626709,8|8|8,0:0|0:0|0:0,0:0:0:0:
254,270,56417,6,0,L|249:314,2,44.999998626709,8|8|6,0:0|0:0|0:3,0:0:0:0:
337,47,56717,2,0,L|332:2,2,44.999998626709,4|4|4,0:3|0:3|0:3,0:0:0:0:
103,186,57017,2,0,L|58:190,2,44.999998626709,4|4|4,0:3|0:3|0:3,0:0:0:0:
368,290,57317,1,4,0:3:0:0:
368,290,57392,1,4,0:3:0:0:
368,290,57467,2,0,L|412:285,3,44.999998626709,8|8|8|8,0:0|0:0|0:0|0:0,0:0:0:0:
455,298,57767,6,0,P|461:254|454:210,1,89.999997253418,4|2,0:0|0:0,0:0:0:0:
244,83,58067,2,0,P|237:127|244:171,1,89.999997253418,8|2,0:0|0:0,0:0:0:0:
496,117,58367,2,0,P|451:110|407:117,1,89.999997253418,0|2,0:0|0:0,0:0:0:0:
275,281,58667,2,0,P|230:287|186:280,1,89.999997253418,8|2,0:0|0:0,0:0:0:0:
94,34,58967,6,0,L|91:213,1,179.999994506836,0|8,0:0|0:0,0:0:0:0:
175,379,59417,1,2,0:0:0:0:
305,161,59567,2,0,P|262:148|219:158,1,89.999997253418,0|2,0:0|0:0,0:0:0:0:
368,320,59867,2,0,P|410:332|453:322,1,89.999997253418,8|2,0:0|0:0,0:0:0:0:
355,83,60167,5,6,0:0:0:0:
195,242,60317,1,2,0:0:0:0:
412,241,60467,2,0,P|424:199|414:156,1,89.999997253418,8|4,0:3|0:3,0:0:0:0:
140,132,60767,1,6,0:0:0:0:
197,350,60917,1,2,0:0:0:0:
305,161,61067,2,0,P|274:129|232:116,1,89.999997253418,8|4,0:3|0:3,0:0:0:0:
17,343,61367,6,0,L|196:349,1,179.999994506836,6|12,0:0|0:0,0:0:0:0:
413,259,61817,1,2,0:0:0:0:
142,176,61967,2,0,L|144:220,3,44.999998626709,8|8|8|8,0:0|0:0|0:0|0:0,0:0:0:0:
215,118,62267,2,0,L|217:73,3,44.999998626709,8|8|8|8,0:0|0:0|0:0|0:0,0:0:0:0:
281,178,62567,6,0,B|387:195|350:142|456:161,1,179.999994506836,4|8,0:0|0:0,0:0:0:0:
505,343,63017,1,2,0:0:0:0:
292,372,63167,2,0,P|284:327|292:283,1,89.999997253418,0|2,0:0|0:0,0:0:0:0:
142,87,63467,2,0,P|149:131|141:175,1,89.999997253418,8|2,0:0|0:0,0:0:0:0:
13,366,63767,6,0,P|71:300|159:289,1,179.999994506836,0|8,0:0|0:0,0:0:0:0:
306,192,64217,1,2,0:0:0:0:
142,87,64367,2,0,P|134:131|141:175,1,89.999997253418,0|2,0:0|0:0,0:0:0:0:
295,285,64667,2,0,L|384:278,1,89.999997253418,8|2,0:0|0:0,0:0:0:0:
331,75,64967,6,0,L|241:68,1,89.999997253418,0|2,0:0|0:0,0:0:0:0:
421,162,65267,2,0,B|450:136|450:136|445:85,1,89.999997253418,8|2,0:0|0:0,0:0:0:0:
270,208,65567,2,0,B|265:258|265:258|294:284,1,89.999997253418,0|2,0:0|0:0,0:0:0:0:
491,362,65867,2,0,L|401:368,1,89.999997253418,8|2,0:0|0:0,0:0:0:0:
102,340,66167,6,0,P|187:321|257:373,1,179.999994506836,0|8,0:0|0:0,0:0:0:0:
375,256,66617,1,2,0:0:0:0:
160,125,66767,2,0,P|167:169|175:213,1,89.999997253418,0|2,0:0|0:0,0:0:0:0:
378,118,67067,2,0,L|333:110,1,44.999998626709,8|8,0:0|0:0,0:0:0:0:
221,41,67217,2,0,L|265:33,1,44.999998626709,8|8,0:0|0:0,0:0:0:0:
450,27,67367,6,0,B|416:69|416:69|437:193,1,179.999994506836,4|8,0:0|0:0,0:0:0:0:
377,381,67817,1,2,0:0:0:0:
505,270,67967,2,0,P|461:278|417:287,1,89.999997253418,0|2,0:0|0:0,0:0:0:0:
256,374,68267,2,0,P|265:329|273:285,1,89.999997253418,8|2,0:0|0:0,0:0:0:0:
286,51,68567,6,0,P|341:119|338:207,1,179.999994506836,0|8,0:0|0:0,0:0:0:0:
166,303,69017,1,2,0:0:0:0:
109,125,69167,2,0,P|152:136|195:148,1,89.999997253418,0|2,0:0|0:0,0:0:0:0:
343,302,69467,1,8,0:0:0:0:
166,347,69617,2,0,P|162:325|166:303,1,44.999998626709,8|8,0:0|0:0,0:0:0:0:
222,136,69767,6,0,P|237:178|243:222,1,89.999997253418,12|2,0:0|0:0,0:0:0:0:
35,384,70067,2,0,L|26:294,1,89.999997253418,8|4,0:0|0:3,0:0:0:0:
55,218,70292,1,4,0:3:0:0:
55,217,70367,2,0,P|98:205|142:211,1,89.999997253418,6|2,0:3|0:0,0:0:0:0:
432,83,70667,2,0,P|388:94|344:88,1,89.999997253418,8|8,0:0|0:3,0:0:0:0:
271,53,70892,1,8,0:3:0:0:
271,53,70967,6,0,P|226:46|183:58,1,89.999997253418,10|2,0:3|0:0,0:0:0:0:
142,211,71267,2,0,L|148:300,1,89.999997253418,8|2,0:0|0:0,0:0:0:0:
394,320,71567,2,0,P|404:276|389:234,1,89.999997253418,0|2,0:0|0:0,0:0:0:0:
163,191,71867,2,0,L|166:235,1,44.999998626709,8|8,0:0|0:0,0:0:0:0:
274,357,72017,2,0,L|277:312,1,44.999998626709,8|8,0:0|0:0,0:0:0:0:
331,167,72167,6,0,B|372:197|372:197|499:177,1,179.999994506836,4|8,0:0|0:0,0:0:0:0:
291,52,72617,1,2,0:0:0:0:
468,8,72767,2,0,P|458:52|450:96,1,89.999997253418,0|2,0:0|0:0,0:0:0:0:
257,222,73067,2,0,P|248:177|239:133,1,89.999997253418,8|2,0:0|0:0,0:0:0:0:
95,12,73367,6,0,P|42:82|49:170,1,179.999994506836,0|8,0:0|0:0,0:0:0:0:
145,342,73817,1,2,0:0:0:0:
257,222,73967,2,0,P|212:230|168:239,1,89.999997253418,0|2,0:0|0:0,0:0:0:0:
402,335,74267,2,0,P|409:291|397:248,1,89.999997253418,8|2,0:0|0:0,0:0:0:0:
267,93,74567,6,0,P|355:111|443:128,1,179.999994506836,0|8,0:0|0:0,0:0:0:0:
402,335,75017,1,2,0:0:0:0:
168,239,75167,2,0,P|160:194|172:151,1,89.999997253418,0|2,0:0|0:0,0:0:0:0:
284,332,75467,2,0,L|194:342,1,89.999997253418,8|2,0:0|0:0,0:0:0:0:
14,203,75767,6,0,P|99:184|168:239,1,179.999994506836,6|12,0:0|0:0,0:0:0:0:
321,103,76217,1,0,0:0:0:0:
66,55,76367,2,0,P|73:99|82:143,1,89.999997253418,6|0,0:0|0:0,0:0:0:0:
297,244,76667,2,0,P|301:222|303:199,1,44.999998626709,8|8,0:0|0:0,0:0:0:0:
201,58,76817,2,0,P|196:79|194:102,1,44.999998626709,8|8,0:0|0:0,0:0:0:0:
393,170,76967,6,0,L|482:162,1,89.999997253418,4|2,0:0|0:0,0:0:0:0:
284,332,77267,2,0,L|195:324,1,89.999997253418,8|2,0:0|0:0,0:0:0:0:
430,271,77567,2,0,P|439:314|432:359,1,89.999997253418,0|2,0:0|0:0,0:0:0:0:
245,192,77867,2,0,P|235:148|242:103,1,89.999997253418,8|2,0:0|0:0,0:0:0:0:
496,16,78167,6,0,P|427:69|338:66,1,179.999994506836,0|8,0:0|0:0,0:0:0:0:
136,188,78617,1,2,0:0:0:0:
350,283,78767,2,0,P|359:238|369:195,1,89.999997253418,0|2,0:0|0:0,0:0:0:0:
223,11,79067,2,0,P|213:55|203:98,1,89.999997253418,8|2,0:0|0:0,0:0:0:0:
85,356,79367,5,6,0:0:0:0:
268,286,79517,1,2,0:0:0:0:
66,233,79667,2,0,L|74:322,1,89.999997253418,8|4,0:3|0:3,0:0:0:0:
185,222,79967,1,6,0:0:0:0:
2,152,80117,1,2,0:0:0:0:
204,99,80267,2,0,L|195:188,1,89.999997253418,8|4,0:3|0:3,0:0:0:0:
97,47,80567,5,6,0:0:0:0:
185,222,80717,1,2,0:0:0:0:
361,44,80867,2,0,P|321:24|277:32,1,89.999997253418,12|2,0:0|0:0,0:0:0:0:
342,279,81167,2,0,L|346:323,3,44.999998626709,8|8|8|8,0:0|0:0|0:0|0:0,0:0:0:0:
390,202,81467,2,0,L|394:157,3,44.999998626709,8|8|8|8,0:0|0:0|0:0|0:0,0:0:0:0:
427,278,81767,6,0,P|468:292|512:283,1,89.999997253418,12|2,0:0|0:0,0:0:0:0:
270,227,82067,2,0,P|228:212|184:221,1,89.999997253418,8|2,0:0|0:0,0:0:0:0:
34,383,82367,2,0,B|48:271|-1:320|11:207,1,179.999994506836,12|12,0:0|0:0,0:0:0:0:
259,26,82967,6,0,P|264:70|262:115,1,89.999997253418,8|2,0:0|0:0,0:0:0:0:
58,97,83267,2,0,P|93:69|133:48,1,89.999997253418,8|2,0:0|0:0,0:0:0:0:
360,202,83567,2,0,P|273:225|183:221,1,179.999994506836,12|12,0:0|0:0,0:0:0:0:
463,360,84167,6,0,P|480:319|500:279,1,89.999997253418,8|2,0:0|0:0,0:0:0:0:
322,120,84467,2,0,P|341:160|359:201,1,89.999997253418,8|2,0:0|0:0,0:0:0:0:
503,34,84767,2,0,B|454:3|392:32|392:32|365:26|365:26|330:34,1,179.999994506836,12|12,0:0|0:0,0:0:0:0:
17,143,85367,6,0,P|17:98|8:54,1,89.999997253418,8|2,0:0|0:0,0:0:0:0:
95,238,85667,2,0,P|118:199|132:156,1,89.999997253418,8|2,0:0|0:0,0:0:0:0:
47,369,85967,1,12,0:0:0:0:
47,369,86267,2,0,L|91:363,3,44.999998626709,8|8|10|8,0:0|0:0|0:0|0:0,0:0:0:0:
105,356,86567,6,0,L|15:345,1,89.999997253418,12|2,0:0|0:0,0:0:0:0:
212,182,86867,1,8,0:0:0:0:
286,361,87017,1,2,0:0:0:0:
89,126,87167,1,12,0:0:0:0:
377,104,87317,1,0,0:0:0:0:
59,136,87467,2,0,P|50:179|64:221,1,89.999997253418,12|0,0:0|0:0,0:0:0:0:
331,274,87767,6,0,P|340:230|326:188,1,89.999997253418,8|2,0:0|0:0,0:0:0:0:
195,320,88067,1,8,0:0:0:0:
491,297,88217,1,2,0:0:0:0:
261,110,88367,1,12,0:0:0:0:
325,382,88517,1,0,0:0:0:0:
254,91,88667,2,0,L|164:100,1,89.999997253418,12|0,0:0|0:0,0:0:0:0:
331,274,88967,6,0,L|420:264,1,89.999997253418,8|2,0:0|0:0,0:0:0:0:
231,360,89267,1,8,0:0:0:0:
254,91,89417,1,2,0:0:0:0:
441,279,89567,1,12,0:0:0:0:
151,210,89717,1,0,0:0:0:0:
462,294,89867,2,0,B|489:264|489:264|482:214,1,89.999997253418,12|0,0:0|0:0,0:0:0:0:
256,7,90167,6,0,P|240:48|254:91,1,89.999997253418,8|2,0:0|0:0,0:0:0:0:
468,188,90467,1,8,0:0:0:0:
175,293,90617,1,2,0:0:0:0:
361,366,90767,2,0,L|364:276,1,89.999997253418,12|0,0:0|0:0,0:0:0:0:
134,94,91067,2,0,L|137:183,1,89.999997253418,12|0,0:0|0:0,0:0:0:0:
109,363,91367,6,0,L|59:358,1,50,0|0,0:0|0:0,0:0:0:0:
146,280,91667,2,0,L|96:275,1,50,2|0,0:0|0:0,0:0:0:0:
235,372,91967,2,0,P|249:324|258:274,1,99.9999999999999,2|2,0:0|0:0,0:0:0:0:
14,15,92867,6,0,L|16:39,1,25,8|0,0:0|0:0,0:0:0:0:
