osu file format v14

[General]
AudioFilename: audio.mp3
AudioLeadIn: 0
PreviewTime: 56893
Countdown: 1
SampleSet: Soft
StackLeniency: 0.7
Mode: 0
LetterboxInBreaks: 0
WidescreenStoryboard: 0

[Editor]
Bookmarks: 65281,110676,146597
DistanceSpacing: 1.2
BeatDivisor: 4
GridSize: 4
TimelineZoom: 2.799999

[Metadata]
Title:Alien Alien
TitleUnicode:エイリアンエイリアン
Artist:NayutalieN ft. Hatsune Miku
ArtistUnicode:ナユタン星人feat.初音ミク
Creator:Cyron
Version:ALIEN
Source:
Tags:
BeatmapID:1560177
BeatmapSetID:739375

[Difficulty]
HPDrainRate:2
CircleSize:4
OverallDifficulty:8.5
ApproachRate:9.4
SliderMultiplier:2.5
SliderTickRate:1

[Events]
//Background and Video events
0,0,"hatsune_miku_by_jaezx-db69wqt.jpg",0,0
//Break Periods
2,126271,138557
//Storyboard Layer 0 (Background)
//Storyboard Layer 1 (Fail)
//Storyboard Layer 2 (Pass)
//Storyboard Layer 3 (Foreground)
//Storyboard Sound Samples

[TimingPoints]
150,394.736842105263,4,2,0,100,1,0
6465,-100,4,2,1,60,0,0
18603,-100,4,2,2,60,0,0
31728,-100,4,2,1,60,0,0
38044,-100,4,2,2,60,0,0
50676,-71.4285714285714,4,2,2,60,0,0
51465,-62.5,4,2,2,60,0,0
52255,-55.5555555555556,4,2,2,60,0,0
53044,-50,4,2,2,60,0,0
53834,-100,4,2,1,60,0,0
56992,-71.4285714285714,4,2,1,60,0,1
63307,-71.4285714285714,4,2,1,60,0,1
64886,-55.5555555555556,4,2,1,60,0,1
65676,-62.5,4,2,1,60,0,1
66465,-71.4285714285714,4,2,1,60,0,1
69623,-71.4285714285714,4,2,1,60,0,1
77518,-62.5,4,2,1,60,0,1
78307,-50,4,2,1,60,0,1
79097,-71.4285714285714,4,2,1,60,0,1
82255,-100,4,2,1,60,0,0
94886,-83.3333333333333,4,2,2,60,0,0
107518,-100,4,2,2,60,0,0
120149,-42,4,2,1,60,0,0
121728,-39,4,2,1,60,0,0
122123,-35,4,2,1,60,0,0
123307,-50,4,2,1,60,0,0
139097,-71.4285714285714,4,2,1,60,0,1
146992,-55.5555555555556,4,2,1,60,0,1
147781,-62.5,4,2,1,60,0,1
148571,-71.4285714285714,4,2,1,60,0,1
151728,-62.5,4,2,1,60,0,1
159623,-50,4,2,1,60,0,1
160413,-55.5555555555556,4,2,1,60,0,1
161202,-62.5,4,2,1,60,0,1
164360,-83.3333333333333,4,2,1,60,0,0
170676,-100,4,2,1,60,0,0

[HitObjects]
64,56,6465,6,0,B|56:93|56:93|64:148,1,62.5,6|0,0:0|0:0,0:0:0:0:
136,164,6663,2,0,P|130:197|147:242,1,62.5,2|0,0:0|0:0,0:0:0:0:
224,212,6860,2,4,L|255:294,1,62.5,10|0,0:0|0:0,0:0:0:0:
328,236,7057,1,2,0:0:0:0:
321,98,7255,6,6,B|281:102|281:102|217:86,1,62.5,6|0,0:0|0:0,0:0:0:0:
184,144,7452,2,0,P|135:145|82:174,1,62.5,2|0,0:0|0:0,0:0:0:0:
132,236,7649,2,0,P|96:268|36:276,1,62.5,10|0,0:0|0:0,0:0:0:0:
108,360,7847,1,2,0:0:0:0:
496,308,8044,6,0,P|460:320|404:316,1,62.5,6|0,0:0|0:0,0:0:0:0:
260,284,8242,2,0,P|300:276|340:280,1,62.5,2|0,0:0|0:0,0:0:0:0:
440,96,8439,2,2,L|448:252,1,125,10|2,0:0|0:0,0:0:0:0:
304,192,8735,1,0,0:0:0:0:
212,88,8834,2,2,P|276:64|364:84,1,125,6|2,0:0|0:0,0:0:0:0:
304,192,9130,1,0,0:0:0:0:
180,272,9228,2,2,P|156:208|176:120,1,125,10|2,0:0|0:0,0:0:0:0:
428,40,9623,6,0,P|432:84|412:132,1,62.5,6|0,0:0|0:0,0:0:0:0:
344,136,9821,2,0,B|354:170|354:170|372:202,1,62.5,2|0,0:0|0:0,0:0:0:0:
300,252,10018,2,0,P|351:304|448:278,1,125,10|2,2:0|2:0,2:0:0:0:
148,324,10413,6,0,B|184:320|184:320|244:340,1,62.5,6|0,0:0|0:0,0:0:0:0:
68,280,10610,2,2,P|100:252|148:240,1,62.5,2|0,0:0|0:0,0:0:0:0:
12,208,10807,2,2,P|48:125|116:80,1,125,10|2,0:0|0:0,0:0:0:0:
476,64,11202,6,0,L|351:57,1,125,6|2,0:0|0:0,0:0:0:0:
224,60,11498,1,0,0:0:0:0:
140,152,11597,2,2,P|192:176|264:158,1,125,10|2,0:0|0:0,0:0:0:0:
380,184,11893,1,0,0:0:0:0:
432,296,11992,2,2,B|360:284|360:284|284:292,1,125,6|2,0:0|0:0,0:0:0:0:
200,316,12288,1,0,0:0:0:0:
104,288,12386,5,8,0:0:0:0:
56,212,12485,1,8,0:0:0:0:
68,124,12584,1,8,0:0:0:0:
132,68,12682,1,8,0:0:0:0:
212,36,12781,6,0,B|220:76|220:76|240:124,1,62.5,6|0,0:0|0:0,0:0:0:0:
316,88,12978,2,0,P|312:136|284:188,1,62.5,2|0,0:0|0:0,0:0:0:0:
392,176,13176,2,0,B|368:208|368:208|321:252,1,62.5,10|0,0:0|0:0,0:0:0:0:
428,268,13373,1,2,0:0:0:0:
304,348,13571,6,0,P|328:316|332:244,1,62.5,6|0,0:0|0:0,0:0:0:0:
184,312,13768,2,0,B|224:304|224:304|272:268,1,62.5,2|0,0:0|0:0,0:0:0:0:
100,232,13965,2,0,L|212:232,1,62.5,10|0,0:0|0:0,0:0:0:0:
80,144,14163,1,2,0:0:0:0:
220,56,14360,6,0,B|240:76|240:76|272:92,1,62.5,6|0,0:0|0:0,0:0:0:0:
452,80,14557,2,0,B|432:60|432:60|400:44,1,62.5,2|0,0:0|0:0,0:0:0:0:
368,272,14755,2,0,L|376:116,1,125,10|2,0:0|0:0,0:0:0:0:
248,188,15051,1,0,0:0:0:0:
156,292,15149,2,2,P|220:316|308:296,1,125,6|2,0:0|0:0,0:0:0:0:
248,188,15446,1,0,0:0:0:0:
172,88,15544,2,2,P|120:160|140:248,1,125,10|2,0:0|0:0,0:0:0:0:
420,44,15939,6,0,P|424:88|404:136,1,62.5,6|0,0:0|0:0,0:0:0:0:
320,96,16137,2,0,B|322:132|322:132|346:184,1,62.5,2|0,0:0|0:0,0:0:0:0:
232,168,16334,2,0,P|289:238|361:243,1,125,10|0,0:0|0:0,0:0:0:0:
8,288,16728,6,0,P|8:328|-8:364,1,62.5,6|0,0:0|0:0,0:0:0:0:
56,200,16926,2,0,B|72:232|72:232|88:270,1,62.5,2|0,0:0|0:0,0:0:0:0:
48,92,17123,2,0,P|140:140|164:188,1,125,10|0,0:0|0:0,0:0:0:0:
300,204,17518,5,2,0:0:0:0:
56,200,17715,1,2,0:0:0:0:
168,12,17913,1,2,0:0:0:0:
372,280,18110,5,2,0:0:0:0:
128,276,18307,1,2,0:0:0:0:
240,88,18505,1,2,0:0:0:0:
324,36,18603,5,2,0:0:0:0:
412,48,18702,1,2,0:0:0:0:
464,120,18801,1,2,0:0:0:0:
440,204,18899,1,2,0:0:0:0:
356,224,18998,1,2,0:0:0:0:
272,224,19097,6,0,P|412:252|488:216,1,187.5,4|0,0:0|0:0,0:0:0:0:
188,248,19492,1,8,0:0:0:0:
64,124,19689,1,0,0:0:0:0:
68,104,19886,2,0,P|130:107|200:88,1,125,4|0,0:0|0:0,0:0:0:0:
232,60,20182,2,0,P|202:50|170:50,1,62.5,0|8,0:0|0:0,0:0:0:0:
372,56,20478,6,0,P|336:76|276:64,1,62.5,0|0,0:0|0:0,0:0:0:0:
464,24,20676,2,0,P|440:108|380:140,1,125,4|0,0:0|0:0,0:0:0:0:
432,248,20972,1,0,0:0:0:0:
340,280,21071,2,0,P|404:340|492:344,1,125,8|0,0:0|0:0,0:0:0:0:
196,288,21367,6,0,P|224:292|268:320,1,62.5,0|4,0:0|0:0,0:0:0:0:
96,352,21564,2,0,B|132:344|132:344|174:353,1,62.5,0|4,0:0|0:0,0:0:0:0:
40,244,21860,2,0,L|24:348,1,62.5,8|0,0:0|0:0,0:0:0:0:
60,104,22057,2,0,L|44:208,1,62.5,4|0,0:0|0:0,0:0:0:0:
320,80,22255,6,0,P|180:52|104:88,1,187.5,4|0,0:0|0:0,0:0:0:0:
400,60,22650,1,8,0:0:0:0:
248,168,22847,2,0,P|304:196|400:156,1,125,0|4,0:0|0:0,0:0:0:0:
440,280,23242,1,0,0:0:0:0:
440,280,23340,1,0,0:0:0:0:
440,280,23439,1,8,0:0:0:0:
248,292,23636,6,0,P|272:312|340:324,1,62.5,0|0,0:0|0:0,0:0:0:0:
148,232,23834,2,0,P|160:328|208:372,1,125,4|0,0:0|0:0,0:0:0:0:
232,212,24130,1,0,0:0:0:0:
172,116,24228,2,0,P|268:140|312:188,1,125,8|0,0:0|0:0,0:0:0:0:
364,112,24524,6,0,B|375:145|375:145|375:199,1,62.5,0|4,0:0|0:0,0:0:0:0:
460,168,24722,2,0,P|440:232|416:248,1,62.5,0|4,0:0|0:0,0:0:0:0:
500,296,24919,1,0,0:0:0:0:
424,340,25018,2,0,L|284:348,1,125,8|0,0:0|0:0,0:0:0:0:
168,316,25314,1,0,0:0:0:0:
80,236,25413,6,0,P|171:220|258:252,1,187.5,4|0,0:0|0:0,0:0:0:0:
52,156,25807,1,8,0:0:0:0:
128,68,26005,1,0,0:0:0:0:
144,88,26202,2,0,P|204:100|264:83,1,125,4|0,0:0|0:0,0:0:0:0:
304,56,26498,2,0,P|264:44|216:64,1,62.5,0|8,0:0|0:0,0:0:0:0:
160,228,26794,6,0,P|188:240|248:224,1,62.5
72,192,26992,2,0,P|100:295|136:314,1,125,4|0,0:0|0:0,0:0:0:0:
288,336,27288,1,0,0:0:0:0:
420,316,27386,2,0,L|375:199,1,125,8|0,0:0|0:0,0:0:0:0:
248,108,27682,6,0,P|284:100|328:108,1,62.5,0|4,0:0|0:0,0:0:0:0:
152,104,27880,2,0,B|168:68|168:68|200:32,1,62.5,0|4,0:0|0:0,0:0:0:0:
64,92,28077,1,0,0:0:0:0:
16,232,28176,2,0,P|88:224|144:176,1,125,8|0,0:0|0:0,0:0:0:0:
328,228,28472,1,0,0:0:0:0:
420,316,28571,6,0,B|400:308|376:308|352:316|352:316|316:316|264:300,1,125,4|0,0:0|0:0,0:0:0:0:
129,226,28965,6,0,B|149:218|173:218|193:206|193:206|233:226|285:210,1,125,4|0,0:0|0:0,0:0:0:0:
476,160,29360,2,0,B|448:164|432:160|432:160|404:148|372:160|372:160|308:156,1,125,4|0,0:0|0:0,0:0:0:0:
36,64,29755,2,0,B|104:76|104:76|196:60,1,125,4|0,0:0|0:0,0:0:0:0:
452,36,30149,1,4,0:0:0:0:
500,228,30347,6,0,P|456:236|408:220,1,62.5,0|0,0:0|0:0,0:0:0:0:
300,140,30544,2,0,P|364:124|460:152,1,125,8|0,0:0|0:0,0:0:0:0:
452,36,30939,1,4,0:0:0:0:
452,36,31038,1,4,0:0:0:0:
452,36,31136,1,4,0:0:0:0:
288,32,31334,5,8,0:0:0:0:
200,40,31432,1,8,0:0:0:0:
120,80,31531,1,8,0:0:0:0:
80,156,31630,1,8,0:0:0:0:
56,240,31728,6,0,P|92:248|156:224,1,62.5,6|0,0:0|0:0,0:0:0:0:
164,320,31926,2,0,B|196:296|196:296|208:256,1,62.5,2|0,0:0|0:0,0:0:0:0:
296,316,32123,2,0,P|300:272|284:216,1,62.5,10|0,0:0|0:0,0:0:0:0:
400,276,32320,1,2,0:0:0:0:
480,76,32518,6,0,P|452:96|436:132,1,62.5,6|0,0:0|0:0,0:0:0:0:
356,20,32715,2,0,B|346:60|346:60|354:120,1,62.5,2|0,0:0|0:0,0:0:0:0:
236,8,32913,2,0,P|243:39|270:68,1,62.5,10|0,0:0|0:0,0:0:0:0:
132,44,33110,1,2,0:0:0:0:
295,258,33307,6,0,B|295:223|295:223|284:197,1,62.5,6|0,0:0|0:0,0:0:0:0:
33,287,33505,2,0,B|32:320|32:320|44:348,1,62.5,2|0,0:0|0:0,0:0:0:0:
336,340,33702,2,0,L|184:340,1,125,10|2,0:0|0:0,0:0:0:0:
285,198,33998,1,0,0:0:0:0:
384,72,34097,2,2,P|418:131|460:203,1,125,6|2,0:0|0:0,0:0:0:0:
285,198,34393,1,0,0:0:0:0:
120,180,34492,2,2,L|195:48,1,125,10|2,0:0|0:0,0:0:0:0:
72,344,34886,6,0,P|104:332|156:344,1,62.5,6|0,0:0|0:0,0:0:0:0:
164,244,35084,2,0,B|188:256|188:256|212:288,1,62.5,2|0,0:0|0:0,0:0:0:0:
284,208,35281,2,2,P|304:284|288:372,1,125,8|0,0:0|0:0,0:0:0:0:
512,128,35676,6,0,P|492:165|459:191,1,62.5,6|0,0:0|0:0,0:0:0:0:
416,112,35873,2,0,B|377:123|377:123|331:123,1,62.5,2|0,0:0|0:0,0:0:0:0:
364,32,36071,2,2,P|284:28|232:-4,1,125,10|2,0:0|0:0,0:0:0:0:
0,104,36465,6,0,P|40:104|92:84,1,62.5,6|0,0:0|0:0,0:0:0:0:
96,176,36663,2,0,B|128:152|128:152|152:116,1,62.5,2|0,0:0|0:0,0:0:0:0:
212,184,36860,2,2,P|216:76|188:20,1,125,10|2,0:0|0:0,0:0:0:0:
64,248,37255,2,0,P|116:252|168:232,1,62.5,6|0,0:0|0:0,0:0:0:0:
132,156,37452,6,0,L|212:168,1,62.5,6|0,0:0|0:0,0:0:0:0:
172,136,37649,2,0,L|232:172,1,62.5,6|0,0:0|0:0,0:0:0:0:
216,128,37847,2,0,L|264:208,1,62.5,6|0,0:0|0:0,0:0:0:0:
264,140,38044,6,0,B|276:184|264:232|264:232|244:288|280:356,1,187.5,4|0,0:0|0:0,0:0:0:0:
340,116,38439,1,8,0:0:0:0:
152,212,38636,1,0,0:0:0:0:
392,344,38833,2,0,P|280:356|236:328,1,125,4|0,0:0|0:0,0:0:0:0:
240,320,39129,2,0,P|272:312|301:318,1,62.5,0|8,0:0|0:0,0:0:0:0:
444,240,39426,6,0,P|417:222|387:218,1,62.5
412,128,39623,2,0,P|320:156|300:204,1,125,4|0,0:0|0:0,0:0:0:0:
224,48,39919,1,0,0:0:0:0:
112,92,40018,2,0,L|240:128,1,125,8|0,0:0|0:0,0:0:0:0:
200,216,40314,6,0,P|225:247|230:272,1,62.5,0|4,0:0|0:0,0:0:0:0:
308,296,40511,2,0,B|299:330|299:330|252:374,1,62.5,0|4,0:0|0:0,0:0:0:0:
432,228,40807,2,0,L|420:323,1,62.5,12|0,0:0|0:0,0:0:0:0:
450,84,41005,2,0,L|438:179,1,62.5,4|0,0:0|0:0,0:0:0:0:
368,64,41202,6,0,B|324:76|276:64|276:64|220:44|152:80,1,187.5,4|0,0:0|0:0,0:0:0:0:
376,136,41596,1,8,0:0:0:0:
104,160,41794,2,0,P|168:188|256:144,1,125,0|4,0:0|0:0,0:0:0:0:
236,288,42189,1,0,0:0:0:0:
236,288,42287,1,0,0:0:0:0:
236,288,42386,1,8,0:0:0:0:
396,180,42583,6,0,P|352:192|292:184,1,62.5
496,164,42781,2,0,P|452:252|392:276,1,125,4|0,0:0|0:0,0:0:0:0:
304,300,43077,1,0,0:0:0:0:
224,252,43176,2,0,L|80:304,1,125,8|0,0:0|0:0,0:0:0:0:
72,180,43471,1,0,0:0:0:0:
112,104,43570,6,0,P|147:129|168:172,1,62.5,4|0,0:0|0:0,0:0:0:0:
236,84,43768,2,0,B|248:117|248:117|245:153,1,62.5,4|0,0:0|0:0,0:0:0:0:
340,72,43965,2,0,P|336:160|292:228,1,125,8|8,0:0|0:0,0:0:0:0:
248,268,44261,1,8,0:0:0:0:
312,344,44360,6,0,B|356:356|404:344|404:344|460:324|528:360,1,187.5,4|0,0:0|0:0,0:0:0:0:
356,272,44755,1,8,0:0:0:0:
60,296,44952,1,0,0:0:0:0:
256,136,45149,2,0,P|192:156|128:136,1,125,4|0,0:0|0:0,0:0:0:0:
100,108,45445,2,0,P|128:100|171:114,1,62.5,0|8,0:0|0:0,0:0:0:0:
96,264,45742,6,0,P|108:308|156:332,1,62.5,0|0,0:0|0:0,0:0:0:0:
200,268,45939,2,0,P|300:284|368:248,1,125,4|0,0:0|0:0,0:0:0:0:
384,128,46235,1,0,0:0:0:0:
464,36,46334,2,0,L|480:196,1,125,8|0,0:0|0:0,0:0:0:0:
428,265,46629,2,0,P|456:277|508:265,1,62.5,0|4,0:0|0:0,0:0:0:0:
320,277,46827,2,0,P|331:305|376:333,1,62.5,0|4,0:0|0:0,0:0:0:0:
232,272,47024,1,0,0:0:0:0:
220,264,47123,2,0,P|140:264|92:304,1,125,8|0,0:0|0:0,0:0:0:0:
60,172,47419,1,0,0:0:0:0:
56,60,47518,6,0,B|100:68|100:68|124:64|160:64|160:64|220:72,1,125,4|0,0:0|0:0,0:0:0:0:
384,128,47913,2,0,B|344:128|344:128|316:120|280:132|280:132|220:140,1,125,4|0,0:0|0:0,0:0:0:0:
24,224,48307,2,0,B|64:224|92:216|92:216|124:232|188:236,1,125,4|0,0:0|0:0,0:0:0:0:
512,308,48702,2,0,B|444:304|444:304|348:320,1,125,4|0,0:0|0:0,0:0:0:0:
72,320,49097,1,4,0:0:0:0:
100,128,49294,6,0,L|44:220,1,62.5,8|0,0:0|0:0,0:0:0:0:
236,132,49492,2,0,P|192:140|144:172,1,62.5,8|0,0:0|0:0,0:0:0:0:
324,212,49689,2,0,B|284:200|284:200|236:204,1,62.5,8|0,0:0|0:0,0:0:0:0:
316,300,49886,1,4,0:0:0:0:
388,320,49985,1,4,0:0:0:0:
452,280,50084,1,4,0:0:0:0:
432,104,50281,5,8,0:0:0:0:
344,92,50380,1,8,0:0:0:0:
256,104,50478,1,8,0:0:0:0:
196,168,50577,1,8,0:0:0:0:
104,244,50676,6,0,L|296:244,1,174.999994659424,8|0,0:0|0:0,0:0:0:0:
408,144,51071,2,0,L|224:144,1,174.999994659424,8|0,0:0|0:0,0:0:0:0:
64,300,51465,2,0,L|264:300,1,200,8|0,0:0|0:0,0:0:0:0:
452,88,51860,2,0,L|252:88,1,200,8|0,0:0|0:0,0:0:0:0:
176,40,52255,6,0,L|176:292,1,224.999993133545,8|0,0:0|0:0,0:0:0:0:
336,348,52649,2,0,L|336:123,1,224.999993133545,8|0,0:0|0:0,0:0:0:0:
116,0,53044,2,0,L|116:256,1,250,8|0,0:0|0:0,0:0:0:0:
392,384,53439,2,0,L|392:128,1,250,8|0,0:0|0:0,0:0:0:0:
160,160,53834,6,0,L|256:176,1,62.5,2|0,0:0|0:0,0:0:0:0:
344,236,54031,2,0,L|248:220,1,62.5,2|0,0:0|0:0,0:0:0:0:
136,112,54228,6,0,L|224:152,1,62.5,2|0,0:0|0:0,0:0:0:0:
360,276,54426,2,0,L|271:235,1,62.5,2|0,0:0|0:0,0:0:0:0:
128,52,54623,6,0,L|203:113,1,62.5,2|0,0:0|0:0,0:0:0:0:
372,332,54821,2,0,L|296:270,1,62.5,2|0,0:0|0:0,0:0:0:0:
140,0,55018,6,0,L|196:79,1,62.5,2|0,0:0|0:0,0:0:0:0:
360,384,55215,2,0,L|303:304,1,62.5,2|0,0:0|0:0,0:0:0:0:
416,88,55413,5,8,0:0:0:0:
456,172,55511,1,8,0:0:0:0:
396,244,55610,1,8,0:0:0:0:
304,232,55709,1,8,0:0:0:0:
268,148,55807,1,8,0:0:0:0:
188,100,55906,1,8,0:0:0:0:
100,136,56005,1,8,0:0:0:0:
76,228,56103,1,8,0:0:0:0:
120,312,56202,1,8,0:0:0:0:
264,60,56399,1,0,0:0:0:0:
264,60,56498,1,0,0:0:0:0:
264,60,56597,1,0,0:0:0:0:
40,16,56992,6,2,P|32:144|76:208,1,174.999994659424,6|2,0:0|0:0,0:0:0:0:
167,213,57288,1,0,0:0:0:0:
264,188,57386,2,2,P|387:252|400:351,1,174.999994659424,10|2,0:0|0:0,0:0:0:0:
288,344,57682,1,0,0:0:0:0:
191,351,57781,2,2,P|207:239|151:211,1,174.999994659424,4|2,0:0|0:0,0:0:0:0:
128,88,58077,1,0,0:0:0:0:
200,40,58176,2,2,L|380:64,1,174.999994659424,10|2,0:0|0:0,0:0:0:0:
464,132,58571,5,6,0:0:0:0:
468,220,58669,1,0,0:0:0:0:
404,280,58768,1,2,0:0:0:0:
320,256,58867,1,0,0:0:0:0:
292,172,58965,1,10,0:0:0:0:
224,116,59064,1,0,0:0:0:0:
136,132,59163,1,2,0:0:0:0:
88,204,59261,1,0,0:0:0:0:
108,288,59360,2,2,P|192:310|278:299,1,174.999994659424,6|2,0:0|0:0,0:0:0:0:
324,260,59656,2,0,P|276:252|220:268,1,87.499997329712,2|8,0:0|0:0,0:0:0:0:
404,40,59952,5,2,0:0:0:0:
452,112,60051,1,0,0:0:0:0:
424,196,60149,2,2,P|400:284|452:384,1,174.999994659424,6|2,0:0|0:0,0:0:0:0:
320,284,60446,1,0,0:0:0:0:
292,184,60544,2,0,P|264:224|211:254,1,87.499997329712,10|0,0:0|0:0,0:0:0:0:
224,68,60742,2,0,P|220:120|194:171,1,87.499997329712,2|0,0:0|0:0,0:0:0:0:
92,12,60939,2,2,P|126:116|77:189,1,174.999994659424,6|2,0:0|0:0,0:0:0:0:
160,236,61235,1,0,0:0:0:0:
128,332,61334,2,2,P|242:315|317:357,1,174.999994659424,10|2,0:0|0:0,0:0:0:0:
380,336,61728,5,6,0:0:0:0:
464,304,61827,1,0,0:0:0:0:
500,224,61926,1,2,0:0:0:0:
456,148,62024,1,0,0:0:0:0:
368,148,62123,1,10,0:0:0:0:
288,188,62222,1,0,0:0:0:0:
208,152,62321,1,2,0:0:0:0:
196,64,62419,1,0,0:0:0:0:
268,16,62518,2,2,P|332:0|444:28,1,174.999994659424,6|2,0:0|0:0,0:0:0:0:
348,80,62913,5,8,0:0:0:0:
244,116,63011,1,8,0:0:0:0:
148,76,63110,1,8,0:0:0:0:
52,120,63209,1,8,0:0:0:0:
56,220,63307,6,2,P|160:292|248:260,1,174.999994659424,6|2,0:0|0:0,0:0:0:0:
340,264,63603,1,0,0:0:0:0:
360,164,63702,2,2,B|308:192|268:176|268:176|216:156|156:196,1,174.999994659424,10|2,0:0|0:0,0:0:0:0:
172,40,63998,1,0,0:0:0:0:
58,36,64097,2,2,P|95:112|72:195,1,174.999994659424,4|0,0:0|0:0,0:0:0:0:
232,240,64393,1,0,0:0:0:0:
360,164,64492,2,2,L|384:337,1,174.999994659424,10|2,0:0|0:0,0:0:0:0:
52,104,64886,6,0,L|48:216,1,112.499996566773,6|0,0:0|0:0,0:0:0:0:
60,216,65084,2,0,L|56:328,1,112.499996566773,2|0,0:0|0:0,0:0:0:0:
456,328,65281,6,0,L|452:216,1,112.499996566773,10|0,0:0|0:0,0:0:0:0:
464,216,65479,2,0,L|460:104,1,112.499996566773,2|0,0:0|0:0,0:0:0:0:
380,56,65676,6,2,P|216:56|168:28,1,200,4|0,0:0|0:0,0:0:0:0:
188,200,65972,1,0,0:0:0:0:
124,284,66071,2,2,P|288:284|336:256,1,200,10|2,0:0|0:0,0:0:0:0:
448,240,66367,5,0,0:0:0:0:
436,340,66465,2,2,L|224:372,1,174.999994659424,6|2,0:0|0:0,0:0:0:0:
88,284,66761,1,0,0:0:0:0:
72,172,66860,2,0,P|116:200|196:212,1,87.499997329712,10|0,0:0|0:0,0:0:0:0:
104,32,67057,2,0,P|119:82|181:134,1,87.499997329712,2|0,0:0|0:0,0:0:0:0:
240,20,67255,2,0,P|244:140|296:188,1,174.999994659424,4|0,0:0|0:0,0:0:0:0:
420,208,67551,1,0,0:0:0:0:
444,308,67649,2,2,P|308:292|264:344,1,174.999994659424,10|2,0:0|0:0,0:0:0:0:
240,336,67946,2,0,P|280:352|348:332,1,87.499997329712,2|4,0:0|0:0,0:0:0:0:
56,56,68242,5,8,0:0:0:0:
472,128,68439,1,8,0:0:0:0:
488,132,68834,5,8,0:0:0:0:
0,284,69031,1,8,0:0:0:0:
128,336,69228,5,8,0:0:0:0:
232,348,69327,1,8,0:0:0:0:
332,316,69426,1,8,0:0:0:0:
400,236,69524,1,8,0:0:0:0:
420,132,69623,6,2,P|276:120|224:156,1,174.999994659424,6|2,0:0|0:0,0:0:0:0:
120,72,69919,1,0,0:0:0:0:
24,104,70017,2,2,P|147:168|208:156,1,174.999994659424,10|2,0:0|0:0,0:0:0:0:
348,212,70313,1,0,0:0:0:0:
408,284,70413,2,2,P|325:308|242:284,1,174.999994659424,6|2,0:0|0:0,0:0:0:0:
120,244,70708,1,0,0:0:0:0:
28,300,70807,2,2,L|208:324,1,174.999994659424,10|2,0:0|0:0,0:0:0:0:
292,336,71202,5,6,0:0:0:0:
364,284,71300,1,0,0:0:0:0:
392,200,71399,1,2,0:0:0:0:
360,120,71498,1,0,0:0:0:0:
276,104,71597,1,10,0:0:0:0:
192,128,71695,1,0,0:0:0:0:
116,80,71794,1,2,0:0:0:0:
32,104,71892,1,0,0:0:0:0:
0,184,71992,2,2,P|80:228|168:212,1,174.999994659424,6|2,0:0|0:0,0:0:0:0:
212,188,72287,2,0,P|164:172|112:192,1,87.499997329712,2|8,0:0|0:0,0:0:0:0:
28,348,72583,5,2,0:0:0:0:
120,316,72682,1,0,0:0:0:0:
208,352,72781,2,2,P|324:360|404:296,1,174.999994659424,6|2,0:0|0:0,0:0:0:0:
400,212,73077,1,0,0:0:0:0:
328,164,73176,2,0,P|316:208|328:264,1,87.499997329712,10|0,0:0|0:0,0:0:0:0:
296,84,73373,2,0,P|259:115|242:185,1,87.499997329712,2|0,0:0|0:0,0:0:0:0:
324,0,73571,2,2,P|201:30|153:79,1,174.999994659424,6|2,0:0|0:0,0:0:0:0:
376,108,73867,1,0,0:0:0:0:
476,180,73965,2,2,B|476:240|456:268|456:268|440:324|464:360,1,174.999994659424,10|2,0:0|0:0,0:0:0:0:
208,352,74359,5,6,0:0:0:0:
116,328,74458,1,0,0:0:0:0:
80,236,74557,1,2,0:0:0:0:
132,156,74655,1,0,0:0:0:0:
232,160,74755,1,10,0:0:0:0:
312,216,74853,1,0,0:0:0:0:
396,172,74952,1,2,0:0:0:0:
404,76,75050,1,0,0:0:0:0:
332,28,75149,2,2,P|268:12|156:40,1,174.999994659424,6|2,0:0|0:0,0:0:0:0:
164,136,75544,5,8,0:0:0:0:
252,136,75642,1,8,0:0:0:0:
256,224,75742,1,8,0:0:0:0:
168,223,75840,1,8,0:0:0:0:
88,312,75938,6,2,P|29:200|52:106,1,174.999994659424,6|2,0:0|0:0,0:0:0:0:
260,104,76234,1,0,0:0:0:0:
352,36,76333,2,2,B|372:60|404:68|404:68|448:64|480:100|480:100|504:108|512:124,1,174.999994659424,10|2,0:0|0:0,0:0:0:0:
448,272,76629,1,0,0:0:0:0:
344,316,76728,2,2,L|416:116,1,174.999994659424,6|2,0:0|0:0,0:0:0:0:
168,240,77024,1,0,0:0:0:0:
88,312,77123,2,2,P|244:300|280:232,1,174.999994659424,10|2,0:0|0:0,0:0:0:0:
116,128,77419,1,0,0:0:0:0:
76,44,77518,6,0,L|200:52,1,100,6|0,0:0|0:0,0:0:0:0:
312,64,77715,2,0,L|436:72,1,100,2|0,0:0|0:0,0:0:0:0:
416,328,77913,6,0,L|316:334,1,100,10|0,0:0|0:0,0:0:0:0:
180,348,78110,2,0,L|80:354,1,100,2|0,0:0|0:0,0:0:0:0:
116,268,78307,6,2,P|256:296|384:252,1,250,6|2,0:0|0:0,0:0:0:0:
232,204,78603,1,0,0:0:0:0:
104,136,78702,2,2,P|224:107|344:136,1,250,10|2,0:0|0:0,0:0:0:0:
412,48,78998,5,0,0:0:0:0:
456,152,79097,2,2,P|424:272|448:352,1,174.999994659424,6|2,0:0|0:0,0:0:0:0:
260,276,79393,1,0,0:0:0:0:
136,296,79491,2,0,P|176:336|256:348,1,87.499997329712,10|0,0:0|0:0,0:0:0:0:
72,228,79689,2,0,P|57:282|86:357,1,87.499997329712,2|0,0:0|0:0,0:0:0:0:
152,120,79886,2,2,P|28:152|-12:216,1,174.999994659424,6|2,0:0|0:0,0:0:0:0:
180,192,80182,1,0,0:0:0:0:
272,96,80281,2,2,P|277:208|328:272,1,174.999994659424,8|2,0:0|0:0,0:0:0:0:
352,300,80577,2,0,P|356:248|332:204,1,87.499997329712,2|4,0:0|0:0,0:0:0:0:
472,108,80873,5,8,0:0:0:0:
48,160,81071,1,8,0:0:0:0:
28,168,81465,5,8,0:0:0:0:
512,248,81663,1,8,0:0:0:0:
388,316,81860,5,8,0:0:0:0:
284,336,81959,1,8,0:0:0:0:
184,312,82057,1,8,0:0:0:0:
108,240,82156,1,8,0:0:0:0:
84,140,82255,6,0,P|112:144|156:168,1,62.5,2|0,0:0|0:0,0:0:0:0:
196,60,82452,2,0,B|208:96|208:96|228:120,1,62.5,2|0,0:0|0:0,0:0:0:0:
320,52,82649,2,0,L|300:132,1,62.5,10|0,0:0|0:0,0:0:0:0:
408,92,82847,1,2,2:0:0:0:
476,320,83044,6,0,P|484:292|484:236,1,62.5,6|0,0:0|0:0,0:0:0:0:
400,268,83242,2,0,B|396:240|396:240|363:191,1,62.5,2|0,0:0|0:0,0:0:0:0:
300,256,83439,2,0,P|268:232|224:232,1,62.5,10|0,0:0|0:0,0:0:0:0:
184,288,83636,1,2,0:0:0:0:
12,188,83834,6,0,P|44:208|100:220,1,62.5,6|0,0:0|0:0,0:0:0:0:
64,48,84031,2,0,P|32:28|-24:16,1,62.5,2|0,0:0|0:0,0:0:0:0:
228,64,84228,2,2,P|139:119|123:173,1,125,10|2,0:0|0:0,0:0:0:0:
233,233,84524,1,0,0:0:0:0:
344,160,84623,2,2,P|242:137|192:163,1,125,6|2,0:0|0:0,0:0:0:0:
224,308,84919,1,0,0:0:0:0:
344,308,85018,2,2,P|288:219|234:203,1,125,10|2,0:0|0:0,0:0:0:0:
8,240,85413,6,0,P|0:280|12:336,1,62.5,6|0,0:0|0:0,0:0:0:0:
120,312,85610,2,0,B|132:348|132:348|160:380,1,62.5,2|0,0:0|0:0,0:0:0:0:
224,308,85807,2,2,P|290:323|382:275,1,125,10|2,0:0|0:0,0:0:0:0:
484,184,86202,6,0,B|444:184|444:184|384:204,1,62.5,6|0,0:0|0:0,0:0:0:0:
400,92,86399,2,0,P|364:112|344:148,1,62.5,2|0,0:0|0:0,0:0:0:0:
284,36,86597,2,2,P|256:140|288:200,1,125,10|2,0:0|0:0,0:0:0:0:
52,68,86992,6,2,P|92:60|148:80,1,62.5,4|0,0:0|0:0,0:0:0:0:
80,152,87189,2,0,B|112:160|112:160|148:180,1,62.5,2|0,0:0|0:0,0:0:0:0:
80,248,87386,2,2,P|112:308|88:384,1,125,10|2,0:0|0:0,0:0:0:0:
52,68,87781,5,8,0:0:0:0:
488,116,87978,1,8,0:0:0:0:
84,312,88373,5,8,0:0:0:0:
192,360,88571,6,0,B|203:326|203:326|206:261,1,62.5,6|0,0:0|0:0,0:0:0:0:
312,320,88768,2,0,P|288:292|268:228,1,62.5,2|0,0:0|0:0,0:0:0:0:
392,244,88965,2,0,L|324:196,1,62.5,10|0,0:0|0:0,0:0:0:0:
440,172,89163,1,2,0:0:0:0:
496,0,89360,6,0,P|476:52|480:108,1,62.5,6|0,0:0|0:0,0:0:0:0:
376,44,89557,2,0,B|380:88|380:88|408:128,1,62.5,2|0,0:0|0:0,0:0:0:0:
264,108,89755,2,0,P|288:140|344:168,1,62.5,10|0,0:0|0:0,0:0:0:0:
184,192,89952,1,2,0:0:0:0:
192,312,90149,6,0,B|226:326|226:326|226:326|267:321,1,62.5,6|0,0:0|0:0,0:0:0:0:
436,296,90347,2,0,B|404:280|404:280|376:282,1,62.5,2|0,0:0|0:0,0:0:0:0:
280,116,90544,2,2,P|254:217|207:249,1,125,10|2,0:0|0:0,0:0:0:0:
117,163,90840,1,0,0:0:0:0:
152,36,90939,2,2,P|205:125|195:181,1,125,6|2,0:0|0:0,0:0:0:0:
49,195,91235,1,0,0:0:0:0:
12,81,91334,2,2,P|113:106|145:153,1,125,10|2,0:0|0:0,0:0:0:0:
288,64,91728,6,2,P|284:104|268:136,1,62.5,4|0,0:0|0:0,0:0:0:0:
364,160,91926,2,0,B|336:192|336:192|284:216,1,62.5,2|0,0:0|0:0,0:0:0:0:
404,272,92123,2,2,P|320:288|240:248,1,125,10|2,0:0|0:0,0:0:0:0:
124,340,92518,6,0,B|139:307|139:307|184:276,1,62.5,6|0,0:0|0:0,0:0:0:0:
112,200,92715,2,0,P|167:188|210:203,1,62.5,2|0,0:0|0:0,0:0:0:0:
151,74,92913,2,0,P|234:123|268:171,1,125,10|2,0:0|0:0,0:0:0:0:
124,340,93308,5,2,0:0:0:0:
364,332,93505,1,2,0:0:0:0:
252,144,93703,1,2,0:0:0:0:
212,248,93900,5,2,0:0:0:0:
452,240,94097,1,2,0:0:0:0:
336,52,94294,1,2,0:0:0:0:
256,12,94393,5,2,0:0:0:0:
172,0,94492,1,2,0:0:0:0:
108,56,94590,1,2,0:0:0:0:
120,144,94689,1,2,0:0:0:0:
204,168,94788,1,4,0:0:0:0:
280,144,94886,6,0,P|312:180|376:200,1,74.9999977111817,2|0,0:0|0:0,0:0:0:0:
408,224,95084,2,0,P|439:243|463:272,1,74.9999977111817,2|0,0:0|0:0,0:0:0:0:
416,336,95281,2,0,L|228:336,1,149.999995422363,6|0,0:0|0:0,0:0:0:0:
40,332,95676,6,0,P|85:344|142:308,1,74.9999977111817,2|0,0:0|0:0,0:0:0:0:
176,292,95873,2,0,P|192:247|152:180,1,74.9999977111817,2|0,0:0|0:0,0:0:0:0:
124,172,96071,2,0,P|46:190|24:288,1,149.999995422363,6|0,0:0|0:0,0:0:0:0:
100,264,96465,5,2,0:0:0:0:
172,320,96564,1,0,0:0:0:0:
264,312,96663,1,0,0:0:0:0:
308,236,96761,1,0,0:0:0:0:
272,152,96860,1,2,0:0:0:0:
212,84,96959,1,0,0:0:0:0:
252,4,97057,1,0,0:0:0:0:
344,4,97156,1,0,0:0:0:0:
436,24,97255,6,8,P|461:51|464:88,1,74.9999977111817,2|0,0:0|0:0,0:0:0:0:
439,164,97452,2,0,P|402:183|350:173,1,74.9999977111817,2|0,0:0|0:0,0:0:0:0:
311,132,97650,2,0,P|296:67|355:-1,1,149.999995422363,6|0,0:0|0:0,0:0:0:0:
8,60,98044,6,0,P|46:49|118:66,1,74.9999977111817,2|0,0:0|0:0,0:0:0:0:
160,68,98242,2,0,P|183:100|193:173,1,74.9999977111817,2|0,0:0|2:0,0:0:0:0:
132,188,98439,2,0,P|21:161|-7:122,1,149.999995422363,6|0,0:0|0:0,0:0:0:0:
512,52,98834,6,0,P|480:72|437:67,1,74.9999977111817,2|0,0:0|0:0,0:0:0:0:
364,68,99031,2,0,P|324:83|292:140,1,74.9999977111817,2|0,0:0|0:0,0:0:0:0:
308,184,99229,2,0,P|388:220|476:168,1,149.999995422363,6|0,0:0|0:0,0:0:0:0:
380,140,99623,5,2,0:0:0:0:
332,64,99722,1,2,0:0:0:0:
244,44,99821,1,2,0:0:0:0:
176,100,99919,1,2,0:0:0:0:
200,188,100018,1,2,0:0:0:0:
184,276,100117,1,2,0:0:0:0:
116,332,100215,1,2,0:0:0:0:
28,312,100314,1,2,0:0:0:0:
24,224,100413,6,2,P|20:196|-22:152,2,74.9999977111817
112,252,100709,5,2,0:0:0:0:
192,292,100807,1,10,0:0:0:0:
284,296,100906,1,10,0:0:0:0:
368,260,101005,1,10,0:0:0:0:
424,188,101103,1,10,0:0:0:0:
476,112,101202,6,0,P|433:99|392:105,1,74.9999977111817,2|0,0:0|0:0,0:0:0:0:
332,128,101400,2,0,P|284:140|220:128,1,74.9999977111817,2|0,0:0|0:0,0:0:0:0:
224,72,101597,2,0,L|372:36,1,149.999995422363,2|0,0:0|0:0,0:0:0:0:
124,319,101992,6,0,P|154:298|167:264,1,74.9999977111817,2|0,0:0|0:0,0:0:0:0:
184,192,102190,2,0,P|176:155|151:127,1,74.9999977111817,2|0,0:0|0:0,0:0:0:0:
76,140,102387,2,0,P|36:224|64:288,1,149.999995422363,2|0,0:0|0:0,0:0:0:0:
112,212,102781,5,2,0:0:0:0:
116,124,102880,1,2,0:0:0:0:
184,64,102979,1,2,0:0:0:0:
272,80,103077,1,2,0:0:0:0:
320,156,103176,1,2,0:0:0:0:
332,244,103275,1,2,0:0:0:0:
416,276,103373,1,2,0:0:0:0:
484,220,103472,1,2,0:0:0:0:
408,188,103571,5,10,0:0:0:0:
340,248,103669,1,10,0:0:0:0:
268,192,103768,1,10,0:0:0:0:
196,244,103867,1,10,0:0:0:0:
136,172,103965,2,0,P|100:260|120:312,1,149.999995422363,2|0,0:0|0:0,0:0:0:0:
40,64,104360,6,0,L|152:88,1,74.9999977111817,2|0,0:0|0:0,0:0:0:0:
192,64,104557,2,0,L|280:96,1,74.9999977111817,2|0,0:0|0:0,0:0:0:0:
336,72,104755,2,0,P|411:97|528:140,1,149.999995422363,2|2,0:0|0:0,0:0:0:0:
512,204,105051,1,2,0:0:0:0:
460,276,105149,1,2,0:0:0:0:
368,272,105248,1,2,0:0:0:0:
304,208,105347,2,2,P|224:208|176:288,1,149.999995422363
20,320,105939,6,2,P|80:260|88:179,1,149.999995422363
244,124,106235,1,0,0:0:0:0:
328,44,106334,2,2,L|172:40,1,149.999995422363
103,94,106630,5,0,0:0:0:0:
88,184,106728,1,8,0:0:0:0:
120,268,106827,1,8,0:0:0:0:
212,308,106926,1,8,0:0:0:0:
192,160,107123,5,8,0:0:0:0:
272,228,107222,1,8,0:0:0:0:
376,232,107321,1,8,0:0:0:0:
460,172,107419,1,8,0:0:0:0:
416,96,107518,6,2,P|276:68|200:104,1,187.5,6|2,0:0|0:0,0:0:0:0:
372,156,107913,1,8,0:0:0:0:
120,152,108110,1,0,0:0:0:0:
116,164,108307,2,2,P|105:225|144:296,1,125,6|2,0:0|0:0,0:0:0:0:
168,316,108603,2,0,P|184:284|174:253,1,62.5,2|8,0:0|0:0,0:0:0:0:
340,220,108899,6,0,P|304:240|244:228,1,62.5,2|0,0:0|0:0,0:0:0:0:
444,212,109097,2,0,P|420:296|360:328,1,125,6|2,0:0|0:0,0:0:0:0:
340,220,109393,1,0,0:0:0:0:
240,132,109492,2,2,P|302:125|360:148,1,125,10|2,0:0|0:0,0:0:0:0:
200,56,109788,6,2,P|227:48|278:57,1,62.5,0|4,0:0|0:0,0:0:0:0:
108,48,109985,2,0,B|127:16|127:16|163:-6,1,62.5,0|4,0:0|0:0,0:0:0:0:
60,212,110281,2,0,L|69:150,1,62.5,4|0,0:0|0:0,0:0:0:0:
40,348,110478,2,0,L|49:286,1,62.5,4|0,0:0|0:0,0:0:0:0:
168,264,110676,6,0,P|310:258|380:305,1,187.5,2|0,0:0|0:0,0:0:0:0:
168,340,111071,1,8,0:0:0:0:
424,332,111268,2,0,P|437:270|375:187,1,125,0|2,0:0|0:0,0:0:0:0:
304,176,111663,1,0,0:0:0:0:
304,176,111761,1,0,0:0:0:0:
304,176,111860,1,8,0:0:0:0:
196,128,112057,6,0,P|188:158|207:224,1,62.5
192,28,112255,2,0,P|110:80|92:143,1,125,2|0,0:0|0:0,0:0:0:0:
280,72,112551,1,0,0:0:0:0:
348,0,112649,2,0,P|383:92|369:155,1,125,8|0,0:0|0:0,0:0:0:0:
460,136,112945,6,0,B|444:167|444:167|406:205,1,62.5,0|4,0:0|0:0,0:0:0:0:
488,252,113143,2,0,P|422:267|396:255,1,62.5,0|4,0:0|0:0,0:0:0:0:
504,348,113340,1,0,0:0:0:0:
408,344,113439,2,0,L|283:336,1,125,8|0,0:0|0:0,0:0:0:0:
180,348,113735,1,0,0:0:0:0:
264,224,113834,6,0,P|173:208|86:240,1,187.5,2|0,0:0|0:0,0:0:0:0:
244,292,114228,1,8,0:0:0:0:
20,312,114426,1,0,0:0:0:0:
12,296,114623,2,0,P|0:229|27:173,1,125,6|0,0:0|0:0,0:0:0:0:
68,148,114919,2,0,P|76:192|48:228,1,62.5,0|8,0:0|0:0,0:0:0:0:
188,8,115215,6,0,B|212:40|212:40|208:96,1,62.5
300,20,115413,2,0,P|272:123|236:142,1,125,6|0,0:0|0:0,0:0:0:0:
416,160,115709,1,0,0:0:0:0:
472,228,115807,2,0,L|427:345,1,125,8|0,0:0|0:0,0:0:0:0:
268,324,116103,6,0,P|300:344|348:344,1,62.5,0|4,0:0|0:0,0:0:0:0:
184,304,116301,2,0,B|188:344|188:344|209:383,1,62.5,0|4,0:0|0:0,0:0:0:0:
72,300,116498,1,0,0:0:0:0:
20,220,116597,2,0,P|92:212|148:164,1,125,8|0,0:0|0:0,0:0:0:0:
296,96,116893,1,0,0:0:0:0:
392,4,116992,6,0,B|384:24|384:48|392:71|392:71|392:108|376:160,1,125,4|0,0:0|0:0,0:0:0:0:
300,344,117386,2,0,B|292:324|292:300|280:280|280:280|300:240|284:188,1,125,4|0,0:0|0:0,0:0:0:0:
172,12,117781,2,0,B|176:40|172:56|172:56|160:84|172:116|172:116|168:180,1,125,4|0,0:0|0:0,0:0:0:0:
16,376,118176,2,0,B|28:308|28:308|12:216,1,125,4|0,0:0|0:0,0:0:0:0:
8,36,118570,1,4,0:0:0:0:
157,161,118768,6,0,P|201:169|249:153,1,62.5,0|0,0:0|0:0,0:0:0:0:
341,51,118965,2,0,P|277:35|181:63,1,125,8|0,0:0|0:0,0:0:0:0:
384,164,119360,1,4,0:0:0:0:
384,164,119459,1,0,0:0:0:0:
384,164,119557,1,0,0:0:0:0:
304,340,119755,5,8,0:0:0:0:
204,340,119853,1,8,0:0:0:0:
204,240,119952,1,8,0:0:0:0:
320,236,120051,1,8,0:0:0:0:
384,304,120149,6,0,P|386:180|228:208,1,297.619047619048,8|0,0:0|0:0,0:0:0:0:
320,236,120544,2,0,P|419:168|328:28,1,297.619047619048,8|0,0:0|0:0,0:0:0:0:
96,39,120939,6,0,P|214:74|127:223,1,297.619047619048,8|0,0:0|0:0,0:0:0:0:
124,133,121334,2,0,P|238:100|327:232,1,297.619047619048,8|0,0:0|0:0,0:0:0:0:
328,232,121728,6,0,P|381:116|430:234,1,320.512820512821,8|0,0:0|0:0,0:0:0:0:
435,244,122123,2,0,P|439:136|322:238,1,357.142857142857,8|0,0:0|0:0,0:0:0:0:
380,188,122518,2,0,P|300:144|40:188,1,357.142857142857
52,208,122913,2,0,P|240:264|388:208,1,357.142857142857
476,224,123307,6,2,L|476:364,1,125
428,156,123505,2,2,L|428:15,1,125,2|2,0:0|0:0,0:0:0:0:
340,224,123702,6,2,L|340:349,1,125
292,156,123900,2,2,L|292:31,1,125,2|2,0:0|0:0,0:0:0:0:
36,224,124097,6,2,L|36:364,1,125,2|2,0:0|0:0,0:0:0:0:
84,156,124295,2,2,L|84:15,1,125,2|2,0:0|0:0,0:0:0:0:
172,224,124492,6,2,L|172:349,1,125,2|2,0:0|0:0,0:0:0:0:
220,156,124690,2,2,L|220:31,1,125,2|2,0:0|0:0,0:0:0:0:
96,88,124886,5,8,0:0:0:0:
56,172,124984,1,8,0:0:0:0:
116,244,125083,1,8,0:0:0:0:
208,232,125182,1,8,0:0:0:0:
244,148,125280,1,8,0:0:0:0:
324,100,125379,1,8,0:0:0:0:
412,136,125478,1,8,0:0:0:0:
436,228,125576,1,8,0:0:0:0:
392,312,125675,1,8,0:0:0:0:
240,56,125873,1,2,0:0:0:0:
240,56,125972,1,2,0:0:0:0:
240,56,126071,1,2,0:0:0:0:
0,40,139097,6,2,P|84:80|180:32,1,174.999994659424,6|2,0:0|0:0,0:0:0:0:
280,8,139393,1,0,0:0:0:0:
392,20,139492,2,2,B|383:84|347:104|347:104|313:143|322:192,1,174.999994659424,10|2,0:0|0:0,0:0:0:0:
400,192,139788,1,0,0:0:0:0:
336,268,139886,2,2,P|439:288|513:221,1,174.999994659424,6|2,2:0|2:0,2:0:0:0:
416,368,140182,1,0,0:0:0:0:
332,352,140281,2,2,P|212:320|136:368,1,174.999994659424,10|2,0:0|0:0,0:0:0:0:
48,328,140676,5,6,0:0:0:0:
52,240,140774,1,0,0:0:0:0:
112,176,140873,1,2,0:0:0:0:
196,160,140972,1,0,0:0:0:0:
260,220,141071,1,10,0:0:0:0:
352,236,141169,1,0,0:0:0:0:
420,176,141268,1,2,0:0:0:0:
432,84,141367,1,0,0:0:0:0:
348,32,141465,2,2,P|259:-2|178:21,1,174.999994659424,6|2,0:0|0:0,0:0:0:0:
140,40,141761,2,0,P|190:58|239:47,1,87.499997329712,2|8,0:0|0:0,0:0:0:0:
60,72,142057,5,2,0:0:0:0:
36,156,142156,1,0,0:0:0:0:
60,240,142255,2,2,P|124:320|216:324,1,174.999994659424,6|2,0:0|0:0,0:0:0:0:
264,268,142551,1,0,0:0:0:0:
232,192,142649,2,0,P|276:184|336:228,1,87.499997329712,10|0,0:0|0:0,0:0:0:0:
364,136,142847,2,0,P|396:172|392:242,1,87.499997329712,2|0,0:0|0:0,0:0:0:0:
480,164,143044,2,2,P|456:272|368:324,1,174.999994659424,6|2,0:0|0:0,0:0:0:0:
264,264,143340,1,0,0:0:0:0:
268,148,143439,2,2,P|160:192|136:268,1,174.999994659424,10|2,0:0|0:0,0:0:0:0:
184,324,143834,5,6,0:0:0:0:
256,276,143932,1,0,0:0:0:0:
344,284,144031,1,2,0:0:0:0:
424,324,144130,1,0,0:0:0:0:
504,288,144228,1,10,0:0:0:0:
500,200,144327,1,0,0:0:0:0:
436,140,144426,1,2,0:0:0:0:
348,152,144524,1,0,0:0:0:0:
272,108,144623,2,2,P|152:96|92:132,1,174.999994659424,6|2,0:0|0:0,0:0:0:0:
144,216,145018,5,8,0:0:0:0:
240,172,145117,1,8,0:0:0:0:
332,220,145215,1,8,0:0:0:0:
424,168,145314,1,8,0:0:0:0:
488,272,145413,6,2,P|360:328|292:300,1,174.999994659424,6|2,0:0|0:0,0:0:0:0:
160,320,145709,1,0,0:0:0:0:
80,252,145807,2,2,B|124:244|124:244|168:208|216:224|216:224|292:208,1,174.999994659424,10|2,0:0|0:0,0:0:0:0:
424,168,146103,1,0,0:0:0:0:
456,88,146202,2,2,B|404:72|360:96|360:96|316:76|272:80,1,174.999994659424,6|2,0:0|0:0,0:0:0:0:
132,128,146498,1,0,0:0:0:0:
28,96,146597,2,2,P|156:40|224:68,1,174.999994659424,10|2,0:0|0:0,0:0:0:0:
424,44,146992,6,0,B|448:100|448:100|436:172,1,112.499996566773,6|0,0:0|0:0,0:0:0:0:
88,44,147189,2,0,B|64:100|64:100|76:172,1,112.499996566773,2|0,0:0|0:0,0:0:0:0:
439,233,147386,6,0,B|448:284|448:284|424:340,1,112.499996566773,10|0,0:0|0:0,0:0:0:0:
72,233,147584,2,0,B|64:284|64:284|88:340,1,112.499996566773,2|0,0:0|0:0,0:0:0:0:
360,252,147781,6,2,P|264:287|168:264,1,200,6|2,0:0|0:0,0:0:0:0:
260,188,148077,1,0,0:0:0:0:
355,111,148176,2,2,P|260:87|164:111,1,200,10|2,0:0|0:0,0:0:0:0:
44,56,148472,5,0,0:0:0:0:
48,164,148571,2,2,L|60:368,1,174.999994659424,6|2,0:0|0:0,0:0:0:0:
184,288,148867,1,0,0:0:0:0:
276,332,148965,2,2,P|248:212|168:192,1,174.999994659424,10|2,0:0|0:0,0:0:0:0:
308,76,149261,1,0,0:0:0:0:
404,32,149360,2,0,P|408:84|388:136,1,87.499997329712,6|0,0:0|0:0,0:0:0:0:
480,160,149557,2,0,P|452:200|368:208,1,87.499997329712,2|0,0:0|0:0,0:0:0:0:
492,288,149755,2,2,P|364:307|284:260,1,174.999994659424,10|2,0:0|0:0,0:0:0:0:
272,268,150051,2,0,P|316:256|360:268,1,87.499997329712,2|4,0:0|0:0,0:0:0:0:
0,28,150347,5,8,0:0:0:0:
496,188,150544,1,8,0:0:0:0:
512,192,150939,5,8,0:0:0:0:
0,352,151136,1,8,0:0:0:0:
120,372,151334,5,8,0:0:0:0:
240,364,151432,1,8,0:0:0:0:
344,300,151531,1,8,0:0:0:0:
392,188,151630,1,8,0:0:0:0:
384,72,151728,6,2,B|320:84|268:72|268:72|204:64|144:116,1,200,4|0,0:0|0:0,0:0:0:0:
100,196,152024,1,0,0:0:0:0:
56,300,152123,2,2,P|184:264|192:152,1,200,10|2,0:0|0:0,0:0:0:0:
356,164,152419,1,0,0:0:0:0:
468,160,152518,2,2,P|420:312|316:340,1,200,6|2,0:0|0:0,0:0:0:0:
203,211,152814,1,0,0:0:0:0:
87,211,152913,2,2,P|159:311|267:295,1,200,10|2,0:0|0:0,0:0:0:0:
356,328,153307,5,6,0:0:0:0:
452,272,153406,1,0,0:0:0:0:
472,164,153505,1,2,0:0:0:0:
396,88,153603,1,0,0:0:0:0:
284,92,153702,1,10,0:0:0:0:
200,164,153801,1,0,0:0:0:0:
92,160,153899,1,2,0:0:0:0:
32,76,153998,1,0,0:0:0:0:
104,0,154097,2,2,P|216:-4|304:68,1,200,6|2,0:0|0:0,0:0:0:0:
324,84,154393,2,0,P|260:88|224:48,1,100,2|8,0:0|0:0,0:0:0:0:
436,40,154689,5,2,0:0:0:0:
476,144,154788,1,0,0:0:0:0:
432,244,154886,2,2,P|336:256|256:152,1,200,6|2,0:0|0:0,0:0:0:0:
120,88,155182,1,0,0:0:0:0:
8,100,155281,2,0,P|32:140|112:160,1,100,10|0,0:0|0:0,0:0:0:0:
52,252,155478,2,0,P|98:255|182:185,1,100,2|0,0:0|0:0,0:0:0:0:
146,330,155676,2,2,P|250:254|258:154,1,200,6|2,0:0|0:0,0:0:0:0:
432,136,155973,1,0,0:0:0:0:
500,28,156071,2,2,B|484:84|508:124|508:124|524:180|496:228,1,200,10|2,0:0|0:0,0:0:0:0:
448,320,156465,5,6,0:0:0:0:
352,372,156564,1,0,0:0:0:0:
248,336,156663,1,2,0:0:0:0:
200,236,156761,1,0,0:0:0:0:
268,148,156860,1,10,0:0:0:0:
228,44,156959,1,0,0:0:0:0:
120,32,157057,1,2,0:0:0:0:
40,108,157156,1,0,0:0:0:0:
28,216,157255,2,2,P|118:269|202:233,1,200,6|2,0:0|0:0,0:0:0:0:
256,200,157551,2,0,P|196:184|144:200,1,100,2|8,0:0|0:0,0:0:0:0:
72,256,157748,5,8,0:0:0:0:
140,344,157847,1,8,0:0:0:0:
248,356,157946,1,8,0:0:0:0:
340,304,158044,6,2,P|397:225|348:124,1,200,6|2,0:0|0:0,0:0:0:0:
248,144,158340,1,0,0:0:0:0:
240,56,158439,2,2,B|304:48|304:48|344:28|407:40|407:40|512:28,1,200,10|2,0:0|0:0,0:0:0:0:
476,216,158735,1,0,0:0:0:0:
430,325,158834,2,2,L|358:117,1,200,6|2,0:0|0:0,0:0:0:0:
232,184,159130,1,0,0:0:0:0:
152,132,159228,2,2,P|172:268|224:284,1,200,10|2,0:0|0:0,0:0:0:0:
44,40,159623,6,0,L|208:52,1,125,6|0,0:0|0:0,0:0:0:0:
468,40,159821,2,0,L|304:52,1,125,2|0,0:0|0:0,0:0:0:0:
44,344,160018,6,0,L|208:332,1,125,10|0,0:0|0:0,0:0:0:0:
468,344,160215,2,0,L|304:332,1,125,2|0,0:0|0:0,0:0:0:0:
112,248,160413,6,2,P|220:206|304:262,1,224.999993133545,6|2,0:0|0:0,0:0:0:0:
336,120,160709,1,0,0:0:0:0:
412,48,160808,2,2,P|332:24|200:80,1,224.999993133545,10|2,0:0|0:0,0:0:0:0:
76,64,161103,5,0,0:0:0:0:
64,164,161202,2,2,P|96:300|56:364,1,200,6|2,0:0|0:0,0:0:0:0:
220,272,161498,1,0,0:0:0:0:
240,176,161597,2,0,P|279:193|312:240,1,100,10|0,2:0|2:0,2:0:0:0:
384,176,161794,2,0,P|406:235|394:292,1,100,2|0,2:0|2:0,2:0:0:0:
504,236,161992,2,2,P|457:334|356:358,1,200,6|2,0:0|0:0,0:0:0:0:
144,280,162287,1,0,0:0:0:0:
64,164,162386,2,2,P|172:208|256:148,1,200,10|2,0:0|0:0,0:0:0:0:
292,144,162682,2,0,P|244:128|184:144,1,100,2|4,0:0|0:0,0:0:0:0:
0,0,162978,5,8,0:0:0:0:
512,0,163176,1,8,0:0:0:0:
512,384,163571,5,8,0:0:0:0:
0,384,163769,1,8,0:0:0:0:
124,316,163965,5,8,0:0:0:0:
228,336,164064,1,8,0:0:0:0:
328,312,164162,1,8,0:0:0:0:
404,240,164261,1,8,0:0:0:0:
424,136,164360,6,0,P|396:140|344:172,1,74.9999977111817,6|0,0:0|0:0,0:0:0:0:
312,56,164557,2,0,B|296:96|296:96|272:124,1,74.9999977111817,2|0,0:0|0:0,0:0:0:0:
180,40,164754,2,0,L|200:128,1,74.9999977111817,10|0,0:0|0:0,0:0:0:0:
44,64,164952,2,0,P|84:88|107:120,1,74.9999977111817,2|0,0:0|0:0,0:0:0:0:
64,268,165149,6,0,B|64:232|64:232|86:196,1,74.9999977111817,6|0,0:0|0:0,0:0:0:0:
184,336,165347,2,0,P|164:301|163:256,1,74.9999977111817,2|0,0:0|0:0,0:0:0:0:
324,324,165544,2,0,L|236:260,1,74.9999977111817,10|0,0:0|0:0,0:0:0:0:
436,224,165742,2,0,P|400:240|332:228,1,74.9999977111817,2|0,0:0|0:0,0:0:0:0:
496,136,165939,6,0,P|456:120|392:124,1,74.9999977111817,6|0,0:0|0:0,0:0:0:0:
208,156,166136,2,0,P|248:172|312:168,1,74.9999977111817,2|0,0:0|0:0,0:0:0:0:
421,373,166334,2,2,L|437:209,1,149.999995422363,10|2,0:0|0:0,0:0:0:0:
252,244,166630,1,0,0:0:0:0:
172,352,166729,2,2,P|236:376|336:360,1,149.999995422363,6|2,0:0|0:0,0:0:0:0:
252,244,167025,1,0,0:0:0:0:
204,128,167123,2,2,P|140:192|140:300,1,149.999995422363,10|2,0:0|0:0,0:0:0:0:
116,76,167419,1,0,0:0:0:0:
208,44,167518,6,0,P|260:68|284:112,1,74.9999977111817,6|0,0:0|0:0,0:0:0:0:
348,20,167715,2,0,B|360:62|360:62|353:126,1,74.9999977111817,2|0,0:0|0:0,0:0:0:0:
468,88,167913,2,0,L|402:160,1,74.9999977111817,10|0,0:0|0:0,0:0:0:0:
484,208,168110,2,0,P|452:224|388:216,1,74.9999977111817,2|0,0:0|0:0,0:0:0:0:
308,348,168307,6,0,B|333:322|333:322|343:281,1,74.9999977111817,6|0,2:0|2:0,2:0:0:0:
160,336,168505,2,0,P|198:325|231:294,1,74.9999977111817,2|0,2:0|2:0,2:0:0:0:
64,236,168702,2,0,L|171:252,1,74.9999977111817,10|0,2:0|2:0,2:0:0:0:
52,92,168900,2,0,P|66:128|122:168,1,74.9999977111817,2|0,2:0|2:0,2:0:0:0:
224,44,169097,6,0,P|181:57|139:98,1,74.9999977111817,6|0,0:0|0:0,0:0:0:0:
288,340,169294,2,0,P|330:326|372:285,1,74.9999977111817,2|0,0:0|0:0,0:0:0:0:
111,145,169492,6,0,P|102:189|116:245,1,74.9999977111817,10|0,0:0|0:0,0:0:0:0:
400,238,169689,2,0,P|409:194|395:138,1,74.9999977111817,2|0,0:0|0:0,0:0:0:0:
143,293,169886,6,0,P|176:323|232:339,1,74.9999977111817,6|0,0:0|0:0,0:0:0:0:
368,90,170084,2,0,P|335:60|279:44,1,74.9999977111817,2|0,0:0|0:0,0:0:0:0:
88,180,170281,5,8,0:0:0:0:
412,208,170478,1,8,0:0:0:0:
120,308,170676,6,0,P|152:304|186:276,1,62.5,6|0,0:0|0:0,0:0:0:0:
240,352,170873,2,0,B|264:320|264:320|280:264,1,62.5,2|0,0:0|0:0,0:0:0:0:
368,352,171071,2,0,L|356:256,1,62.5,10|0,0:0|0:0,0:0:0:0:
456,268,171268,2,0,P|432:232|380:204,1,62.5,2|0,0:0|0:0,0:0:0:0:
376,60,171465,6,0,B|360:92|360:92|360:148,1,62.5,6|0,0:0|0:0,0:0:0:0:
260,40,171663,2,0,L|276:136,1,62.5,2|0,0:0|0:0,0:0:0:0:
160,92,171860,2,0,P|168:128|204:168,1,62.5,10|0,0:0|0:0,0:0:0:0:
68,204,172057,2,0,P|108:216|156:224,1,62.5,2|0,0:0|0:0,0:0:0:0:
88,320,172255,6,2,P|176:308|228:272,1,125,6|2,0:0|0:0,0:0:0:0:
388,276,172551,1,0,0:0:0:0:
484,200,172649,2,2,L|352:168,1,125,10|2,0:0|0:0,0:0:0:0:
256,56,172946,1,0,0:0:0:0:
144,44,173044,2,0,B|104:40|104:40|64:48,1,62.5,6|0,0:0|0:0,0:0:0:0:
172,228,173242,2,0,B|212:232|212:232|252:224,1,62.5,2|0,0:0|0:0,0:0:0:0:
256,117,173439,2,0,B|260:77|260:77|252:37,1,62.5,10|0,0:0|0:0,0:0:0:0:
72,145,173636,2,0,B|68:185|68:185|76:225,1,62.5
144,352,173834,6,0,P|137:313|147:267,1,62.5,6|0,0:0|0:0,0:0:0:0:
232,312,174031,2,0,B|246:277|246:277|283:249,1,62.5,2|0,0:0|0:0,0:0:0:0:
332,316,174228,2,0,P|416:284|428:284,1,62.5,10|0,0:0|0:0,0:0:0:0:
404,372,174426,2,0,L|496:384,1,62.5,2|0,0:0|0:0,0:0:0:0:
488,232,174623,6,0,P|482:276|457:314,1,62.5,6|0,0:0|0:0,0:0:0:0:
388,156,174821,2,0,B|404:188|404:188|412:236,1,62.5,2|0,0:0|0:0,0:0:0:0:
268,140,175018,2,0,L|316:192,1,62.5,10|0,0:0|0:0,0:0:0:0:
136,160,175215,2,0,B|176:164|176:164|244:200,1,62.5,2|0,0:0|0:0,0:0:0:0:
80,36,175413,5,8,0:0:0:0:
416,60,175610,1,8,0:0:0:0:
68,192,175807,1,8,0:0:0:0:
472,296,176005,1,8,0:0:0:0:
232,16,176202,5,8,0:0:0:0:
124,336,176399,1,8,0:0:0:0:
344,104,176596,1,8,0:0:0:0:
376,384,176795,1,8,0:0:0:0:
