osu file format v14

[General]
AudioFilename: audio.mp3
AudioLeadIn: 0
PreviewTime: 131269
Countdown: 0
SampleSet: Soft
StackLeniency: 0.4
Mode: 0
LetterboxInBreaks: 0
WidescreenStoryboard: 1

[Editor]
Bookmarks: 14905,26541,38178,49814,61450,73087,84723,96360,107996,119632,131269,142905,154541,166178,177814
DistanceSpacing: 1.3
BeatDivisor: 4
GridSize: 32
TimelineZoom: 1

[Metadata]
Title:Secret UFO
TitleUnicode:ひみつのユーフォー
Artist:NayutalieN feat. KAFU
ArtistUnicode:ナユタン星人 feat. KAFU
Creator:v0ltia
Version:Lian's HARD
Source:
Tags:可不 japanese rock pop j-rock jrock KAF 花譜 kamitsubaki studio 神椿スタジオ kaf-u vocaloid female vocal synth cevio ai artificial singing Segula -__-_ -Lian- Abelia
BeatmapID:3540928
BeatmapSetID:1713789

[Difficulty]
HPDrainRate:4.5
CircleSize:4
OverallDifficulty:6
ApproachRate:8
SliderMultiplier:1.4
SliderTickRate:1

[Events]
//Background and Video events
0,0,"41ce2c1a-a38b-41f7-8639-385b82ad8d5b.png",0,0
//Break Periods
2,96560,107246
//Storyboard Layer 0 (Background)
//Storyboard Layer 1 (Fail)
//Storyboard Layer 2 (Pass)
//Storyboard Layer 3 (Foreground)
//Storyboard Layer 4 (Overlay)
//Storyboard Sound Samples

[TimingPoints]
360,363.636363636364,4,2,12,30,1,0
360,-166.666666666667,4,2,12,30,0,0
1814,-142.857142857143,4,2,12,50,0,0
13450,-142.857142857143,4,2,22,70,0,0
13632,-142.857142857143,4,2,14,70,0,0
14905,-100,4,2,22,82,0,0
26723,-100,4,2,12,70,0,0
26905,-125,4,2,12,60,0,0
37450,-125,4,2,14,65,0,0
38177,-125,4,2,12,65,0,0
38360,-125,4,2,14,65,0,0
38541,-111.111111111111,4,2,14,65,0,0
43996,-111.111111111111,4,2,12,65,0,0
44178,-111.111111111111,4,2,14,65,0,0
49814,-142.857142857143,4,2,12,50,0,0
55632,-125,4,2,12,50,0,0
58905,-125,4,2,12,70,0,0
61450,-90.9090909090909,4,2,12,82,0,1
61995,-90.9090909090909,4,2,22,82,0,1
66723,-90.9090909090909,4,2,23,82,0,1
67086,-90.9090909090909,4,2,22,82,0,1
72360,-90.9090909090909,4,2,14,82,0,1
73087,-90.9090909090909,4,2,22,82,0,1
78359,-90.9090909090909,4,2,23,82,0,1
78631,-90.9090909090909,4,2,22,82,0,1
83996,-90.9090909090909,4,2,14,82,0,1
84723,-100,4,2,22,82,0,0
84905,-100,4,2,14,82,0,0
90541,-100,4,2,22,82,0,0
107996,-125,4,2,22,52,0,0
108360,-125,4,2,22,60,0,0
118905,-125,4,2,14,60,0,0
119632,-142.857142857143,4,2,12,50,0,0
125450,-125,4,2,12,60,0,0
128723,-125,4,2,12,70,0,0
130541,-100,4,2,12,70,0,0
131269,-133.333333333333,4,2,12,50,0,0
137087,-142.857142857143,4,2,12,60,0,0
139996,-142.857142857143,4,2,12,70,0,0
141450,-142.857142857143,4,2,2,45,0,0
142178,-142.857142857143,4,2,22,70,0,0
143269,-90.9090909090909,4,2,22,82,0,1
148178,-90.9090909090909,4,2,23,82,0,1
148450,-90.9090909090909,4,2,22,82,0,1
153814,-90.9090909090909,4,2,14,82,0,1
154541,-90.9090909090909,4,2,22,82,0,1
154723,-90.9090909090909,4,2,14,82,0,1
159814,-90.9090909090909,4,2,23,82,0,1
160086,-90.9090909090909,4,2,22,82,0,1
165450,-90.9090909090909,4,2,14,82,0,1
166178,-100,4,2,22,82,0,0
166360,-100,4,2,14,82,0,0
171996,-100,4,2,22,82,0,0
172178,-100,4,2,14,82,0,0
176996,-100,4,2,22,82,0,0
177814,-104.166666666667,4,2,22,82,0,0
179087,-104.166666666667,4,2,14,82,0,0
179996,-104.166666666667,4,2,22,82,0,0
181996,-104.166666666667,4,2,14,82,0,0
182905,-104.166666666667,4,2,22,82,0,0
184905,-104.166666666667,4,2,14,82,0,0
185814,-104.166666666667,4,2,22,82,0,0
187086,-104.166666666667,4,2,14,82,0,0
187996,-104.166666666667,4,2,22,82,0,0
189450,-104.166666666667,4,2,22,92,0,0

[Colours]
Combo1 : 0,196,196
Combo2 : 255,185,255
Combo3 : 255,0,0
Combo4 : 255,0,128

[HitObjects]
52,347,360,6,0,P|40:308|51:266,3,83.9999999999998,2|2|2|2,2:0|1:2|2:0|1:2,2:0:0:0:
140,306,1814,6,0,P|189:306|233:271,1,97.9999999999999,6|2,1:2|2:0,2:0:0:0:
310,331,2541,2,0,P|359:331|403:366,1,97.9999999999999,2|2,2:0|2:0,2:0:0:0:
473,295,3269,2,0,L|463:192,1,97.9999999999999,2|2,1:2|2:0,2:0:0:0:
449,100,3996,1,2,2:0:0:0:
374,43,4360,5,0,2:0:0:0:
374,43,4541,2,0,P|325:43|281:78,1,97.9999999999999,2|2,2:0|2:0,2:0:0:0:
275,121,5087,1,2,2:0:0:0:
275,121,5269,1,2,2:0:0:0:
181,148,5632,2,0,P|175:124|179:100,2,48.9999999999999,2|2|2,2:0|2:0|2:0,2:0:0:0:
256,218,6360,1,2,2:0:0:0:
256,218,6541,1,2,2:0:0:0:
275,121,6905,1,2,2:0:0:0:
347,186,7269,5,0,2:0:0:0:
347,186,7450,2,2,P|396:186|440:221,1,97.9999999999999,2|0,2:0|2:0,2:0:0:0:
483,216,7996,2,0,L|475:270,1,48.9999999999999,2|0,2:0|2:0,2:0:0:0:
467,313,8360,1,2,2:0:0:0:
330,367,8905,2,0,L|315:270,1,97.9999999999999,2|2,2:0|2:0,2:0:0:0:
275,242,9450,2,0,L|226:249,1,48.9999999999999,2|0,2:0|2:0,2:0:0:0:
177,257,9814,1,2,2:0:0:0:
75,150,10360,6,0,L|171:135,1,97.9999999999999,2|2,2:0|2:0,2:0:0:0:
203,98,10905,2,0,L|251:105,1,48.9999999999999,2|2,2:0|2:0,2:0:0:0:
289,73,11269,2,0,L|296:24,2,48.9999999999999,2|2|2,1:2|2:0|2:0,2:0:0:0:
308,117,11814,1,2,2:0:0:0:
308,117,11996,2,0,L|404:131,1,97.9999999999999,2|2,1:2|2:0,2:0:0:0:
502,143,12723,1,2,2:0:0:0:
308,117,13450,5,2,1:2:0:0:
308,117,13632,2,0,L|300:165,2,48.9999999999999,8|8|8,3:0|3:0|3:0,2:0:0:0:
278,77,14178,2,0,L|230:69,1,48.9999999999999,8|8,3:2|3:2,2:0:0:0:
181,60,14541,1,8,3:2:0:0:
41,154,14905,6,0,L|51:223,1,70,4|2,1:2|2:0,2:0:0:0:
133,206,15269,2,0,L|123:275,1,70,8|2,2:0|2:0,2:0:0:0:
74,344,15632,2,0,L|143:354,1,70,0|2,1:2|2:0,2:0:0:0:
213,305,15996,1,8,2:0:0:0:
213,305,16178,1,2,2:0:0:0:
260,374,16360,6,0,L|329:384,1,70,0|2,1:2|2:0,2:0:0:0:
380,317,16723,2,0,L|449:307,1,70,8|2,2:0|2:0,2:0:0:0:
489,232,17087,1,12,2:0:0:0:
469,69,17450,1,12,2:0:0:0:
469,69,17632,1,0,1:2:0:0:
387,46,17814,6,0,P|387:85|408:120,1,70,0|2,1:2|2:0,2:0:0:0:
322,144,18178,2,0,P|322:183|301:218,1,70,8|2,2:0|2:0,2:0:0:0:
226,188,18541,2,0,P|226:149|247:114,1,70,0|2,1:2|2:0,2:0:0:0:
176,74,18905,1,8,2:0:0:0:
176,74,19087,1,2,2:0:0:0:
94,94,19269,6,0,P|94:133|73:168,1,70,0|2,1:2|2:0,2:0:0:0:
23,221,19632,2,0,P|23:260|44:295,1,70,8|0,2:0|1:2,2:0:0:0:
107,332,19996,1,12,2:0:0:0:
248,240,20360,1,12,1:2:0:0:
265,238,20450,1,8,2:0:0:0:
282,240,20541,1,8,2:0:0:0:
299,246,20632,1,8,2:0:0:0:
313,253,20723,6,0,L|320:331,1,70,0|2,1:2|2:0,2:0:0:0:
399,348,21087,2,0,L|405:278,1,70,8|2,2:0|2:0,2:0:0:0:
472,227,21450,2,0,L|465:157,1,70,0|2,1:2|2:0,2:0:0:0:
455,77,21814,1,8,2:0:0:0:
455,77,21996,1,2,2:0:0:0:
389,129,22178,6,0,P|350:129|315:108,1,70,0|2,1:2|2:0,1:2:0:0:
276,185,22541,2,0,P|237:185|202:206,1,70,8|2,2:0|2:0,2:0:0:0:
151,137,22905,1,12,2:0:0:0:
102,300,23269,1,12,2:0:0:0:
102,300,23450,1,0,1:2:0:0:
33,349,23632,6,0,P|18:317|19:282,1,70,0|2,1:2|2:0,2:0:0:0:
102,300,23996,2,0,P|133:315|168:314,1,70,8|2,2:0|2:0,2:0:0:0:
185,231,24360,2,0,P|154:216|119:217,1,70,0|2,1:2|2:0,2:0:0:0:
71,153,24723,1,8,2:0:0:0:
71,153,24905,1,2,2:0:0:0:
113,80,25087,5,12,2:0:0:0:
277,110,25450,1,12,2:0:0:0:
120,48,25814,1,12,2:0:0:0:
284,80,26178,1,8,1:2:0:0:
301,76,26269,1,8,2:0:0:0:
318,73,26360,1,8,2:0:0:0:
335,70,26450,1,8,2:0:0:0:
352,67,26541,5,4,1:2:0:0:
426,107,26723,1,2,2:0:0:0:
426,107,26905,2,0,P|432:138|424:166,1,56,10|2,2:0|1:2,2:0:0:0:
363,209,27269,2,0,P|357:240|365:268,1,56,2|2,1:2|2:0,2:0:0:0:
423,320,27632,1,10,2:0:0:0:
423,320,27814,1,2,2:0:0:0:
376,382,27996,6,0,L|310:373,1,56,2|2,1:2|2:0,2:0:0:0:
264,319,28360,2,0,L|208:326,2,56,10|2|2,2:0|1:2|1:2,2:0:0:0:
381,215,29087,2,0,B|401:180|401:180|388:101,1,112,10|0,2:0|1:2,2:0:0:0:
310,105,29632,5,2,2:0:0:0:
310,105,29814,2,2,L|319:171,1,56,10|2,2:0|1:2,2:0:0:0:
238,156,30178,2,0,L|247:222,1,56,2|2,1:2|2:0,2:0:0:0:
204,279,30541,1,10,2:0:0:0:
204,279,30723,1,2,2:0:0:0:
130,251,30905,6,0,P|95:251|62:271,1,56,2|2,1:2|2:0,2:0:0:0:
91,336,31269,2,0,P|126:336|159:316,1,56,10|2,2:0|1:2,2:0:0:0:
204,279,31632,1,2,1:2:0:0:
343,351,31996,2,0,L|475:334,1,112,10|4,2:0|1:2,2:0:0:0:
506,278,32541,5,2,2:0:0:0:
506,278,32723,2,2,P|511:250|505:223,1,56,10|2,2:0|1:2,2:0:0:0:
448,169,33087,2,0,P|442:141|448:114,1,56,2|0,1:2|2:0,2:0:0:0:
499,55,33450,2,0,P|448:34|392:59,1,112,10|2,2:0|1:2,2:0:0:0:
329,24,33996,5,2,2:0:0:0:
329,24,34178,2,0,L|264:31,1,56,10|2,2:0|1:2,2:0:0:0:
195,39,34541,1,2,1:2:0:0:
216,194,34905,2,0,L|132:202,1,84,10|0,2:0|2:0,2:0:0:0:
106,233,35269,6,0,P|106:264|118:286,1,56,2|0,1:2|2:0,2:0:0:0:
188,319,35632,2,0,L|243:313,1,56,10|0,2:0|1:2,2:0:0:0:
298,369,35996,2,0,B|323:333|323:333|311:245,2,112,2|10|2,1:2|2:0|1:2,2:0:0:0:
439,300,37087,6,0,L|433:244,1,56,10|0,2:0|1:2,2:0:0:0:
407,221,37360,1,8,3:0:0:0:
407,221,37450,2,0,L|412:165,1,56,0|8,3:0|3:2,2:0:0:0:
454,98,37814,2,0,L|482:101,4,28,8|8|8|8|4,3:2|2:0|3:2|2:0|1:2,2:0:0:0:
388,46,38360,5,4,2:0:0:0:
388,46,38541,2,0,L|308:37,1,63.0000000000001,8|4,2:0|2:0,2:0:0:0:
264,94,38905,2,0,L|255:174,1,63.0000000000001,0|4,1:2|2:0,2:0:0:0:
314,222,39269,1,8,2:0:0:0:
314,222,39450,1,4,2:0:0:0:
276,294,39632,6,0,L|213:286,1,63.0000000000001,0|4,1:2|2:0,2:0:0:0:
162,222,39996,2,0,L|99:229,1,63.0000000000001,8|4,2:0|2:0,2:0:0:0:
18,245,40360,1,0,1:2:0:0:
137,133,40723,2,0,P|192:133|245:183,1,126,8|0,2:0|1:2,2:0:0:0:
313,135,41269,5,4,2:0:0:0:
313,135,41450,2,0,P|344:143|378:134,1,63.0000000000001,8|4,2:0|2:0,2:0:0:0:
431,194,41814,2,0,P|462:186|496:195,1,63.0000000000001,0|4,1:2|2:0,2:0:0:0:
465,273,42178,1,8,2:0:0:0:
465,273,42360,1,4,2:0:0:0:
496,348,42541,6,0,P|465:354|435:346,1,63.0000000000001,0|4,1:2|2:0,2:0:0:0:
368,298,42905,2,0,P|337:291|307:299,1,63.0000000000001,8|4,2:0|2:0,2:0:0:0:
238,344,43269,1,0,1:2:0:0:
81,296,43632,2,0,P|72:262|80:229,1,63.0000000000001,8|4,2:0|2:0,2:0:0:0:
106,206,43905,1,8,2:0:0:0:
106,206,43996,5,4,1:2:0:0:
52,143,44178,1,4,2:0:0:0:
85,68,44360,2,0,L|147:73,1,63.0000000000001,8|4,2:0|2:0,2:0:0:0:
203,133,44723,2,0,L|197:195,1,63.0000000000001,0|4,1:2|2:0,2:0:0:0:
262,254,45087,1,8,2:0:0:0:
262,254,45269,1,4,2:0:0:0:
335,218,45450,6,0,L|340:155,1,63.0000000000001,0|4,1:2|2:0,2:0:0:0:
400,99,45814,2,0,L|462:104,1,63.0000000000001,8|4,2:0|2:0,2:0:0:0:
510,36,46178,1,0,1:2:0:0:
349,2,46541,2,0,L|224:12,1,94.5000000000001,8|0,2:0|2:0,2:0:0:0:
233,45,46905,6,0,L|170:50,1,63.0000000000001,0|4,1:2|2:0,2:0:0:0:
130,122,47269,2,0,P|87:71|106:2,2,126,8|0|8,2:0|1:2|2:0,2:0:0:0:
282,183,48360,6,0,L|344:177,1,63.0000000000001,0|4,1:2|2:0,2:0:0:0:
423,201,48723,2,0,P|426:169|414:137,2,63.0000000000001,8|4|0,2:0|2:0|3:0,2:0:0:0:
366,261,49269,2,0,L|334:263,2,31.5,0|0|8,3:0|3:0|2:0,2:0:0:0:
443,287,49632,1,0,1:2:0:0:
411,359,49814,6,0,L|313:367,1,97.9999999999999,6|2,1:2|2:0,2:0:0:0:
246,324,50360,1,0,1:2:0:0:
246,324,50541,2,0,L|180:329,1,48.9999999999999,2|0,1:2|2:0,2:0:0:0:
118,334,50905,1,10,2:0:0:0:
91,183,51269,1,2,1:2:0:0:
91,183,51450,2,0,L|96:249,1,48.9999999999999,2|0,2:0|2:0,2:0:0:0:
50,297,51814,2,0,B|17:269|17:269|8:155,1,147,2|10,1:2|2:0,2:0:0:0:
0,91,52541,1,2,2:0:0:0:
0,91,52723,5,2,1:2:0:0:
147,37,53087,2,0,L|139:153,1,97.9999999999999,2|2,2:0|1:2,1:2:0:0:
195,190,53632,1,2,2:0:0:0:
324,101,53996,6,0,P|379:101|421:137,1,97.9999999999999,2|2,2:0|2:0,2:0:0:0:
462,64,54541,1,2,2:0:0:0:
462,64,54723,2,0,P|491:121|442:200,1,147,2|8,2:0|2:0,2:0:0:0:
412,124,55450,1,2,2:0:0:0:
377,206,55632,6,0,L|384:283,1,56,6|0,1:2|2:0,2:0:0:0:
303,255,55996,2,0,L|310:332,1,56,10|0,2:0|2:0,2:0:0:0:
244,356,56360,2,0,P|193:327|140:344,2,112,2|10|2,1:2|2:0|1:2,2:0:0:0:
382,261,57450,2,0,L|459:254,1,56,10|0,2:0|2:0,2:0:0:0:
432,177,57814,2,0,L|376:182,1,56,2|0,1:2|2:0,2:0:0:0:
309,140,58178,2,0,P|301:111|304:82,1,56,10|0,2:0|1:2,2:0:0:0:
331,58,58450,1,0,1:2:0:0:
331,58,58541,5,6,1:2:0:0:
256,192,58723,12,4,59996,1:2:0:0:
344,349,61450,6,0,P|302:316|302:257,1,115.5,4|0,1:2|2:0,2:0:0:0:
336,226,61814,2,0,P|381:226|414:257,1,77,8|2,2:0|2:0,2:0:0:0:
460,169,62178,2,0,P|502:136|502:77,1,115.5,0|0,1:2|2:0,2:0:0:0:
468,46,62541,2,0,P|423:46|390:77,1,77,8|2,2:0|2:0,2:0:0:0:
333,129,62905,6,0,P|283:128|241:80,1,115.5,0|0,1:2|2:0,2:0:0:0:
204,53,63269,2,0,P|152:54|130:73,1,77,8|2,2:0|2:0,2:0:0:0:
68,2,63632,2,0,P|40:71|82:142,1,154,0|8,1:2|2:0,2:0:0:0:
57,228,64178,6,0,P|100:228|131:213,1,77,2|0,2:0|1:2,2:0:0:0:
188,291,64541,1,2,2:0:0:0:
188,291,64723,1,8,2:0:0:0:
273,254,64905,2,0,P|316:254|347:269,1,77,2|0,2:0|1:2,2:0:0:0:
403,347,65269,1,2,2:0:0:0:
403,347,65450,1,8,2:0:0:0:
475,289,65632,6,0,L|468:206,1,77,2|0,3:2|1:2,3:2:0:0:
396,161,65996,1,2,2:0:0:0:
396,161,66178,2,0,L|403:78,1,77,8|2,2:0|2:0,2:0:0:0:
329,27,66541,1,0,1:2:0:0:
251,77,66723,2,0,L|254:115,1,38.5,2|0,2:0|2:0,2:0:0:0:
288,147,66905,2,0,L|284:185,3,38.5,2|0|8|8,1:2|2:0|2:0|2:0,2:0:0:0:
244,208,67269,6,0,L|250:284,1,77,4|2,1:2|2:0,2:0:0:0:
272,378,67632,1,8,2:0:0:0:
272,378,67814,1,2,2:0:0:0:
323,298,67996,2,0,P|288:282|250:284,1,77,0|2,1:2|2:0,2:0:0:0:
185,351,68360,1,8,2:0:0:0:
94,334,68541,6,0,P|77:302|77:259,1,77,2|0,2:0|1:2,2:0:0:0:
20,194,68905,1,2,2:0:0:0:
70,116,69087,6,0,P|53:84|53:41,1,77,8|2,2:0|2:0,2:0:0:0:
141,20,69450,2,0,P|158:52|158:95,1,77,0|2,1:2|2:0,2:0:0:0:
133,181,69814,1,8,2:0:0:0:
222,158,69996,6,0,L|298:164,1,77,2|0,2:0|1:2,2:0:0:0:
353,89,70360,1,2,2:0:0:0:
436,128,70541,6,0,L|429:204,1,77,8|2,2:0|2:0,2:0:0:0:
365,272,70905,6,0,L|371:348,1,77,0|2,1:2|2:0,2:0:0:0:
286,323,71269,1,8,2:0:0:0:
286,323,71450,1,2,2:0:0:0:
203,365,71632,6,0,L|196:288,1,77,0|8,1:2|2:0,2:0:0:0:
189,195,71996,1,8,2:0:0:0:
183,110,72178,1,8,2:0:0:0:
183,110,72269,1,8,3:0:0:0:
183,110,72360,1,8,3:0:0:0:
166,19,72541,6,0,L|106:24,5,38.5,8|8|0|8|8|8,3:0|2:0|3:0|2:0|3:0|2:0,2:0:0:0:
107,64,73087,6,0,P|64:64|38:128,1,115.5,4|0,1:2|2:0,2:0:0:0:
70,155,73450,2,0,P|81:189|70:233,1,77,8|2,2:0|2:0,2:0:0:0:
30,311,73814,2,0,P|91:319|138:287,1,115.5,0|0,1:2|2:0,2:0:0:0:
177,309,74178,2,0,P|225:309|254:329,1,77,8|2,2:0|2:0,2:0:0:0:
321,266,74541,6,0,L|336:383,1,115.5,0|0,1:2|2:0,2:0:0:0:
371,350,74905,2,0,L|455:340,1,77,8|2,2:0|2:0,2:0:0:0:
473,247,75269,2,0,L|321:266,1,154,0|8,1:2|2:0,2:0:0:0:
250,206,75814,1,2,2:0:0:0:
232,115,75996,6,0,P|280:115|312:140,1,77,0|2,1:2|2:0,2:0:0:0:
362,58,76360,1,8,2:0:0:0:
442,102,76541,2,0,L|433:190,1,77,2|0,2:0|1:2,2:0:0:0:
359,234,76905,2,0,L|368:322,1,77,2|8,2:0|2:0,2:0:0:0:
290,363,77269,6,0,P|242:363|206:337,1,77,2|0,3:2|1:2,3:0:0:0:
163,280,77632,1,2,2:0:0:0:
163,280,77814,1,8,2:0:0:0:
134,367,77996,2,0,P|75:313|85:235,1,154,2|2,2:0|2:0,2:0:0:0:
155,192,78541,2,0,L|213:197,3,38.5,2|8|10|8,1:2|2:0|2:0|2:0,2:0:0:0:
230,167,78905,6,0,L|318:176,1,77,4|2,1:2|2:0,2:0:0:0:
387,220,79269,2,0,P|399:170|385:128,1,77,8|2,2:0|2:0,2:0:0:0:
325,84,79632,2,0,L|248:76,1,77,0|2,1:2|2:0,2:0:0:0:
178,14,79996,1,8,2:0:0:0:
102,67,80178,2,0,L|109:143,1,77,2|0,3:2|1:2,2:0:0:0:
58,220,80541,1,2,2:0:0:0:
131,276,80723,2,0,L|138:352,1,77,8|2,2:0|2:0,2:0:0:0:
216,301,81087,2,0,P|260:301|293:321,1,77,0|2,1:2|2:0,2:0:0:0:
362,261,81450,1,8,2:0:0:0:
368,353,81632,6,0,P|439:309|439:227,1,154,2|2,3:2|2:0,2:0:0:0:
389,170,82178,2,0,P|370:138|370:96,1,77,8|2,2:0|2:0,2:0:0:0:
439,39,82541,2,0,P|458:71|458:109,1,77,0|2,1:2|2:0,2:0:0:0:
389,170,82905,1,8,2:0:0:0:
389,170,83087,1,2,2:0:0:0:
297,156,83269,6,0,L|210:169,1,77,0|8,1:2|2:0,2:0:0:0:
189,254,83632,2,0,L|112:242,1,77,8|8,2:0|2:0,2:0:0:0:
70,236,83905,1,4,3:0:0:0:
70,236,83996,1,0,3:0:0:0:
20,157,84178,2,0,L|25:118,5,38.5,0|8|0|8|0|8,3:0|2:0|3:0|2:0|3:0|2:0,2:0:0:0:
31,77,84723,6,0,L|148:92,1,105,4|0,1:2|2:0,2:0:0:0:
164,59,85087,2,0,L|255:70,1,70,8|2,2:0|2:0,2:0:0:0:
314,45,85450,2,0,L|300:149,1,105,0|0,1:0|2:0,2:0:0:0:
269,177,85814,2,0,L|277:246,1,70,8|2,2:0|2:0,2:0:0:0:
203,286,86178,6,0,L|194:216,1,70,0|2,1:0|2:0,2:0:0:0:
110,218,86541,2,0,L|118:287,1,70,8|2,2:0|2:0,2:0:0:0:
41,315,86905,1,0,1:2:0:0:
41,315,87087,2,0,L|32:245,2,70,2|8|2,2:0|2:0|2:0,2:0:0:0:
99,375,87632,6,0,L|216:360,1,105,0|0,1:0|2:0,2:0:0:0:
230,329,87996,2,0,L|321:340,1,70,8|2,2:0|2:0,2:0:0:0:
334,260,88360,2,0,L|217:245,1,105,0|0,1:0|2:0,2:0:0:0:
201,215,88723,2,0,L|109:226,1,70,8|2,2:0|2:0,2:0:0:0:
59,267,89087,6,0,L|47:175,1,70,0|2,1:0|2:0,2:0:0:0:
114,143,89450,2,0,L|183:134,2,70,8|2|0,2:0|2:0|1:0,2:0:0:0:
53,83,89996,1,10,2:0:0:0:
100,13,90178,2,0,L|134:8,3,35,0|8|8|8,1:2|2:0|2:0|2:0,2:0:0:0:
172,25,90541,6,0,P|232:25|272:64,1,105,4|0,1:2|2:0,2:0:0:0:
307,55,90905,2,0,P|315:91|309:127,1,70,8|2,2:0|2:0,2:0:0:0:
376,176,91269,2,0,P|334:206|282:203,1,105,0|0,1:2|2:0,2:0:0:0:
244,186,91632,2,0,P|237:220|245:257,1,70,8|2,2:0|2:0,2:0:0:0:
175,304,91996,6,0,P|200:327|236:338,1,70,0|2,1:2|2:0,2:0:0:0:
302,288,92360,2,0,P|276:264|240:253,1,70,8|2,2:0|2:0,2:0:0:0:
233,338,92723,2,0,P|258:361|294:372,1,70,0|2,1:2|2:0,2:0:0:0:
371,338,93087,1,8,2:0:0:0:
371,338,93269,1,2,2:0:0:0:
451,361,93450,6,0,B|474:327|474:327|463:251,1,105,0|0,1:2|2:0,2:0:0:0:
428,241,93814,2,0,L|421:163,1,70,8|2,2:0|2:0,2:0:0:0:
359,113,94178,2,0,B|336:147|336:147|347:223,1,105,0|0,1:2|2:0,2:0:0:0:
310,233,94541,2,0,L|316:302,1,70,8|2,2:0|2:0,2:0:0:0:
257,363,94905,5,0,1:2:0:0:
257,363,95087,1,8,2:0:0:0:
207,294,95269,1,8,1:2:0:0:
136,331,95450,1,8,2:0:0:0:
136,331,95541,1,4,3:0:0:0:
136,331,95632,1,0,1:2:0:0:
79,268,95814,2,0,P|31:271|6:288,2,70,8|8|8,3:0|3:0|3:0,2:0:0:0:
136,331,96360,1,0,1:2:0:0:
326,268,107996,6,0,P|315:310|338:355,2,84,4|0|2,1:2|3:2|2:0,2:0:0:0:
402,233,108723,2,0,P|443:221|471:179,2,84,0|0|2,1:2|3:0|2:0,2:0:0:0:
332,186,109450,2,0,P|301:155|250:152,2,84,0|0|2,1:2|3:0|2:0,2:0:0:0:
326,268,110178,1,0,1:2:0:0:
179,349,110541,1,8,2:0:0:0:
38,256,110905,6,0,L|28:176,1,56,0|2,1:2|3:2,2:0:0:0:
26,162,111178,1,0,3:0:0:0:
26,162,111269,1,8,2:0:0:0:
13,79,111450,1,2,2:0:0:0:
90,112,111632,2,0,P|154:112|194:74,1,112,0|8,1:2|2:0,2:0:0:0:
238,152,112178,1,2,2:0:0:0:
311,110,112360,6,0,P|354:110|392:133,2,84,0|0|2,1:2|3:0|2:0,2:0:0:0:
332,191,113087,1,0,1:2:0:0:
491,243,113450,1,8,2:0:0:0:
426,294,113632,1,2,2:0:0:0:
426,294,113723,1,0,3:0:0:0:
426,294,113814,6,0,L|435:384,2,84,4|0|2,1:2|3:0|2:0,2:0:0:0:
356,246,114541,2,0,L|364:162,2,84,0|0|2,1:2|3:0|2:0,2:0:0:0:
296,306,115269,6,0,L|237:300,1,56,0|2,1:2|3:2,2:0:0:0:
208,273,115541,2,0,L|152:278,1,56,0|0,3:0|2:0,2:0:0:0:
109,282,115814,1,2,2:0:0:0:
48,340,115996,2,0,P|23:280|46:227,1,112,0|8,1:2|2:0,2:0:0:0:
121,92,116723,6,0,P|87:72|31:72,2,84,0|0|2,1:2|3:0|2:0,2:0:0:0:
192,136,117450,2,0,P|233:133|269:112,2,84,0|0|2,1:2|3:0|2:0,2:0:0:0:
119,180,118178,6,0,L|128:243,1,56,4|0,1:2|2:0,2:0:0:0:
207,260,118541,2,0,L|198:323,1,56,0|8,1:2|2:0,2:0:0:0:
228,352,118814,1,8,2:0:0:0:
228,352,118905,2,0,L|283:359,1,56,0|0,3:0|3:0,2:0:0:0:
346,304,119269,2,0,L|401:296,1,56,0|0,3:0|3:0,2:0:0:0:
461,246,119632,6,0,B|483:216|483:216|476:142,1,97.9999999999999,6|2,1:2|2:0,2:0:0:0:
401,135,120178,1,0,1:2:0:0:
401,135,120360,2,0,L|405:193,1,48.9999999999999,2|0,1:2|2:0,2:0:0:0:
382,259,120723,1,10,2:0:0:0:
266,168,121087,5,2,1:2:0:0:
266,168,121269,2,0,P|217:168|170:201,1,97.9999999999999,2|2,2:0|1:2,2:0:0:0:
108,153,121814,2,0,P|98:198|127:254,1,97.9999999999999,0|10,1:2|2:0,1:2:0:0:
195,275,122360,1,2,2:0:0:0:
195,275,122541,5,2,1:2:0:0:
58,352,122905,2,0,L|49:295,1,48.9999999999999,2|0,2:0|1:2,2:0:0:0:
7,237,123269,1,2,1:2:0:0:
7,237,123450,2,0,L|25:121,2,97.9999999999999,2|2|2,2:0|2:0|2:0,2:0:0:0:
85,227,124360,2,0,L|92:178,2,48.9999999999999,2|2|0,2:0|1:2|1:2,2:0:0:0:
162,217,124905,1,8,2:0:0:0:
162,217,125087,1,8,2:0:0:0:
281,350,125450,6,0,P|321:350|365:325,1,84,6|0,1:2|2:0,2:0:0:0:
388,298,125814,2,0,L|458:307,1,56,10|0,2:0|1:2,2:0:0:0:
488,233,126178,2,0,L|368:216,2,112,2|8|2,1:2|2:0|1:2,2:0:0:0:
417,85,127269,5,8,2:0:0:0:
417,85,127450,1,0,1:2:0:0:
350,137,127632,2,0,L|294:144,1,56,2|0,1:2|2:0,2:0:0:0:
235,204,127996,2,0,L|244:274,1,56,8|0,2:0|1:2,2:0:0:0:
278,280,128269,1,0,1:2:0:0:
278,280,128360,6,0,L|269:350,3,56,4|0|8|0,1:2|2:0|2:0|1:2,2:0:0:0:
208,381,129087,1,8,2:0:0:0:
208,381,129269,1,0,1:2:0:0:
134,354,129450,1,8,2:0:0:0:
89,289,129632,1,0,1:2:0:0:
110,213,129814,1,6,1:2:0:0:
130,198,130541,2,0,L|121:165,3,35,8|8|8|8,1:2|2:0|2:0|2:0,2:0:0:0:
107,138,130905,2,0,L|123:91,3,35,8|8|8|8,1:2|2:0|2:0|2:0,2:0:0:0:
102,75,131269,6,0,P|56:41|6:53,1,105,6|2,1:2|2:0,2:0:0:0:
38,159,131996,2,0,P|84:193|134:181,1,105,2|2,2:0|2:0,2:0:0:0:
128,184,132723,5,2,1:2:0:0:
229,155,133087,1,2,2:0:0:0:
290,239,133450,1,2,2:0:0:0:
290,239,133996,6,0,L|399:223,1,105,2|2,2:0|2:0,2:0:0:0:
431,186,134541,2,0,L|493:196,1,52.5000000000001,2|2,2:0|2:0,2:0:0:0:
439,98,135087,2,0,L|387:106,2,52.5000000000001,2|2|2,2:0|2:0|2:0,2:0:0:0:
495,11,135814,5,2,2:0:0:0:
495,11,135996,1,2,2:0:0:0:
439,98,136360,1,2,2:0:0:0:
247,57,137087,6,0,L|231:163,2,97.9999999999999,4|0|2,1:2|1:2|1:2,2:0:0:0:
131,3,138178,1,0,1:2:0:0:
135,118,138541,2,0,L|149:229,1,97.9999999999999,0|2,1:2|1:2,1:2:0:0:
38,201,139269,2,0,P|38:249|68:288,1,97.9999999999999,2|0,1:2|1:2,1:2:0:0:
179,347,139996,6,0,L|233:355,1,48.9999999999999,4|10,1:2|1:2,2:0:0:0:
281,297,140360,2,0,L|335:305,1,48.9999999999999,10|10,1:2|1:2,2:0:0:0:
368,236,140723,2,0,L|422:244,1,48.9999999999999,10|10,1:2|1:2,2:0:0:0:
479,194,141087,1,10,1:2:0:0:
479,194,141269,1,10,1:2:0:0:
454,119,141450,5,10,2:0:0:0:
308,61,141814,1,10,2:0:0:0:
222,192,142178,1,4,1:2:0:0:
222,192,142269,1,0,3:2:0:0:
222,192,142360,1,8,2:0:0:0:
156,150,142541,2,0,L|128:154,3,24.5,8|8|8|8,1:2|2:0|2:0|2:0,2:0:0:0:
84,133,142905,1,0,1:2:0:0:
84,133,143087,1,0,1:2:0:0:
121,65,143269,6,0,L|222:55,1,77,4|2,1:2|2:0,2:0:0:0:
267,118,143632,2,0,L|395:135,1,115.5,0|0,1:2|2:0,2:0:0:0:
421,108,143996,2,0,L|409:197,1,77,8|2,2:0|2:0,2:0:0:0:
327,226,144360,6,0,L|342:340,1,115.5,0|0,1:2|2:0,2:0:0:0:
311,374,144723,2,0,L|221:385,1,77,8|2,2:0|2:0,2:0:0:0:
169,316,145087,2,0,B|97:345|97:345|38:282,1,154,0|8,1:2|2:0,2:0:0:0:
94,211,145632,6,0,B|130:202|130:202|168:236,1,77,2|0,2:0|1:2,2:0:0:0:
229,166,145996,1,2,2:0:0:0:
229,166,146178,1,8,2:0:0:0:
310,209,146360,2,0,L|399:197,1,77,2|0,2:0|1:2,2:0:0:0:
437,123,146723,1,2,2:0:0:0:
437,123,146905,1,8,2:0:0:0:
363,63,147087,6,0,P|344:135|386:198,1,154,2|2,2:0|2:0,2:0:0:0:
464,246,147632,2,0,P|472:286|455:331,1,77,8|2,2:0|2:0,2:0:0:0:
382,368,147996,1,0,1:2:0:0:
312,306,148178,2,0,L|273:311,1,38.5,2|0,2:0|2:0,2:0:0:0:
236,282,148360,2,0,L|197:287,3,38.5,2|8|8|8,1:2|2:0|2:0|2:0,2:0:0:0:
153,274,148723,6,0,L|163:350,1,77,4|2,1:2|2:0,2:0:0:0:
70,361,149087,2,0,L|59:284,1,77,8|2,2:0|2:0,2:0:0:0:
11,205,149450,2,0,P|46:146|91:177,1,115.5,0|0,1:2|2:0,2:0:0:0:
117,184,149814,5,8,2:0:0:0:
117,184,149996,2,0,P|162:184|195:163,1,77,2|0,2:0|1:2,2:0:0:0:
243,93,150360,1,2,2:0:0:0:
163,46,150541,2,0,P|118:46|85:67,1,77,8|2,2:0|2:0,2:0:0:0:
6,23,150905,2,0,L|23:150,1,115.5,0|0,1:2|2:0,2:0:0:0:
30,183,151269,5,8,2:0:0:0:
98,243,151450,2,0,L|87:319,1,77,2|0,2:0|1:2,2:0:0:0:
162,374,151814,1,2,2:0:0:0:
224,305,151996,2,0,L|300:315,1,77,8|2,2:0|2:0,2:0:0:0:
337,229,152360,2,0,L|260:218,1,77,0|2,1:2|2:0,2:0:0:0:
217,136,152723,2,0,L|140:146,1,77,8|2,2:0|2:0,2:0:0:0:
72,90,153087,5,0,1:2:0:0:
72,90,153269,1,10,2:0:0:0:
124,14,153450,2,0,L|200:24,1,77,8|8,2:0|2:0,2:0:0:0:
250,35,153723,1,0,2:0:0:0:
250,35,153814,1,0,3:2:0:0:
313,102,153996,2,0,L|308:132,2,25.6666666666667,8|0|0,2:0|2:0|2:0,2:0:0:0:
337,83,154178,2,0,L|375:89,3,38.5,0|0|0|0,3:2|2:0|3:0|2:0,2:0:0:0:
415,66,154541,6,0,P|461:66|495:127,1,115.5,4|0,1:2|2:0,2:0:0:0:
460,151,154905,2,0,P|452:189|471:229,1,77,8|2,2:0|2:0,2:0:0:0:
378,253,155269,2,0,P|397:306|377:366,1,115.5,0|0,1:2|2:0,2:0:0:0:
335,350,155632,2,0,L|257:360,1,77,8|2,2:0|2:0,2:0:0:0:
263,268,155996,6,0,L|377:252,1,115.5,0|0,1:2|2:0,2:0:0:0:
410,218,156360,2,0,L|400:141,1,77,8|2,2:0|2:0,2:0:0:0:
456,68,156723,2,0,P|385:43|322:88,1,154,0|8,1:2|2:0,2:0:0:0:
251,25,157269,1,2,2:0:0:0:
246,116,157450,6,0,L|169:125,1,77,0|2,1:2|2:0,2:0:0:0:
97,67,157814,1,8,2:0:0:0:
38,138,157996,2,0,P|38:181|58:212,1,77,2|0,2:0|1:2,2:0:0:0:
7,290,158360,1,2,2:0:0:0:
7,290,158541,1,8,2:0:0:0:
75,351,158723,6,0,P|139:319|192:373,1,154,2|2,2:0|2:0,2:0:0:0:
265,314,159269,1,8,2:0:0:0:
213,237,159450,2,0,L|224:148,1,77,2|0,2:0|1:2,2:0:0:0:
235,68,159814,1,2,1:2:0:0:
150,104,159996,2,0,L|144:59,3,38.5,2|8|8|8,1:2|2:0|2:0|2:0,2:0:0:0:
114,37,160360,5,4,1:2:0:0:
114,37,160541,1,2,2:0:0:0:
37,88,160723,2,0,L|46:164,1,77,8|2,2:0|2:0,2:0:0:0:
121,219,161087,2,0,L|106:333,1,115.5,0|0,1:2|2:0,2:0:0:0:
139,366,161450,5,8,2:0:0:0:
204,301,161632,2,0,P|247:301|286:324,1,77,2|0,2:0|1:2,2:0:0:0:
362,351,161996,1,2,2:0:0:0:
417,277,162178,2,0,P|460:277|499:254,1,77,8|2,2:0|2:0,2:0:0:0:
439,184,162541,2,0,P|466:136|446:76,1,115.5,0|0,1:2|2:0,2:0:0:0:
413,51,162905,5,8,2:0:0:0:
413,51,163087,1,2,2:0:0:0:
326,83,163269,2,0,P|312:121|326:164,1,77,0|2,1:2|2:0,1:2:0:0:
227,159,163632,2,0,L|242:244,1,77,8|2,2:0|2:0,2:0:0:0:
149,213,163996,2,0,L|162:288,1,77,0|2,1:2|2:0,2:0:0:0:
70,271,164360,2,0,L|83:346,2,77,8|2|0,2:0|2:0|1:2,2:0:0:0:
55,183,164905,5,8,2:0:0:0:
55,183,165087,1,0,1:2:0:0:
36,92,165269,2,0,L|29:54,2,38.5,8|8|0,2:0|3:0|3:0,2:0:0:0:
124,117,165632,6,0,L|127:91,2,25.6666666666667,0|0|0,3:0|2:0|2:0,2:0:0:0:
141,142,165814,2,0,L|178:148,3,38.5,0|0|0|0,3:0|2:0|3:0|2:0,2:0:0:0:
216,128,166178,6,0,L|231:246,1,105,4|0,1:2|2:0,2:0:0:0:
268,248,166541,2,0,L|259:317,1,70,8|2,2:0|2:0,2:0:0:0:
335,353,166905,2,0,L|348:248,1,105,0|0,1:2|2:0,2:0:0:0:
382,224,167269,2,0,L|451:232,1,70,8|2,2:0|2:0,2:0:0:0:
461,149,167632,6,0,L|391:140,1,70,0|2,1:2|2:0,2:0:0:0:
341,71,167996,2,0,L|271:79,1,70,8|2,2:0|2:0,2:0:0:0:
191,52,168360,1,0,1:2:0:0:
191,52,168541,2,0,P|187:99|203:128,2,70,2|8|2,2:0|2:0|2:0,2:0:0:0:
271,78,169087,6,0,L|286:196,1,105,0|0,1:2|2:0,2:0:0:0:
323,197,169450,2,0,L|332:128,1,70,8|2,2:0|2:0,2:0:0:0:
416,123,169814,2,0,L|401:241,1,105,0|0,1:2|2:0,2:0:0:0:
423,264,170178,2,0,L|492:273,1,70,8|2,2:0|2:0,2:0:0:0:
477,355,170541,6,0,L|408:346,1,70,0|2,1:2|2:0,2:0:0:0:
344,290,170905,2,0,L|275:299,2,70,8|2|0,2:0|2:0|1:2,2:0:0:0:
366,209,171450,1,8,2:0:0:0:
291,170,171632,2,0,L|286:135,3,35,8|8|8|8,2:0|2:0|2:0|2:0,2:0:0:0:
276,94,171996,6,0,P|233:94|186:53,1,105,4|0,1:2|2:0,2:0:0:0:
150,34,172360,2,0,P|106:33|74:56,1,70,8|4,2:0|2:0,2:0:0:0:
3,23,172723,2,0,P|3:76|40:123,1,105,0|0,1:2|2:0,2:0:0:0:
68,138,173087,2,0,P|112:139|144:116,1,70,8|4,2:0|2:0,2:0:0:0:
192,187,173450,6,0,P|236:186|268:209,1,70,0|4,1:2|2:0,2:0:0:0:
282,279,173814,2,0,P|238:280|206:257,1,70,8|4,2:0|2:0,2:0:0:0:
257,198,174178,2,0,P|301:197|333:220,1,70,0|4,1:2|2:0,2:0:0:0:
402,176,174541,1,8,2:0:0:0:
402,176,174723,1,4,2:0:0:0:
442,249,174905,6,0,P|478:207|478:142,1,105,0|0,1:2|2:0,2:0:0:0:
464,120,175269,2,0,P|437:98|399:90,1,70,8|4,2:0|2:0,2:0:0:0:
341,32,175632,2,0,P|320:80|335:135,1,105,0|0,1:2|2:0,2:0:0:0:
322,171,175996,2,0,P|349:193|387:201,1,70,8|4,2:0|2:0,2:0:0:0:
450,259,176360,5,0,1:2:0:0:
450,259,176541,1,12,2:0:0:0:
405,330,176723,1,8,2:0:0:0:
334,306,176905,1,8,2:0:0:0:
334,306,176996,1,8,3:0:0:0:
334,306,177087,1,8,1:2:0:0:
264,353,177269,2,0,L|210:342,5,35,8|8|8|8|8|8,2:0|2:0|1:2|2:0|2:0|2:0,2:0:0:0:
193,364,177814,6,0,L|183:295,1,67.1999999999998,4|0,1:2|2:0,2:0:0:0:
99,307,178178,2,0,L|109:238,1,67.1999999999998,8|0,2:0|2:0,2:0:0:0:
84,157,178541,2,0,L|153:167,1,67.1999999999998,0|0,1:2|2:0,2:0:0:0:
211,106,178905,1,8,2:0:0:0:
211,106,179087,1,2,2:0:0:0:
239,188,179269,6,0,L|308:198,1,67.1999999999998,0|0,1:2|2:0,2:0:0:0:
356,266,179632,2,0,L|425:256,1,67.1999999999998,8|0,2:0|2:0,2:0:0:0:
507,236,179996,1,12,2:0:0:0:
469,69,180360,1,12,2:0:0:0:
469,69,180541,1,0,1:2:0:0:
387,46,180723,6,0,P|387:85|408:120,1,67.1999999999998,0|0,1:2|2:0,2:0:0:0:
322,144,181087,2,0,P|322:183|301:218,1,67.1999999999998,8|0,2:0|2:0,2:0:0:0:
263,280,181450,2,0,P|263:319|284:354,1,67.1999999999998,0|0,1:2|2:0,2:0:0:0:
359,378,181814,1,8,2:0:0:0:
359,378,181996,1,2,2:0:0:0:
421,316,182178,6,0,P|421:277|400:242,1,67.1999999999998,0|0,1:2|2:0,2:0:0:0:
463,188,182541,6,0,P|429:168|388:169,1,67.1999999999998,8|0,2:0|2:0,2:0:0:0:
407,249,182905,1,12,2:0:0:0:
259,343,183269,1,12,1:2:0:0:
242,345,183360,1,8,2:0:0:0:
225,343,183450,1,8,2:0:0:0:
208,337,183541,1,8,2:0:0:0:
194,330,183632,6,0,L|187:252,1,67.1999999999998,0|0,1:2|2:0,2:0:0:0:
103,267,183996,2,0,L|109:197,1,67.1999999999998,8|0,2:0|2:0,2:0:0:0:
26,212,184360,2,0,L|19:142,1,67.1999999999998,0|0,1:2|2:0,2:0:0:0:
12,62,184723,1,8,2:0:0:0:
12,62,184905,1,4,2:0:0:0:
90,101,185087,6,0,P|121:86|156:87,1,67.1999999999998,0|0,1:2|2:0,2:0:0:0:
206,154,185450,2,0,P|237:168|272:167,1,67.1999999999998,8|0,2:0|2:0,2:0:0:0:
326,103,185814,1,12,2:0:0:0:
471,209,186178,1,12,2:0:0:0:
471,209,186360,1,0,1:2:0:0:
470,209,186541,6,0,P|439:224|405:223,1,67.1999999999998,0|0,1:2|2:0,2:0:0:0:
338,274,186905,2,0,L|349:352,1,67.1999999999998,8|4,2:0|2:0,2:0:0:0:
262,364,187269,2,0,L|252:297,1,67.1999999999998,0|4,1:2|2:0,2:0:0:0:
240,215,187632,1,8,2:0:0:0:
240,215,187814,1,4,2:0:0:0:
220,129,187996,5,12,2:0:0:0:
389,89,188360,1,12,2:0:0:0:
220,40,188723,1,12,2:0:0:0:
343,164,189087,2,0,L|337:220,3,33.5999999999999,12|8|8|8,2:0|2:0|2:0|2:0,2:0:0:0:
364,233,189450,6,0,P|423:209|452:269,2,134.4,4|8|8,1:2|2:0|2:0,2:0:0:0:
233,349,190541,2,0,P|174:325|86:314,2,134.4,8|8|8,2:0|2:0|2:0,2:0:0:0:
364,233,191632,1,12,2:0:0:0:
