osu file format v14

[General]
AudioFilename: audio.mp3
AudioLeadIn: 0
PreviewTime: 131269
Countdown: 0
SampleSet: Soft
StackLeniency: 0.7
Mode: 0
LetterboxInBreaks: 0
WidescreenStoryboard: 1

[Editor]
Bookmarks: 14905,26541,38178,49814,61450,73087,84723,96360,107996,119632,131269,142905,154541,166178,177814
DistanceSpacing: 0.3
BeatDivisor: 4
GridSize: 32
TimelineZoom: 1

[Metadata]
Title:Secret UFO
TitleUnicode:ひみつのユーフォー
Artist:NayutalieN feat. KAFU
ArtistUnicode:ナユタン星人 feat. KAFU
Creator:v0ltia
Version:Insane
Source:
Tags:可不 japanese rock pop j-rock jrock KAF 花譜 kamitsubaki studio 神椿スタジオ kaf-u vocaloid female vocal synth cevio ai artificial singing Segula -__-_ -Lian- Abelia
BeatmapID:3511038
BeatmapSetID:1713789

[Difficulty]
HPDrainRate:5.2
CircleSize:3.8
OverallDifficulty:8.5
ApproachRate:8.8
SliderMultiplier:1.85
SliderTickRate:1

[Events]
//Background and Video events
0,0,"41ce2c1a-a38b-41f7-8639-385b82ad8d5b.png",0,0
//Break Periods
2,131469,136458
//Storyboard Layer 0 (Background)
//Storyboard Layer 1 (Fail)
//Storyboard Layer 2 (Pass)
//Storyboard Layer 3 (Foreground)
//Storyboard Layer 4 (Overlay)
//Storyboard Sound Samples

[TimingPoints]
360,363.636363636364,4,2,12,30,1,0
1814,-133.333333333333,4,2,12,50,0,0
13450,-100,4,2,22,70,0,0
13632,-100,4,2,14,70,0,0
14905,-125,4,2,22,82,0,0
26541,-133.333333333333,4,2,22,82,0,0
26723,-133.333333333333,4,2,12,70,0,0
26905,-133.333333333333,4,2,12,60,0,0
28995,-133.333333333333,4,2,12,5,0,0
29087,-66.6666666666667,4,2,12,60,0,0
29450,-133.333333333333,4,2,12,60,0,0
31996,-66.6666666666667,4,2,12,60,0,0
32360,-133.333333333333,4,2,12,60,0,0
34813,-133.333333333333,4,2,12,5,0,0
34905,-133.333333333333,4,2,12,60,0,0
37450,-133.333333333333,4,2,14,65,0,0
38178,-117.647058823529,4,2,12,65,0,0
38360,-117.647058823529,4,2,14,65,0,0
40723,-66.6666666666667,4,2,14,65,0,0
41087,-117.647058823529,4,2,14,65,0,0
43632,-66.6666666666667,4,2,14,65,0,0
43996,-117.647058823529,4,2,12,65,0,0
44178,-117.647058823529,4,2,14,65,0,0
49814,-117.647058823529,4,2,12,50,0,0
55904,-117.647058823529,4,2,12,5,0,0
55996,-117.647058823529,4,2,12,50,0,0
58905,-117.647058823529,4,2,12,70,0,0
59996,-250,4,2,12,70,0,0
60723,-117.647058823529,4,2,14,70,0,0
61450,-100,4,2,22,82,0,1
66723,-100,4,2,23,82,0,1
66996,-100,4,2,22,82,0,1
67087,-100,4,2,22,82,0,1
72360,-100,4,2,14,82,0,1
73087,-100,4,2,22,82,0,1
78360,-100,4,2,23,82,0,1
78632,-100,4,2,22,82,0,1
83996,-100,4,2,14,82,0,1
84723,-111.111111111111,4,2,22,82,0,0
84905,-111.111111111111,4,2,14,82,0,0
85359,-111.111111111111,4,2,14,5,0,0
85450,-111.111111111111,4,2,14,82,0,0
86086,-111.111111111111,4,2,14,5,0,0
86178,-111.111111111111,4,2,14,82,0,0
88268,-111.111111111111,4,2,14,5,0,0
88360,-111.111111111111,4,2,14,82,0,0
88995,-111.111111111111,4,2,14,5,0,0
89087,-111.111111111111,4,2,14,82,0,0
90541,-111.111111111111,4,2,22,82,0,0
91177,-111.111111111111,4,2,22,5,0,0
91269,-111.111111111111,4,2,22,82,0,0
91904,-111.111111111111,4,2,22,5,0,0
91996,-111.111111111111,4,2,22,82,0,0
94086,-111.111111111111,4,2,22,5,0,0
94178,-111.111111111111,4,2,22,82,0,0
94813,-111.111111111111,4,2,22,5,0,0
94905,-111.111111111111,4,2,22,82,0,0
96360,-117.647058823529,4,2,22,82,0,0
96541,-117.647058823529,4,2,14,82,0,0
102178,-117.647058823529,4,2,22,82,0,0
102360,-117.647058823529,4,2,14,82,0,0
107178,-117.647058823529,4,2,22,82,0,0
107269,-117.647058823529,4,2,14,82,0,0
107996,-125,4,2,22,52,0,0
108360,-117.647058823529,4,2,22,60,0,0
110541,-66.6666666666667,4,2,22,60,0,0
111087,-125,4,2,22,60,0,0
113450,-66.6666666666667,4,2,22,60,0,0
113814,-125,4,2,22,60,0,0
116360,-66.6666666666667,4,2,22,60,0,0
116723,-125,4,2,22,60,0,0
118905,-117.647058823529,4,2,14,60,0,0
119632,-142.857142857143,4,2,12,50,0,0
125087,-250.000000000001,4,2,12,50,0,0
125359,-250.000000000001,4,2,12,5,0,0
125450,-117.647058823529,4,2,12,60,0,0
127177,-117.647058823529,4,2,12,5,0,0
127269,-117.647058823529,4,2,12,60,0,0
128632,-117.647058823529,4,2,12,5,0,0
128723,-117.647058823529,4,2,12,70,0,0
129814,-133.333333333333,4,2,12,70,0,0
130450,-133.333333333333,4,2,12,5,0,0
130541,-133.333333333333,4,2,12,70,0,0
131269,-117.647058823529,4,2,12,50,0,0
137087,-133.333333333333,4,2,12,60,0,0
139996,-117.647058823529,4,2,12,70,0,0
141450,-133.333333333333,4,2,2,45,0,0
141541,-133.333333333333,4,2,2,5,0,0
141814,-133.333333333333,4,2,2,45,0,0
141905,-133.333333333333,4,2,2,5,0,0
142178,-117.647058823529,4,2,22,70,0,0
142995,-117.647058823529,4,2,22,5,0,0
143087,-117.647058823529,4,2,22,70,0,0
143177,-117.647058823529,4,2,22,5,0,0
143269,-100,4,2,22,82,0,1
148178,-100,4,2,23,82,0,1
148450,-100,4,2,22,82,0,1
153814,-100,4,2,14,82,0,1
154541,-100,4,2,22,82,0,1
154723,-100,4,2,14,82,0,1
159814,-100,4,2,23,82,0,1
160087,-100,4,2,22,82,0,1
165450,-100,4,2,14,82,0,1
166178,-111.111111111111,4,2,22,82,0,0
166360,-111.111111111111,4,2,14,82,0,0
166450,-111.111111111111,4,2,14,82,0,0
166541,-111.111111111111,4,2,14,82,0,0
166813,-111.111111111111,4,2,14,5,0,0
166905,-111.111111111111,4,2,14,82,0,0
167177,-111.111111111111,4,2,14,82,0,0
167269,-111.111111111111,4,2,14,82,0,0
167541,-111.111111111111,4,2,14,5,0,0
167632,-111.111111111111,4,2,14,82,0,0
169359,-111.111111111111,4,2,14,82,0,0
169450,-111.111111111111,4,2,14,82,0,0
169722,-111.111111111111,4,2,14,5,0,0
169814,-111.111111111111,4,2,14,82,0,0
170086,-111.111111111111,4,2,14,82,0,0
170178,-111.111111111111,4,2,14,82,0,0
170450,-111.111111111111,4,2,14,5,0,0
170541,-111.111111111111,4,2,14,82,0,0
171996,-111.111111111111,4,2,22,82,0,0
172178,-111.111111111111,4,2,14,82,0,0
172268,-111.111111111111,4,2,14,82,0,0
172632,-111.111111111111,4,2,14,5,0,0
172723,-111.111111111111,4,2,14,82,0,0
173359,-111.111111111111,4,2,14,5,0,0
173450,-111.111111111111,4,2,14,82,0,0
175541,-111.111111111111,4,2,14,5,0,0
175632,-111.111111111111,4,2,14,82,0,0
176268,-111.111111111111,4,2,14,5,0,0
176360,-111.111111111111,4,2,14,82,0,0
176996,-111.111111111111,4,2,22,82,0,0
177995,-117.647058823529,4,2,14,82,0,0
179996,-117.647058823529,4,2,22,82,0,0
180904,-117.647058823529,4,2,14,82,0,0
182905,-117.647058823529,4,2,22,82,0,0
183813,-117.647058823529,4,2,14,82,0,0
185814,-117.647058823529,4,2,22,82,0,0
186722,-117.647058823529,4,2,14,82,0,0
187996,-117.647058823529,4,2,22,82,0,0
188995,-117.647058823529,4,2,22,5,0,0
189087,-117.647058823529,4,2,22,82,0,0
189450,-117.647058823529,4,2,22,92,0,0

[Colours]
Combo1 : 0,196,196
Combo2 : 255,185,255
Combo3 : 255,0,0
Combo4 : 255,0,128

[HitObjects]
183,293,360,5,2,2:0:0:0:
197,263,723,1,2,1:2:0:0:
191,229,1087,1,2,0:0:0:0:
165,208,1450,1,2,1:2:0:0:
210,105,1814,6,0,P|266:91|338:27,1,138.750005292893,4|2,1:2|0:0,0:0:0:0:
354,191,2541,2,0,P|329:248|269:228,1,138.750005292893,2|2,0:0|0:0,0:0:0:0:
512,144,3269,2,0,P|466:117|374:111,2,138.750005292893,2|2|2,1:2|0:0|0:0,0:0:0:0:
352,232,4541,1,2,0:0:0:0:
268,338,4723,6,0,B|339:288|338:345|418:288,1,138.750005292893,2|2,1:2|0:0,0:0:0:0:
488,242,5269,1,2,0:0:0:0:
394,161,5450,2,0,P|358:152|315:118,1,69.3750026464463,2|2,0:0|0:0,0:0:0:0:
268,40,5814,1,2,0:0:0:0:
268,40,5996,1,2,0:0:0:0:
211,204,6178,6,0,P|267:180|347:118,1,138.750005292893,2|2,1:2|0:0,0:0:0:0:
115,76,6905,1,2,0:0:0:0:
93,91,7269,1,2,0:0:0:0:
103,242,7632,6,0,B|98:196|131:174|131:174|178:153|174:101,2,138.750005292893,2|2|2,1:2|0:0|0:0,0:0:0:0:
308,291,9087,6,0,P|274:264|181:233,2,138.750005292893,2|2|2,1:2|0:0|0:0,0:0:0:0:
321,76,10360,1,2,0:0:0:0:
240,107,10541,6,0,P|257:136|264:170,1,69.3750026464463,2|2,1:2|0:0,0:0:0:0:
308,291,10905,2,0,P|320:253|340:212,1,69.3750026464463,2|2,0:0|0:0,0:0:0:0:
451,322,11269,6,0,P|414:304|377:318,1,69.3750026464463,2|2,1:2|0:0,0:0:0:0:
270,366,11632,2,0,P|238:332|198:321,1,69.3750026464463,2|2,0:0|0:0,0:0:0:0:
75,318,11996,6,0,P|100:269|133:172,2,138.750005292893,2|2|2,1:2|0:0|0:0,0:0:0:0:
69,189,13450,6,0,P|119:178|171:160,1,92.5,2|8,1:2|3:0,2:0:0:0:
280,200,13814,5,8,3:0:0:0:
206,259,13996,1,8,3:0:0:0:
111,284,14178,5,8,3:2:0:0:
225,332,14360,1,8,3:2:0:0:
128,202,14541,5,8,3:2:0:0:
302,128,14905,5,4,1:2:0:0:
368,48,15087,1,2,2:0:0:0:
433,181,15269,2,0,P|372:197|333:216,1,74,8|2,2:0|2:0,0:0:0:0:
279,268,15632,2,0,P|231:247|179:233,1,74,0|2,1:2|2:0,2:0:0:0:
192,104,15996,2,0,P|222:154|205:181,1,74,8|2,2:0|2:0,2:0:0:0:
86,270,16360,5,0,1:2:0:0:
144,190,16541,1,2,2:0:0:0:
57,98,16723,2,0,P|47:132|30:180,1,74,8|2,2:0|2:0,0:0:0:0:
192,104,17087,5,12,2:0:0:0:
298,35,17269,1,0,1:2:0:0:
167,19,17450,5,12,2:0:0:0:
321,89,17632,1,0,1:2:0:0:
325,232,17814,5,0,1:2:0:0:
272,169,17996,1,2,2:0:0:0:
379,78,18178,2,0,P|427:71|465:64,1,74,8|2,2:0|2:0,0:0:0:0:
417,236,18541,2,0,P|369:229|331:222,1,74,0|2,1:2|2:0,2:0:0:0:
224,96,18905,2,0,P|269:132|253:172,1,74,8|2,2:0|2:0,2:0:0:0:
257,251,19269,1,0,1:2:0:0:
257,251,19450,1,2,2:0:0:0:
119,225,19632,5,8,2:0:0:0:
200,172,19814,1,0,1:2:0:0:
30,238,19996,5,12,2:0:0:0:
82,311,20178,1,0,1:2:0:0:
159,367,20360,5,12,1:2:0:0:
174,354,20450,1,8,2:0:0:0:
186,343,20541,2,0,P|224:328|246:330,1,37,8|8,2:0|2:0,0:0:0:0:
356,322,20723,5,0,1:2:0:0:
284,379,20905,1,2,2:0:0:0:
270,264,21087,2,0,P|293:209|303:164,1,74,8|2,2:0|2:0,0:0:0:0:
372,60,21450,1,0,1:2:0:0:
434,134,21632,1,2,2:0:0:0:
284,103,21814,2,0,P|248:91|215:76,1,74,8|2,2:0|2:0,2:0:0:0:
120,201,22178,2,0,P|155:189|188:174,1,74,0|2,1:2|2:0,1:2:0:0:
75,59,22541,2,0,P|46:88|57:137,1,74,8|2,2:0|2:0,0:0:0:0:
49,237,22905,5,12,2:0:0:0:
140,320,23087,1,0,1:2:0:0:
191,248,23269,5,12,2:0:0:0:
67,347,23450,1,0,1:2:0:0:
219,363,23632,6,0,P|254:351|287:336,1,74,0|2,1:2|2:0,0:0:0:0:
418,268,23996,2,0,P|384:252|349:240,1,74,8|2,2:0|2:0,0:0:0:0:
241,178,24360,1,0,1:2:0:0:
253,199,24541,1,2,2:0:0:0:
358,93,24723,2,0,P|346:128|331:161,1,74,8|2,2:0|2:0,2:0:0:0:
262,69,25087,5,12,2:0:0:0:
149,11,25269,1,0,1:2:0:0:
95,159,25450,5,12,2:0:0:0:
187,99,25632,1,0,1:2:0:0:
254,178,25814,6,0,B|243:230|243:230|246:235|246:235|226:316,1,111,12|0,2:0|2:0,2:0:0:0:
140,357,26178,5,8,1:2:0:0:
134,347,26269,1,8,2:0:0:0:
126,335,26360,2,0,P|146:322|184:327,1,37,8|8,2:0|2:0,0:0:0:0:
231,363,26541,5,4,1:2:0:0:
308,321,26723,1,2,2:0:0:0:
414,384,26905,2,0,P|454:354|458:318,1,69.3750026464463,10|2,2:0|1:2,2:0:0:0:
378,237,27269,2,0,P|389:290|393:327,1,69.3750026464463,2|2,1:2|2:0,0:0:0:0:
487,244,27632,2,2,P|498:191|502:154,1,69.3750026464463,10|2,2:0|2:0,2:0:0:0:
470,78,27996,1,2,1:2:0:0:
396,136,28178,1,2,2:0:0:0:
301,34,28360,2,0,P|351:34|370:66,1,69.3750026464463,10|2,2:0|1:2,0:0:0:0:
261,113,28723,2,0,B|217:127|217:127|215:132|215:132|150:152,1,104.06250396967,2|0,1:2|0:0,2:0:0:0:
127,270,29087,6,0,B|136:240|136:240|106:216|106:216|96:249|96:249|129:273,1,138.750005292893,10|0,2:0|2:0,2:0:0:0:
193,350,29450,5,0,1:2:0:0:
295,326,29632,1,2,2:0:0:0:
216,250,29814,2,2,P|207:299|200:328,1,69.3750026464463,10|2,2:0|1:2,2:0:0:0:
316,230,30178,2,0,P|314:187|270:162,1,69.3750026464463,2|2,1:2|2:0,0:0:0:0:
176,103,30541,2,2,P|178:146|222:171,1,69.3750026464463,10|2,2:0|2:0,2:0:0:0:
259,77,30905,1,2,1:2:0:0:
198,18,31087,1,2,2:0:0:0:
97,125,31269,1,10,2:0:0:0:
176,103,31450,1,2,1:2:0:0:
80,55,31632,2,0,P|69:107|57:142,1,69.3750026464463,2|0,1:2|2:0,2:0:0:0:
86,209,31996,6,0,B|120:219|134:247|134:247|180:225|163:147,1,138.750005292893,10|0,2:0|2:0,2:0:0:0:
65,289,32360,5,4,1:2:0:0:
28,360,32541,1,2,2:0:0:0:
191,337,32723,2,2,P|167:330|111:365,1,69.3750026464463,10|2,2:0|1:2,2:0:0:0:
259,382,33087,2,0,P|273:335|284:308,1,69.3750026464463,2|0,1:2|2:0,2:0:0:0:
167,184,33450,2,0,P|181:231|192:258,1,69.3750026464463,10|0,2:0|2:0,2:0:0:0:
328,219,33814,1,2,1:2:0:0:
257,181,33996,1,2,2:0:0:0:
290,105,34178,1,10,2:0:0:0:
360,144,34360,1,2,1:2:0:0:
249,186,34541,2,0,P|235:126|218:52,1,104.06250396967,2|0,1:2|0:0,2:0:0:0:
214,52,34905,6,0,P|171:65|125:26,1,104.06250396967,10|0,2:0|2:0,2:0:0:0:
106,20,35269,6,0,B|95:80|95:80|96:88|96:88|84:162,1,138.750005292893,2|10,1:2|2:0,2:0:0:0:
218,242,35814,1,0,1:2:0:0:
173,181,35996,2,0,P|144:206|144:248,1,69.3750026464463,2|0,1:2|2:0,2:0:0:0:
189,384,36360,2,2,B|191:338|202:384|207:306,1,69.3750026464463,10|0,2:0|2:0,2:0:0:0:
45,286,36723,5,2,1:2:0:0:
130,324,36905,1,0,2:0:0:0:
76,201,37087,5,10,2:0:0:0:
53,117,37269,1,0,1:2:0:0:
59,203,37450,5,0,3:0:0:0:
90,25,37632,1,8,3:2:0:0:
109,41,37723,1,0,0:0:0:0:
128,40,37814,2,0,P|150:36|173:23,1,34.6875013232232,8|8,3:2|2:0,0:0:0:0:
228,68,37996,2,0,P|245:70|261:76,1,34.6875013232232,8|8,3:2|2:0,0:0:0:0:
303,191,38178,5,4,1:2:0:0:
228,149,38360,1,4,2:0:0:0:
331,113,38541,2,0,P|370:103|424:82,1,78.6250014996529,8|4,2:0|2:0,2:0:0:0:
438,222,38905,2,0,P|393:207|389:179,1,78.6250014996529,0|4,1:2|2:0,0:0:0:0:
500,72,39269,2,0,P|490:111|469:165,1,78.6250014996529,8|4,2:0|2:0,2:0:0:0:
480,296,39632,5,0,1:2:0:0:
411,346,39814,1,4,2:0:0:0:
315,239,39996,5,8,2:0:0:0:
394,265,40178,1,4,2:0:0:0:
297,331,40360,2,0,P|273:350|220:327,1,78.6250014996529,0|4,1:2|2:0,2:0:0:0:
224,232,40723,6,0,B|225:183|261:174|261:174|228:200|229:264,1,138.750005292893,8|4,2:0|2:0,2:0:0:0:
160,291,41087,5,0,1:2:0:0:
95,233,41269,1,4,2:0:0:0:
173,145,41450,2,0,B|141:166|141:166|86:137,1,78.6250014996529,8|4,2:0|2:0,2:0:0:0:
182,61,41814,2,0,P|234:46|272:32,1,78.6250014996529,0|4,1:2|2:0,0:0:0:0:
320,166,42178,2,0,P|280:156|267:117,1,78.6250014996529,8|4,2:0|2:0,2:0:0:0:
393,36,42541,5,0,1:2:0:0:
329,80,42723,1,4,2:0:0:0:
418,123,42905,5,8,2:0:0:0:
485,169,43087,1,4,2:0:0:0:
404,289,43269,2,0,P|394:243|384:199,1,78.6250014996529,0|4,1:2|2:0,2:0:0:0:
386,370,43632,6,0,B|297:346|366:315|236:287,1,138.750005292893,8|4,2:0|2:0,2:0:0:0:
257,294,43905,1,8,2:0:0:0:
246,307,43996,1,4,1:2:0:0:
308,366,44178,1,4,2:0:0:0:
197,245,44360,2,0,P|172:273|174:320,1,78.6250014996529,8|4,2:0|2:0,2:0:0:0:
292,227,44723,2,0,P|304:172|314:120,1,78.6250014996529,0|4,1:2|2:0,2:0:0:0:
169,91,45087,2,0,P|181:146|191:198,1,78.6250014996529,8|4,2:0|2:0,2:0:0:0:
336,107,45450,5,0,1:2:0:0:
284,0,45632,1,4,2:0:0:0:
362,28,45814,5,8,2:0:0:0:
263,75,45996,1,4,2:0:0:0:
161,5,46178,2,0,P|115:26|98:64,1,78.6250014996529,0|4,1:2|2:0,2:0:0:0:
4,194,46541,2,0,P|74:156|129:183,1,117.937502249479,8|0,2:0|2:0,2:0:0:0:
148,253,46905,6,0,P|211:238|307:218,1,157.250002999306,0|8,1:2|2:0,2:0:0:0:
352,153,47450,1,4,2:0:0:0:
237,315,47632,5,0,1:0:0:0:
404,339,47814,2,0,P|355:314|321:300,1,78.6250014996529,2|0,0:0|1:0,0:0:0:0:
357,146,48178,1,4,2:0:0:0:
189,50,48360,2,0,P|199:98|205:139,1,78.6250014996529,0|4,1:2|2:0,2:0:0:0:
266,39,48723,2,0,P|276:87|282:128,1,78.6250014996529,8|4,2:0|2:0,2:0:0:0:
215,212,49087,5,0,3:0:0:0:
293,114,49269,1,0,3:0:0:0:
303,108,49360,1,0,3:0:0:0:
314,104,49450,1,8,2:0:0:0:
409,177,49632,1,0,1:2:0:0:
412,288,49814,6,0,B|343:314|309:244|317:246|326:250|300:176|204:214,1,235.875004498959,6|0,1:2|1:2,2:0:0:0:
156,316,50541,2,0,P|193:352|232:273,1,157.250002999306,2|10,1:2|2:0,2:0:0:0:
75,165,51269,6,0,B|112:181|119:230|119:230|126:150|225:111,1,235.875004498959,2|2,1:2|1:2,0:0:0:0:
291,132,51996,2,0,P|288:84|251:57,1,78.6250014996529,0|2,1:2|2:0,2:0:0:0:
238,190,52360,1,10,2:0:0:0:
403,264,52723,6,0,B|427:278|421:298|421:298|347:241|231:214,1,235.875004498959,2|0,1:2|1:2,2:0:0:0:
159,301,53450,2,0,P|165:244|124:225,1,78.6250014996529,2|2,1:2|2:0,0:0:0:0:
76,202,53814,1,8,2:0:0:0:
54,70,54178,6,0,B|134:46|134:46|177:72|177:72|294:34,1,235.875004498959,0|2,1:2|2:0,0:0:0:0:
341,0,54905,2,0,P|349:61|324:85,1,78.6250014996529,0|0,1:2|2:0,0:0:0:0:
280,120,55269,1,8,2:0:0:0:
375,293,55632,6,0,P|383:247|403:169,1,117.937502249479,6|0,1:2|0:0,2:0:0:0:
415,165,55996,2,0,P|458:153|467:113,1,78.6250014996529,10|0,2:0|2:0,0:0:0:0:
304,270,56360,2,0,B|406:231|363:284|480:235,1,157.250002999306,2|10,1:2|2:0,2:0:0:0:
311,181,56905,1,0,2:0:0:0:
242,333,57087,2,0,P|290:350|278:261,1,157.250002999306,2|10,1:2|2:0,2:0:0:0:
163,343,57632,1,0,2:0:0:0:
307,258,57814,2,0,B|293:194|293:194|287:188|287:188|262:88,1,157.250002999306,2|10,1:2|2:0,2:0:0:0:
324,12,58360,5,0,1:2:0:0:
316,23,58450,1,0,1:2:0:0:
311,35,58541,1,6,1:2:0:0:
51,73,58905,5,0,1:2:0:0:
150,109,59087,1,0,1:2:0:0:
141,25,59269,5,0,1:2:0:0:
74,156,59450,1,0,1:2:0:0:
229,231,59632,5,0,1:2:0:0:
159,187,59814,1,0,1:2:0:0:
86,263,59996,2,0,P|95:292|113:376,1,111,4|0,1:2|2:0,2:0:0:0:
153,198,60723,5,8,3:2:0:0:
31,89,60905,1,0,3:0:0:0:
35,98,60996,1,0,3:0:0:0:
41,109,61087,1,0,3:0:0:0:
58,256,61450,5,4,1:2:0:0:
119,122,61632,1,2,2:0:0:0:
240,169,61814,2,0,P|180:187|144:201,1,92.5,8|2,2:0|2:0,2:0:0:0:
211,84,62178,5,0,1:2:0:0:
394,44,62360,1,2,2:0:0:0:
323,7,62541,2,0,P|305:67|291:103,1,92.5,8|2,2:0|2:0,2:0:0:0:
396,224,62905,2,0,P|366:171|381:121,1,92.5,0|2,1:2|2:0,2:0:0:0:
277,332,63269,2,0,P|307:279|292:229,1,92.5,8|2,2:0|2:0,2:0:0:0:
122,296,63632,2,0,B|228:271|228:271|182:270|156:217,1,185,0|8,1:2|2:0,2:0:0:0:
52,222,64178,1,2,2:0:0:0:
158,363,64360,6,0,B|186:251|193:337|230:195,1,185,0|8,1:2|2:0,2:0:0:0:
180,46,64905,1,2,2:0:0:0:
85,128,65087,2,0,P|125:162|187:146,1,92.5,0|2,1:2|2:0,2:0:0:0:
265,76,65450,1,8,2:0:0:0:
273,285,65632,2,0,B|223:238|169:248|169:248|148:303|83:300,1,185,2|2,3:2|2:0,3:2:0:0:
331,227,66178,2,0,P|362:279|351:313,1,92.5,8|2,2:0|2:0,0:0:0:0:
258,357,66541,1,0,1:2:0:0:
400,249,66723,1,2,2:0:0:0:
235,130,66905,1,2,1:2:0:0:
242,146,66996,1,8,0:0:0:0:
249,161,67087,1,8,2:0:0:0:
255,174,67178,1,8,2:0:0:0:
262,187,67269,6,0,B|323:201|347:148|330:153|351:81|440:118,2,185,4|8|0,1:2|2:0|1:2,2:0:0:0:
446,179,68178,1,2,2:0:0:0:
292,69,68360,2,0,P|238:59|180:56,1,92.5,8|2,2:0|2:0,2:0:0:0:
79,206,68723,2,0,B|186:171|186:171|164:220|184:278,2,185,0|8|0,1:2|2:0|1:2,2:0:0:0:
147,329,69632,1,2,2:0:0:0:
119,158,69814,2,0,P|73:132|27:140,1,92.5,8|2,2:0|2:0,2:0:0:0:
154,340,70178,2,0,P|171:282|185:243,1,92.5,0|2,1:2|2:0,2:0:0:0:
281,148,70541,1,8,2:0:0:0:
190,100,70723,1,2,2:0:0:0:
260,252,70905,5,0,1:2:0:0:
354,215,71087,1,2,2:0:0:0:
305,58,71269,2,2,P|289:121|276:160,1,92.5,8|2,2:0|2:0,2:0:0:0:
273,262,71632,5,0,1:2:0:0:
120,198,71814,1,8,2:0:0:0:
111,277,71996,5,8,2:0:0:0:
206,175,72178,1,8,2:0:0:0:
198,161,72269,1,8,3:0:0:0:
189,147,72360,1,8,3:0:0:0:
32,107,72541,2,0,P|61:106|81:87,1,46.25,8|8,3:0|2:0,0:0:0:0:
142,35,72723,1,0,3:0:0:0:
157,24,72814,1,8,2:0:0:0:
175,30,72905,2,0,P|204:31|224:50,1,46.25,8|8,3:0|2:0,0:0:0:0:
300,114,73087,5,4,1:2:0:0:
413,83,73269,1,2,2:0:0:0:
459,192,73450,2,0,P|433:248|416:294,1,92.5,8|2,2:0|2:0,2:0:0:0:
355,217,73814,5,0,1:2:0:0:
420,359,73996,1,2,2:0:0:0:
260,358,74178,2,0,P|316:332|362:315,1,92.5,8|2,2:0|2:0,2:0:0:0:
175,223,74541,2,0,P|186:286|218:302,1,92.5,0|2,1:2|2:0,2:0:0:0:
277,176,74905,2,0,P|234:158|192:138,1,92.5,8|2,2:0|2:0,2:0:0:0:
33,192,75269,2,0,P|113:153|66:76,1,185,0|8,1:2|2:0,2:0:0:0:
169,253,75814,1,2,2:0:0:0:
74,70,75996,2,0,P|64:151|48:271,1,185,0|8,1:2|2:0,2:0:0:0:
128,348,76541,1,2,2:0:0:0:
249,270,76723,2,0,P|176:249|149:289,1,92.5,0|2,1:2|2:0,0:0:0:0:
351,309,77087,5,8,2:0:0:0:
171,269,77269,2,0,P|253:245|390:210,1,185,2|2,3:2|2:0,3:0:0:0:
185,136,77814,2,0,P|258:157|285:117,1,92.5,8|2,2:0|2:0,2:0:0:0:
208,55,78178,1,0,1:2:0:0:
115,195,78360,1,2,2:0:0:0:
292,157,78541,1,2,1:2:0:0:
299,139,78632,1,8,2:0:0:0:
307,117,78723,1,10,2:0:0:0:
314,98,78814,1,8,2:0:0:0:
323,77,78905,2,0,B|370:41|420:88|401:106|434:146|496:116,2,185,4|8|0,1:2|2:0|1:2,2:0:0:0:
467,47,79814,5,2,2:0:0:0:
285,11,79996,2,0,P|243:59|261:103,1,92.5,8|2,2:0|3:2,2:0:0:0:
316,271,80360,6,0,B|240:212|240:212|164:283,2,185,0|8|0,1:2|2:0|1:2,2:0:0:0:
210,375,81269,1,2,2:0:0:0:
366,330,81450,2,0,P|336:348|304:338,1,46.25,8|0,2:0|3:0,2:0:0:0:
384,219,81632,2,0,P|414:201|446:211,1,46.25,2|0,3:2|0:0,0:0:0:0:
477,249,81814,5,0,1:2:0:0:
335,163,81996,1,2,2:0:0:0:
423,41,82178,5,8,2:0:0:0:
445,132,82360,1,2,2:0:0:0:
269,117,82541,5,0,1:2:0:0:
343,83,82723,1,2,2:0:0:0:
213,57,82905,2,0,P|228:115|235:172,1,92.5,8|2,2:0|2:0,2:0:0:0:
161,308,83269,5,0,1:2:0:0:
208,235,83450,1,8,2:0:0:0:
293,253,83631,5,8,2:0:0:0:
120,173,83814,1,8,2:0:0:0:
125,185,83905,1,4,3:0:0:0:
129,199,83996,1,0,3:0:0:0:
221,142,84178,2,0,P|234:102|215:75,1,46.25,0|8,3:0|2:0,0:0:0:0:
118,21,84360,1,0,3:0:0:0:
136,38,84450,1,8,2:0:0:0:
154,45,84541,2,0,P|189:33|221:21,1,46.25,0|8,3:0|2:0,0:0:0:0:
299,51,84723,6,0,P|348:69|401:84,1,83.2499974594117,4|2,1:2|2:0,0:0:0:0:
481,160,85087,2,0,P|436:140|400:196,1,124.874996189118,8|0,2:0|0:0,2:0:0:0:
387,271,85450,2,0,P|352:301|313:285,1,83.2499974594117,0|2,1:0|2:0,0:0:0:0:
168,242,85814,2,0,P|217:229|293:206,1,124.874996189118,8|0,2:0|0:0,2:0:0:0:
291,196,86178,5,0,1:0:0:0:
158,81,86360,1,2,2:0:0:0:
245,63,86541,2,0,P|233:118|228:153,1,83.2499974594117,8|2,2:0|2:0,0:0:0:0:
157,234,86905,5,0,1:2:0:0:
88,204,87087,1,2,2:0:0:0:
165,312,87269,5,8,2:0:0:0:
251,263,87450,1,2,2:0:0:0:
307,384,87632,6,0,P|256:369|266:319,1,83.2499974594117,0|2,1:0|2:0,0:0:0:0:
336,251,87996,2,0,P|398:230|475:202,1,124.874996189118,8|0,2:0|0:0,2:0:0:0:
474,190,88360,2,0,P|459:139|409:149,1,83.2499974594117,0|2,1:0|2:0,0:0:0:0:
482,23,88723,2,0,B|407:36|463:63|337:76,1,124.874996189118,8|0,2:0|0:0,2:0:0:0:
295,47,89087,5,0,1:0:0:0:
188,131,89269,1,2,2:0:0:0:
142,72,89450,2,0,P|189:52|223:61,1,83.2499974594117,8|2,2:0|2:0,0:0:0:0:
251,175,89814,5,0,1:0:0:0:
187,227,89996,1,10,2:0:0:0:
97,312,90178,5,0,1:2:0:0:
114,321,90269,1,8,2:0:0:0:
130,330,90360,2,0,P|161:320|187:314,1,41.6249987297059,8|8,2:0|2:0,0:0:0:0:
279,361,90541,6,0,L|177:333,1,83.2499974594117,4|2,1:2|2:0,0:0:0:0:
187,227,90905,2,0,P|257:211|264:165,1,124.874996189118,8|0,2:0|0:0,2:0:0:0:
269,156,91269,2,0,P|251:95|237:51,1,83.2499974594117,0|2,1:2|2:0,0:0:0:0:
406,0,91632,2,0,B|388:61|388:61|385:63|385:63|366:135,1,124.874996189118,8|0,2:0|0:0,2:0:0:0:
377,147,91996,5,0,1:2:0:0:
458,207,92178,1,2,2:0:0:0:
411,311,92360,2,0,P|354:294|307:283,1,83.2499974594117,8|2,2:0|2:0,0:0:0:0:
199,256,92723,5,0,1:2:0:0:
257,326,92905,1,2,2:0:0:0:
273,226,93087,5,8,2:0:0:0:
178,332,93269,1,2,2:0:0:0:
91,295,93450,6,0,P|85:253|72:199,1,83.2499974594117,0|2,1:2|2:0,0:0:0:0:
36,93,93814,2,0,B|115:71|65:53|163:32,1,124.874996189118,8|0,2:0|0:0,2:0:0:0:
161,44,94178,2,0,P|221:58|253:64,1,83.2499974594117,0|2,1:2|2:0,0:0:0:0:
381,171,94541,2,0,P|318:185|301:124,1,124.874996189118,8|0,2:0|0:0,2:0:0:0:
300,124,94905,5,0,1:2:0:0:
320,225,95087,1,8,2:0:0:0:
251,292,95269,5,8,1:2:0:0:
159,147,95450,1,8,2:0:0:0:
171,144,95541,1,4,3:0:0:0:
182,147,95632,2,0,P|218:187|199:226,1,83.2499974594117,0|8,1:2|3:0,0:0:0:0:
67,260,95996,5,8,3:0:0:0:
28,190,96178,1,8,3:0:0:0:
88,67,96360,6,0,P|148:53|187:36,1,78.6250014996529,0|2,1:2|2:0,0:0:0:0:
278,69,96723,1,0,3:0:0:0:
202,121,96905,1,2,2:0:0:0:
274,228,97087,2,0,P|288:168|305:129,1,78.6250014996529,0|2,1:2|2:0,2:0:0:0:
138,193,97450,2,0,P|157:247|169:292,1,78.6250014996529,0|2,3:0|2:0,2:0:0:0:
243,364,97814,6,0,P|288:326|314:336,1,78.6250014996529,0|2,1:2|2:0,0:0:0:0:
403,357,98178,1,0,3:0:0:0:
451,290,98360,1,2,2:0:0:0:
348,199,98541,2,0,P|366:258|377:285,1,78.6250014996529,0|2,1:2|2:0,2:0:0:0:
462,92,98905,2,0,P|444:151|433:178,1,78.6250014996529,0|2,3:0|2:0,2:0:0:0:
311,185,99269,6,0,P|268:140|276:100,1,78.6250014996529,0|2,1:2|2:0,0:0:0:0:
364,24,99632,1,0,3:0:0:0:
345,110,99814,1,2,2:0:0:0:
250,98,99996,2,0,P|203:87|164:69,1,78.6250014996529,0|2,1:2|2:0,2:0:0:0:
138,189,100360,2,0,P|185:200|224:218,1,78.6250014996529,0|2,3:0|2:0,2:0:0:0:
104,120,100723,2,0,P|58:154|61:199,1,78.6250014996529,0|2,1:2|2:0,0:0:0:0:
32,286,101087,5,0,3:0:0:0:
105,256,101269,1,2,2:0:0:0:
209,298,101450,2,0,P|182:303|164:307,1,39.3125007498264,0|0,1:2|0:0,0:0:0:0:
95,336,101632,1,2,3:0:0:0:
186,217,101814,1,2,3:0:0:0:
201,209,101905,1,8,2:0:0:0:
214,203,101996,2,0,P|241:208|259:212,1,39.3125007498264,8|8,2:0|2:0,0:0:0:0:
374,257,102178,6,0,P|329:282|296:257,1,78.6250014996529,4|4,1:2|2:0,0:0:0:0:
339,178,102541,1,0,3:0:0:0:
425,143,102723,1,4,2:0:0:0:
379,24,102905,2,0,P|366:75|360:108,1,78.6250014996529,0|4,1:2|2:0,2:0:0:0:
182,112,103269,2,0,P|227:137|260:112,1,78.6250014996529,0|4,3:0|2:0,2:0:0:0:
124,40,103632,6,0,P|73:53|40:59,1,78.6250014996529,0|4,1:2|2:0,0:0:0:0:
51,173,103996,1,0,3:0:0:0:
110,228,104178,1,4,2:0:0:0:
114,333,104360,2,0,P|63:320|30:314,1,78.6250014996529,0|4,1:2|2:0,2:0:0:0:
202,268,104723,2,0,P|253:255|286:249,1,78.6250014996529,0|4,3:0|2:0,2:0:0:0:
405,140,105087,6,0,P|359:178|374:224,1,78.6250014996529,0|4,1:2|2:0,0:0:0:0:
352,312,105450,1,0,3:0:0:0:
415,245,105632,1,4,2:0:0:0:
285,170,105814,2,0,P|234:157|201:151,1,78.6250014996529,0|4,1:2|2:0,2:0:0:0:
96,262,106178,2,0,P|142:224|127:178,1,78.6250014996529,0|4,3:0|2:0,2:0:0:0:
34,43,106541,5,0,1:2:0:0:
140,178,106723,1,8,2:0:0:0:
0,116,106905,5,8,3:2:0:0:
157,35,107087,2,0,P|178:39|214:50,1,39.3125007498264,8|8,2:0|3:0,0:0:0:0:
241,115,107269,5,0,3:0:0:0:
256,121,107360,1,0,3:0:0:0:
274,115,107450,1,8,3:2:0:0:
294,101,107541,1,8,3:2:0:0:
311,83,107632,6,0,P|332:79|368:68,1,39.3125007498264,8|8,3:2|2:0,0:0:0:0:
469,157,107814,2,0,P|448:153|412:142,1,39.3125007498264,8|8,3:2|2:0,0:0:0:0:
300,200,107996,5,4,1:2:0:0:
404,272,108178,2,0,P|408:251|417:221,1,37,2|0,3:2|3:2,0:0:0:0:
401,224,108360,2,0,P|408:290|416:328,1,78.6250014996529,8|2,2:0|2:0,2:0:0:0:
260,352,108723,2,0,P|215:303|225:262,1,78.6250014996529,0|2,1:2|3:2,0:0:0:0:
214,283,108996,1,0,3:0:0:0:
218,272,109087,2,0,P|262:267|303:262,1,78.6250014996529,8|2,2:0|2:0,2:0:0:0:
124,210,109450,6,0,P|169:161|159:120,1,78.6250014996529,0|2,1:2|3:2,0:0:0:0:
170,141,109723,1,0,3:0:0:0:
166,130,109814,2,0,P|121:125|81:120,1,78.6250014996529,8|2,2:0|2:0,2:0:0:0:
267,101,110178,2,0,P|259:155|252:199,1,78.6250014996529,0|2,1:2|2:0,2:0:0:0:
303,33,110541,6,0,B|327:21|330:-13|330:-13|321:34|341:78,1,138.750005292893,8|2,2:0|2:0,2:0:0:0:
255,178,110905,5,0,1:2:0:0:
173,51,111087,1,2,3:2:0:0:
163,60,111178,1,0,3:0:0:0:
155,68,111269,2,0,P|108:57|69:47,1,74,8|2,2:0|2:0,2:0:0:0:
255,178,111632,2,0,P|208:189|169:199,1,74,0|2,1:2|3:2,0:0:0:0:
174,204,111905,1,0,3:0:0:0:
165,212,111996,2,0,P|154:268|185:294,1,74,8|2,2:0|2:0,2:0:0:0:
319,226,112360,6,0,P|366:237|405:247,1,74,0|2,1:2|3:2,0:0:0:0:
400,252,112633,1,0,3:0:0:0:
409,260,112724,2,0,P|420:316|389:342,1,74,8|2,2:0|2:0,2:0:0:0:
263,374,113087,2,0,P|274:331|281:291,1,74,0|2,1:2|2:0,2:0:0:0:
272,145,113450,6,0,P|266:127|278:146,1,69.3750026464463,8|0,2:0|0:0,2:0:0:0:
260,157,113632,6,0,P|217:131|163:121,1,69.3750026464463,2|0,2:0|3:0,0:0:0:0:
158,57,113814,6,0,P|106:55|84:90,1,74,4|2,1:2|2:0,2:0:0:0:
82,71,114087,1,0,3:0:0:0:
69,77,114178,2,0,P|49:122|66:149,1,74,8|2,2:0|2:0,2:0:0:0:
70,248,114541,1,0,1:2:0:0:
221,233,114723,1,2,3:2:0:0:
208,224,114814,1,0,3:0:0:0:
195,212,114905,2,0,P|176:266|161:302,1,74,8|2,2:0|2:0,2:0:0:0:
230,133,115269,5,0,1:2:0:0:
365,298,115451,1,2,3:2:0:0:
349,292,115542,1,0,3:0:0:0:
334,288,115633,2,0,P|316:238|329:203,1,74,8|2,2:0|2:0,2:0:0:0:
456,117,115996,2,0,P|436:174|430:201,1,74,0|2,1:2|2:0,2:0:0:0:
372,73,116360,6,0,B|346:52|365:9|365:9|397:34|373:83,1,138.750005292893,8|2,2:0|2:0,2:0:0:0:
297,142,116723,5,0,1:2:0:0:
183,60,116905,1,2,3:2:0:0:
186,47,116996,1,0,3:0:0:0:
184,33,117087,2,0,P|235:21|266:12,1,74,8|2,2:0|2:0,2:0:0:0:
143,142,117450,2,0,P|92:130|61:121,1,74,0|2,1:2|3:2,0:0:0:0:
62,125,117723,1,0,3:0:0:0:
53,126,117814,2,0,B|27:149|27:149|41:207,1,74,8|2,2:0|2:0,2:0:0:0:
77,311,118178,6,0,B|161:299|113:267|223:249,1,148,4|0,1:2|1:2,2:0:0:0:
340,281,118723,1,8,2:0:0:0:
335,292,118814,1,8,2:0:0:0:
321,296,118905,1,0,3:0:0:0:
273,210,119087,1,0,3:0:0:0:
267,199,119178,1,0,3:0:0:0:
262,187,119269,1,0,3:0:0:0:
332,72,119450,1,0,3:0:0:0:
385,134,119632,6,0,P|343:125|247:100,1,129.499996047974,6|2,1:2|2:0,2:0:0:0:
203,30,120178,1,0,1:2:0:0:
137,163,120360,2,0,B|171:181|178:208|178:208|168:176|192:132,1,129.499996047974,2|10,1:2|2:0,2:0:0:0:
87,336,121087,6,0,B|133:356|163:311|163:311|201:261|263:292,1,194.249994071961,2|2,1:2|1:2,0:0:0:0:
341,269,121814,2,0,P|333:308|326:343,1,64.7499980239869,0|2,1:2|2:0,1:2:0:0:
422,284,122178,2,0,P|414:323|407:358,1,64.7499980239869,10|2,2:0|2:0,0:0:0:0:
392,195,122541,6,0,P|370:148|425:83,1,129.499996047974,2|2,1:2|2:0,2:0:0:0:
475,168,123087,1,0,1:2:0:0:
336,144,123269,2,0,B|265:121|318:104|226:72,1,129.499996047974,2|8,1:2|2:0,0:0:0:0:
46,197,123996,6,0,B|90:204|90:204|107:228|107:228|185:238,1,129.499996047974,0|2,1:2|2:0,0:0:0:0:
228,184,124541,1,2,1:2:0:0:
219,174,124723,1,0,1:2:0:0:
101,257,124905,1,8,2:0:0:0:
233,317,125087,2,0,P|243:302|232:311,1,55.5,8|0,2:0|0:0,0:0:0:0:
218,317,125450,6,0,P|289:298|371:277,1,157.250002999306,6|10,1:2|2:0,2:0:0:0:
446,330,125996,1,0,1:2:0:0:
287,265,126178,6,0,B|300:205|300:205|304:201|304:201|325:100,1,157.250002999306,2|8,1:2|2:0,2:0:0:0:
59,92,126905,2,0,P|62:52|130:58,1,117.937502249479,2|0,1:2|0:0,2:0:0:0:
136,57,127269,5,8,2:0:0:0:
195,112,127450,1,0,1:2:0:0:
152,194,127632,2,0,B|57:210|115:243|9:256,1,157.250002999306,2|8,1:2|2:0,2:0:0:0:
72,189,128178,1,0,1:2:0:0:
91,198,128269,1,0,1:2:0:0:
98,220,128360,2,0,P|80:312|68:367,1,117.937502249479,4|0,1:2|0:0,0:0:0:0:
72,353,128723,5,8,2:0:0:0:
155,326,128905,1,0,1:2:0:0:
259,317,129087,5,8,2:0:0:0:
181,248,129269,1,0,1:2:0:0:
322,167,129450,5,8,2:0:0:0:
269,228,129632,2,0,P|249:205|247:174,1,39.3125007498264,0|0,1:2|0:0,0:0:0:0:
280,104,129814,6,0,B|307:71|375:72|402:126|386:133|395:166|450:186|515:134,1,242.812509262562,6|0,1:2|0:0,2:0:0:0:
488,70,130541,5,8,1:2:0:0:
478,49,130632,1,8,2:0:0:0:
457,33,130723,1,8,2:0:0:0:
429,27,130814,1,8,2:0:0:0:
410,12,130905,6,0,P|379:19|360:21,1,34.6875013232232,8|8,1:2|2:0,0:0:0:0:
299,57,131087,2,0,P|282:52|265:49,1,34.6875013232232,8|8,2:0|2:0,0:0:0:0:
182,35,131269,1,6,1:2:0:0:
106,52,137087,6,0,P|103:103|131:123,1,69.3750026464463,4|2,1:2|1:2,2:0:0:0:
195,110,137450,2,0,P|198:59|170:39,1,69.3750026464463,0|0,1:2|1:2,1:2:0:0:
48,167,137814,2,0,B|125:227|87:156|188:239,1,138.750005292893,2|0,1:2|1:2,0:0:0:0:
117,291,138360,1,2,1:2:0:0:
244,257,138541,6,0,P|279:237|290:205,1,69.3750026464463,0|2,1:2|1:2,1:2:0:0:
374,197,138905,2,0,P|373:156|350:131,1,69.3750026464463,2|0,1:2|1:2,0:0:0:0:
267,26,139269,2,0,B|225:77|225:77|279:145,1,138.750005292893,2|0,1:2|1:2,1:2:0:0:
352,57,139814,1,2,1:2:0:0:
196,82,139996,6,0,P|150:90|109:97,1,78.6250014996529,4|10,1:2|1:2,0:0:0:0:
60,214,140360,5,10,1:2:0:0:
117,268,140541,1,10,1:2:0:0:
186,230,140723,5,10,1:2:0:0:
34,285,140905,1,10,1:2:0:0:
183,323,141087,5,10,1:2:0:0:
130,173,141269,1,10,1:2:0:0:
258,198,141450,6,0,L|267:247,1,34.6875013232232,10|0,2:0|2:0,2:0:0:0:
340,216,141814,2,0,L|333:181,1,34.6875013232232,10|0,2:0|2:0,2:0:0:0:
408,10,142178,5,4,1:2:0:0:
420,18,142269,1,0,3:2:0:0:
417,33,142360,2,0,P|412:56|403:95,1,39.3125007498264,8|0,2:0|0:0,0:0:0:0:
299,136,142541,5,8,1:2:0:0:
278,139,142632,1,8,2:0:0:0:
260,130,142723,2,0,P|248:109|248:82,1,39.3125007498264,8|8,2:0|2:0,0:0:0:0:
310,21,142905,5,0,1:2:0:0:
318,36,143087,1,0,1:2:0:0:
178,65,143269,6,0,P|140:74|61:94,1,92.5,4|2,1:2|2:0,2:0:0:0:
103,237,143632,5,0,1:2:0:0:
169,161,143814,1,2,2:0:0:0:
31,189,143996,2,0,P|14:245|34:282,1,92.5,8|2,2:0|2:0,2:0:0:0:
200,303,144360,6,0,P|259:286|308:276,1,92.5,0|2,1:2|2:0,2:0:0:0:
255,141,144723,2,0,P|314:158|363:168,1,92.5,8|2,2:0|2:0,2:0:0:0:
413,293,145087,2,0,B|383:183|451:241|416:100,1,185,0|8,1:2|2:0,2:0:0:0:
483,246,145632,1,2,2:0:0:0:
455,88,145814,6,0,B|384:73|384:73|372:48|372:48|286:27,1,185,0|8,1:2|2:0,2:0:0:0:
163,52,146360,1,2,2:0:0:0:
184,179,146541,2,0,P|232:167|276:151,1,92.5,0|2,1:2|2:0,0:0:0:0:
99,121,146905,1,8,2:0:0:0:
90,301,147087,6,0,B|134:251|183:267|183:267|213:316|261:310,1,185,2|2,2:0|2:0,2:0:0:0:
381,256,147632,2,0,P|343:227|298:238,1,92.5,8|2,2:0|2:0,2:0:0:0:
383,340,147996,1,0,1:2:0:0:
468,234,148178,1,2,2:0:0:0:
346,124,148360,5,2,1:2:0:0:
353,109,148450,1,8,2:0:0:0:
360,93,148541,1,8,2:0:0:0:
369,75,148632,1,8,2:0:0:0:
378,55,148723,6,0,B|416:45|416:45|486:131|389:195,2,185,4|8|0,1:2|2:0|1:2,2:0:0:0:
479,128,149632,1,2,2:0:0:0:
283,63,149814,2,0,P|239:72|162:91,1,92.5,8|0,2:0|0:0,2:0:0:0:
73,247,150178,6,0,B|143:200|143:200|143:189|143:189|75:124,2,185,0|8|0,1:2|2:0|1:2,2:0:0:0:
226,205,151087,1,2,2:0:0:0:
73,247,151269,2,0,P|61:298|49:353,1,92.5,8|2,2:0|2:0,2:0:0:0:
226,205,151632,6,0,P|268:169|268:123,1,92.5,0|2,1:2|2:0,1:2:0:0:
228,33,151996,5,8,2:0:0:0:
343,87,152178,1,2,2:0:0:0:
448,53,152360,5,0,1:2:0:0:
360,172,152541,1,2,2:0:0:0:
477,243,152723,2,0,P|409:262|368:279,1,92.5,8|2,2:0|2:0,0:0:0:0:
210,331,153087,5,0,1:2:0:0:
318,242,153269,1,10,2:0:0:0:
241,196,153450,5,8,2:0:0:0:
327,365,153632,1,8,2:0:0:0:
336,355,153723,1,0,0:0:0:0:
341,344,153814,1,0,3:2:0:0:
228,181,153996,2,0,P|237:218|242:246,1,46.25,8|0,2:0|0:0,0:0:0:0:
232,348,154178,5,0,3:2:0:0:
210,331,154269,1,0,2:0:0:0:
181,321,154360,1,0,3:0:0:0:
153,327,154450,1,0,2:0:0:0:
132,346,154541,5,4,1:2:0:0:
38,212,154723,1,2,2:0:0:0:
143,149,154905,2,0,P|127:217|118:261,1,92.5,8|2,2:0|2:0,2:0:0:0:
56,122,155269,5,0,1:2:0:0:
149,42,155450,1,2,2:0:0:0:
233,149,155632,2,0,P|271:140|326:128,1,92.5,8|2,2:0|2:0,2:0:0:0:
433,10,155996,2,0,P|375:17|354:59,1,92.5,0|2,1:2|2:0,2:0:0:0:
409,173,156360,2,0,P|467:166|488:124,1,92.5,8|2,2:0|2:0,2:0:0:0:
202,226,156723,2,0,B|262:237|262:237|267:241|267:241|388:266,1,185,0|8,1:2|2:0,2:0:0:0:
233,149,157269,5,2,2:0:0:0:
137,335,157450,6,0,P|220:299|174:226,1,185,0|8,1:2|2:0,2:0:0:0:
48,128,157996,1,2,2:0:0:0:
106,245,158178,2,0,P|119:177|125:125,1,92.5,0|2,1:2|2:0,0:0:0:0:
280,31,158541,1,8,2:0:0:0:
276,163,158723,2,0,P|243:164|206:42,1,185,2|2,2:0|2:0,2:0:0:0:
366,132,159269,2,0,P|354:183|343:232,1,92.5,8|2,2:0|2:0,2:0:0:0:
343,363,159632,5,0,1:2:0:0:
450,231,159814,1,2,1:2:0:0:
447,316,159996,5,2,1:2:0:0:
431,308,160087,1,8,2:0:0:0:
414,300,160178,1,8,2:0:0:0:
396,293,160269,1,8,2:0:0:0:
374,285,160360,6,0,B|324:257|283:294|283:294|267:349|207:350,2,185,4|8|0,1:2|2:0|1:2,2:0:0:0:
208,269,161269,1,2,2:0:0:0:
272,94,161450,2,0,P|283:145|295:214,1,92.5,8|2,2:0|2:0,2:0:0:0:
138,225,161814,6,0,B|88:230|77:183|77:183|79:171|79:171|66:115|-1:125,2,185,0|8|0,1:2|2:0|1:2,2:0:0:0:
13,93,162723,1,2,2:0:0:0:
82,246,162905,6,0,P|91:283|96:320,1,46.25,8|0,2:0|3:2,2:0:0:0:
213,199,163087,2,0,P|222:162|227:125,1,46.25,2|0,2:0|0:0,0:0:0:0:
167,98,163269,5,0,1:2:0:0:
296,211,163450,1,2,2:0:0:0:
388,83,163632,5,8,2:0:0:0:
306,116,163814,1,2,2:0:0:0:
460,227,163996,5,0,1:2:0:0:
499,140,164178,1,2,2:0:0:0:
391,188,164360,2,0,P|382:261|417:291,1,92.5,8|2,2:0|2:0,0:0:0:0:
318,384,164723,5,0,1:2:0:0:
390,355,164905,1,8,2:0:0:0:
187,266,165087,5,0,1:2:0:0:
251,327,165269,1,8,2:0:0:0:
260,318,165360,1,8,3:0:0:0:
267,308,165450,1,0,3:0:0:0:
188,144,165632,6,0,P|208:179|233:186,1,46.25,0|0,3:0|3:0,0:0:0:0:
332,211,165814,1,0,3:0:0:0:
351,203,165905,1,0,3:0:0:0:
371,196,165996,2,0,P|393:161|389:137,1,46.25,0|0,3:0|3:0,0:0:0:0:
425,74,166178,6,0,P|371:83|327:88,1,83.2499974594117,4|2,1:2|2:0,0:0:0:0:
202,129,166541,2,0,P|239:101|203:33,1,124.874996189118,8|0,2:0|0:0,2:0:0:0:
212,23,166905,2,0,P|158:14|114:9,1,83.2499974594117,0|2,1:2|2:0,0:0:0:0:
52,122,167269,2,0,B|74:206|100:158|113:256,1,124.874996189118,8|0,2:0|0:0,2:0:0:0:
116,255,167632,5,0,1:2:0:0:
171,356,167814,1,2,2:0:0:0:
276,314,167996,2,0,P|316:290|363:267,1,83.2499974594117,8|2,2:0|2:0,0:0:0:0:
444,156,168360,5,0,1:2:0:0:
330,163,168541,1,2,2:0:0:0:
444,188,168723,5,8,2:0:0:0:
365,89,168905,1,2,2:0:0:0:
255,132,169087,6,0,P|246:181|275:221,1,83.2499974594117,0|2,1:2|2:0,0:0:0:0:
360,326,169450,2,0,P|303:308|204:289,1,124.874996189118,8|0,2:0|0:0,2:0:0:0:
220,313,169814,2,0,P|175:332|138:340,1,83.2499974594117,0|2,1:2|2:0,0:0:0:0:
56,248,170178,2,0,B|70:198|70:198|68:185|67:185|87:114,1,124.874996189118,8|0,2:0|0:0,2:0:0:0:
94,99,170541,5,0,1:2:0:0:
223,47,170723,1,2,2:0:0:0:
278,111,170905,2,0,P|242:128|173:110,1,83.2499974594117,8|2,2:0|2:0,0:0:0:0:
94,99,171269,5,0,1:2:0:0:
245,152,171450,1,8,2:0:0:0:
176,274,171632,5,8,2:0:0:0:
190,261,171723,1,8,2:0:0:0:
205,253,171814,2,0,P|231:250|265:269,1,41.6249987297059,8|8,2:0|2:0,0:0:0:0:
321,321,171996,6,0,P|277:331|217:346,1,83.2499974594117,4|4,1:2|2:0,0:0:0:0:
324,221,172360,2,0,P|393:237|450:250,1,124.874996189118,8|0,2:0|0:0,2:0:0:0:
474,255,172723,2,0,P|498:203|474:168,1,83.2499974594117,0|4,1:2|2:0,0:0:0:0:
423,45,173087,2,0,P|396:100|329:94,1,124.874996189118,8|0,2:0|0:0,2:0:0:0:
317,84,173450,5,0,1:2:0:0:
216,18,173632,1,4,2:0:0:0:
217,171,173814,2,0,P|231:130|244:82,1,83.2499974594117,8|4,2:0|2:0,0:0:0:0:
71,40,174178,5,0,1:2:0:0:
133,91,174360,1,4,2:0:0:0:
143,12,174541,5,8,2:0:0:0:
11,97,174723,1,4,2:0:0:0:
56,218,174905,6,0,P|110:209|157:201,1,83.2499974594117,0|4,1:2|2:0,0:0:0:0:
285,346,175269,2,0,P|241:317|266:231,1,124.874996189118,8|0,2:0|0:0,2:0:0:0:
250,220,175632,2,0,P|304:229|351:237,1,83.2499974594117,0|4,1:2|2:0,0:0:0:0:
465,105,175996,2,0,P|403:115|341:125,1,124.874996189118,8|0,2:0|0:0,2:0:0:0:
313,113,176360,5,0,1:2:0:0:
220,49,176541,1,12,2:0:0:0:
136,147,176723,5,8,2:0:0:0:
253,180,176905,5,8,2:0:0:0:
251,195,176996,1,8,3:0:0:0:
244,211,177087,2,0,P|213:223|177:235,1,41.6249987297059,8|8,1:2|2:0,0:0:0:0:
84,269,177269,2,0,P|115:281|151:293,1,41.6249987297059,8|8,2:0|2:0,0:0:0:0:
219,355,177450,5,8,1:2:0:0:
246,334,177541,1,8,2:0:0:0:
276,325,177632,1,8,2:0:0:0:
306,328,177723,1,8,2:0:0:0:
331,350,177814,5,4,1:2:0:0:
426,284,177996,1,2,2:0:0:0:
330,172,178178,2,0,P|340:228|347:272,1,78.6250014996529,8|2,2:0|2:0,0:0:0:0:
411,141,178541,2,0,P|383:97|333:90,1,78.6250014996529,0|2,1:2|2:0,0:0:0:0:
185,153,178905,2,0,P|237:150|268:110,1,78.6250014996529,8|2,2:0|2:0,2:0:0:0:
98,166,179269,5,0,1:2:0:0:
207,76,179450,1,2,2:0:0:0:
95,9,179632,2,0,P|104:72|109:106,1,78.6250014996529,8|2,2:0|2:0,0:0:0:0:
103,256,179996,5,12,2:0:0:0:
10,173,180178,1,0,1:2:0:0:
11,293,180360,5,12,2:0:0:0:
164,197,180541,1,0,1:2:0:0:
254,335,180723,5,0,1:2:0:0:
202,270,180905,1,2,2:0:0:0:
348,294,181087,2,0,P|298:305|253:318,1,78.6250014996529,8|2,2:0|2:0,0:0:0:0:
369,211,181450,2,0,P|411:226|433:284,1,78.6250014996529,0|2,1:2|2:0,0:0:0:0:
467,79,181814,2,0,P|455:122|415:144,1,78.6250014996529,8|2,2:0|2:0,2:0:0:0:
215,108,182178,5,0,1:2:0:0:
304,158,182360,1,2,2:0:0:0:
327,40,182541,2,0,P|275:34|237:25,1,78.6250014996529,8|2,2:0|1:2,0:0:0:0:
32,37,182905,5,12,2:0:0:0:
167,0,183087,1,0,1:2:0:0:
53,113,183269,5,12,1:2:0:0:
70,120,183360,1,8,2:0:0:0:
87,126,183450,2,0,P|115:152|113:172,1,39.3125007498264,8|8,2:0|2:0,0:0:0:0:
147,233,183632,5,0,1:2:0:0:
47,200,183814,1,4,2:0:0:0:
194,162,183996,2,0,P|241:154|280:149,1,78.6250014996529,8|4,2:0|2:0,0:0:0:0:
273,303,184360,2,0,P|236:265|241:232,1,78.6250014996529,0|4,1:2|2:0,0:0:0:0:
360,119,184723,2,0,P|351:159|344:211,1,78.6250014996529,8|4,2:0|2:0,2:0:0:0:
347,345,185087,5,0,1:2:0:0:
416,384,185269,1,4,2:0:0:0:
444,234,185450,2,0,P|407:241|392:280,1,78.6250014996529,8|4,2:0|2:0,0:0:0:0:
192,348,185814,5,12,2:0:0:0:
276,285,185996,1,0,1:2:0:0:
320,361,186178,5,12,2:0:0:0:
180,313,186360,1,0,1:2:0:0:
228,223,186541,6,0,P|279:203|315:217,1,78.6250014996529,0|4,1:2|2:0,2:0:0:0:
180,313,186905,2,0,P|132:302|71:296,1,78.6250014996529,8|4,2:0|2:0,2:0:0:0:
88,139,187269,1,0,1:2:0:0:
120,223,187450,1,4,2:0:0:0:
209,196,187632,2,0,P|218:147|227:109,1,78.6250014996529,8|4,2:0|2:0,0:0:0:0:
242,21,187996,5,12,2:0:0:0:
333,94,188178,1,0,1:2:0:0:
259,33,188360,5,12,2:0:0:0:
351,172,188541,1,0,1:2:0:0:
448,69,188723,2,0,P|398:80|308:98,1,117.937502249479,12|0,2:0|0:0,0:0:0:0:
263,147,189087,5,12,2:0:0:0:
248,157,189178,1,8,2:0:0:0:
228,156,189269,2,0,P|215:150|224:149,1,39.3125007498264,8|8,2:0|2:0,0:0:0:0:
279,237,189450,5,4,1:2:0:0:
175,303,189632,1,0,2:0:0:0:
47,184,189814,5,8,0:2:0:0:
117,215,189996,1,0,1:0:0:0:
260,325,190178,6,0,P|211:344|181:320,1,78.6250014996529,8|0,2:0|1:2,0:0:0:0:
279,237,190541,5,8,2:0:0:0:
407,155,190723,1,0,1:2:0:0:
454,257,190905,5,8,2:0:0:0:
322,166,191087,1,0,1:2:0:0:
436,90,191269,5,8,0:0:0:0:
407,17,191450,1,0,1:0:0:0:
322,166,191632,5,12,2:0:0:0:
