osu file format v14

[General]
AudioFilename: audio.mp3
AudioLeadIn: 0
PreviewTime: 99782
Countdown: 0
SampleSet: Soft
StackLeniency: 0.4
Mode: 0
LetterboxInBreaks: 0
WidescreenStoryboard: 1

[Editor]
DistanceSpacing: 0.8
BeatDivisor: 4
GridSize: 4
TimelineZoom: 2.999999

[Metadata]
Title:Ray Tuning
TitleUnicode:光線チューニング
Artist:NayutalieN
ArtistUnicode:ナユタン星人
Creator:scanter
Version:Bakyun!
Source:CHUNITHM STAR
Tags:000 ちゃもーい chamooi 0o0re0o Eto Noboru SEGA Anais Video Game Japanese Nayutan Seijin maimai MURASAKi PLUS
BeatmapID:1502029
BeatmapSetID:710587

[Difficulty]
HPDrainRate:6
CircleSize:4
OverallDifficulty:8.5
ApproachRate:9.4
SliderMultiplier:1.9
SliderTickRate:1

[Events]
//Background and Video events
Video,0,"video.avi"
0,0,"bg.png",0,0
//Break Periods
2,99861,104373
//Storyboard Layer 0 (Background)
//Storyboard Layer 1 (Fail)
//Storyboard Layer 2 (Pass)
//Storyboard Layer 3 (Foreground)
//Storyboard Layer 4 (Overlay)
//Storyboard Sound Samples

[TimingPoints]
2598,315.789473684211,4,2,1,60,1,0
4808,-66.6666666666667,4,2,1,60,0,0
5124,-100,4,2,1,80,0,0
9545,-100,4,2,1,60,0,0
10176,-100,4,2,1,80,0,0
13966,-100,4,2,1,60,0,0
15071,-125,4,2,1,60,0,0
17282,-125,4,2,1,80,0,0
17598,-71.4285714285714,4,2,1,80,0,0
17755,-71.4285714285714,4,2,1,60,0,0
17913,-125,4,2,1,60,0,0
19808,-125,4,2,1,80,0,0
20124,-71.4285714285714,4,2,1,80,0,0
20282,-71.4285714285714,4,2,1,60,0,0
20598,-125,4,2,1,60,0,0
22808,-125,4,2,1,80,0,0
23913,-83.3333333333333,4,2,1,80,0,0
24545,-71.4285714285714,4,2,1,80,0,0
25334,-100,4,2,1,70,0,0
27387,-100,4,2,1,80,0,0
27703,-71.4285714285714,4,2,1,80,0,0
27861,-71.4285714285714,4,2,1,70,0,0
29913,-71.4285714285714,4,2,1,80,0,0
30387,-71.4285714285714,4,2,1,70,0,0
31650,-100,4,2,1,70,0,0
32598,-71.4285714285714,4,2,1,70,0,0
32913,-71.4285714285714,4,2,1,80,0,0
34019,-100,4,2,1,80,0,0
35676,-71.4285714285714,4,2,1,80,0,0
35913,-55.5555555555556,4,2,1,80,0,0
36387,-100,4,2,1,80,0,0
36624,-71.4285714285714,4,2,1,80,0,0
36861,-55.5555555555556,4,2,1,80,0,0
37334,-100,4,2,1,80,0,0
37571,-71.4285714285714,4,2,1,80,0,0
37808,-55.5555555555556,4,2,1,80,0,0
38598,-71.4285714285714,4,2,1,80,0,0
38913,-100,4,2,1,80,0,0
39229,-166.666666666667,4,2,1,80,0,0
39861,-100,4,2,1,80,0,0
40098,-71.4285714285715,4,2,1,80,0,0
40334,-55.5555555555556,4,2,1,80,0,0
40808,-100,4,2,1,80,0,0
41045,-71.4285714285714,4,2,1,80,0,0
41282,-55.5555555555556,4,2,1,80,0,0
41755,-100,4,2,1,80,0,0
41992,-71.4285714285714,4,2,1,80,0,0
42229,-55.5555555555556,4,2,1,80,0,0
43019,-100,4,2,1,80,0,0
43334,-71.4285714285714,4,2,1,80,0,0
43650,-55.5555555555556,4,2,1,80,0,0
43966,-71.4285714285714,4,2,1,80,0,0
44282,-100,4,2,1,80,0,0
44440,-100,4,2,2,60,0,0
46492,-100,4,2,1,80,0,0
49334,-90.9090909090909,4,2,1,100,0,0
51861,-55.5555555555556,4,2,1,100,0,0
52176,-62.5,4,2,1,100,0,0
52492,-71.4285714285714,4,2,1,100,0,0
54387,-90.9090909090909,4,2,1,100,0,0
58176,-55.5555555555556,4,2,1,100,0,0
59124,-71.4285714285714,4,2,1,70,0,0
59440,-90.9090909090909,4,2,1,100,0,0
61966,-55.5555555555556,4,2,1,100,0,0
62282,-62.5,4,2,1,100,0,0
62598,-71.4285714285714,4,2,1,100,0,0
62913,-83.3333333333333,4,2,1,100,0,0
63071,-100,4,2,1,100,0,0
64176,-90.9090909090909,4,2,1,100,0,0
64492,-90.9090909090909,4,2,1,100,0,0
67650,-76.9230769230769,4,2,1,100,0,0
68282,-66.6666666666667,4,2,1,100,0,0
69466,-90.9090909090909,4,2,1,100,0,0
69545,-90.9090909090909,4,2,1,100,0,0
71440,-76.9230769230769,4,2,1,100,0,0
73334,-66.6666666666667,4,2,1,100,0,0
74598,-90.9090909090909,4,2,1,100,0,0
79334,-66.6666666666667,4,2,1,100,0,0
79650,-90.9090909090909,4,2,1,80,0,0
89755,-100,4,2,1,70,0,0
104913,-166.666666666667,4,2,1,50,0,0
107440,-166.666666666667,4,2,1,80,0,0
108703,-55.5555555555556,4,2,1,80,0,0
109650,-83.3333333333333,4,2,1,80,0,0
109966,-71.4285714285714,4,2,1,100,0,0
112492,-50,4,2,1,100,0,0
112808,-55.5555555555556,4,2,1,100,0,0
113124,-62.5,4,2,1,100,0,0
113440,-71.4285714285714,4,2,1,100,0,0
113598,-83.3333333333333,4,2,1,80,0,0
113913,-71.4285714285714,4,2,1,80,0,0
114229,-62.5,4,2,1,80,0,0
115019,-71.4285714285714,4,2,1,100,0,0
118176,-62.5,4,2,1,100,0,0
118808,-55.5555555555556,4,2,1,100,0,0
119440,-55.5555555555556,4,2,1,80,0,0
120071,-71.4285714285714,4,2,1,100,0,0
121966,-62.5,4,2,1,100,0,0
123861,-55.5555555555556,4,2,1,80,0,0
125124,-71.4285714285714,4,2,1,100,0,0
129703,-125,4,2,1,100,0,0
132387,-58.8235294117647,4,2,1,100,0,0
132703,-100,4,2,1,80,0,0

[Colours]
Combo1 : 255,192,0
Combo2 : 255,128,255
Combo3 : 128,255,255
Combo4 : 0,128,255

[HitObjects]
256,64,2598,5,8,0:0:0:0:
256,320,2755,1,8,0:0:0:0:
256,64,2913,1,8,0:0:0:0:
256,320,3071,1,8,0:0:0:0:
256,64,3387,1,8,0:0:0:0:
256,320,3702,1,8,0:0:0:0:
392,64,3860,5,8,0:0:0:0:
120,192,4019,1,8,0:0:0:0:
392,320,4334,1,8,0:0:0:0:
120,192,4493,1,8,0:0:0:0:
390,189,4808,6,0,P|317:187|389:203,1,213.750008153916,8|0,0:0|0:0,0:0:0:0:
429,111,5124,5,12,0:3:0:0:
402,92,5202,1,0,0:0:0:0:
370,81,5281,1,0,0:0:0:0:
337,81,5360,1,0,0:0:0:0:
305,89,5439,1,8,0:0:0:0:
360,199,5598,1,0,0:0:0:0:
471,224,5755,1,8,0:3:0:0:
360,199,5913,1,0,0:0:0:0:
331,309,6071,1,8,0:0:0:0:
360,199,6229,1,0,0:0:0:0:
193,384,6387,5,8,0:3:0:0:
274,184,6545,1,0,0:0:0:0:
248,169,6624,1,0,0:0:0:0:
214,165,6703,1,8,0:0:0:0:
220,278,6861,1,0,0:0:0:0:
62,242,7019,1,8,0:3:0:0:
0,148,7176,1,0,0:0:0:0:
27,130,7255,1,0,0:0:0:0:
61,128,7334,2,0,P|110:139|154:172,1,95,8|0,0:0|0:0,0:0:0:0:
134,332,7650,5,8,0:3:0:0:
105,348,7729,1,0,0:0:0:0:
73,356,7808,1,0,0:0:0:0:
39,354,7887,1,0,0:0:0:0:
9,343,7965,1,8,0:0:0:0:
62,242,8124,1,0,0:0:0:0:
180,236,8282,1,8,0:3:0:0:
62,242,8440,1,0,0:0:0:0:
62,128,8597,1,8,0:0:0:0:
62,242,8755,1,0,0:0:0:0:
176,20,8913,5,8,0:3:0:0:
212,228,9071,1,0,0:0:0:0:
180,236,9150,1,0,0:0:0:0:
146,228,9229,1,8,0:0:0:0:
179,127,9387,1,0,0:0:0:0:
275,61,9545,1,8,0:0:0:0:
322,62,9623,1,8,0:0:0:0:
369,64,9702,1,8,0:0:0:0:
417,66,9781,1,8,0:0:0:0:
464,68,9861,2,0,L|467:16,1,47.5,8|8,0:0|0:3,0:0:0:0:
481,149,10019,2,0,L|478:208,1,47.5,8|8,0:0|0:3,0:0:0:0:
419,256,10176,6,0,P|411:301|427:341,2,63.3333333333333,12|0|0,0:3|0:0|0:0,0:0:0:0:
337,323,10492,2,0,P|291:330|258:356,2,63.3333333333333,8|0|0,0:0|0:0|0:0,0:0:0:0:
236,271,10808,2,0,P|215:229|179:206,2,63.3333333333333,8|0|0,0:3|0:0|0:0,0:0:0:0:
258,158,11124,2,0,P|290:125|301:84,2,63.3333333333333,8|0|0,0:0|0:0|0:0,0:0:0:0:
365,158,11440,5,8,0:3:0:0:
387,174,11518,1,0,0:0:0:0:
413,185,11597,1,0,0:0:0:0:
441,191,11676,1,0,0:0:0:0:
423,235,11755,5,8,0:0:0:0:
414,260,11833,1,0,0:0:0:0:
411,287,11912,1,0,0:0:0:0:
414,317,11991,1,0,0:0:0:0:
370,303,12071,5,8,0:3:0:0:
342,302,12149,1,0,0:0:0:0:
316,308,12228,1,0,0:0:0:0:
288,320,12307,1,0,0:0:0:0:
292,272,12387,5,8,0:0:0:0:
285,243,12465,1,0,0:0:0:0:
271,221,12544,1,0,0:0:0:0:
250,198,12623,1,0,0:0:0:0:
174,160,12703,6,0,P|147:173|123:173,3,47.5,8|0|0|0,0:3|0:0|0:0|0:0,0:0:0:0:
84,246,13019,2,0,P|60:245|37:236,3,47.5,8|0|0|0,0:0|0:0|0:0|0:0,0:0:0:0:
208,282,13334,2,0,P|187:297|163:302,3,47.5,8|0|0|0,0:3|0:0|0:0|0:0,0:0:0:0:
45,339,13650,2,0,P|22:333|4:318,3,47.5,8|0|0|0,0:0|0:0|0:0|0:0,0:0:0:0:
158,200,13966,5,12,0:0:0:0:
194,200,14045,1,8,0:0:0:0:
233,200,14124,1,8,0:0:0:0:
271,200,14203,1,8,0:0:0:0:
309,200,14282,1,8,0:0:0:0:
192,36,14598,1,8,0:0:0:0:
144,36,14677,1,8,0:0:0:0:
96,36,14756,1,8,0:0:0:0:
48,36,14835,1,8,0:0:0:0:
2,36,14914,1,8,0:0:0:0:
280,36,15071,6,0,L|368:36,1,76,12|0,0:3|0:0,0:0:0:0:
456,116,15387,1,8,0:3:0:0:
456,116,15466,1,8,0:3:0:0:
456,116,15545,2,0,P|467:160|458:209,1,76,8|0,0:0|0:0,0:0:0:0:
261,271,15861,2,0,P|273:236|298:207,1,76,8|0,0:3|0:0,0:0:0:0:
509,260,16176,2,0,P|478:281|442:290,1,76,8|0,0:0|0:0,0:0:0:0:
301,122,16492,6,0,P|338:124|373:138,1,76,8|0,0:3|0:0,0:0:0:0:
389,356,16808,2,0,P|360:333|339:301,1,76,8|0,0:0|0:0,0:0:0:0:
385,226,17124,1,8,0:3:0:0:
172,377,17282,1,8,0:0:0:0:
172,377,17598,6,0,L|31:368,1,132.999995941162,8|0,0:0|0:0,0:0:0:0:
56,268,17913,5,8,0:3:0:0:
56,268,17992,1,8,0:3:0:0:
56,268,18071,2,0,P|45:224|54:175,1,76,8|0,0:0|0:0,0:0:0:0:
251,113,18387,2,0,P|239:148|214:177,1,76,8|0,0:3|0:0,0:0:0:0:
3,124,18703,2,0,P|46:99|78:97,1,76,8|0,0:0|0:0,0:0:0:0:
211,262,19019,6,0,P|174:260|139:246,1,76,8|0,0:3|0:0,0:0:0:0:
123,28,19334,2,0,P|152:51|173:83,1,76,8|0,0:0|0:0,0:0:0:0:
127,158,19650,1,8,0:3:0:0:
336,12,19808,1,8,0:0:0:0:
336,12,20124,6,0,L|470:20,1,132.999995941162,12|0,0:0|0:0,0:0:0:0:
471,119,20440,1,8,0:3:0:0:
471,119,20519,1,8,0:3:0:0:
471,119,20598,2,0,L|471:202,1,76,8|0,0:0|0:0,0:0:0:0:
296,328,20913,2,0,L|296:252,1,76,8|0,0:3|0:0,0:0:0:0:
331,152,21229,1,8,0:0:0:0:
448,286,21387,1,0,0:0:0:0:
378,73,21545,6,0,P|320:59|260:91,1,114,8|0,0:0|0:0,0:0:0:0:
372,235,21861,2,0,P|413:191|415:123,1,114,8|0,0:0|0:0,0:0:0:0:
238,147,22176,2,0,P|254:204|312:240,1,114,8|0,0:0|0:0,0:0:0:0:
177,61,22492,5,8,0:0:0:0:
177,61,22571,1,8,0:3:0:0:
177,61,22650,1,8,0:0:0:0:
177,61,22729,1,8,0:0:0:0:
177,61,22808,5,12,0:0:0:0:
61,273,22966,1,8,0:0:0:0:
389,219,23440,1,8,0:0:0:0:
118,164,23598,1,8,0:0:0:0:
99,374,23913,6,0,B|105:300|105:300|85:232|85:232|94:143,1,227.999993041992,12|8,0:0|0:0,0:0:0:0:
15,313,24387,1,8,0:0:0:0:
128,85,24545,2,0,L|274:99,1,132.999995941162,8|0,0:0|0:0,0:0:0:0:
484,74,24861,1,8,0:0:0:0:
484,74,24940,1,8,0:3:0:0:
484,74,25019,2,0,P|493:34|487:-3,1,66.4999979705811,8|8,0:0|0:3,0:0:0:0:
264,31,25176,2,0,P|257:63|260:97,1,66.4999979705811,8|8,0:0|0:0,0:0:0:0:
386,254,25334,5,12,0:3:0:0:
334,344,25492,1,8,0:3:0:0:
370,359,25571,1,8,0:3:0:0:
410,357,25650,1,8,0:0:0:0:
445,339,25729,1,0,0:0:0:0:
470,307,25807,1,0,0:0:0:0:
386,254,25966,1,8,0:3:0:0:
290,251,26124,1,0,0:0:0:0:
334,344,26282,1,8,0:0:0:0:
237,341,26440,1,0,0:0:0:0:
342,165,26598,5,8,0:3:0:0:
334,344,26755,1,0,0:0:0:0:
196,248,26913,1,8,0:0:0:0:
386,254,27071,1,0,0:0:0:0:
237,341,27229,1,8,0:3:0:0:
265,71,27387,1,8,0:0:0:0:
265,71,27703,6,0,L|263:205,1,132.999995941162,8|0,0:0|0:0,0:0:0:0:
180,132,28019,5,8,0:3:0:0:
180,132,28098,1,8,0:3:0:0:
180,132,28176,1,8,0:0:0:0:
89,103,28334,1,0,0:0:0:0:
165,43,28492,1,8,0:3:0:0:
74,14,28650,1,0,0:0:0:0:
108,192,28808,1,8,0:0:0:0:
20,169,28966,1,0,0:0:0:0:
180,132,29124,5,8,0:3:0:0:
0,77,29282,1,0,0:0:0:0:
108,192,29440,1,8,0:0:0:0:
74,14,29598,1,0,0:0:0:0:
20,169,29755,1,8,0:3:0:0:
265,71,29913,1,8,0:0:0:0:
265,71,30229,2,0,L|404:82,1,132.999995941162,12|0,0:0|0:0,0:0:0:0:
455,210,30545,5,8,0:3:0:0:
455,210,30624,1,8,0:3:0:0:
455,210,30703,1,8,0:0:0:0:
378,268,30861,1,0,0:0:0:0:
467,305,31019,1,8,0:3:0:0:
387,357,31176,1,0,0:0:0:0:
294,227,31334,1,8,0:0:0:0:
467,305,31492,1,0,0:0:0:0:
302,322,31650,6,0,L|149:304,1,142.5,8|0,0:0|0:0,0:0:0:0:
124,232,31966,2,0,P|133:314|51:360,1,142.5,8|0,0:0|0:0,0:0:0:0:
56,200,32282,2,0,B|101:190|101:190|220:209,1,142.5,8|0,0:0|0:0,0:0:0:0:
159,116,32598,2,0,L|152:28,1,66.4999979705811,8|8,0:0|0:3,0:0:0:0:
124,232,32755,2,0,L|118:320,1,66.4999979705811,8|8,0:0|0:0,0:0:0:0:
242,144,32913,5,12,0:0:0:0:
26,283,33071,1,8,0:0:0:0:
316,229,33545,5,8,0:0:0:0:
44,198,33703,1,8,0:0:0:0:
389,179,34019,6,0,B|431:277|350:277|392:380,1,190,12|8,0:0|0:3,0:0:0:0:
316,229,34492,1,8,0:0:0:0:
464,320,34650,1,8,0:0:0:0:
459,125,34808,1,8,0:0:0:0:
434,102,34886,1,8,0:3:0:0:
403,91,34965,1,8,0:0:0:0:
370,91,35044,1,8,0:0:0:0:
340,104,35124,2,0,L|270:92,1,47.5,8|8,0:3|0:3,0:0:0:0:
178,135,35282,2,0,L|224:143,1,47.5,8|8,0:0|0:0,0:0:0:0:
327,22,35440,6,0,L|197:1,1,95,12|0,0:0|0:0,0:0:0:0:
212,24,35676,6,0,L|343:44,1,132.999995941162,8|0,0:0|0:0,0:0:0:0:
358,65,35913,6,0,L|258:49,1,85.4999973907472,8|0,0:0|0:0,0:0:0:0:
132,37,36071,1,8,0:0:0:0:
73,215,36387,6,0,L|120:338,1,95,8|0,0:0|0:0,0:0:0:0:
132,314,36624,6,0,L|83:190,1,132.999995941162,8|0,0:0|0:0,0:0:0:0:
92,167,36861,6,0,L|130:260,1,85.4999973907472,8|0,0:0|0:0,0:0:0:0:
184,374,37019,1,8,0:0:0:0:
367,338,37334,6,0,L|450:236,1,95,8|0,0:0|0:0,0:0:0:0:
423,237,37571,6,0,L|339:340,1,132.999995941162,8|0,0:0|0:0,0:0:0:0:
313,344,37808,6,0,L|375:265,1,85.4999973907472,8|0,0:0|0:0,0:0:0:0:
462,166,37965,1,8,0:0:0:0:
130,244,38282,1,12,0:0:0:0:
200,176,38598,6,0,P|124:148|35:227,1,199.499993911743,12|0,0:3|0:0,0:0:0:0:
40,158,38913,6,0,P|89:125|183:134,1,142.5,8|0,0:0|0:0,0:0:0:0:
131,94,39229,6,0,P|79:99|44:120,1,85.4999973907472,8|0,0:3|0:0,0:0:0:0:
130,244,39545,1,8,0:0:0:0:
367,338,39861,6,0,L|450:236,1,95,12|0,0:0|0:0,0:0:0:0:
423,237,40098,6,0,L|340:341,1,132.999995941162,8|0,0:0|0:0,0:0:0:0:
315,345,40334,6,0,L|377:265,1,85.4999973907472,8|0,0:0|0:0,0:0:0:0:
452,162,40492,1,8,0:0:0:0:
327,22,40808,6,0,L|197:1,1,95,8|0,0:0|0:0,0:0:0:0:
212,23,41045,6,0,L|344:43,1,132.999995941162,8|0,0:0|0:0,0:0:0:0:
358,68,41282,6,0,L|258:55,1,85.4999973907472,8|0,0:0|0:0,0:0:0:0:
134,38,41439,1,8,0:0:0:0:
74,215,41755,6,0,L|120:338,1,95,8|0,0:0|0:0,0:0:0:0:
133,314,41992,6,0,L|86:189,1,132.999995941162,8|0,0:0|0:0,0:0:0:0:
98,166,42229,6,0,L|135:259,1,85.4999973907472,8|0,0:0|0:0,0:0:0:0:
175,383,42386,1,8,0:0:0:0:
423,223,42703,1,12,0:0:0:0:
326,228,43019,6,0,P|363:299|438:314,1,142.5,12|0,1:3|0:0,0:0:0:0:
427,346,43334,6,0,P|342:322|294:211,1,199.499993911743,8|0,0:0|0:0,0:0:0:0:
262,231,43650,5,8,0:0:0:0:
266,264,43728,1,8,1:3:0:0:
278,296,43807,1,8,0:0:0:0:
297,325,43886,1,8,0:0:0:0:
322,348,43966,2,0,L|236:344,1,66.4999979705811,8|8,0:3|0:3,0:0:0:0:
171,338,44124,2,0,L|104:334,1,66.4999979705811,8|8,0:0|0:0,0:0:0:0:
100,243,44282,6,0,B|53:252|27:221|27:221|62:188|107:193|107:193|106:148|148:90|227:86|227:86|257:21|257:21|287:87|287:87|349:90|391:132|398:187|398:187|450:189|470:223|470:223|447:251|402:245|402:245|428:313|362:345|302:322|320:247|320:247|188:247|188:247|213:313|150:355|76:304|109:258,1,1330,12|8,0:0|0:0,0:0:0:0:
389,66,46808,5,8,0:0:0:0:
256,328,46966,1,8,0:0:0:0:
389,66,47124,1,8,0:0:0:0:
256,328,47282,1,8,0:0:0:0:
389,66,47598,1,8,0:0:0:0:
256,328,47913,1,8,0:0:0:0:
123,66,48071,5,8,0:0:0:0:
388,196,48229,1,8,0:0:0:0:
389,66,48545,1,8,0:0:0:0:
124,196,48703,1,8,0:0:0:0:
124,196,49019,1,8,0:0:0:0:
475,174,49334,5,12,0:3:0:0:
475,174,49492,1,0,0:0:0:0:
250,252,49650,1,8,0:0:0:0:
250,252,49808,1,0,0:0:0:0:
397,131,49966,2,0,L|404:15,1,104.500003189087,8|0,0:3|0:0,0:0:0:0:
163,231,50282,2,0,L|156:347,1,104.500003189087,8|0,0:0|0:0,0:0:0:0:
9,84,50598,5,8,0:3:0:0:
9,84,50755,1,0,0:0:0:0:
225,167,50913,1,8,0:0:0:0:
225,167,51071,1,0,0:0:0:0:
37,164,51229,2,0,L|43:268,1,104.500003189087,8|0,0:3|0:0,0:0:0:0:
289,115,51545,2,0,L|282:10,1,104.500003189087,8|0,0:0|0:0,0:0:0:0:
453,276,51861,6,0,P|395:343|320:278,1,170.999994781494,12|0,0:3|0:0,0:0:0:0:
84,91,52176,2,0,P|117:41|192:106,1,152,8|0,0:0|0:0,0:0:0:0:
440,167,52492,2,0,P|403:215|329:158,1,132.999995941162,8|0,0:3|0:0,0:0:0:0:
120,208,52808,2,0,P|143:180|166:190,1,66.4999979705811,12|0,0:0|0:0,0:0:0:0:
227,258,52966,1,8,0:3:0:0:
84,91,53124,5,12,0:0:0:0:
310,187,53282,1,8,0:3:0:0:
479,25,53440,1,8,0:0:0:0:
386,259,53598,1,8,0:3:0:0:
190,71,53755,1,8,0:0:0:0:
432,161,53913,1,8,0:3:0:0:
355,362,54071,1,8,0:0:0:0:
302,365,54150,1,8,0:3:0:0:
250,370,54229,1,8,0:0:0:0:
197,374,54308,1,8,0:0:0:0:
142,379,54387,6,0,L|22:384,1,104.500003189087,12|0,0:3|0:0,0:0:0:0:
79,161,54703,2,0,L|74:41,1,104.500003189087,8|0,0:0|0:0,0:0:0:0:
326,130,55019,2,0,L|440:124,1,104.500003189087,8|0,0:3|0:0,0:0:0:0:
186,254,55334,2,0,L|72:260,1,104.500003189087,8|0,0:0|0:0,0:0:0:0:
253,73,55650,6,0,B|294:42|294:42|382:39,1,104.500003189087,8|0,0:3|0:0,0:0:0:0:
259,311,55966,2,0,B|218:342|218:342|130:345,1,104.500003189087,8|0,0:0|0:0,0:0:0:0:
420,77,56282,2,0,B|451:118|451:118|452:171,1,104.500003189087,8|0,0:3|0:0,0:0:0:0:
98,291,56598,2,0,B|66:250|66:250|65:196,1,104.500003189087,8|0,0:0|0:0,0:0:0:0:
339,156,56913,5,12,0:0:0:0:
173,228,57071,1,8,0:0:0:0:
438,272,57229,1,8,0:0:0:0:
148,143,57545,5,8,0:0:0:0:
314,71,57703,1,8,0:0:0:0:
49,27,57861,1,8,0:0:0:0:
245,281,58176,6,0,P|312:356|317:254,1,256.499992172241,8|0,0:0|0:0,0:0:0:0:
183,138,58492,2,0,P|85:159|169:212,1,256.499992172241,8|0,0:0|0:0,0:0:0:0:
339,156,58808,2,0,P|369:59|279:106,1,256.499992172241,8|0,0:0|0:0,0:0:0:0:
403,245,59124,2,0,B|435:256|465:239|465:239|448:214|405:207,1,132.999995941162,8|0,1:3|0:0,0:0:0:0:
166,300,59440,5,12,0:3:0:0:
166,300,59598,1,0,0:0:0:0:
278,104,59755,1,8,0:0:0:0:
278,104,59913,1,0,0:0:0:0:
88,248,60071,2,0,P|72:298|93:359,1,104.500003189087,8|0,0:3|0:0,0:0:0:0:
182,114,60387,2,0,P|198:64|177:3,1,104.500003189087,8|0,0:0|0:0,0:0:0:0:
316,220,60703,5,8,0:3:0:0:
316,220,60861,1,0,0:0:0:0:
114,168,61019,1,8,0:0:0:0:
114,168,61176,1,0,0:0:0:0:
297,306,61334,2,0,P|347:306|393:266,1,104.500003189087,8|0,0:3|0:0,0:0:0:0:
133,81,61650,2,0,P|83:81|37:121,1,104.500003189087,8|0,0:0|0:0,0:0:0:0:
340,98,61966,6,0,B|466:82|466:82|404:60,1,170.999994781494,12|0,0:3|0:0,0:0:0:0:
170,332,62282,2,0,B|52:348|52:348|106:370,1,152,8|0,0:0|0:0,0:0:0:0:
339,245,62598,2,0,B|442:230|442:230|399:207,1,132.999995941162,8|0,0:3|0:0,0:0:0:0:
147,160,62913,2,0,B|115:166|115:166|142:186,1,56.9999982604981,12|0,0:0|0:0,0:0:0:0:
186,254,63071,1,8,0:3:0:0:
340,25,63229,5,12,0:0:0:0:
101,263,63387,1,8,0:0:0:0:
101,263,63466,1,8,0:0:0:0:
101,263,63545,1,8,0:0:0:0:
416,216,63703,1,8,0:0:0:0:
416,216,63782,1,8,0:0:0:0:
416,216,63861,1,8,0:0:0:0:
117,82,64019,1,8,0:0:0:0:
117,82,64098,1,8,0:0:0:0:
117,82,64176,2,0,P|69:94|41:88,1,52.2500015945435,8|8,0:3|0:3,0:0:0:0:
260,311,64334,2,0,P|294:346|303:373,1,52.2500015945435,8|8,0:0|0:0,0:0:0:0:
151,158,64492,6,0,L|274:144,1,104.500003189087,12|0,0:3|0:0,0:0:0:0:
467,73,64808,2,0,L|344:59,1,104.500003189087,8|0,0:0|0:0,0:0:0:0:
196,269,65124,2,0,L|319:255,1,104.500003189087,8|0,0:3|0:0,0:0:0:0:
512,184,65440,2,0,L|389:170,1,104.500003189087,8|0,0:0|0:0,0:0:0:0:
207,372,65755,6,0,L|193:249,1,104.500003189087,8|0,0:3|0:0,0:0:0:0:
122,56,66071,2,0,L|108:179,1,104.500003189087,8|0,0:0|0:0,0:0:0:0:
306,342,66387,2,0,L|292:219,1,104.500003189087,8|0,0:3|0:0,0:0:0:0:
237,27,66703,2,0,L|223:150,1,104.500003189087,8|0,0:0|0:0,0:0:0:0:
152,266,67019,6,0,L|231:210,1,69.6666687927247,12|8,0:0|0:3,0:0:0:0:
372,245,67229,2,0,L|284:204,1,69.6666687927247,8|8,0:0|0:3,0:0:0:0:
243,64,67440,2,0,L|252:161,1,69.6666687927247,8|8,0:0|0:3,0:0:0:0:
117,257,67650,6,0,L|230:209,1,82.3333295644126,8|8,0:0|0:3,0:0:0:0:
382,278,67860,2,0,L|287:214,1,82.3333295644126,8|8,0:0|0:3,0:0:0:0:
268,39,68071,2,0,L|257:160,1,82.3333295644126,8|8,0:0|0:3,0:0:0:0:
78,240,68282,6,0,L|211:206,1,95.0000036239625,8|8,0:0|0:3,0:0:0:0:
386,320,68492,2,0,L|292:224,1,95.0000036239625,8|8,0:0|0:3,0:0:0:0:
302,14,68703,2,0,L|270:147,1,95.0000036239625,8|8,0:0|0:3,0:0:0:0:
238,324,68913,5,8,0:0:0:0:
238,324,68992,1,8,0:0:0:0:
238,324,69071,1,8,0:0:0:0:
238,324,69150,1,8,0:0:0:0:
238,324,69229,1,8,0:3:0:0:
190,334,69308,1,8,0:3:0:0:
144,345,69387,1,8,0:0:0:0:
96,358,69466,1,8,0:0:0:0:
51,369,69545,5,12,0:3:0:0:
296,255,69703,2,0,B|333:260|333:260|361:240|361:240|405:247,1,104.500003189087,0|8,0:0|0:0,0:0:0:0:
456,320,70019,1,0,0:0:0:0:
216,255,70176,2,0,B|178:260|178:260|150:240|150:240|107:247,1,104.500003189087,8|0,0:3|0:0,0:0:0:0:
56,320,70492,5,8,0:0:0:0:
311,213,70650,2,0,B|348:218|348:218|376:198|376:198|420:205,1,104.500003189087,0|8,0:0|0:3,0:0:0:0:
456,320,70966,1,0,0:0:0:0:
201,213,71124,2,0,B|163:218|163:218|135:198|135:198|92:205,1,104.500003189087,8|0,0:0|0:0,0:0:0:0:
106,375,71440,5,8,0:3:0:0:
328,176,71598,2,0,B|368:170|368:170|404:189|404:189|451:183,1,123.499994346619,0|8,0:0|0:0,0:0:0:0:
406,375,71913,1,0,0:0:0:0:
184,176,72071,2,0,B|144:170|144:170|108:189|108:189|61:183,1,123.499994346619,8|0,0:3|0:0,0:0:0:0:
106,375,72387,5,8,0:0:0:0:
347,144,72545,2,0,B|387:138|387:138|423:157|423:157|470:151,1,123.499994346619,0|8,0:0|0:3,0:0:0:0:
406,375,72861,1,0,0:0:0:0:
165,144,73019,2,0,B|125:138|125:138|89:157|89:157|42:151,1,123.499994346619,8|0,0:0|0:0,0:0:0:0:
256,344,73334,5,12,0:0:0:0:
396,92,73492,1,8,0:0:0:0:
396,92,73571,1,8,0:0:0:0:
396,92,73650,1,8,0:0:0:0:
110,64,73808,1,8,0:0:0:0:
110,64,73887,1,8,0:0:0:0:
110,64,73966,1,8,0:0:0:0:
361,194,74124,1,8,0:0:0:0:
361,194,74203,1,8,0:0:0:0:
361,194,74282,1,8,0:3:0:0:
406,198,74361,1,8,0:3:0:0:
450,187,74440,1,8,0:0:0:0:
485,156,74519,1,8,0:0:0:0:
497,105,74598,6,0,L|514:217,1,104.500003189087,12|0,0:3|0:0,0:0:0:0:
295,376,74913,2,0,L|312:264,1,104.500003189087,8|0,0:0|0:0,0:0:0:0:
296,17,75229,2,0,L|313:129,1,104.500003189087,8|0,0:3|0:0,0:0:0:0:
87,274,75545,1,12,0:0:0:0:
409,170,75861,6,0,L|425:274,1,104.500003189087,8|0,0:3|0:0,0:0:0:0:
200,120,76176,2,0,L|216:17,1,104.500003189087,8|0,0:0|0:0,0:0:0:0:
201,272,76492,2,0,L|217:376,1,104.500003189087,8|0,0:3|0:0,0:0:0:0:
0,222,76808,1,12,0:0:0:0:
285,201,77124,5,8,0:0:0:0:
87,274,77282,1,8,0:0:0:0:
366,341,77440,1,8,0:0:0:0:
112,188,77755,5,8,0:0:0:0:
310,115,77913,1,8,0:0:0:0:
31,48,78071,1,8,0:0:0:0:
452,192,78387,5,8,0:0:0:0:
177,102,78545,1,8,0:0:0:0:
347,336,78703,1,8,0:0:0:0:
347,47,78861,1,8,0:0:0:0:
177,281,79019,1,8,0:0:0:0:
344,192,79176,1,8,0:3:0:0:
88,180,79334,2,0,P|37:192|91:197,1,142.500005435944,8|0,0:0|0:0,0:0:0:0:
31,48,79650,5,12,0:3:0:0:
59,61,79728,1,0,0:0:0:0:
90,64,79807,1,0,0:0:0:0:
119,56,79886,1,0,0:0:0:0:
150,48,79966,1,8,0:0:0:0:
180,40,80045,1,0,0:0:0:0:
210,42,80124,1,0,0:0:0:0:
238,55,80202,1,0,0:0:0:0:
260,79,80282,5,8,0:3:0:0:
288,91,80360,1,0,0:0:0:0:
319,94,80439,1,0,0:0:0:0:
348,86,80518,1,0,0:0:0:0:
379,78,80598,1,8,0:0:0:0:
409,70,80677,1,0,0:0:0:0:
439,73,80756,1,0,0:0:0:0:
467,85,80834,1,0,0:0:0:0:
489,107,80913,6,0,L|489:171,1,52.2500015945435,8|0,0:3|0:0,0:0:0:0:
393,218,81071,2,0,L|393:165,1,52.2500015945435
471,122,81229,2,0,L|471:186,1,52.2500015945435,8|0,0:0|0:0,0:0:0:0:
375,233,81387,2,0,L|375:180,1,52.2500015945435
509,96,81545,5,8,0:3:0:0:
264,236,81703,1,8,0:0:0:0:
315,5,81861,1,8,0:0:0:0:
439,290,82019,1,8,0:0:0:0:
169,351,82176,5,12,0:3:0:0:
138,345,82254,1,0,0:0:0:0:
110,331,82333,1,0,0:0:0:0:
89,308,82412,1,0,0:0:0:0:
76,280,82491,1,8,0:0:0:0:
72,249,82570,1,0,0:0:0:0:
79,218,82649,1,0,0:0:0:0:
94,191,82728,1,0,0:0:0:0:
118,171,82807,5,8,0:3:0:0:
147,159,82886,1,0,0:0:0:0:
178,157,82965,1,0,0:0:0:0:
208,165,83044,1,0,0:0:0:0:
234,182,83123,1,8,0:0:0:0:
254,206,83202,1,0,0:0:0:0:
264,236,83281,1,0,0:0:0:0:
265,267,83360,1,0,0:0:0:0:
256,297,83439,5,8,0:0:0:0:
53,34,83598,1,8,0:0:0:0:
170,253,83755,1,8,0:0:0:0:
341,10,83913,1,8,0:0:0:0:
32,126,84071,1,8,0:0:0:0:
356,24,84387,1,8,0:0:0:0:
356,24,84466,1,8,0:3:0:0:
356,24,84545,1,8,0:0:0:0:
356,24,84624,1,8,0:0:0:0:
356,24,84703,6,0,L|442:13,2,69.6666687927247,12|0|0,0:3|0:0|0:0,0:0:0:0:
284,80,85019,2,0,L|198:69,2,69.6666687927247,8|0|0,0:0|0:0|0:0,0:0:0:0:
369,111,85334,2,0,L|455:100,2,69.6666687927247,8|0|0,0:3|0:0|0:0,0:0:0:0:
299,172,85650,2,0,L|213:161,2,69.6666687927247,8|0|0,0:0|0:0|0:0,0:0:0:0:
383,207,85966,5,8,0:3:0:0:
473,195,86071,1,0,0:0:0:0:
442,281,86176,1,0,0:0:0:0:
351,292,86282,1,8,0:0:0:0:
261,280,86387,1,0,0:0:0:0:
292,366,86492,1,0,0:0:0:0:
200,356,86598,2,0,P|165:357|133:370,2,69.6666687927247,8|0|0,0:3|0:0|0:0,0:0:0:0:
69,303,86913,2,0,P|49:332|40:366,2,69.6666687927247,8|0|0,0:0|0:0|0:0,0:0:0:0:
90,208,87229,6,0,L|96:117,1,69.6666687927247,12|0,0:0|0:0,0:0:0:0:
153,64,87440,1,8,0:0:0:0:
241,88,87545,2,0,L|245:157,1,69.6666687927247,8|0,0:0|0:0,0:0:0:0:
307,232,87755,1,8,0:0:0:0:
391,197,87860,2,0,L|395:127,2,69.6666687927247,8|0|8,0:0|0:0|0:0,0:0:0:0:
463,3,88176,2,0,L|467:72,2,69.6666687927247,8|0|8,0:0|0:0|0:0,0:0:0:0:
475,189,88492,5,12,0:0:0:0:
472,221,88570,1,8,0:0:0:0:
471,255,88649,1,8,0:0:0:0:
469,289,88728,1,8,0:0:0:0:
467,321,88807,1,8,0:0:0:0:
81,294,89124,1,8,0:0:0:0:
78,244,89203,1,8,0:0:0:0:
76,194,89282,1,8,0:0:0:0:
73,143,89361,1,8,0:0:0:0:
85,107,89440,1,8,0:0:0:0:
85,107,89519,1,8,0:3:0:0:
85,107,89598,1,8,0:0:0:0:
85,107,89676,1,8,0:0:0:0:
85,107,89755,6,0,P|136:87|191:101,1,95,12|0,0:0|0:0,0:0:0:0:
263,235,90071,2,0,P|212:255|157:241,1,95,8|0,0:0|0:0,0:0:0:0:
305,52,90387,2,0,L|309:146,1,95,8|0,0:0|0:0,0:0:0:0:
58,293,90703,2,0,L|53:198,1,95,8|0,0:0|0:0,0:0:0:0:
263,235,91019,5,8,0:0:0:0:
4,128,91176,1,8,0:3:0:0:
173,249,91334,1,8,0:0:0:0:
279,23,91492,1,8,0:3:0:0:
162,155,91650,1,8,0:0:0:0:
402,185,91808,1,8,0:3:0:0:
402,185,91887,1,8,0:3:0:0:
402,185,91966,1,8,0:0:0:0:
160,328,92124,1,8,0:3:0:0:
397,351,92282,6,0,L|495:356,1,95,8|0,0:0|0:0,0:0:0:0:
330,123,92598,2,0,L|232:118,1,95,8|0,0:0|0:0,0:0:0:0:
444,191,92913,2,0,P|462:129|440:75,1,95,8|0,0:0|0:0,0:0:0:0:
314,292,93229,2,0,P|296:354|318:408,1,95,8|0,0:0|0:0,0:0:0:0:
225,245,93545,5,8,0:0:0:0:
493,278,93703,1,8,0:3:0:0:
493,278,93782,1,8,0:3:0:0:
493,278,93861,1,8,0:0:0:0:
225,245,94019,1,8,0:3:0:0:
225,245,94098,1,8,0:3:0:0:
225,245,94176,1,8,0:0:0:0:
419,56,94334,1,8,0:3:0:0:
419,56,94413,1,8,0:3:0:0:
419,56,94492,2,0,P|418:32|409:6,2,47.5,8|8|8,0:0|0:0|0:3,0:0:0:0:
141,108,94808,6,0,P|89:120|31:102,1,95,12|0,0:0|0:0,0:0:0:0:
248,292,95124,2,0,P|300:280|358:298,1,95,8|0,0:0|0:0,0:0:0:0:
97,255,95440,2,0,P|109:307|91:365,1,95,8|0,0:0|0:0,0:0:0:0:
281,148,95756,2,0,P|269:96|287:38,1,95,8|0,0:0|0:0,0:0:0:0:
193,210,96071,5,8,0:0:0:0:
370,96,96228,1,8,0:3:0:0:
193,210,96386,1,8,0:0:0:0:
91,22,96545,1,8,0:3:0:0:
193,210,96703,1,8,0:0:0:0:
14,317,96860,1,8,0:3:0:0:
14,317,96940,1,8,0:3:0:0:
14,317,97019,1,8,0:0:0:0:
193,210,97176,1,8,0:3:0:0:
294,384,97334,5,8,0:0:0:0:
124,253,97492,1,8,0:3:0:0:
370,96,97650,1,8,0:0:0:0:
238,282,97808,1,8,0:3:0:0:
91,22,97966,1,8,0:0:0:0:
262,164,98124,1,8,0:3:0:0:
14,317,98282,1,8,0:0:0:0:
147,131,98440,1,8,0:3:0:0:
374,253,98598,5,12,0:0:0:0:
421,51,104913,6,0,P|436:82|438:125,2,56.9999982604981,8|0|0,0:3|0:0|0:0,0:0:0:0:
394,178,105387,2,0,P|393:227|382:257,2,56.9999982604981,8|0|0,0:3|0:0|0:0,0:0:0:0:
326,293,105861,2,0,P|306:333|284:347,1,56.9999982604981,8|0,0:3|0:0,0:0:0:0:
214,340,106176,6,0,P|195:319|186:293,2,56.9999982604981,8|0|0,0:3|0:0|0:0,0:0:0:0:
120,234,106650,2,0,P|116:206|118:178,2,56.9999982604981,8|0|0,0:3|0:0|0:0,0:0:0:0:
72,104,107124,2,0,P|77:76|91:51,1,56.9999982604981,8|0,0:3|0:0,0:0:0:0:
311,198,107440,5,8,0:0:0:0:
62,339,107598,1,8,0:0:0:0:
179,102,108071,1,8,0:0:0:0:
428,159,108229,1,8,0:0:0:0:
267,281,108703,6,0,P|200:356|195:254,1,256.499992172241,8|0,0:0|0:0,0:0:0:0:
329,138,109019,2,0,P|427:159|343:212,1,256.499992172241,8|0,0:0|0:0,0:0:0:0:
173,156,109335,2,0,P|143:59|233:106,1,256.499992172241,8|0,0:0|0:0,0:0:0:0:
218,305,109650,1,8,0:0:0:0:
401,62,109966,5,12,0:3:0:0:
401,62,110124,1,0,0:0:0:0:
141,135,110282,1,8,0:0:0:0:
141,135,110440,1,0,0:0:0:0:
452,136,110598,2,0,B|487:99|487:99|477:13,1,132.999995941162,8|0,0:3|0:0,0:0:0:0:
216,232,110913,2,0,B|181:269|181:269|191:355,1,132.999995941162,8|0,0:0|0:0,0:0:0:0:
334,206,111229,5,8,0:3:0:0:
334,206,111387,1,0,0:0:0:0:
70,174,111545,1,8,0:0:0:0:
70,174,111703,1,0,0:0:0:0:
373,141,111861,2,0,L|368:285,1,132.999995941162,8|0,0:3|0:0,0:0:0:0:
31,238,112176,2,0,L|35:105,1,132.999995941162,8|0,0:0|0:0,0:0:0:0:
430,338,112492,6,0,P|494:335|422:281,1,190,12|0,0:0|0:0,0:0:0:0:
128,367,112808,2,0,P|60:339|107:283,1,170.999994781494,8|0,0:0|0:0,0:0:0:0:
358,168,113124,2,0,P|414:145|337:110,1,152,8|0,0:0|0:0,0:0:0:0:
117,188,113440,2,0,P|94:168|113:145,1,66.4999979705811,12|0,0:0|0:0,0:0:0:0:
230,102,113598,1,8,0:3:0:0:
253,360,113755,5,12,0:0:0:0:
31,238,113913,1,8,0:0:0:0:
31,238,113992,1,8,0:0:0:0:
31,238,114071,1,8,0:0:0:0:
277,268,114229,1,8,0:0:0:0:
277,268,114308,1,8,0:0:0:0:
277,268,114387,1,8,0:0:0:0:
439,35,114545,1,8,0:0:0:0:
439,35,114624,1,8,0:0:0:0:
439,35,114703,1,8,0:3:0:0:
442,72,114781,1,8,0:3:0:0:
445,110,114860,1,8,0:0:0:0:
449,148,114939,1,8,0:0:0:0:
452,186,115019,6,0,L|465:325,1,132.999995941162,12|0,0:3|0:0,0:0:0:0:
60,198,115334,2,0,L|47:59,1,132.999995941162,8|0,0:0|0:0,0:0:0:0:
306,47,115650,2,0,L|438:34,1,132.999995941162,8|0,0:3|0:0,0:0:0:0:
206,337,115966,2,0,L|73:349,1,132.999995941162,8|0,0:0|0:0,0:0:0:0:
291,380,116282,6,0,P|302:335|250:253,1,132.999995941162,8|0,0:3|0:0,0:0:0:0:
221,4,116598,2,0,P|210:49|262:131,1,132.999995941162,8|0,0:0|0:0,0:0:0:0:
444,157,116913,2,0,P|379:148|325:184,1,132.999995941162,8|0,0:3|0:0,0:0:0:0:
67,226,117229,2,0,P|132:235|186:199,1,132.999995941162,8|0,0:0|0:0,0:0:0:0:
400,229,117545,6,0,L|325:183,1,88.6666639607748,12|8,0:0|0:3,0:0:0:0:
151,298,117755,2,0,L|229:256,1,88.6666639607748,8|8,0:0|0:3,0:0:0:0:
216,48,117966,2,0,L|213:136,1,88.6666639607748,8|8,0:0|0:3,0:0:0:0:
395,281,118176,6,0,L|324:201,1,101.333333333333,8|8,0:0|0:3,0:0:0:0:
109,267,118387,2,0,L|213:247,1,101.333333333333,8|8,0:0|0:3,0:0:0:0:
263,27,118598,2,0,L|229:127,1,101.333333333333,8|8,0:0|0:3,0:0:0:0:
373,330,118808,6,0,L|320:218,1,113.999996520996,8|8,0:0|0:3,0:0:0:0:
77,224,119019,2,0,L|200:234,1,113.999996520996,8|8,0:0|0:3,0:0:0:0:
317,21,119229,2,0,L|246:122,1,113.999996520996,8|8,0:0|0:3,0:0:0:0:
248,332,119440,1,8,0:0:0:0:
248,332,119519,1,8,0:0:0:0:
248,332,119598,1,8,0:0:0:0:
248,332,119676,1,8,0:0:0:0:
248,332,119755,1,8,0:3:0:0:
188,329,119834,1,8,0:3:0:0:
132,326,119913,1,8,0:0:0:0:
76,323,119992,1,8,0:0:0:0:
20,319,120071,5,12,0:3:0:0:
300,186,120229,2,0,B|337:171|337:171|384:191|384:191|423:176,1,132.999995941162,0|8,0:0|0:0,0:0:0:0:
486,310,120545,1,0,0:0:0:0:
211,186,120703,2,0,B|175:171|175:171|128:191|128:191|89:176,1,132.999995941162,8|0,0:3|0:0,0:0:0:0:
26,310,121019,5,8,0:0:0:0:
314,146,121177,2,0,B|351:131|351:131|398:151|398:151|437:136,1,132.999995941162,0|8,0:0|0:3,0:0:0:0:
486,310,121492,1,0,0:0:0:0:
197,146,121650,2,0,B|161:131|161:131|114:151|114:151|75:136,1,132.999995941162,8|0,0:0|0:0,0:0:0:0:
128,384,121966,5,8,0:3:0:0:
314,104,122124,2,0,B|351:89|351:89|408:113|408:113|455:95,1,152,0|8,0:0|0:0,0:0:0:0:
384,384,122440,1,0,0:0:0:0:
197,104,122598,2,0,B|160:89|160:89|103:113|103:113|57:95,1,152,8|0,0:3|0:0,0:0:0:0:
128,384,122913,5,8,0:0:0:0:
331,68,123071,2,0,B|368:53|368:53|425:77|425:77|472:59,1,152,0|8,0:0|0:3,0:0:0:0:
384,384,123387,1,0,0:0:0:0:
180,68,123545,2,0,B|143:53|143:53|86:77|86:77|40:59,1,152,8|0,0:0|0:0,0:0:0:0:
128,384,123861,5,12,0:0:0:0:
409,104,124019,1,8,0:0:0:0:
409,104,124098,1,8,0:0:0:0:
409,104,124177,1,8,0:0:0:0:
60,177,124334,1,8,0:0:0:0:
60,177,124413,1,8,0:0:0:0:
60,177,124492,1,8,0:0:0:0:
436,211,124650,1,8,0:0:0:0:
436,211,124729,1,8,0:0:0:0:
436,211,124808,1,8,0:3:0:0:
486,179,124886,1,8,0:3:0:0:
511,126,124965,1,8,0:0:0:0:
505,67,125044,1,8,0:0:0:0:
469,21,125124,6,0,L|324:12,1,132.999995941162,12|0,0:3|0:0,0:0:0:0:
118,110,125440,2,0,L|263:101,1,132.999995941162,8|0,0:0|0:0,0:0:0:0:
436,211,125755,2,0,L|291:202,1,132.999995941162,8|0,0:3|0:0,0:0:0:0:
70,29,126071,1,12,0:0:0:0:
43,363,126387,6,0,L|188:372,1,132.999995941162,8|0,0:3|0:0,0:0:0:0:
389,278,126703,2,0,L|244:287,1,132.999995941162,8|0,0:0|0:0,0:0:0:0:
76,173,127018,2,0,L|221:182,1,132.999995941162,8|0,0:3|0:0,0:0:0:0:
442,355,127334,1,12,0:0:0:0:
137,92,127650,5,8,0:0:0:0:
323,327,127808,1,8,0:0:0:0:
448,44,127966,1,8,0:0:0:0:
88,306,128282,5,8,0:0:0:0:
213,23,128440,1,8,0:0:0:0:
399,258,128598,1,8,0:0:0:0:
27,367,128913,5,8,0:0:0:0:
334,169,129071,1,8,0:0:0:0:
5,129,129229,1,8,0:0:0:0:
257,374,129387,1,8,0:0:0:0:
213,23,129545,1,8,0:0:0:0:
118,160,129703,2,0,L|115:241,2,76,8|8|8,0:3|0:0|0:3,0:0:0:0:
375,292,130176,5,8,0:0:0:0:
189,57,130334,1,8,0:0:0:0:
64,340,130492,1,8,0:0:0:0:
424,78,130808,5,8,0:0:0:0:
299,361,130966,1,8,0:0:0:0:
113,126,131124,1,8,0:0:0:0:
485,17,131439,5,8,0:0:0:0:
177,205,131597,1,8,0:0:0:0:
507,255,131755,1,8,0:0:0:0:
255,10,131913,1,8,0:0:0:0:
299,361,132071,1,8,0:0:0:0:
368,192,132229,1,8,0:3:0:0:
49,207,132387,2,0,P|-8:191|51:198,1,161.500003080368,8|0,0:0|0:0,0:0:0:0:
390,280,132703,5,12,0:3:0:0:
353,273,132782,1,0,0:0:0:0:
315,266,132861,1,0,0:0:0:0:
279,261,132940,1,0,0:0:0:0:
242,255,133019,1,8,0:0:0:0:
262,154,133176,1,0,0:0:0:0:
242,255,133334,1,8,0:3:0:0:
134,233,133492,1,0,0:0:0:0:
242,255,133650,1,8,0:0:0:0:
223,356,133808,1,0,0:0:0:0:
156,130,133966,5,8,0:3:0:0:
134,233,134124,1,0,0:0:0:0:
98,226,134203,1,0,0:0:0:0:
63,219,134282,1,8,0:0:0:0:
42,320,134440,1,0,0:0:0:0:
79,114,134598,1,8,0:3:0:0:
105,15,134755,1,0,0:0:0:0:
140,21,134834,1,0,0:0:0:0:
177,28,134913,2,0,L|276:50,1,95,8|0,0:0|0:0,0:0:0:0:
398,322,135229,5,8,0:3:0:0:
391,284,135308,1,0,0:0:0:0:
386,247,135387,1,0,0:0:0:0:
382,211,135466,1,0,0:0:0:0:
378,174,135545,1,8,0:0:0:0:
273,189,135702,1,0,0:0:0:0:
378,174,135860,1,8,0:3:0:0:
359,65,136018,1,0,0:0:0:0:
378,174,136176,1,12,0:0:0:0:
479,157,136334,1,8,0:3:0:0:
254,89,136492,5,12,0:0:0:0:
504,267,136650,1,8,0:0:0:0:
504,267,136729,1,8,0:0:0:0:
504,267,136808,1,8,0:0:0:0:
236,373,136966,1,12,0:0:0:0:
236,373,137045,1,8,0:0:0:0:
236,373,137124,1,8,0:0:0:0:
459,145,137282,1,8,0:0:0:0:
459,145,137361,1,8,0:0:0:0:
459,145,137440,1,12,0:3:0:0:
407,130,137519,1,8,0:3:0:0:
355,116,137598,1,8,0:0:0:0:
305,102,137676,1,8,0:0:0:0:
254,89,137755,6,0,P|246:44|262:4,2,63.3333333333333,12|0|0,0:3|0:0|0:0,0:0:0:0:
172,22,138071,2,0,P|126:15|93:-11,2,63.3333333333333,8|0|0,0:0|0:0|0:0,0:0:0:0:
71,74,138387,2,0,P|50:116|14:139,2,63.3333333333333,8|0|0,0:3|0:0|0:0,0:0:0:0:
93,187,138703,2,0,P|125:220|136:261,2,63.3333333333333,8|0|0,0:0|0:0|0:0,0:0:0:0:
200,186,139019,5,8,0:3:0:0:
222,170,139097,1,0,0:0:0:0:
248,159,139176,1,0,0:0:0:0:
276,153,139255,1,0,0:0:0:0:
258,109,139334,5,8,0:0:0:0:
249,84,139412,1,0,0:0:0:0:
246,57,139491,1,0,0:0:0:0:
249,27,139570,1,0,0:0:0:0:
205,41,139650,5,8,0:3:0:0:
177,42,139728,1,0,0:0:0:0:
151,36,139807,1,0,0:0:0:0:
123,24,139886,1,0,0:0:0:0:
127,72,139966,5,8,0:0:0:0:
120,101,140044,1,0,0:0:0:0:
106,123,140123,1,0,0:0:0:0:
85,146,140202,1,0,0:0:0:0:
158,183,140282,6,0,P|182:185|203:197,3,47.5,8|0|0|0,0:3|0:0|0:0|0:0,0:0:0:0:
297,276,140598,2,0,P|319:267|342:267,3,47.5,8|0|0|0,0:0|0:0|0:0|0:0,0:0:0:0:
225,118,140913,2,0,P|247:123|266:137,3,47.5,8|0|0|0,0:3|0:0|0:0|0:0,0:0:0:0:
403,204,141229,2,0,P|420:188|443:182,3,47.5,8|0|0|0,0:0|0:0|0:0|0:0,0:0:0:0:
485,36,141545,5,12,0:0:0:0:
449,36,141624,1,8,0:0:0:0:
410,36,141703,1,8,0:0:0:0:
372,36,141782,1,8,0:0:0:0:
334,36,141861,1,8,0:0:0:0:
0,358,142177,1,8,0:0:0:0:
48,358,142256,1,8,0:0:0:0:
96,358,142335,1,8,0:0:0:0:
144,358,142414,1,8,0:0:0:0:
190,358,142493,1,8,0:0:0:0:
467,333,142808,5,12,0:0:0:0:
199,197,142966,1,8,0:0:0:0:
415,44,143124,1,8,0:0:0:0:
250,308,143282,1,8,0:0:0:0:
25,64,143598,1,8,0:0:0:0:
368,213,143913,1,8,0:0:0:0:
66,314,144071,5,8,0:0:0:0:
