osu file format v14

[General]
AudioFilename: audio.mp3
AudioLeadIn: 0
PreviewTime: 47196
Countdown: 1
SampleSet: None
StackLeniency: 0.7
Mode: 1
LetterboxInBreaks: 0
WidescreenStoryboard: 1

[Editor]
DistanceSpacing: 0.8
BeatDivisor: 4
GridSize: 16
TimelineZoom: 1.900006

[Metadata]
Title:Alien Alien (Nhato remix)
TitleUnicode:エイリアンエイリアン (Nhato remix)
Artist:NayutalieN
ArtistUnicode:ナユタン星人
Creator:Quizmaegi
Version:Ishukan Oni (190BPM)
Source:
Tags:
BeatmapID:1447661
BeatmapSetID:684045

[Difficulty]
HPDrainRate:2
CircleSize:5
OverallDifficulty:7.5
ApproachRate:5
SliderMultiplier:1.4
SliderTickRate:1

[Events]
//Background and Video events
0,0,"Alien.png",0,0
//Break Periods
2,12107,18286
//Storyboard Layer 0 (Background)
//Storyboard Layer 1 (Fail)
//Storyboard Layer 2 (Pass)
//Storyboard Layer 3 (Foreground)
//Storyboard Sound Samples

[TimingPoints]
539,315.789473684211,4,1,0,90,1,0
539,-83.3333333333333,4,1,0,90,0,0
1802,-133.333333333333,4,1,0,70,0,0
11907,-50,4,1,0,75,0,0
19486,-90.9090909090909,4,1,0,80,0,0
21696,-83.3333333333333,4,1,0,90,0,0
22012,-55.5555555555556,4,1,0,90,0,0
26591,-133.333333333333,4,1,0,90,0,0
27065,-55.5555555555556,4,1,0,90,0,0
31644,-58.8235294117647,4,1,0,90,0,0
31802,-64.5161290322581,4,1,0,90,0,0
31960,-76.9230769230769,4,1,0,90,0,0
32117,-90.9090909090909,4,1,0,90,0,0
42065,-100,4,1,0,90,0,0
42223,-111.111111111111,4,1,0,90,0,0
42539,-90.9090909090909,4,1,0,90,0,0
42854,-76.9230769230769,4,1,0,90,0,0
43170,-66.6666666666667,4,1,0,90,0,0
43486,-58.8235294117647,4,1,0,90,0,0
43802,-52.6315789473684,4,1,0,90,0,0
44117,-47.6190476190476,4,1,0,90,0,0
44433,-43.4782608695652,4,1,0,90,0,0
44749,-40,4,1,0,90,0,0
44907,-38.0952380952381,4,1,0,90,0,0
45065,-36.3636363636364,4,1,0,90,0,0
45223,-34.7826086956522,4,1,0,90,0,0
45381,-33.3333333333333,4,1,0,90,0,0
45539,-32,4,1,0,90,0,0
45696,-30.7692307692308,4,1,0,90,0,0
45854,-29.6296296296296,4,1,0,90,0,0
46012,-28.5714285714286,4,1,0,90,0,0
46091,-28.0898876404494,4,1,0,90,0,0
46170,-27.6243093922652,4,1,0,90,0,0
46249,-27.1739130434783,4,1,0,90,0,0
46328,-26.7379679144385,4,1,0,90,0,0
46407,-26.3157894736842,4,1,0,90,0,0
46486,-25.9067357512953,4,1,0,90,0,0
46565,-25.3807106598985,4,1,0,90,0,0
46644,-25,4,1,0,90,0,0
46802,-90.9090909090909,4,1,0,90,0,0
47275,-55.5555555555556,4,1,0,90,0,1
49170,-200,4,1,0,90,0,1
49644,-55.5555555555556,4,1,0,90,0,1
51854,-33.3333333333333,4,1,0,90,0,1
52170,-55.5555555555556,4,1,0,90,0,1
56275,-40,4,1,0,90,0,1
57065,-100,4,1,0,90,0,1
57381,-55.5555555555556,4,1,0,90,0,1
59275,-200,4,1,0,90,0,1
59749,-55.5555555555556,4,1,0,90,0,1
61960,-33.3333333333333,4,1,0,90,0,1
62276,-55.5555555555556,4,1,0,90,0,1
66381,-40,4,1,0,90,0,1
67170,-100,4,1,0,90,0,1
67486,-83.3333333333333,4,1,0,90,0,0
72065,-133.333333333333,4,1,0,90,0,0
72539,-55.5555555555556,4,1,0,90,0,0
75065,-100,4,1,0,90,0,0
76486,-40,4,1,0,90,0,0
77591,-125,4,1,0,80,0,0
82644,-100,4,1,0,85,0,0
86433,-55.5555555555556,4,1,0,90,0,0
86591,-100,4,1,0,90,0,0
86907,-55.5555555555556,4,1,0,90,0,0
87065,-100,4,1,0,90,0,0
87381,-55.5555555555556,4,1,0,90,0,0
87460,-100,4,1,0,90,0,0
87696,-90.9090909090909,4,1,0,90,0,0
97644,-100,4,1,0,90,0,0
97802,-111.111111111111,4,1,0,90,0,0
98118,-90.9090909090909,4,1,0,90,0,0
98433,-76.9230769230769,4,1,0,90,0,0
98749,-66.6666666666667,4,1,0,90,0,0
99065,-58.8235294117647,4,1,0,90,0,0
99381,-52.6315789473684,4,1,0,90,0,0
99696,-47.6190476190476,4,1,0,90,0,0
100012,-43.4782608695652,4,1,0,90,0,0
100328,-40,4,1,0,90,0,0
100486,-38.0952380952381,4,1,0,90,0,0
100644,-36.3636363636364,4,1,0,90,0,0
100802,-34.7826086956522,4,1,0,90,0,0
100960,-33.3333333333333,4,1,0,90,0,0
101118,-32,4,1,0,90,0,0
101275,-30.7692307692308,4,1,0,90,0,0
101433,-29.6296296296296,4,1,0,90,0,0
101591,-28.5714285714286,4,1,0,90,0,0
101670,-28.0898876404494,4,1,0,90,0,0
101749,-27.6243093922652,4,1,0,90,0,0
101828,-27.1739130434783,4,1,0,90,0,0
101907,-26.7379679144385,4,1,0,90,0,0
101986,-26.3157894736842,4,1,0,90,0,0
102065,-25.9067357512953,4,1,0,90,0,0
102144,-25.3807106598985,4,1,0,90,0,0
102223,-25,4,1,0,90,0,0
102381,-90.9090909090909,4,1,0,90,0,0
102854,-200,4,1,0,50,0,0
107433,-100,4,1,0,70,0,0
107749,-200,4,1,0,50,0,0
107907,-133.333333333333,4,1,0,70,0,0
111854,-40,4,1,0,80,0,0
112960,-55.5555555555556,4,1,0,90,0,1
114854,-200,4,1,0,90,0,1
115328,-55.5555555555556,4,1,0,90,0,1
117538,-33.3333333333333,4,1,0,90,0,1
117854,-55.5555555555556,4,1,0,90,0,1
121960,-40,4,1,0,90,0,1
122749,-52.6315789473684,4,1,0,90,0,1
123065,-40,4,1,0,90,0,1
124960,-142.857142857143,4,1,0,90,0,1
125433,-40,4,1,0,90,0,1
127644,-25,4,1,0,90,0,1
127960,-40,4,1,0,90,0,1
132065,-28.5714285714286,4,1,0,90,0,1
132854,-66.6666666666667,4,1,0,90,0,1
133170,-83.3333333333333,4,1,0,90,0,0
140749,-100,4,1,0,90,0,0
142170,-25,4,1,0,90,0,0

[HitObjects]
256,192,539,5,8,0:0:0:0:
256,192,775,1,0,0:0:0:0:
256,192,1012,1,8,0:0:0:0:
256,192,1328,1,0,0:0:0:0:
256,192,1486,1,8,0:0:0:0:
256,192,1644,1,0,0:0:0:0:
256,192,1802,1,8,0:0:0:0:
256,192,2275,1,0,0:0:0:0:
256,192,2433,1,8,0:0:0:0:
256,192,2907,1,8,0:0:0:0:
256,192,3065,1,0,0:0:0:0:
256,192,3223,1,0,0:0:0:0:
256,192,3381,1,8,0:0:0:0:
256,192,3539,1,8,0:0:0:0:
256,192,3696,1,8,0:0:0:0:
256,192,3854,1,0,0:0:0:0:
256,192,3933,1,0,0:0:0:0:
256,192,4012,1,8,0:0:0:0:
256,192,4170,1,0,0:0:0:0:
256,192,4328,1,8,0:0:0:0:
256,192,4802,1,0,0:0:0:0:
256,192,4960,1,8,0:0:0:0:
256,192,5433,1,8,0:0:0:0:
256,192,5591,1,0,0:0:0:0:
256,192,5749,1,8,0:0:0:0:
256,192,5907,1,0,0:0:0:0:
256,192,6065,1,8,0:0:0:0:
256,192,6223,1,8,0:0:0:0:
256,192,6381,1,0,0:0:0:0:
256,192,6539,1,0,0:0:0:0:
256,192,6696,1,8,0:0:0:0:
256,192,6854,1,0,0:0:0:0:
256,192,7328,1,0,0:0:0:0:
256,192,7486,1,8,0:0:0:0:
256,192,7960,1,0,0:0:0:0:
256,192,8117,1,8,0:0:0:0:
256,192,8275,1,0,0:0:0:0:
256,192,8433,1,8,0:0:0:0:
256,192,8591,1,0,0:0:0:0:
256,192,8749,1,0,0:0:0:0:
256,192,8907,1,8,0:0:0:0:
256,192,9065,1,8,0:0:0:0:
256,192,9223,1,0,0:0:0:0:
256,192,9381,1,0,0:0:0:0:
256,192,9696,1,8,0:0:0:0:
256,192,10012,1,8,0:0:0:0:
256,192,10328,1,8,0:0:0:0:
256,192,10802,1,8,0:0:0:0:
256,192,10960,1,0,0:0:0:0:
256,192,11117,1,0,0:0:0:0:
256,192,11275,1,8,0:0:0:0:
256,192,11433,1,8,0:0:0:0:
256,192,11486,1,8,0:0:0:0:
256,192,11539,1,8,0:0:0:0:
256,192,11591,1,0,0:0:0:0:
256,192,11749,1,8,0:0:0:0:
256,192,11907,1,4,0:0:0:0:
256,192,19486,5,0,0:0:0:0:
256,192,19644,1,8,0:0:0:0:
256,192,19802,1,8,0:0:0:0:
256,192,19960,1,8,0:0:0:0:
256,192,20117,1,8,0:0:0:0:
256,192,20275,1,8,0:0:0:0:
256,192,20433,1,8,0:0:0:0:
256,192,20591,1,8,0:0:0:0:
256,192,20643,1,8,0:0:0:0:
256,192,20696,1,8,0:0:0:0:
256,192,20749,1,8,0:0:0:0:
256,192,20828,1,8,0:0:0:0:
256,192,20907,1,8,0:0:0:0:
256,192,20986,1,8,0:0:0:0:
256,192,21065,1,8,0:0:0:0:
256,192,21129,1,8,0:0:0:0:
256,192,21193,1,8,0:0:0:0:
256,192,21257,1,8,0:0:0:0:
256,192,21321,1,8,0:0:0:0:
256,192,21381,1,8,0:0:0:0:
256,192,21433,1,8,0:0:0:0:
256,192,21486,1,8,0:0:0:0:
256,192,21539,1,8,0:0:0:0:
256,192,21591,1,8,0:0:0:0:
256,192,21644,1,8,0:0:0:0:
256,192,21696,1,4,0:0:0:0:
256,192,21775,1,4,0:0:0:0:
256,192,21854,1,4,0:0:0:0:
256,192,22012,1,4,0:0:0:0:
256,192,22170,1,0,0:0:0:0:
256,192,22249,1,0,0:0:0:0:
256,192,22328,1,0,0:0:0:0:
256,192,22486,1,8,0:0:0:0:
256,192,22565,1,8,0:0:0:0:
256,192,22644,1,0,0:0:0:0:
256,192,22723,1,0,0:0:0:0:
256,192,22802,1,8,0:0:0:0:
256,192,22960,1,0,0:0:0:0:
256,192,23039,1,0,0:0:0:0:
256,192,23117,1,8,0:0:0:0:
256,192,23275,1,0,0:0:0:0:
256,192,23433,1,8,0:0:0:0:
256,192,23512,1,8,0:0:0:0:
256,192,23591,1,0,0:0:0:0:
256,192,23749,1,8,0:0:0:0:
256,192,23828,1,8,0:0:0:0:
256,192,23907,1,0,0:0:0:0:
256,192,23986,1,0,0:0:0:0:
256,192,24065,1,8,0:0:0:0:
256,192,24223,1,8,0:0:0:0:
256,192,24539,1,0,0:0:0:0:
256,192,24696,1,0,0:0:0:0:
256,192,24775,1,0,0:0:0:0:
256,192,24854,1,0,0:0:0:0:
256,192,25012,1,8,0:0:0:0:
256,192,25091,1,8,0:0:0:0:
256,192,25170,1,0,0:0:0:0:
256,192,25249,1,0,0:0:0:0:
256,192,25328,1,8,0:0:0:0:
256,192,25486,1,0,0:0:0:0:
256,192,25565,1,0,0:0:0:0:
256,192,25644,1,8,0:0:0:0:
256,192,25802,1,0,0:0:0:0:
256,192,25960,1,8,0:0:0:0:
256,192,26039,1,8,0:0:0:0:
256,192,26117,1,0,0:0:0:0:
256,192,26196,1,0,0:0:0:0:
256,192,26275,1,8,0:0:0:0:
256,192,26354,1,8,0:0:0:0:
256,192,26433,1,0,0:0:0:0:
256,192,26591,1,8,0:0:0:0:
256,192,26670,1,0,0:0:0:0:
256,192,26749,1,8,0:0:0:0:
256,192,27065,1,4,0:0:0:0:
256,192,27223,1,0,0:0:0:0:
256,192,27302,1,0,0:0:0:0:
256,192,27381,1,0,0:0:0:0:
256,192,27539,1,8,0:0:0:0:
256,192,27618,1,8,0:0:0:0:
256,192,27697,1,0,0:0:0:0:
256,192,27776,1,0,0:0:0:0:
256,192,27855,1,8,0:0:0:0:
256,192,28013,1,0,0:0:0:0:
256,192,28092,1,0,0:0:0:0:
256,192,28170,1,8,0:0:0:0:
256,192,28328,1,0,0:0:0:0:
256,192,28486,1,8,0:0:0:0:
256,192,28565,1,8,0:0:0:0:
256,192,28644,1,0,0:0:0:0:
256,192,28802,1,8,0:0:0:0:
256,192,28881,1,8,0:0:0:0:
256,192,28960,1,0,0:0:0:0:
256,192,29039,1,0,0:0:0:0:
256,192,29118,1,8,0:0:0:0:
256,192,29276,1,8,0:0:0:0:
256,192,29592,1,0,0:0:0:0:
256,192,29749,1,0,0:0:0:0:
256,192,29828,1,0,0:0:0:0:
256,192,29907,1,0,0:0:0:0:
256,192,30065,1,8,0:0:0:0:
256,192,30144,1,8,0:0:0:0:
256,192,30223,1,0,0:0:0:0:
256,192,30302,1,0,0:0:0:0:
256,192,30381,1,8,0:0:0:0:
256,192,30539,1,0,0:0:0:0:
256,192,30618,1,0,0:0:0:0:
256,192,30697,1,8,0:0:0:0:
256,192,30855,1,0,0:0:0:0:
256,192,31013,1,8,0:0:0:0:
256,192,31092,1,8,0:0:0:0:
256,192,31170,1,0,0:0:0:0:
256,192,31249,1,0,0:0:0:0:
256,192,31328,1,8,0:0:0:0:
256,192,31407,1,8,0:0:0:0:
256,192,31486,1,0,0:0:0:0:
256,192,31644,1,8,0:0:0:0:
256,192,31802,1,8,0:0:0:0:
256,192,31960,1,8,0:0:0:0:
256,192,32117,1,8,0:0:0:0:
256,192,32433,1,0,0:0:0:0:
256,192,32591,1,0,0:0:0:0:
256,192,32749,1,8,0:0:0:0:
256,192,33065,1,0,0:0:0:0:
256,192,33223,1,8,0:0:0:0:
256,192,33381,1,0,0:0:0:0:
256,192,33539,1,0,0:0:0:0:
256,192,33697,1,8,0:0:0:0:
256,192,33855,1,8,0:0:0:0:
256,192,34012,1,8,0:0:0:0:
256,192,34170,1,0,0:0:0:0:
256,192,34223,1,0,0:0:0:0:
256,192,34275,1,0,0:0:0:0:
256,192,34328,1,8,0:0:0:0:
256,192,34486,1,0,0:0:0:0:
256,192,34644,1,8,0:0:0:0:
256,192,35118,1,0,0:0:0:0:
256,192,35276,1,8,0:0:0:0:
256,192,35749,1,8,0:0:0:0:
256,192,35907,1,0,0:0:0:0:
256,192,36065,1,8,0:0:0:0:
256,192,36223,1,0,0:0:0:0:
256,192,36381,1,8,0:0:0:0:
256,192,36539,1,8,0:0:0:0:
256,192,36697,1,0,0:0:0:0:
256,192,36749,1,0,0:0:0:0:
256,192,36802,1,0,0:0:0:0:
256,192,36855,1,0,0:0:0:0:
256,192,37012,1,8,0:0:0:0:
256,192,37170,1,0,0:0:0:0:
256,192,37644,1,0,0:0:0:0:
256,192,37802,1,8,0:0:0:0:
256,192,38276,1,0,0:0:0:0:
256,192,38433,1,8,0:0:0:0:
256,192,38591,1,0,0:0:0:0:
256,192,38749,1,8,0:0:0:0:
256,192,38907,1,0,0:0:0:0:
256,192,39065,1,0,0:0:0:0:
256,192,39223,1,8,0:0:0:0:
256,192,39381,1,8,0:0:0:0:
256,192,39539,1,0,0:0:0:0:
256,192,39697,1,0,0:0:0:0:
256,192,40012,1,8,0:0:0:0:
256,192,40328,1,8,0:0:0:0:
256,192,40644,1,8,0:0:0:0:
256,192,41118,1,8,0:0:0:0:
256,192,41276,1,0,0:0:0:0:
256,192,41433,1,0,0:0:0:0:
256,192,41591,1,8,0:0:0:0:
256,192,41749,1,8,0:0:0:0:
256,192,41802,1,8,0:0:0:0:
256,192,41855,1,8,0:0:0:0:
256,192,41907,1,0,0:0:0:0:
256,192,42065,1,8,0:0:0:0:
256,192,42223,1,4,0:0:0:0:
256,192,42539,1,8,0:0:0:0:
256,192,42854,1,0,0:0:0:0:
256,192,43170,1,8,0:0:0:0:
256,192,43486,1,0,0:0:0:0:
256,192,43802,1,8,0:0:0:0:
256,192,44117,1,0,0:0:0:0:
256,192,44433,1,8,0:0:0:0:
256,192,44749,1,0,0:0:0:0:
256,192,44907,1,8,0:0:0:0:
256,192,45065,1,0,0:0:0:0:
256,192,45223,1,8,0:0:0:0:
256,192,45381,1,0,0:0:0:0:
256,192,45539,1,8,0:0:0:0:
256,192,45696,1,0,0:0:0:0:
256,192,45854,1,8,0:0:0:0:
256,192,46012,1,0,0:0:0:0:
256,192,46091,1,8,0:0:0:0:
256,192,46170,1,0,0:0:0:0:
256,192,46249,1,8,0:0:0:0:
256,192,46328,1,0,0:0:0:0:
256,192,46407,1,8,0:0:0:0:
256,192,46486,1,0,0:0:0:0:
256,192,46565,1,8,0:0:0:0:
256,192,46644,1,0,0:0:0:0:
256,192,46802,1,12,0:0:0:0:
256,192,46960,1,12,0:0:0:0:
256,192,47275,1,4,0:0:0:0:
256,192,47433,1,8,0:0:0:0:
256,192,47512,1,8,0:0:0:0:
256,192,47591,1,0,0:0:0:0:
256,192,47670,1,0,0:0:0:0:
256,192,47749,1,8,0:0:0:0:
256,192,47907,1,0,0:0:0:0:
256,192,47986,1,0,0:0:0:0:
256,192,48065,1,8,0:0:0:0:
256,192,48223,1,8,0:0:0:0:
256,192,48302,1,0,0:0:0:0:
256,192,48381,1,8,0:0:0:0:
256,192,48539,1,0,0:0:0:0:
256,192,48696,1,8,0:0:0:0:
256,192,48749,1,8,0:0:0:0:
256,192,48802,1,8,0:0:0:0:
256,192,48854,1,0,0:0:0:0:
256,192,49012,1,8,0:0:0:0:
256,192,49170,1,0,0:0:0:0:
256,192,49486,1,8,0:0:0:0:
256,192,49644,1,8,0:0:0:0:
256,192,49723,1,8,0:0:0:0:
256,192,49802,1,0,0:0:0:0:
256,192,49960,1,8,0:0:0:0:
256,192,50039,1,8,0:0:0:0:
256,192,50117,1,0,0:0:0:0:
256,192,50275,1,8,0:0:0:0:
256,192,50433,1,0,0:0:0:0:
256,192,50512,1,0,0:0:0:0:
256,192,50591,1,8,0:0:0:0:
256,192,50670,1,8,0:0:0:0:
256,192,50749,1,0,0:0:0:0:
256,192,50907,1,0,0:0:0:0:
256,192,50986,1,0,0:0:0:0:
256,192,51065,1,0,0:0:0:0:
256,192,51223,1,8,0:0:0:0:
256,192,51302,1,8,0:0:0:0:
256,192,51381,1,0,0:0:0:0:
256,192,51539,1,8,0:0:0:0:
256,192,51696,1,0,0:0:0:0:
256,192,51775,1,0,0:0:0:0:
256,192,51854,1,8,0:0:0:0:
256,192,52012,1,8,0:0:0:0:
256,192,52170,1,8,0:0:0:0:
256,192,52249,1,8,0:0:0:0:
256,192,52328,1,0,0:0:0:0:
256,192,52486,1,0,0:0:0:0:
256,192,52565,1,0,0:0:0:0:
256,192,52644,1,8,0:0:0:0:
256,192,52802,1,0,0:0:0:0:
256,192,52881,1,0,0:0:0:0:
256,192,52960,1,8,0:0:0:0:
256,192,53039,1,8,0:0:0:0:
256,192,53117,1,0,0:0:0:0:
256,192,53275,1,8,0:0:0:0:
256,192,53354,1,0,0:0:0:0:
256,192,53433,1,8,0:0:0:0:
256,192,53591,1,8,0:0:0:0:
256,192,53749,1,0,0:0:0:0:
256,192,53828,1,0,0:0:0:0:
256,192,53907,1,8,0:0:0:0:
256,192,54065,1,0,0:0:0:0:
256,192,54144,1,0,0:0:0:0:
256,192,54223,1,0,0:0:0:0:
256,192,54381,1,8,0:0:0:0:
256,192,54460,1,8,0:0:0:0:
256,192,54539,1,0,0:0:0:0:
256,192,54617,1,0,0:0:0:0:
256,192,54696,1,8,0:0:0:0:
256,192,54854,1,0,0:0:0:0:
256,192,55012,1,8,0:0:0:0:
256,192,55091,1,8,0:0:0:0:
256,192,55170,1,0,0:0:0:0:
256,192,55328,1,0,0:0:0:0:
256,192,55407,1,0,0:0:0:0:
256,192,55486,1,8,0:0:0:0:
256,192,55565,1,8,0:0:0:0:
256,192,55644,1,0,0:0:0:0:
256,192,55802,1,8,0:0:0:0:
256,192,55881,1,0,0:0:0:0:
256,192,55960,1,8,0:0:0:0:
256,192,56275,1,12,0:0:0:0:
256,192,56433,1,4,0:0:0:0:
256,192,56749,1,12,0:0:0:0:
256,192,56907,1,4,0:0:0:0:
256,192,57065,1,8,0:0:0:0:
256,192,57117,1,8,0:0:0:0:
256,192,57170,1,0,0:0:0:0:
256,192,57223,1,8,0:0:0:0:
256,192,57275,1,8,0:0:0:0:
256,192,57328,1,0,0:0:0:0:
256,192,57381,1,4,0:0:0:0:
256,192,57539,1,8,0:0:0:0:
256,192,57618,1,8,0:0:0:0:
256,192,57697,1,0,0:0:0:0:
256,192,57776,1,0,0:0:0:0:
256,192,57855,1,8,0:0:0:0:
256,192,58013,1,0,0:0:0:0:
256,192,58092,1,0,0:0:0:0:
256,192,58171,1,8,0:0:0:0:
256,192,58329,1,8,0:0:0:0:
256,192,58408,1,0,0:0:0:0:
256,192,58487,1,8,0:0:0:0:
256,192,58645,1,0,0:0:0:0:
256,192,58802,1,8,0:0:0:0:
256,192,58855,1,8,0:0:0:0:
256,192,58908,1,8,0:0:0:0:
256,192,58960,1,0,0:0:0:0:
256,192,59118,1,8,0:0:0:0:
256,192,59276,1,0,0:0:0:0:
256,192,59592,1,8,0:0:0:0:
256,192,59750,1,8,0:0:0:0:
256,192,59829,1,8,0:0:0:0:
256,192,59908,1,0,0:0:0:0:
256,192,60066,1,8,0:0:0:0:
256,192,60145,1,8,0:0:0:0:
256,192,60223,1,0,0:0:0:0:
256,192,60381,1,8,0:0:0:0:
256,192,60539,1,0,0:0:0:0:
256,192,60618,1,0,0:0:0:0:
256,192,60697,1,8,0:0:0:0:
256,192,60776,1,8,0:0:0:0:
256,192,60855,1,0,0:0:0:0:
256,192,61013,1,0,0:0:0:0:
256,192,61092,1,0,0:0:0:0:
256,192,61171,1,0,0:0:0:0:
256,192,61329,1,8,0:0:0:0:
256,192,61408,1,8,0:0:0:0:
256,192,61487,1,0,0:0:0:0:
256,192,61645,1,8,0:0:0:0:
256,192,61802,1,0,0:0:0:0:
256,192,61881,1,0,0:0:0:0:
256,192,61960,1,8,0:0:0:0:
256,192,62118,1,8,0:0:0:0:
256,192,62276,1,8,0:0:0:0:
256,192,62355,1,8,0:0:0:0:
256,192,62434,1,0,0:0:0:0:
256,192,62592,1,0,0:0:0:0:
256,192,62671,1,0,0:0:0:0:
256,192,62750,1,8,0:0:0:0:
256,192,62908,1,0,0:0:0:0:
256,192,62987,1,0,0:0:0:0:
256,192,63066,1,8,0:0:0:0:
256,192,63145,1,8,0:0:0:0:
256,192,63223,1,0,0:0:0:0:
256,192,63381,1,8,0:0:0:0:
256,192,63460,1,0,0:0:0:0:
256,192,63539,1,0,0:0:0:0:
256,192,63697,1,8,0:0:0:0:
256,192,63855,1,0,0:0:0:0:
256,192,63934,1,0,0:0:0:0:
256,192,64013,1,8,0:0:0:0:
256,192,64171,1,0,0:0:0:0:
256,192,64250,1,0,0:0:0:0:
256,192,64328,1,8,0:0:0:0:
256,192,64486,1,0,0:0:0:0:
256,192,64565,1,0,0:0:0:0:
256,192,64644,1,8,0:0:0:0:
256,192,64723,1,8,0:0:0:0:
256,192,64802,1,0,0:0:0:0:
256,192,64881,1,0,0:0:0:0:
256,192,64960,1,0,0:0:0:0:
256,192,65118,1,8,0:0:0:0:
256,192,65197,1,8,0:0:0:0:
256,192,65276,1,0,0:0:0:0:
256,192,65434,1,0,0:0:0:0:
256,192,65513,1,0,0:0:0:0:
256,192,65592,1,8,0:0:0:0:
256,192,65671,1,8,0:0:0:0:
256,192,65750,1,0,0:0:0:0:
256,192,65908,1,8,0:0:0:0:
256,192,65987,1,0,0:0:0:0:
256,192,66066,1,8,0:0:0:0:
256,192,66381,1,12,0:0:0:0:
256,192,66539,1,4,0:0:0:0:
256,192,66855,1,12,0:0:0:0:
256,192,67013,1,4,0:0:0:0:
256,192,67170,1,8,0:0:0:0:
256,192,67249,1,8,0:0:0:0:
256,192,67328,1,0,0:0:0:0:
256,192,67486,1,4,0:0:0:0:
256,192,67644,1,0,0:0:0:0:
256,192,67723,1,0,0:0:0:0:
256,192,67802,1,0,0:0:0:0:
256,192,67960,1,8,0:0:0:0:
256,192,68039,1,8,0:0:0:0:
256,192,68118,1,0,0:0:0:0:
256,192,68197,1,0,0:0:0:0:
256,192,68276,1,8,0:0:0:0:
256,192,68434,1,0,0:0:0:0:
256,192,68513,1,0,0:0:0:0:
256,192,68591,1,8,0:0:0:0:
256,192,68749,1,0,0:0:0:0:
256,192,68907,1,8,0:0:0:0:
256,192,68986,1,8,0:0:0:0:
256,192,69065,1,0,0:0:0:0:
256,192,69223,1,8,0:0:0:0:
256,192,69302,1,8,0:0:0:0:
256,192,69381,1,0,0:0:0:0:
256,192,69460,1,0,0:0:0:0:
256,192,69539,1,8,0:0:0:0:
256,192,69697,1,8,0:0:0:0:
256,192,70013,1,0,0:0:0:0:
256,192,70170,1,0,0:0:0:0:
256,192,70249,1,0,0:0:0:0:
256,192,70328,1,0,0:0:0:0:
256,192,70486,1,8,0:0:0:0:
256,192,70565,1,8,0:0:0:0:
256,192,70644,1,0,0:0:0:0:
256,192,70723,1,0,0:0:0:0:
256,192,70802,1,8,0:0:0:0:
256,192,70960,1,0,0:0:0:0:
256,192,71039,1,0,0:0:0:0:
256,192,71118,1,8,0:0:0:0:
256,192,71276,1,0,0:0:0:0:
256,192,71434,1,8,0:0:0:0:
256,192,71513,1,8,0:0:0:0:
256,192,71591,1,0,0:0:0:0:
256,192,71670,1,0,0:0:0:0:
256,192,71749,1,8,0:0:0:0:
256,192,71828,1,8,0:0:0:0:
256,192,71907,1,0,0:0:0:0:
256,192,72065,1,8,0:0:0:0:
256,192,72144,1,0,0:0:0:0:
256,192,72223,1,8,0:0:0:0:
256,192,72539,1,4,0:0:0:0:
256,192,72697,1,0,0:0:0:0:
256,192,72776,1,0,0:0:0:0:
256,192,72855,1,0,0:0:0:0:
256,192,73013,1,8,0:0:0:0:
256,192,73092,1,8,0:0:0:0:
256,192,73171,1,0,0:0:0:0:
256,192,73250,1,0,0:0:0:0:
256,192,73329,1,8,0:0:0:0:
256,192,73487,1,0,0:0:0:0:
256,192,73566,1,0,0:0:0:0:
256,192,73644,1,8,0:0:0:0:
256,192,73802,1,0,0:0:0:0:
256,192,73960,1,8,0:0:0:0:
256,192,74039,1,8,0:0:0:0:
256,192,74118,1,0,0:0:0:0:
256,192,74276,1,8,0:0:0:0:
256,192,74355,1,8,0:0:0:0:
256,192,74434,1,0,0:0:0:0:
256,192,74513,1,0,0:0:0:0:
256,192,74592,1,8,0:0:0:0:
256,192,74750,1,8,0:0:0:0:
256,192,75065,1,0,0:0:0:0:
256,192,75144,1,0,0:0:0:0:
256,192,75223,1,0,0:0:0:0:
256,192,75302,1,8,0:0:0:0:
256,192,75381,1,0,0:0:0:0:
256,192,75460,1,0,0:0:0:0:
256,192,75539,1,8,0:0:0:0:
256,192,75617,1,0,0:0:0:0:
256,192,75696,1,0,0:0:0:0:
256,192,75775,1,8,0:0:0:0:
256,192,75854,1,8,0:0:0:0:
256,192,75933,1,0,0:0:0:0:
256,192,76012,1,8,0:0:0:0:
256,192,76091,1,0,0:0:0:0:
256,192,76170,1,8,0:0:0:0:
256,192,76249,1,0,0:0:0:0:
256,192,76486,1,12,0:0:0:0:
256,192,76644,1,12,0:0:0:0:
256,192,76960,1,12,0:0:0:0:
256,192,77117,1,12,0:0:0:0:
256,192,77591,1,0,0:0:0:0:
256,192,77749,1,8,0:0:0:0:
256,192,77907,1,8,0:0:0:0:
256,192,78223,1,0,0:0:0:0:
256,192,78381,1,8,0:0:0:0:
256,192,78854,1,0,0:0:0:0:
256,192,78933,1,0,0:0:0:0:
256,192,79012,1,8,0:0:0:0:
256,192,79091,1,0,0:0:0:0:
256,192,79170,1,8,0:0:0:0:
256,192,79249,1,0,0:0:0:0:
256,192,79328,1,0,0:0:0:0:
256,192,79407,1,8,0:0:0:0:
256,192,79486,1,8,0:0:0:0:
256,192,79644,1,8,0:0:0:0:
256,192,79802,1,8,0:0:0:0:
256,192,80117,1,0,0:0:0:0:
256,192,80275,1,0,0:0:0:0:
256,192,80354,1,0,0:0:0:0:
256,192,80433,1,8,0:0:0:0:
256,192,80749,1,0,0:0:0:0:
256,192,80907,1,0,0:0:0:0:
256,192,80986,1,0,0:0:0:0:
256,192,81065,1,8,0:0:0:0:
256,192,81381,1,8,0:0:0:0:
256,192,81460,1,8,0:0:0:0:
256,192,81539,1,0,0:0:0:0:
256,192,81617,1,0,0:0:0:0:
256,192,81696,1,8,0:0:0:0:
256,192,81775,1,8,0:0:0:0:
256,192,81854,1,0,0:0:0:0:
256,192,81933,1,8,0:0:0:0:
256,192,82012,1,8,0:0:0:0:
256,192,82091,1,0,0:0:0:0:
256,192,82170,1,0,0:0:0:0:
256,192,82249,1,0,0:0:0:0:
256,192,82328,1,8,0:0:0:0:
256,192,82644,1,8,0:0:0:0:
256,192,82802,1,0,0:0:0:0:
256,192,82881,1,0,0:0:0:0:
256,192,82960,1,8,0:0:0:0:
256,192,83275,1,0,0:0:0:0:
256,192,83433,1,0,0:0:0:0:
256,192,83512,1,0,0:0:0:0:
256,192,83591,1,8,0:0:0:0:
256,192,83907,1,0,0:0:0:0:
256,192,83986,1,8,0:0:0:0:
256,192,84065,1,8,0:0:0:0:
256,192,84144,1,0,0:0:0:0:
256,192,84223,1,8,0:0:0:0:
256,192,84302,1,8,0:0:0:0:
256,192,84381,1,0,0:0:0:0:
256,192,84460,1,8,0:0:0:0:
256,192,84539,1,0,0:0:0:0:
256,192,84617,1,8,0:0:0:0:
256,192,84696,1,0,0:0:0:0:
256,192,84854,1,8,0:0:0:0:
256,192,85170,1,8,0:0:0:0:
256,192,85328,1,0,0:0:0:0:
256,192,85407,1,0,0:0:0:0:
256,192,85486,1,8,0:0:0:0:
256,192,85644,1,0,0:0:0:0:
256,192,85802,1,8,0:0:0:0:
256,192,85960,1,0,0:0:0:0:
256,192,86039,1,0,0:0:0:0:
256,192,86117,1,8,0:0:0:0:
256,192,86433,1,12,0:0:0:0:
256,192,86591,1,0,0:0:0:0:
256,192,86670,1,0,0:0:0:0:
256,192,86749,1,0,0:0:0:0:
256,192,86907,1,12,0:0:0:0:
256,192,87065,1,0,0:0:0:0:
256,192,87144,1,0,0:0:0:0:
256,192,87223,1,0,0:0:0:0:
256,192,87381,1,12,0:0:0:0:
256,192,87460,1,0,0:0:0:0:
256,192,87539,1,0,0:0:0:0:
256,192,87696,1,12,0:0:0:0:
256,192,88012,1,0,0:0:0:0:
256,192,88170,1,0,0:0:0:0:
256,192,88328,1,8,0:0:0:0:
256,192,88644,1,0,0:0:0:0:
256,192,88802,1,8,0:0:0:0:
256,192,88960,1,0,0:0:0:0:
256,192,89118,1,0,0:0:0:0:
256,192,89276,1,8,0:0:0:0:
256,192,89434,1,8,0:0:0:0:
256,192,89591,1,8,0:0:0:0:
256,192,89749,1,0,0:0:0:0:
256,192,89802,1,0,0:0:0:0:
256,192,89854,1,0,0:0:0:0:
256,192,89907,1,8,0:0:0:0:
256,192,90065,1,0,0:0:0:0:
256,192,90223,1,8,0:0:0:0:
256,192,90697,1,0,0:0:0:0:
256,192,90855,1,8,0:0:0:0:
256,192,91328,1,8,0:0:0:0:
256,192,91486,1,0,0:0:0:0:
256,192,91644,1,8,0:0:0:0:
256,192,91802,1,0,0:0:0:0:
256,192,91960,1,8,0:0:0:0:
256,192,92118,1,8,0:0:0:0:
256,192,92276,1,0,0:0:0:0:
256,192,92328,1,0,0:0:0:0:
256,192,92381,1,0,0:0:0:0:
256,192,92434,1,0,0:0:0:0:
256,192,92591,1,8,0:0:0:0:
256,192,92749,1,0,0:0:0:0:
256,192,93223,1,0,0:0:0:0:
256,192,93381,1,8,0:0:0:0:
256,192,93855,1,0,0:0:0:0:
256,192,94012,1,8,0:0:0:0:
256,192,94170,1,0,0:0:0:0:
256,192,94328,1,8,0:0:0:0:
256,192,94486,1,0,0:0:0:0:
256,192,94644,1,0,0:0:0:0:
256,192,94802,1,8,0:0:0:0:
256,192,94960,1,8,0:0:0:0:
256,192,95118,1,0,0:0:0:0:
256,192,95276,1,0,0:0:0:0:
256,192,95591,1,8,0:0:0:0:
256,192,95907,1,8,0:0:0:0:
256,192,96223,1,8,0:0:0:0:
256,192,96697,1,8,0:0:0:0:
256,192,96855,1,0,0:0:0:0:
256,192,97012,1,0,0:0:0:0:
256,192,97170,1,8,0:0:0:0:
256,192,97328,1,8,0:0:0:0:
256,192,97381,1,8,0:0:0:0:
256,192,97434,1,8,0:0:0:0:
256,192,97486,1,0,0:0:0:0:
256,192,97644,1,8,0:0:0:0:
256,192,97802,1,4,0:0:0:0:
256,192,98118,1,8,0:0:0:0:
256,192,98433,1,0,0:0:0:0:
256,192,98749,1,8,0:0:0:0:
256,192,99065,1,0,0:0:0:0:
256,192,99381,1,8,0:0:0:0:
256,192,99696,1,0,0:0:0:0:
256,192,100012,1,8,0:0:0:0:
256,192,100328,1,0,0:0:0:0:
256,192,100486,1,8,0:0:0:0:
256,192,100644,1,0,0:0:0:0:
256,192,100802,1,8,0:0:0:0:
256,192,100960,1,0,0:0:0:0:
256,192,101118,1,8,0:0:0:0:
256,192,101275,1,0,0:0:0:0:
256,192,101433,1,8,0:0:0:0:
256,192,101591,1,0,0:0:0:0:
256,192,101670,1,8,0:0:0:0:
256,192,101749,1,0,0:0:0:0:
256,192,101828,1,8,0:0:0:0:
256,192,101907,1,0,0:0:0:0:
256,192,101986,1,8,0:0:0:0:
256,192,102065,1,0,0:0:0:0:
256,192,102144,5,8,0:0:0:0:
256,192,102223,1,0,0:0:0:0:
256,192,102854,5,0,0:0:0:0:
256,192,103170,1,8,0:0:0:0:
256,192,103328,1,8,0:0:0:0:
256,192,103644,1,8,0:0:0:0:
256,192,103802,1,0,0:0:0:0:
256,192,103960,1,8,0:0:0:0:
256,192,104117,1,0,0:0:0:0:
256,192,104275,1,8,0:0:0:0:
256,192,104354,1,8,0:0:0:0:
256,192,104433,1,0,0:0:0:0:
256,192,104591,1,8,0:0:0:0:
256,192,104749,1,0,0:0:0:0:
256,192,105223,1,8,0:0:0:0:
256,192,105381,1,0,0:0:0:0:
256,192,105539,1,8,0:0:0:0:
256,192,105696,1,0,0:0:0:0:
256,192,105854,1,8,0:0:0:0:
256,192,106012,1,0,0:0:0:0:
256,192,106328,1,8,0:0:0:0:
256,192,106644,1,0,0:0:0:0:
256,192,106802,1,0,0:0:0:0:
256,192,106960,1,8,0:0:0:0:
256,192,107117,1,0,0:0:0:0:
256,192,107275,1,8,0:0:0:0:
256,192,107433,1,8,0:0:0:0:
256,192,107591,1,8,0:0:0:0:
256,192,107749,1,8,0:0:0:0:
256,192,107907,1,0,0:0:0:0:
256,192,108065,1,8,0:0:0:0:
256,192,108144,1,8,0:0:0:0:
256,192,108223,1,0,0:0:0:0:
256,192,108381,1,8,0:0:0:0:
256,192,108539,1,0,0:0:0:0:
256,192,108696,1,0,0:0:0:0:
256,192,108854,1,8,0:0:0:0:
256,192,109170,1,8,0:0:0:0:
256,192,109486,1,8,0:0:0:0:
256,192,109644,1,0,0:0:0:0:
256,192,109802,1,0,0:0:0:0:
256,192,110275,1,8,0:0:0:0:
256,192,110433,1,0,0:0:0:0:
256,192,110591,1,0,0:0:0:0:
256,192,110749,1,0,0:0:0:0:
256,192,110907,1,8,0:0:0:0:
256,192,111065,1,0,0:0:0:0:
256,192,111223,1,8,0:0:0:0:
256,192,111381,1,0,0:0:0:0:
256,192,111539,1,8,0:0:0:0:
256,192,111854,1,12,0:0:0:0:
256,192,112012,1,12,0:0:0:0:
256,192,112328,1,12,0:0:0:0:
256,192,112486,1,12,0:0:0:0:
256,192,112960,1,4,0:0:0:0:
256,192,113118,1,8,0:0:0:0:
256,192,113197,1,8,0:0:0:0:
256,192,113276,1,0,0:0:0:0:
256,192,113355,1,0,0:0:0:0:
256,192,113434,1,8,0:0:0:0:
256,192,113592,1,0,0:0:0:0:
256,192,113671,1,0,0:0:0:0:
256,192,113750,1,8,0:0:0:0:
256,192,113908,1,8,0:0:0:0:
256,192,113987,1,0,0:0:0:0:
256,192,114066,1,8,0:0:0:0:
256,192,114224,1,0,0:0:0:0:
256,192,114381,1,8,0:0:0:0:
256,192,114434,1,8,0:0:0:0:
256,192,114487,1,8,0:0:0:0:
256,192,114539,1,0,0:0:0:0:
256,192,114697,1,8,0:0:0:0:
256,192,114855,1,0,0:0:0:0:
256,192,115171,1,8,0:0:0:0:
256,192,115329,1,8,0:0:0:0:
256,192,115408,1,8,0:0:0:0:
256,192,115487,1,0,0:0:0:0:
256,192,115645,1,8,0:0:0:0:
256,192,115724,1,8,0:0:0:0:
256,192,115802,1,0,0:0:0:0:
256,192,115960,1,8,0:0:0:0:
256,192,116118,1,0,0:0:0:0:
256,192,116197,1,0,0:0:0:0:
256,192,116276,1,8,0:0:0:0:
256,192,116355,1,8,0:0:0:0:
256,192,116434,1,0,0:0:0:0:
256,192,116592,1,0,0:0:0:0:
256,192,116671,1,0,0:0:0:0:
256,192,116750,1,0,0:0:0:0:
256,192,116908,1,8,0:0:0:0:
256,192,116987,1,8,0:0:0:0:
256,192,117066,1,0,0:0:0:0:
256,192,117224,1,8,0:0:0:0:
256,192,117381,1,0,0:0:0:0:
256,192,117460,1,0,0:0:0:0:
256,192,117539,1,8,0:0:0:0:
256,192,117697,1,8,0:0:0:0:
256,192,117855,1,8,0:0:0:0:
256,192,117934,1,8,0:0:0:0:
256,192,118013,1,0,0:0:0:0:
256,192,118171,1,0,0:0:0:0:
256,192,118250,1,0,0:0:0:0:
256,192,118329,1,8,0:0:0:0:
256,192,118487,1,0,0:0:0:0:
256,192,118566,1,0,0:0:0:0:
256,192,118645,1,8,0:0:0:0:
256,192,118724,1,8,0:0:0:0:
256,192,118802,1,0,0:0:0:0:
256,192,118960,1,8,0:0:0:0:
256,192,119039,1,0,0:0:0:0:
256,192,119118,1,8,0:0:0:0:
256,192,119276,1,8,0:0:0:0:
256,192,119434,1,0,0:0:0:0:
256,192,119513,1,0,0:0:0:0:
256,192,119592,1,8,0:0:0:0:
256,192,119750,1,0,0:0:0:0:
256,192,119829,1,0,0:0:0:0:
256,192,119908,1,0,0:0:0:0:
256,192,120066,1,8,0:0:0:0:
256,192,120145,1,8,0:0:0:0:
256,192,120224,1,0,0:0:0:0:
256,192,120302,1,0,0:0:0:0:
256,192,120381,1,8,0:0:0:0:
256,192,120539,1,0,0:0:0:0:
256,192,120697,1,8,0:0:0:0:
256,192,120776,1,8,0:0:0:0:
256,192,120855,1,0,0:0:0:0:
256,192,121013,1,0,0:0:0:0:
256,192,121092,1,0,0:0:0:0:
256,192,121171,1,8,0:0:0:0:
256,192,121250,1,8,0:0:0:0:
256,192,121329,1,0,0:0:0:0:
256,192,121487,1,8,0:0:0:0:
256,192,121566,1,0,0:0:0:0:
256,192,121645,1,8,0:0:0:0:
256,192,121960,1,12,0:0:0:0:
256,192,122118,1,4,0:0:0:0:
256,192,122434,1,12,0:0:0:0:
256,192,122592,1,4,0:0:0:0:
256,192,122750,1,8,0:0:0:0:
256,192,122802,1,8,0:0:0:0:
256,192,122855,1,0,0:0:0:0:
256,192,122908,1,8,0:0:0:0:
256,192,122960,1,8,0:0:0:0:
256,192,123013,1,0,0:0:0:0:
256,192,123065,1,12,0:0:0:0:
256,192,123223,1,8,0:0:0:0:
256,192,123302,1,8,0:0:0:0:
256,192,123381,1,0,0:0:0:0:
256,192,123460,1,0,0:0:0:0:
256,192,123539,1,8,0:0:0:0:
256,192,123697,1,0,0:0:0:0:
256,192,123776,1,0,0:0:0:0:
256,192,123855,1,8,0:0:0:0:
256,192,124013,1,8,0:0:0:0:
256,192,124092,1,0,0:0:0:0:
256,192,124171,1,8,0:0:0:0:
256,192,124329,1,0,0:0:0:0:
256,192,124486,1,8,0:0:0:0:
256,192,124539,1,8,0:0:0:0:
256,192,124592,1,8,0:0:0:0:
256,192,124644,1,0,0:0:0:0:
256,192,124802,1,8,0:0:0:0:
256,192,124960,1,0,0:0:0:0:
256,192,125276,1,8,0:0:0:0:
256,192,125434,1,8,0:0:0:0:
256,192,125513,1,8,0:0:0:0:
256,192,125592,1,0,0:0:0:0:
256,192,125750,1,8,0:0:0:0:
256,192,125829,1,8,0:0:0:0:
256,192,125907,1,0,0:0:0:0:
256,192,126065,1,8,0:0:0:0:
256,192,126223,1,0,0:0:0:0:
256,192,126302,1,0,0:0:0:0:
256,192,126381,1,8,0:0:0:0:
256,192,126460,1,8,0:0:0:0:
256,192,126539,1,0,0:0:0:0:
256,192,126697,1,0,0:0:0:0:
256,192,126776,1,0,0:0:0:0:
256,192,126855,1,0,0:0:0:0:
256,192,127013,1,8,0:0:0:0:
256,192,127092,1,8,0:0:0:0:
256,192,127171,1,0,0:0:0:0:
256,192,127329,1,8,0:0:0:0:
256,192,127486,1,0,0:0:0:0:
256,192,127565,1,0,0:0:0:0:
256,192,127644,1,8,0:0:0:0:
256,192,127802,1,8,0:0:0:0:
256,192,127960,1,8,0:0:0:0:
256,192,128039,1,8,0:0:0:0:
256,192,128118,1,0,0:0:0:0:
256,192,128276,1,0,0:0:0:0:
256,192,128355,1,0,0:0:0:0:
256,192,128434,1,8,0:0:0:0:
256,192,128592,1,0,0:0:0:0:
256,192,128671,1,0,0:0:0:0:
256,192,128750,1,8,0:0:0:0:
256,192,128829,1,8,0:0:0:0:
256,192,128907,1,0,0:0:0:0:
256,192,129065,1,8,0:0:0:0:
256,192,129144,1,0,0:0:0:0:
256,192,129223,1,0,0:0:0:0:
256,192,129381,1,8,0:0:0:0:
256,192,129539,1,0,0:0:0:0:
256,192,129618,1,0,0:0:0:0:
256,192,129697,1,8,0:0:0:0:
256,192,129855,1,0,0:0:0:0:
256,192,129934,1,0,0:0:0:0:
256,192,130012,1,8,0:0:0:0:
256,192,130170,1,0,0:0:0:0:
256,192,130249,1,0,0:0:0:0:
256,192,130328,1,8,0:0:0:0:
256,192,130407,1,8,0:0:0:0:
256,192,130486,1,0,0:0:0:0:
256,192,130565,1,0,0:0:0:0:
256,192,130644,1,0,0:0:0:0:
256,192,130802,1,8,0:0:0:0:
256,192,130881,1,8,0:0:0:0:
256,192,130960,1,0,0:0:0:0:
256,192,131118,1,0,0:0:0:0:
256,192,131197,1,0,0:0:0:0:
256,192,131276,1,8,0:0:0:0:
256,192,131355,1,8,0:0:0:0:
256,192,131434,1,0,0:0:0:0:
256,192,131592,1,8,0:0:0:0:
256,192,131671,1,0,0:0:0:0:
256,192,131750,1,8,0:0:0:0:
256,192,132065,1,12,0:0:0:0:
256,192,132223,1,4,0:0:0:0:
256,192,132539,1,12,0:0:0:0:
256,192,132696,1,4,0:0:0:0:
256,192,132854,1,0,0:0:0:0:
256,192,132933,1,0,0:0:0:0:
256,192,133012,1,8,0:0:0:0:
256,192,133170,1,0,0:0:0:0:
256,192,133328,1,0,0:0:0:0:
256,192,133407,1,0,0:0:0:0:
256,192,133486,1,8,0:0:0:0:
256,192,133644,1,8,0:0:0:0:
256,192,133723,1,8,0:0:0:0:
256,192,133802,1,0,0:0:0:0:
256,192,133881,1,0,0:0:0:0:
256,192,133960,1,8,0:0:0:0:
256,192,134118,1,0,0:0:0:0:
256,192,134197,1,0,0:0:0:0:
256,192,134275,1,8,0:0:0:0:
256,192,134433,1,0,0:0:0:0:
256,192,134591,1,8,0:0:0:0:
256,192,134670,1,8,0:0:0:0:
256,192,134749,1,0,0:0:0:0:
256,192,134907,1,8,0:0:0:0:
256,192,134986,1,8,0:0:0:0:
256,192,135065,1,0,0:0:0:0:
256,192,135144,1,0,0:0:0:0:
256,192,135223,1,8,0:0:0:0:
256,192,135381,1,8,0:0:0:0:
256,192,135697,1,0,0:0:0:0:
256,192,135854,1,0,0:0:0:0:
256,192,135933,1,0,0:0:0:0:
256,192,136012,1,8,0:0:0:0:
256,192,136170,1,8,0:0:0:0:
256,192,136249,1,8,0:0:0:0:
256,192,136328,1,0,0:0:0:0:
256,192,136407,1,0,0:0:0:0:
256,192,136486,1,8,0:0:0:0:
256,192,136644,1,0,0:0:0:0:
256,192,136723,1,0,0:0:0:0:
256,192,136802,1,8,0:0:0:0:
256,192,136960,1,0,0:0:0:0:
256,192,137039,1,0,0:0:0:0:
256,192,137117,1,8,0:0:0:0:
256,192,137275,1,0,0:0:0:0:
256,192,137354,1,0,0:0:0:0:
256,192,137433,1,8,0:0:0:0:
256,192,137512,1,8,0:0:0:0:
256,192,137591,1,0,0:0:0:0:
256,192,137749,1,8,0:0:0:0:
256,192,137828,1,0,0:0:0:0:
256,192,137907,1,8,0:0:0:0:
256,192,138223,1,4,0:0:0:0:
256,192,138381,1,0,0:0:0:0:
256,192,138460,1,0,0:0:0:0:
256,192,138539,1,8,0:0:0:0:
256,192,138697,1,8,0:0:0:0:
256,192,138776,1,8,0:0:0:0:
256,192,138855,1,0,0:0:0:0:
256,192,138934,1,0,0:0:0:0:
256,192,139013,1,8,0:0:0:0:
256,192,139171,1,0,0:0:0:0:
256,192,139250,1,0,0:0:0:0:
256,192,139328,1,8,0:0:0:0:
256,192,139486,1,0,0:0:0:0:
256,192,139644,1,8,0:0:0:0:
256,192,139723,1,8,0:0:0:0:
256,192,139802,1,0,0:0:0:0:
256,192,139960,1,8,0:0:0:0:
256,192,140039,1,8,0:0:0:0:
256,192,140118,1,0,0:0:0:0:
256,192,140197,1,0,0:0:0:0:
256,192,140276,1,8,0:0:0:0:
256,192,140434,1,8,0:0:0:0:
256,192,140749,1,0,0:0:0:0:
256,192,140828,1,0,0:0:0:0:
256,192,140907,1,0,0:0:0:0:
256,192,140986,1,8,0:0:0:0:
256,192,141065,1,0,0:0:0:0:
256,192,141144,1,0,0:0:0:0:
256,192,141223,1,8,0:0:0:0:
256,192,141302,1,0,0:0:0:0:
256,192,141381,1,0,0:0:0:0:
256,192,141460,1,8,0:0:0:0:
256,192,141539,1,8,0:0:0:0:
256,192,141617,1,0,0:0:0:0:
256,192,141696,1,8,0:0:0:0:
256,192,141775,1,0,0:0:0:0:
256,192,141854,1,8,0:0:0:0:
256,192,141933,1,0,0:0:0:0:
256,192,142170,1,12,0:0:0:0:
256,192,142328,1,12,0:0:0:0:
256,192,142644,1,12,0:0:0:0:
256,192,142801,1,12,0:0:0:0:
