osu file format v14

[General]
AudioFilename: audio.mp3
AudioLeadIn: 0
PreviewTime: 141144
Countdown: 0
SampleSet: Soft
StackLeniency: 0.4
Mode: 1
LetterboxInBreaks: 0
WidescreenStoryboard: 1

[Editor]
Bookmarks: 14828,24302,27460,40091,52723,59039,71670,84302,96933,109565,122196,128512,134828,141144,153775,166407,175881
DistanceSpacing: 1.6
BeatDivisor: 4
GridSize: 32
TimelineZoom: 3.199999

[Metadata]
Title:Alien Alien (Nhato Remix)
TitleUnicode:エイリアンエイリアン (Nhato Remix)
Artist:NayutalieN
ArtistUnicode:NayutalieN
Creator:Kofja
Version:Taiko
Source:
Tags:
BeatmapID:1555595
BeatmapSetID:737117

[Difficulty]
HPDrainRate:2
CircleSize:2
OverallDifficulty:5
ApproachRate:9
SliderMultiplier:1.5
SliderTickRate:1

[Events]
//Background and Video events
0,0,"BG.png",0,0
//Break Periods
//Storyboard Layer 0 (Background)
//Storyboard Layer 1 (Fail)
//Storyboard Layer 2 (Pass)
//Storyboard Layer 3 (Foreground)
//Storyboard Sound Samples

[TimingPoints]
618,394.736842105263,4,2,0,60,1,0
618,-100,4,2,0,60,0,0
1802,-98.0392156862745,4,2,0,40,0,0
1851,-96.1538461538461,4,2,0,40,0,0
1900,-94.3396226415094,4,2,0,40,0,0
1950,-92.5925925925926,4,2,0,40,0,0
1999,-90.9090909090909,4,2,0,40,0,0
2048,-89.2857142857143,4,2,0,40,0,0
2098,-87.719298245614,4,2,0,40,0,0
2196,-66.6666666666667,4,1,0,60,0,0
2492,-142.857142857143,4,2,0,40,0,0
13644,-133.333333333333,4,2,0,45,0,0
13841,-125,4,2,0,50,0,0
14039,-117.647058823529,4,2,0,55,0,0
14236,-111.111111111111,4,2,0,60,0,0
14335,-105.263157894737,4,2,0,65,0,0
14433,-100,4,2,0,50,0,0
14499,-97.0873786407767,4,2,0,50,0,0
14565,-94.3396226415094,4,2,0,50,0,0
14631,-91.743119266055,4,2,0,50,0,0
14828,-66.6666666666667,4,1,0,75,0,0
15124,-100,4,1,0,60,0,0
15815,-83.3333333333333,4,1,0,60,0,0
15840,-76.9230769230769,4,1,0,75,0,0
16012,-83.3333333333333,4,1,0,60,0,0
16037,-76.9230769230769,4,1,0,75,0,0
16210,-83.3333333333333,4,1,0,60,0,0
16235,-76.9230769230769,4,1,0,75,0,0
16407,-100,4,1,0,60,0,0
18973,-83.3333333333333,4,1,0,60,0,0
18998,-76.9230769230769,4,1,0,75,0,0
19170,-83.3333333333333,4,1,0,60,0,0
19195,-76.9230769230769,4,1,0,75,0,0
19367,-83.3333333333333,4,1,0,60,0,0
19392,-76.9230769230769,4,1,0,75,0,0
19565,-100,4,1,0,60,0,0
22131,-83.3333333333333,4,1,0,60,0,0
22156,-76.9230769230769,4,1,0,75,0,0
22328,-83.3333333333333,4,1,0,60,0,0
22353,-76.9230769230769,4,1,0,75,0,0
22525,-83.3333333333333,4,1,0,60,0,0
22550,-76.9230769230769,4,1,0,75,0,0
22723,-100,4,1,0,60,0,0
24203,-80,4,1,0,60,0,0
24302,-66.6666666666667,4,1,0,75,0,0
24499,-83.3333333333333,4,2,0,70,0,0
24524,-76.9230769230769,4,1,0,75,0,0
24696,-83.3333333333333,4,2,0,70,0,0
24721,-76.9230769230769,4,1,0,75,0,0
24894,-83.3333333333333,4,2,0,70,0,0
24919,-76.9230769230769,4,1,0,75,0,0
25091,-83.3333333333333,4,2,0,70,0,0
25116,-76.9230769230769,4,1,0,75,0,0
25289,-83.3333333333333,4,2,0,70,0,0
25314,-76.9230769230769,4,1,0,75,0,0
25486,-83.3333333333333,4,2,0,70,0,0
25511,-76.9230769230769,4,1,0,75,0,0
25683,-71.4285714285714,4,2,0,70,0,0
25749,-64.5161290322581,4,2,0,70,0,0
25815,-58.8235294117647,4,2,0,70,0,0
25881,-54.054054054054,4,2,0,70,0,0
25946,-50,4,2,0,70,0,0
26966,-50,4,2,0,5,0,0
27065,-66.6666666666667,4,2,0,50,0,0
27460,-100,4,1,0,80,0,0
39524,-90.9090909090909,4,1,0,100,0,0
39696,-100,4,1,0,80,0,0
39721,-90.9090909090909,4,1,0,100,0,0
39894,-100,4,1,0,80,0,0
39918,-90.9090909090909,4,1,0,100,0,0
40091,-100,4,1,0,80,0,0
52723,-100,4,2,0,70,0,0
53117,-90.9090909090909,4,2,0,70,0,0
53512,-83.3333333333333,4,2,0,70,0,0
53907,-76.9230769230769,4,2,0,70,0,0
54302,-86.9565217391304,4,2,0,70,0,0
54696,-80,4,2,0,70,0,0
55091,-74.0740740740741,4,2,0,70,0,0
55486,-68.9655172413793,4,2,0,70,0,0
55881,-83.3333333333333,4,2,0,60,0,0
56078,-81.3008130081301,4,2,0,60,0,0
56275,-79.3650793650794,4,2,0,60,0,0
56473,-77.5193798449612,4,2,0,60,0,0
56670,-75.7575757575758,4,2,0,60,0,0
56867,-74.0740740740741,4,2,0,60,0,0
57065,-72.992700729927,4,2,0,60,0,0
57262,-71.4285714285714,4,2,0,60,0,0
57460,-76.9230769230769,4,2,0,60,0,0
57558,-75.4716981132076,4,2,0,60,0,0
57657,-74.0740740740741,4,2,0,60,0,0
57756,-72.7272727272727,4,2,0,60,0,0
57854,-71.4285714285714,4,2,0,60,0,0
57953,-70.1754385964912,4,2,0,60,0,0
58052,-68.9655172413793,4,2,0,60,0,0
58150,-67.7966101694915,4,2,0,60,0,0
58249,-66.6666666666667,4,2,0,70,0,0
58348,-57.1428571428571,4,2,0,70,0,0
58446,-50,4,2,0,70,0,0
59039,-66.6666666666667,4,1,0,100,0,1
64762,-58.8235294117647,4,1,0,100,0,1
65157,-66.6666666666667,4,1,0,100,0,1
70289,-64.5161290322581,4,1,0,100,0,1
70486,-62.5,4,1,0,100,0,1
70881,-60.6060606060606,4,1,0,100,0,1
71078,-58.8235294117647,4,1,0,100,0,1
71177,-50,4,1,0,85,0,0
71621,-57.1428571428571,4,1,0,5,0,0
71670,-66.6666666666667,4,1,0,85,0,1
77394,-58.8235294117647,4,1,0,100,0,1
77789,-66.6666666666667,4,1,0,100,0,1
82920,-64.5161290322581,4,1,0,100,0,1
83117,-62.5,4,1,0,100,0,1
83512,-60.6060606060606,4,1,0,100,0,1
83709,-58.8235294117647,4,1,0,100,0,1
84104,-66.6666666666667,4,1,0,100,0,1
84302,-80,4,1,0,85,0,0
93775,-83.3333333333333,4,2,0,80,0,0
94269,-84.0336134453781,4,2,0,50,0,0
94367,-84.7457627118644,4,2,0,50,0,0
94466,-85.4700854700855,4,2,0,50,0,0
94565,-86.2068965517241,4,2,0,50,0,0
94664,-86.9565217391304,4,2,0,50,0,0
94762,-87.719298245614,4,2,0,50,0,0
94861,-88.4955752212389,4,2,0,50,0,0
94960,-89.2857142857143,4,2,0,50,0,0
95058,-90.0900900900901,4,2,0,50,0,0
95157,-95.2380952380952,4,2,0,50,0,0
95223,-90.9090909090909,4,2,0,50,0,0
95289,-86.9565217391304,4,2,0,50,0,0
95354,-83.3333333333333,4,2,0,50,0,0
95552,-90.9090909090909,4,2,0,80,0,0
95749,-66.6666666666667,4,2,0,80,0,0
96144,-76.9230769230769,4,2,0,80,0,0
96341,-58.8235294117647,4,2,0,80,0,0
96440,-50,4,2,0,80,0,0
96884,-66.6666666666667,4,2,0,5,0,0
96933,-142.857142857143,4,2,0,75,0,0
109236,-133.333333333333,4,2,0,65,0,0
109302,-125,4,2,0,60,0,0
109367,-117.647058823529,4,2,0,50,0,0
109433,-111.111111111111,4,2,0,45,0,0
109499,-105.263157894737,4,2,0,40,0,0
109565,-100,4,1,0,75,0,0
120617,-100,4,1,0,75,0,0
120815,-111.111111111111,4,2,0,60,0,0
120914,-125,4,2,0,60,0,0
121012,-142.857142857143,4,2,0,60,0,0
122196,-100,4,1,0,70,0,0
122591,-90.9090909090909,4,1,0,70,0,0
122986,-83.3333333333333,4,1,0,70,0,0
123381,-76.9230769230769,4,1,0,70,0,0
123775,-86.9565217391304,4,1,0,70,0,0
124170,-80,4,1,0,70,0,0
124565,-74.0740740740741,4,1,0,70,0,0
124960,-68.9655172413793,4,1,0,70,0,0
125354,-83.3333333333333,4,1,0,60,0,0
125552,-81.3008130081301,4,1,0,60,0,0
125749,-79.3650793650794,4,1,0,60,0,0
125946,-77.5193798449612,4,1,0,60,0,0
126144,-75.7575757575758,4,1,0,60,0,0
126341,-74.0740740740741,4,1,0,60,0,0
126539,-72.992700729927,4,1,0,60,0,0
126736,-71.4285714285714,4,1,0,60,0,0
126933,-76.9230769230769,4,1,0,60,0,0
127032,-75.4716981132076,4,1,0,60,0,0
127131,-74.0740740740741,4,1,0,60,0,0
127229,-72.7272727272727,4,1,0,60,0,0
127328,-71.4285714285714,4,1,0,60,0,0
127427,-70.1754385964912,4,1,0,60,0,0
127525,-68.9655172413793,4,1,0,60,0,0
127624,-67.7966101694915,4,1,0,60,0,0
127723,-66.6666666666667,4,1,0,70,0,0
128512,-133.333333333333,4,2,0,50,0,0
134828,-129.032258064516,4,2,0,75,0,1
135025,-125,4,2,0,75,0,1
135124,-121.212121212121,4,2,0,75,0,1
135223,-117.647058823529,4,2,0,75,0,0
137887,-114.285714285714,4,2,0,75,0,0
137986,-111.111111111111,4,2,0,75,0,1
138381,-111.111111111111,4,2,0,75,0,0
139565,-108.695652173913,4,2,0,75,0,0
139762,-105.263157894737,4,2,0,75,0,0
139861,-102.564102564103,4,2,0,75,0,0
139960,-100,4,2,0,75,0,0
140354,-97.5609756097561,4,2,0,75,0,0
140453,-95.2380952380952,4,2,0,75,0,0
140552,-93.0232558139535,4,2,0,75,0,0
140650,-90.9090909090909,4,2,0,75,0,0
140749,-88.8888888888889,4,2,0,75,0,0
141144,-66.6666666666667,4,1,0,100,0,1
146867,-58.8235294117647,4,1,0,100,0,1
147262,-66.6666666666667,4,1,0,100,0,1
152394,-64.5161290322581,4,1,0,100,0,1
152591,-62.5,4,1,0,100,0,1
152986,-60.6060606060606,4,1,0,100,0,1
153183,-58.8235294117647,4,1,0,100,0,1
153282,-50,4,1,0,85,0,0
153726,-57.1428571428571,4,1,0,5,0,0
153775,-57.1428571428571,4,1,0,85,0,1
159499,-50,4,1,0,100,0,1
159894,-57.1428571428571,4,1,0,100,0,1
165025,-55.5555555555556,4,1,0,100,0,1
165222,-54.054054054054,4,1,0,100,0,1
165617,-52.6315789473684,4,1,0,100,0,1
165814,-50,4,1,0,100,0,1
166209,-76.9230769230769,4,1,0,100,0,1
166407,-100,4,1,0,85,0,0
176275,-111.111111111111,4,1,0,80,0,0
176374,-113.636363636364,4,1,0,50,0,0
176473,-116.279069767442,4,1,0,80,0,0
176571,-119.047619047619,4,1,0,50,0,0
176670,-121.951219512195,4,1,0,80,0,0
177657,-100,4,1,0,85,0,0
177854,-83.3333333333333,4,1,0,90,0,0
178249,-76.9230769230769,4,1,0,95,0,0
178446,-66.6666666666667,4,1,0,100,0,0

[HitObjects]
352,256,618,5,12,0:0:0:0:
160,128,914,1,0,0:0:0:0:
160,128,1012,1,0,0:0:0:0:
352,256,1210,1,12,0:0:0:0:
352,128,1506,1,8,0:0:0:0:
160,128,1604,1,0,0:0:0:0:
352,128,1802,1,8,0:0:0:0:
352,128,1851,1,8,0:0:0:0:
352,128,1900,1,8,0:0:0:0:
352,128,1950,1,8,0:0:0:0:
352,128,1999,1,8,0:0:0:0:
352,128,2048,1,8,0:0:0:0:
352,128,2098,1,8,0:0:0:0:
160,256,2196,1,4,0:0:0:0:
160,128,2492,1,0,0:0:0:0:
160,128,2789,1,0,0:0:0:0:
160,128,2986,1,0,0:0:0:0:
352,288,3183,1,12,0:0:0:0:
160,128,3381,1,0,0:0:0:0:
352,128,3578,1,8,0:0:0:0:
160,256,3775,1,4,0:0:0:0:
160,128,4071,1,0,0:0:0:0:
352,128,4368,1,8,0:0:0:0:
160,128,4565,1,0,0:0:0:0:
352,288,4762,1,12,0:0:0:0:
160,128,4960,1,0,0:0:0:0:
352,128,5157,1,8,0:0:0:0:
160,256,5354,1,4,0:0:0:0:
160,128,5650,1,0,0:0:0:0:
160,128,5947,1,0,0:0:0:0:
352,128,6144,1,8,0:0:0:0:
160,256,6341,1,4,0:0:0:0:
160,128,6539,1,0,0:0:0:0:
352,128,6736,1,8,0:0:0:0:
160,256,6933,1,4,0:0:0:0:
352,128,7229,1,8,0:0:0:0:
160,128,7526,1,0,0:0:0:0:
352,128,7723,1,8,0:0:0:0:
352,128,7920,1,8,0:0:0:0:
352,128,8019,1,8,0:0:0:0:
160,128,8117,1,0,0:0:0:0:
160,128,8183,1,0,0:0:0:0:
160,128,8249,1,0,0:0:0:0:
352,128,8315,1,8,0:0:0:0:
352,256,8512,1,12,0:0:0:0:
160,128,8808,1,0,0:0:0:0:
160,128,9105,1,0,0:0:0:0:
160,128,9302,1,0,0:0:0:0:
352,256,9499,1,12,0:0:0:0:
160,128,9696,1,0,0:0:0:0:
352,128,9894,1,8,0:0:0:0:
352,256,10091,1,12,0:0:0:0:
160,128,10387,1,0,0:0:0:0:
352,128,10684,1,8,0:0:0:0:
352,128,10881,1,8,0:0:0:0:
352,256,11078,1,12,0:0:0:0:
160,128,11275,1,0,0:0:0:0:
160,128,11473,1,0,0:0:0:0:
352,256,11670,1,12,0:0:0:0:
160,128,11966,1,0,0:0:0:0:
160,128,12065,1,0,0:0:0:0:
160,128,12262,1,0,0:0:0:0:
160,128,12460,1,0,0:0:0:0:
352,128,12657,1,8,0:0:0:0:
352,128,12854,1,8,0:0:0:0:
160,256,13249,1,4,0:0:0:0:
160,128,13446,1,0,0:0:0:0:
352,128,13644,1,8,0:0:0:0:
160,128,13842,1,0,0:0:0:0:
352,128,14039,1,8,0:0:0:0:
352,256,14236,1,12,0:0:0:0:
160,128,14335,1,0,0:0:0:0:
352,128,14433,1,8,0:0:0:0:
352,128,14499,1,8,0:0:0:0:
352,128,14565,1,8,0:0:0:0:
160,128,14631,1,0,0:0:0:0:
160,256,14828,5,4,0:0:0:0:
160,128,15124,1,0,0:0:0:0:
352,128,15223,1,8,0:0:0:0:
160,128,15420,1,0,0:0:0:0:
160,128,15617,1,0,0:0:0:0:
160,128,15716,1,0,0:0:0:0:
352,128,15815,1,8,0:0:0:0:
352,128,15840,1,8,0:0:0:0:
352,128,16012,1,8,0:0:0:0:
352,128,16037,1,8,0:0:0:0:
352,128,16210,1,8,0:0:0:0:
352,128,16234,1,8,0:0:0:0:
160,128,16407,1,0,0:0:0:0:
352,128,16506,1,8,0:0:0:0:
352,128,16604,1,8,0:0:0:0:
160,128,16703,1,0,0:0:0:0:
160,256,16802,1,4,0:0:0:0:
160,256,16999,1,4,0:0:0:0:
352,256,17196,1,12,0:0:0:0:
352,256,17591,1,12,0:0:0:0:
352,128,17789,1,8,0:0:0:0:
160,128,17887,1,0,0:0:0:0:
160,256,17986,1,4,0:0:0:0:
160,128,18282,1,0,0:0:0:0:
352,128,18381,1,8,0:0:0:0:
160,128,18578,1,0,0:0:0:0:
160,128,18775,1,0,0:0:0:0:
160,128,18874,1,0,0:0:0:0:
352,128,18973,1,8,0:0:0:0:
352,128,18998,1,8,0:0:0:0:
352,128,19170,1,8,0:0:0:0:
352,128,19195,1,8,0:0:0:0:
352,128,19368,1,8,0:0:0:0:
352,128,19392,1,8,0:0:0:0:
160,128,19565,1,0,0:0:0:0:
352,128,19664,1,8,0:0:0:0:
352,128,19762,1,8,0:0:0:0:
160,128,19861,1,0,0:0:0:0:
160,256,19960,1,4,0:0:0:0:
160,256,20157,1,4,0:0:0:0:
352,256,20354,1,12,0:0:0:0:
352,256,20749,1,12,0:0:0:0:
352,128,20947,1,8,0:0:0:0:
160,128,21045,1,0,0:0:0:0:
160,256,21144,5,4,0:0:0:0:
160,128,21440,1,0,0:0:0:0:
352,128,21539,1,8,0:0:0:0:
160,128,21736,1,0,0:0:0:0:
160,128,21933,1,0,0:0:0:0:
160,128,22032,1,0,0:0:0:0:
352,128,22131,1,8,0:0:0:0:
352,128,22156,1,8,0:0:0:0:
352,128,22328,1,8,0:0:0:0:
352,128,22353,1,8,0:0:0:0:
352,128,22526,1,8,0:0:0:0:
352,128,22550,1,8,0:0:0:0:
160,128,22723,1,0,0:0:0:0:
352,128,22822,1,8,0:0:0:0:
352,128,22920,1,8,0:0:0:0:
160,128,23019,1,0,0:0:0:0:
160,256,23118,1,4,0:0:0:0:
160,256,23315,1,4,0:0:0:0:
352,256,23512,1,12,0:0:0:0:
352,256,23907,1,12,0:0:0:0:
352,128,24104,1,8,0:0:0:0:
160,128,24203,1,0,0:0:0:0:
160,256,24302,1,4,0:0:0:0:
160,128,24499,5,0,0:0:0:0:
160,128,24524,1,0,0:0:0:0:
160,128,24696,1,0,0:0:0:0:
160,128,24721,1,0,0:0:0:0:
160,128,24894,5,0,0:0:0:0:
160,128,24919,1,0,0:0:0:0:
160,128,25091,1,0,0:0:0:0:
160,128,25116,1,0,0:0:0:0:
160,128,25289,5,0,0:0:0:0:
160,128,25314,1,0,0:0:0:0:
160,128,25486,1,0,0:0:0:0:
160,128,25511,1,0,0:0:0:0:
160,128,25683,1,0,0:0:0:0:
160,128,25749,1,0,0:0:0:0:
160,128,25815,1,8,0:0:0:0:
160,128,25881,1,8,0:0:0:0:
256,192,25946,12,0,26966,0:0:0:0:
128,256,27065,5,4,0:0:0:0:
128,256,27164,1,4,0:0:0:0:
128,256,27262,1,4,0:0:0:0:
288,320,27460,2,12,L|448:320,1,150
128,128,28052,5,0,0:0:0:0:
352,256,28249,1,12,0:0:0:0:
128,128,28446,1,0,0:0:0:0:
352,256,28644,1,12,0:0:0:0:
128,128,28841,5,0,0:0:0:0:
352,256,29038,1,12,0:0:0:0:
128,128,29235,1,0,0:0:0:0:
352,256,29433,1,12,0:0:0:0:
128,128,29631,1,0,0:0:0:0:
128,128,29828,1,0,0:0:0:0:
128,128,29927,1,0,0:0:0:0:
352,256,30025,1,12,0:0:0:0:
128,256,30223,1,4,0:0:0:0:
288,320,30617,2,12,L|448:320,1,150
384,128,31210,5,8,0:0:0:0:
160,256,31407,1,4,0:0:0:0:
384,128,31604,1,8,0:0:0:0:
160,256,31802,1,4,0:0:0:0:
384,128,31999,5,8,0:0:0:0:
160,256,32196,1,4,0:0:0:0:
384,128,32393,1,8,0:0:0:0:
160,256,32591,1,4,0:0:0:0:
384,256,32789,1,12,0:0:0:0:
160,128,32986,1,8,0:0:0:0:
160,128,33085,1,8,0:0:0:0:
160,256,33183,1,4,0:0:0:0:
384,256,33381,1,12,0:0:0:0:
224,320,33775,2,4,L|64:320,1,150
160,128,34367,1,0,0:0:0:0:
160,256,34565,1,4,0:0:0:0:
352,128,34762,1,8,0:0:0:0:
352,256,34960,1,12,0:0:0:0:
160,128,35157,1,0,0:0:0:0:
160,256,35355,1,4,0:0:0:0:
352,128,35552,1,8,0:0:0:0:
352,256,35750,1,12,0:0:0:0:
160,128,35946,1,0,0:0:0:0:
160,128,36144,1,0,0:0:0:0:
160,128,36242,1,0,0:0:0:0:
352,128,36341,1,8,0:0:0:0:
352,256,36539,1,12,0:0:0:0:
224,320,36933,2,4,L|64:320,1,150
352,128,37525,1,8,0:0:0:0:
352,256,37723,1,12,0:0:0:0:
160,128,37920,1,0,0:0:0:0:
160,256,38118,1,4,0:0:0:0:
352,128,38315,1,8,0:0:0:0:
352,256,38710,1,12,0:0:0:0:
160,256,39104,1,4,0:0:0:0:
160,128,39302,1,0,0:0:0:0:
352,128,39400,1,8,0:0:0:0:
160,128,39499,1,0,0:0:0:0:
160,128,39524,1,0,0:0:0:0:
352,128,39697,1,8,0:0:0:0:
352,128,39721,1,8,0:0:0:0:
160,128,39894,1,0,0:0:0:0:
160,128,39918,1,0,0:0:0:0:
160,256,40091,1,4,0:0:0:0:
160,128,40289,1,0,0:0:0:0:
160,128,40486,1,0,0:0:0:0:
352,128,40683,1,8,0:0:0:0:
352,128,40782,1,8,0:0:0:0:
160,128,40881,1,0,0:0:0:0:
160,128,41078,1,0,0:0:0:0:
160,128,41275,1,0,0:0:0:0:
352,128,41473,1,8,0:0:0:0:
352,128,41571,1,8,0:0:0:0:
160,128,41670,1,0,0:0:0:0:
160,128,41769,1,0,0:0:0:0:
160,128,41867,1,0,0:0:0:0:
160,128,42065,1,0,0:0:0:0:
160,128,42164,1,0,0:0:0:0:
352,128,42262,1,8,0:0:0:0:
352,128,42460,1,8,0:0:0:0:
352,128,42558,1,8,0:0:0:0:
160,128,42657,1,0,0:0:0:0:
160,128,42756,1,0,0:0:0:0:
352,128,42854,1,8,0:0:0:0:
352,128,43052,1,8,0:0:0:0:
352,128,43150,1,8,0:0:0:0:
160,128,43249,1,0,0:0:0:0:
160,128,43348,1,0,0:0:0:0:
160,128,43446,1,0,0:0:0:0:
352,128,43644,1,8,0:0:0:0:
352,128,43841,1,8,0:0:0:0:
160,128,43940,1,0,0:0:0:0:
352,128,44039,1,8,0:0:0:0:
352,128,44137,1,8,0:0:0:0:
160,128,44236,1,0,0:0:0:0:
352,128,44433,1,8,0:0:0:0:
160,128,44631,1,0,0:0:0:0:
352,128,44828,1,8,0:0:0:0:
160,128,44927,1,0,0:0:0:0:
160,128,45025,1,0,0:0:0:0:
160,128,45124,1,0,0:0:0:0:
352,128,45223,1,8,0:0:0:0:
160,128,45420,1,0,0:0:0:0:
160,128,45617,1,0,0:0:0:0:
352,128,45716,1,8,0:0:0:0:
352,128,45815,1,8,0:0:0:0:
160,128,45914,1,0,0:0:0:0:
160,128,46012,1,0,0:0:0:0:
160,128,46111,1,0,0:0:0:0:
352,128,46210,1,8,0:0:0:0:
352,128,46308,1,8,0:0:0:0:
352,128,46407,1,8,0:0:0:0:
352,128,46604,1,8,0:0:0:0:
160,128,46802,1,0,0:0:0:0:
352,128,46999,1,8,0:0:0:0:
352,128,47098,1,8,0:0:0:0:
160,128,47196,1,0,0:0:0:0:
160,128,47295,1,0,0:0:0:0:
160,128,47394,1,0,0:0:0:0:
160,128,47591,1,0,0:0:0:0:
160,128,47789,1,0,0:0:0:0:
352,128,47887,1,8,0:0:0:0:
352,128,47986,1,8,0:0:0:0:
352,128,48085,1,8,0:0:0:0:
352,128,48183,1,8,0:0:0:0:
352,128,48381,1,8,0:0:0:0:
160,128,48479,1,0,0:0:0:0:
160,128,48578,1,0,0:0:0:0:
160,128,48775,1,0,0:0:0:0:
352,128,48874,1,8,0:0:0:0:
160,128,48973,1,0,0:0:0:0:
160,128,49170,1,0,0:0:0:0:
160,128,49269,1,0,0:0:0:0:
352,128,49367,1,8,0:0:0:0:
352,128,49466,1,8,0:0:0:0:
160,128,49565,1,0,0:0:0:0:
352,128,49762,1,8,0:0:0:0:
160,128,49960,1,0,0:0:0:0:
352,128,50157,1,8,0:0:0:0:
160,128,50354,1,0,0:0:0:0:
352,128,50552,1,8,0:0:0:0:
160,128,50749,1,0,0:0:0:0:
352,128,50946,1,8,0:0:0:0:
160,128,51144,1,0,0:0:0:0:
352,128,51341,1,8,0:0:0:0:
352,128,51440,1,8,0:0:0:0:
160,128,51539,1,0,0:0:0:0:
352,128,51736,1,8,0:0:0:0:
160,128,51933,1,0,0:0:0:0:
160,128,52032,1,0,0:0:0:0:
352,128,52131,1,8,0:0:0:0:
160,128,52328,1,0,0:0:0:0:
160,128,52427,1,0,0:0:0:0:
352,128,52525,1,8,0:0:0:0:
352,128,52624,1,8,0:0:0:0:
352,256,52723,1,12,0:0:0:0:
352,256,53117,1,12,0:0:0:0:
352,256,53512,1,12,0:0:0:0:
352,256,53907,1,12,0:0:0:0:
160,256,54302,1,4,0:0:0:0:
160,256,54696,1,4,0:0:0:0:
160,256,55091,1,4,0:0:0:0:
160,256,55486,1,4,0:0:0:0:
352,256,55881,1,12,0:0:0:0:
352,128,56078,1,8,0:0:0:0:
160,256,56275,1,4,0:0:0:0:
160,128,56473,1,0,0:0:0:0:
352,256,56670,1,12,0:0:0:0:
352,128,56867,1,8,0:0:0:0:
160,256,57064,1,4,0:0:0:0:
160,128,57262,1,0,0:0:0:0:
352,128,57460,1,8,0:0:0:0:
160,128,57558,1,0,0:0:0:0:
352,128,57657,1,8,0:0:0:0:
160,128,57756,1,0,0:0:0:0:
352,128,57854,1,8,0:0:0:0:
160,128,57953,1,0,0:0:0:0:
352,128,58052,1,8,0:0:0:0:
160,128,58150,1,0,0:0:0:0:
160,128,58249,1,0,0:0:0:0:
160,128,58348,1,0,0:0:0:0:
160,256,58446,1,4,0:0:0:0:
352,256,58644,1,12,0:0:0:0:
160,128,59039,5,0,0:0:0:0:
160,128,59137,1,0,0:0:0:0:
160,128,59236,1,0,0:0:0:0:
160,128,59335,1,0,0:0:0:0:
352,128,59433,1,8,0:0:0:0:
352,128,59532,1,8,0:0:0:0:
160,128,59631,1,0,0:0:0:0:
160,128,59828,1,0,0:0:0:0:
352,128,60025,1,8,0:0:0:0:
352,128,60124,1,8,0:0:0:0:
352,128,60223,1,8,0:0:0:0:
352,128,60420,1,8,0:0:0:0:
160,128,60617,1,0,0:0:0:0:
352,128,60716,1,8,0:0:0:0:
352,128,60815,1,8,0:0:0:0:
160,128,60914,1,0,0:0:0:0:
160,128,61012,1,0,0:0:0:0:
352,128,61111,1,8,0:0:0:0:
160,128,61210,1,0,0:0:0:0:
352,128,61308,1,8,0:0:0:0:
352,128,61407,1,8,0:0:0:0:
352,128,61506,1,8,0:0:0:0:
160,128,61604,1,0,0:0:0:0:
160,128,61802,1,0,0:0:0:0:
352,128,61900,1,8,0:0:0:0:
352,128,61999,1,8,0:0:0:0:
160,128,62098,1,0,0:0:0:0:
352,128,62196,1,8,0:0:0:0:
160,128,62295,1,0,0:0:0:0:
160,128,62394,1,0,0:0:0:0:
160,128,62591,1,0,0:0:0:0:
352,128,62690,1,8,0:0:0:0:
160,128,62789,1,0,0:0:0:0:
160,128,62986,1,0,0:0:0:0:
160,128,63183,1,0,0:0:0:0:
352,128,63282,1,8,0:0:0:0:
352,128,63381,1,8,0:0:0:0:
352,128,63578,1,8,0:0:0:0:
160,128,63775,1,0,0:0:0:0:
160,128,63874,1,0,0:0:0:0:
160,128,63973,1,0,0:0:0:0:
160,128,64071,1,0,0:0:0:0:
352,128,64170,1,8,0:0:0:0:
352,128,64269,1,8,0:0:0:0:
352,128,64367,1,8,0:0:0:0:
352,128,64466,1,8,0:0:0:0:
160,128,64565,1,0,0:0:0:0:
160,256,64762,1,4,0:0:0:0:
352,256,64960,1,12,0:0:0:0:
160,128,65157,1,0,0:0:0:0:
160,128,65256,1,0,0:0:0:0:
352,128,65354,1,8,0:0:0:0:
352,128,65453,1,8,0:0:0:0:
352,128,65552,1,8,0:0:0:0:
352,128,65749,1,8,0:0:0:0:
160,128,65946,1,0,0:0:0:0:
160,128,66045,1,0,0:0:0:0:
160,128,66144,1,0,0:0:0:0:
352,128,66242,1,8,0:0:0:0:
160,128,66341,1,0,0:0:0:0:
352,128,66539,1,8,0:0:0:0:
352,128,66637,1,8,0:0:0:0:
352,128,66736,1,8,0:0:0:0:
160,128,66933,1,0,0:0:0:0:
160,128,67032,1,0,0:0:0:0:
352,128,67131,1,8,0:0:0:0:
160,128,67229,1,0,0:0:0:0:
352,128,67328,1,8,0:0:0:0:
352,128,67525,1,8,0:0:0:0:
160,128,67624,1,0,0:0:0:0:
352,128,67723,1,8,0:0:0:0:
160,128,67821,1,0,0:0:0:0:
160,128,67920,1,0,0:0:0:0:
160,128,68117,1,0,0:0:0:0:
160,128,68315,1,0,0:0:0:0:
352,128,68414,1,8,0:0:0:0:
352,128,68512,1,8,0:0:0:0:
352,128,68710,1,8,0:0:0:0:
160,128,68808,1,0,0:0:0:0:
160,128,68907,1,0,0:0:0:0:
160,128,69104,1,0,0:0:0:0:
352,128,69203,1,8,0:0:0:0:
160,128,69302,1,0,0:0:0:0:
352,128,69400,1,8,0:0:0:0:
352,128,69499,1,8,0:0:0:0:
352,128,69598,1,8,0:0:0:0:
160,128,69696,1,0,0:0:0:0:
352,128,69894,1,8,0:0:0:0:
160,256,70289,1,4,0:0:0:0:
352,256,70486,1,12,0:0:0:0:
352,256,70881,1,12,0:0:0:0:
160,256,71078,1,4,0:0:0:0:
256,192,71177,12,0,71621,0:0:0:0:
160,128,71670,5,0,0:0:0:0:
352,128,71768,1,8,0:0:0:0:
160,128,71867,1,0,0:0:0:0:
160,128,71966,1,0,0:0:0:0:
160,128,72064,1,0,0:0:0:0:
352,128,72163,1,8,0:0:0:0:
352,128,72262,1,8,0:0:0:0:
160,128,72459,1,0,0:0:0:0:
352,128,72656,1,8,0:0:0:0:
352,128,72755,1,8,0:0:0:0:
160,128,72854,1,0,0:0:0:0:
160,128,72953,1,0,0:0:0:0:
160,128,73051,1,0,0:0:0:0:
160,128,73248,1,0,0:0:0:0:
352,128,73347,1,8,0:0:0:0:
352,128,73446,1,8,0:0:0:0:
352,128,73545,1,8,0:0:0:0:
352,128,73643,1,8,0:0:0:0:
160,128,73742,1,0,0:0:0:0:
160,128,73841,1,0,0:0:0:0:
160,128,73939,1,0,0:0:0:0:
352,128,74038,1,8,0:0:0:0:
352,128,74137,1,8,0:0:0:0:
352,128,74235,1,8,0:0:0:0:
160,128,74433,1,0,0:0:0:0:
352,128,74630,1,8,0:0:0:0:
160,128,74729,1,0,0:0:0:0:
352,128,74827,1,8,0:0:0:0:
160,128,74926,1,0,0:0:0:0:
352,128,75025,1,8,0:0:0:0:
352,128,75222,1,8,0:0:0:0:
160,128,75321,1,0,0:0:0:0:
160,128,75420,1,0,0:0:0:0:
160,128,75617,1,0,0:0:0:0:
352,128,75814,1,8,0:0:0:0:
160,128,75913,1,0,0:0:0:0:
352,128,76012,1,8,0:0:0:0:
352,128,76209,1,8,0:0:0:0:
160,128,76406,1,0,0:0:0:0:
160,128,76505,1,0,0:0:0:0:
352,128,76604,1,8,0:0:0:0:
160,128,76702,1,0,0:0:0:0:
352,128,76801,1,8,0:0:0:0:
352,128,76900,1,8,0:0:0:0:
160,128,76998,1,0,0:0:0:0:
352,128,77097,1,8,0:0:0:0:
160,128,77196,1,0,0:0:0:0:
160,256,77394,1,4,0:0:0:0:
352,256,77591,1,12,0:0:0:0:
160,128,77789,1,0,0:0:0:0:
160,128,77887,1,0,0:0:0:0:
352,128,77985,1,8,0:0:0:0:
160,128,78084,1,0,0:0:0:0:
160,128,78183,1,0,0:0:0:0:
352,128,78380,1,8,0:0:0:0:
160,128,78577,1,0,0:0:0:0:
352,128,78676,1,8,0:0:0:0:
352,128,78775,1,8,0:0:0:0:
352,128,78873,1,8,0:0:0:0:
160,128,78972,1,0,0:0:0:0:
352,128,79170,1,8,0:0:0:0:
352,128,79268,1,8,0:0:0:0:
352,128,79367,1,8,0:0:0:0:
352,128,79565,1,8,0:0:0:0:
160,128,79663,1,0,0:0:0:0:
352,128,79762,1,8,0:0:0:0:
160,128,79959,1,0,0:0:0:0:
352,128,80156,1,8,0:0:0:0:
352,128,80255,1,8,0:0:0:0:
352,128,80354,1,8,0:0:0:0:
352,128,80452,1,8,0:0:0:0:
160,128,80551,1,0,0:0:0:0:
160,128,80748,1,0,0:0:0:0:
160,128,80946,1,0,0:0:0:0:
352,128,81045,1,8,0:0:0:0:
352,128,81143,1,8,0:0:0:0:
352,128,81341,1,8,0:0:0:0:
160,128,81439,1,0,0:0:0:0:
160,128,81538,1,0,0:0:0:0:
352,128,81637,1,8,0:0:0:0:
160,128,81735,1,0,0:0:0:0:
352,128,81933,1,8,0:0:0:0:
352,128,82031,1,8,0:0:0:0:
352,128,82130,1,8,0:0:0:0:
160,128,82229,1,0,0:0:0:0:
160,128,82327,1,0,0:0:0:0:
352,128,82525,1,8,0:0:0:0:
160,256,82920,1,4,0:0:0:0:
352,256,83117,1,12,0:0:0:0:
352,256,83512,1,12,0:0:0:0:
160,256,83709,1,4,0:0:0:0:
160,128,84104,1,0,0:0:0:0:
32,320,84302,2,4,L|224:320,1,187.5
128,128,84894,5,0,0:0:0:0:
352,256,85091,1,12,0:0:0:0:
128,128,85288,1,0,0:0:0:0:
352,256,85486,1,12,0:0:0:0:
128,128,85683,5,0,0:0:0:0:
352,128,85880,1,8,0:0:0:0:
128,128,85979,1,0,0:0:0:0:
128,128,86077,1,0,0:0:0:0:
352,256,86275,1,12,0:0:0:0:
128,128,86473,1,0,0:0:0:0:
128,128,86670,1,0,0:0:0:0:
128,128,86769,1,0,0:0:0:0:
352,128,86867,1,8,0:0:0:0:
128,256,87065,1,4,0:0:0:0:
256,320,87459,2,12,L|448:320,1,187.5
384,128,88052,5,8,0:0:0:0:
160,256,88249,1,4,0:0:0:0:
384,128,88446,1,8,0:0:0:0:
160,256,88644,1,4,0:0:0:0:
384,128,88841,5,8,0:0:0:0:
160,128,89038,1,0,0:0:0:0:
384,128,89137,1,8,0:0:0:0:
384,128,89235,1,8,0:0:0:0:
160,256,89433,1,4,0:0:0:0:
384,256,89631,1,12,0:0:0:0:
160,128,89828,1,8,0:0:0:0:
160,128,89927,1,8,0:0:0:0:
160,128,90025,1,0,0:0:0:0:
384,256,90223,1,12,0:0:0:0:
256,320,90617,2,4,L|64:320,1,187.5
160,128,91209,1,0,0:0:0:0:
160,256,91407,1,4,0:0:0:0:
352,128,91604,1,8,0:0:0:0:
352,256,91802,1,12,0:0:0:0:
160,128,91999,1,0,0:0:0:0:
352,128,92197,1,8,0:0:0:0:
160,128,92295,1,0,0:0:0:0:
352,128,92394,1,8,0:0:0:0:
352,256,92592,1,12,0:0:0:0:
160,128,92788,1,0,0:0:0:0:
160,128,92986,1,0,0:0:0:0:
160,128,93084,1,0,0:0:0:0:
352,128,93183,1,8,0:0:0:0:
352,256,93381,1,12,0:0:0:0:
224,320,93775,2,4,L|32:320,1,179.999994506836
128,128,94269,1,0,0:0:0:0:
128,128,94367,1,0,0:0:0:0:
128,128,94466,1,0,0:0:0:0:
352,128,94565,1,8,0:0:0:0:
128,128,94664,1,0,0:0:0:0:
352,128,94762,1,8,0:0:0:0:
128,128,94861,1,0,0:0:0:0:
352,128,94960,1,8,0:0:0:0:
128,128,95058,1,0,0:0:0:0:
352,128,95157,1,8,0:0:0:0:
352,128,95223,1,8,0:0:0:0:
352,128,95289,1,8,0:0:0:0:
128,256,95354,1,0,0:0:0:0:
128,128,95552,1,0,0:0:0:0:
352,256,95749,1,12,0:0:0:0:
352,256,96144,1,12,0:0:0:0:
128,128,96341,1,0,0:0:0:0:
256,192,96440,12,0,96884,0:0:0:0:
128,128,96933,5,0,0:0:0:0:
352,128,97131,1,8,0:0:0:0:
128,128,97229,1,0,0:0:0:0:
352,128,97328,1,8,0:0:0:0:
128,128,97525,1,0,0:0:0:0:
128,128,97723,1,0,0:0:0:0:
352,128,97821,1,8,0:0:0:0:
352,128,97920,1,8,0:0:0:0:
128,128,98019,1,0,0:0:0:0:
352,128,98117,1,8,0:0:0:0:
128,128,98315,1,0,0:0:0:0:
352,128,98512,1,8,0:0:0:0:
352,128,98611,1,8,0:0:0:0:
128,128,98710,1,0,0:0:0:0:
352,128,98808,1,8,0:0:0:0:
352,128,98907,1,8,0:0:0:0:
128,128,99006,1,0,0:0:0:0:
352,128,99104,1,8,0:0:0:0:
128,128,99203,1,0,0:0:0:0:
128,128,99302,1,0,0:0:0:0:
128,128,99499,1,0,0:0:0:0:
128,128,99598,1,0,0:0:0:0:
352,128,99696,1,8,0:0:0:0:
128,128,99894,1,0,0:0:0:0:
128,128,100091,1,0,0:0:0:0:
128,128,100190,1,0,0:0:0:0:
128,128,100289,1,0,0:0:0:0:
128,128,100387,1,0,0:0:0:0:
352,128,100486,1,8,0:0:0:0:
128,128,100683,1,0,0:0:0:0:
128,128,100881,1,0,0:0:0:0:
352,128,100979,1,8,0:0:0:0:
128,128,101078,1,0,0:0:0:0:
128,128,101177,1,0,0:0:0:0:
352,128,101275,1,8,0:0:0:0:
128,128,101473,1,0,0:0:0:0:
128,128,101670,1,0,0:0:0:0:
352,128,101769,1,8,0:0:0:0:
352,128,101867,1,8,0:0:0:0:
128,128,101966,1,0,0:0:0:0:
352,128,102065,1,8,0:0:0:0:
352,128,102164,1,8,0:0:0:0:
352,128,102262,1,8,0:0:0:0:
128,128,102361,1,0,0:0:0:0:
352,128,102460,1,8,0:0:0:0:
352,128,102558,1,8,0:0:0:0:
352,128,102657,1,8,0:0:0:0:
352,128,102756,1,8,0:0:0:0:
128,128,102854,1,0,0:0:0:0:
128,128,103052,1,0,0:0:0:0:
128,128,103249,1,0,0:0:0:0:
352,128,103348,1,8,0:0:0:0:
352,128,103446,1,8,0:0:0:0:
128,128,103545,1,0,0:0:0:0:
352,128,103644,1,8,0:0:0:0:
352,128,103841,1,8,0:0:0:0:
128,128,104039,1,0,0:0:0:0:
128,128,104137,1,0,0:0:0:0:
128,128,104236,1,0,0:0:0:0:
128,128,104335,1,0,0:0:0:0:
352,128,104433,1,8,0:0:0:0:
128,128,104532,1,0,0:0:0:0:
352,128,104631,1,8,0:0:0:0:
128,128,104828,1,0,0:0:0:0:
128,128,104927,1,0,0:0:0:0:
352,128,105025,1,8,0:0:0:0:
128,128,105124,1,0,0:0:0:0:
128,128,105223,1,0,0:0:0:0:
128,128,105321,1,0,0:0:0:0:
352,128,105420,1,8,0:0:0:0:
352,128,105519,1,8,0:0:0:0:
128,128,105617,1,0,0:0:0:0:
352,128,105716,1,8,0:0:0:0:
352,128,105815,1,8,0:0:0:0:
352,128,106012,1,8,0:0:0:0:
128,128,106078,1,0,0:0:0:0:
128,128,106144,1,0,0:0:0:0:
128,128,106210,1,0,0:0:0:0:
128,128,106308,1,0,0:0:0:0:
352,128,106407,1,8,0:0:0:0:
128,128,106604,1,0,0:0:0:0:
128,128,106703,1,0,0:0:0:0:
352,128,106802,1,8,0:0:0:0:
128,128,106999,1,0,0:0:0:0:
128,128,107098,1,0,0:0:0:0:
352,128,107196,1,8,0:0:0:0:
128,128,107295,1,0,0:0:0:0:
128,128,107394,1,0,0:0:0:0:
128,128,107492,1,0,0:0:0:0:
352,128,107591,1,8,0:0:0:0:
128,128,107789,1,0,0:0:0:0:
352,128,107986,1,8,0:0:0:0:
128,128,108282,1,0,0:0:0:0:
128,128,108381,1,0,0:0:0:0:
352,128,108578,1,8,0:0:0:0:
128,128,108973,1,0,0:0:0:0:
352,128,109170,1,8,0:0:0:0:
128,128,109236,1,0,0:0:0:0:
128,128,109302,1,0,0:0:0:0:
128,128,109367,1,0,0:0:0:0:
128,128,109433,1,0,0:0:0:0:
128,128,109499,1,0,0:0:0:0:
160,256,109565,5,4,0:0:0:0:
352,128,109763,1,8,0:0:0:0:
160,128,109960,1,0,0:0:0:0:
352,128,110157,1,8,0:0:0:0:
352,128,110256,1,8,0:0:0:0:
160,128,110355,1,0,0:0:0:0:
160,128,110552,1,0,0:0:0:0:
160,128,110749,1,0,0:0:0:0:
352,128,110947,1,8,0:0:0:0:
352,128,111045,1,8,0:0:0:0:
160,128,111144,1,0,0:0:0:0:
352,128,111243,1,8,0:0:0:0:
160,128,111341,1,0,0:0:0:0:
160,128,111539,1,0,0:0:0:0:
160,128,111638,1,0,0:0:0:0:
352,128,111736,1,8,0:0:0:0:
352,128,111934,1,8,0:0:0:0:
352,128,112032,1,8,0:0:0:0:
160,128,112131,1,0,0:0:0:0:
160,128,112230,1,0,0:0:0:0:
352,128,112328,1,8,0:0:0:0:
352,128,112526,1,8,0:0:0:0:
352,128,112624,1,8,0:0:0:0:
160,128,112723,1,0,0:0:0:0:
160,128,112920,1,0,0:0:0:0:
352,128,113118,1,8,0:0:0:0:
352,128,113315,1,8,0:0:0:0:
160,128,113414,1,0,0:0:0:0:
352,128,113513,1,8,0:0:0:0:
352,128,113611,1,8,0:0:0:0:
160,128,113710,1,0,0:0:0:0:
352,128,113907,1,8,0:0:0:0:
160,128,114105,1,0,0:0:0:0:
352,128,114302,1,8,0:0:0:0:
160,128,114401,1,0,0:0:0:0:
160,128,114499,1,0,0:0:0:0:
160,128,114598,1,0,0:0:0:0:
352,128,114697,1,8,0:0:0:0:
160,128,114894,1,0,0:0:0:0:
160,128,115091,1,0,0:0:0:0:
352,128,115190,1,8,0:0:0:0:
352,128,115289,1,8,0:0:0:0:
160,128,115388,1,0,0:0:0:0:
160,128,115486,1,0,0:0:0:0:
160,128,115585,1,0,0:0:0:0:
352,128,115684,1,8,0:0:0:0:
352,128,115782,1,8,0:0:0:0:
352,128,115881,1,8,0:0:0:0:
352,128,116078,1,8,0:0:0:0:
160,128,116276,1,0,0:0:0:0:
352,128,116473,1,8,0:0:0:0:
352,128,116572,1,8,0:0:0:0:
352,128,116670,1,8,0:0:0:0:
160,128,116769,1,0,0:0:0:0:
160,128,116868,1,0,0:0:0:0:
160,128,117065,1,0,0:0:0:0:
160,128,117263,1,0,0:0:0:0:
352,128,117361,1,8,0:0:0:0:
352,128,117460,1,8,0:0:0:0:
160,128,117559,1,0,0:0:0:0:
160,128,117657,1,0,0:0:0:0:
352,128,117855,1,8,0:0:0:0:
160,128,117953,1,0,0:0:0:0:
160,128,118052,1,0,0:0:0:0:
352,128,118150,1,8,0:0:0:0:
160,128,118249,1,0,0:0:0:0:
352,128,118348,1,8,0:0:0:0:
160,128,118447,1,0,0:0:0:0:
160,128,118644,1,0,0:0:0:0:
160,128,118743,1,0,0:0:0:0:
352,128,118841,1,8,0:0:0:0:
160,128,119039,1,0,0:0:0:0:
352,128,119236,1,8,0:0:0:0:
160,128,119434,1,0,0:0:0:0:
352,128,119631,1,8,0:0:0:0:
160,128,119828,1,0,0:0:0:0:
352,128,120026,1,8,0:0:0:0:
160,128,120223,1,0,0:0:0:0:
352,128,120420,1,8,0:0:0:0:
160,128,120618,1,0,0:0:0:0:
352,128,120815,1,8,0:0:0:0:
352,128,120914,1,8,0:0:0:0:
160,128,121013,1,0,0:0:0:0:
352,128,121210,1,8,0:0:0:0:
160,128,121407,1,0,0:0:0:0:
352,128,121605,1,8,0:0:0:0:
160,128,121802,1,0,0:0:0:0:
352,128,121999,1,8,0:0:0:0:
160,256,122196,1,4,0:0:0:0:
352,256,122591,1,12,0:0:0:0:
160,256,122986,1,4,0:0:0:0:
352,256,123381,1,12,0:0:0:0:
352,256,123775,1,12,0:0:0:0:
160,256,124170,1,4,0:0:0:0:
352,256,124565,1,12,0:0:0:0:
160,256,124960,1,4,0:0:0:0:
352,256,125354,1,12,0:0:0:0:
160,128,125552,1,0,0:0:0:0:
160,256,125749,1,4,0:0:0:0:
352,128,125946,1,8,0:0:0:0:
160,256,126144,1,4,0:0:0:0:
352,128,126341,1,8,0:0:0:0:
352,256,126539,1,12,0:0:0:0:
160,128,126736,1,0,0:0:0:0:
352,128,126933,1,8,0:0:0:0:
160,128,127032,1,0,0:0:0:0:
352,128,127131,1,8,0:0:0:0:
160,128,127229,1,0,0:0:0:0:
352,128,127328,1,8,0:0:0:0:
160,128,127427,1,0,0:0:0:0:
352,128,127525,1,8,0:0:0:0:
160,128,127624,1,0,0:0:0:0:
160,128,127723,1,0,0:0:0:0:
352,256,128512,5,12,0:0:0:0:
352,128,128907,1,8,0:0:0:0:
160,128,129104,1,0,0:0:0:0:
352,128,129302,1,8,0:0:0:0:
352,128,129499,1,8,0:0:0:0:
352,128,129696,1,8,0:0:0:0:
160,128,129894,1,0,0:0:0:0:
352,128,130091,1,8,0:0:0:0:
352,128,130486,1,8,0:0:0:0:
160,128,130683,1,0,0:0:0:0:
352,128,130881,1,8,0:0:0:0:
352,128,131275,1,8,0:0:0:0:
160,128,131473,1,0,0:0:0:0:
352,128,131670,1,8,0:0:0:0:
160,128,131867,1,0,0:0:0:0:
352,128,132065,1,8,0:0:0:0:
352,128,132262,1,8,0:0:0:0:
352,128,132460,1,8,0:0:0:0:
352,128,132854,1,8,0:0:0:0:
352,128,133249,1,8,0:0:0:0:
160,128,133446,1,0,0:0:0:0:
352,128,133644,1,8,0:0:0:0:
160,128,133841,1,0,0:0:0:0:
352,128,134039,1,8,0:0:0:0:
352,256,134236,1,12,0:0:0:0:
352,256,134433,1,12,0:0:0:0:
160,128,134631,1,0,0:0:0:0:
352,256,134828,1,12,0:0:0:0:
352,128,135025,1,8,0:0:0:0:
160,128,135124,1,0,0:0:0:0:
160,256,135223,1,4,0:0:0:0:
160,128,135420,1,0,0:0:0:0:
352,128,135617,1,8,0:0:0:0:
352,128,135815,1,0,0:0:0:0:
352,128,135914,1,8,0:0:0:0:
352,128,136012,1,8,0:0:0:0:
160,128,136210,1,0,0:0:0:0:
160,128,136407,1,0,0:0:0:0:
352,128,136506,1,8,0:0:0:0:
352,128,136604,1,8,0:0:0:0:
352,128,136703,1,8,0:0:0:0:
160,128,136802,1,0,0:0:0:0:
352,128,136999,1,8,0:0:0:0:
160,128,137196,1,0,0:0:0:0:
352,128,137394,1,8,0:0:0:0:
160,128,137591,1,0,0:0:0:0:
352,128,137789,1,8,0:0:0:0:
352,128,137887,1,8,0:0:0:0:
160,256,137986,1,4,0:0:0:0:
160,128,138183,1,0,0:0:0:0:
352,128,138282,1,8,0:0:0:0:
352,128,138381,1,8,0:0:0:0:
352,128,138578,1,8,0:0:0:0:
160,128,138677,1,0,0:0:0:0:
352,128,138775,1,8,0:0:0:0:
352,128,138874,1,8,0:0:0:0:
160,128,138973,1,0,0:0:0:0:
352,128,139071,1,8,0:0:0:0:
160,128,139170,1,0,0:0:0:0:
160,128,139367,1,0,0:0:0:0:
160,256,139565,1,4,0:0:0:0:
160,128,139762,1,0,0:0:0:0:
160,128,139861,1,0,0:0:0:0:
352,256,139960,1,12,0:0:0:0:
160,128,140157,1,0,0:0:0:0:
352,128,140354,1,8,0:0:0:0:
352,128,140453,1,8,0:0:0:0:
160,128,140552,1,0,0:0:0:0:
352,128,140650,1,8,0:0:0:0:
160,256,140749,1,4,0:0:0:0:
160,128,141144,5,0,0:0:0:0:
160,128,141242,1,0,0:0:0:0:
160,128,141341,1,0,0:0:0:0:
160,128,141440,1,0,0:0:0:0:
352,128,141539,1,8,0:0:0:0:
352,128,141637,1,8,0:0:0:0:
160,128,141736,1,0,0:0:0:0:
160,128,141933,1,0,0:0:0:0:
352,128,142131,1,8,0:0:0:0:
352,128,142229,1,8,0:0:0:0:
352,128,142328,1,8,0:0:0:0:
352,128,142525,1,8,0:0:0:0:
160,128,142723,1,0,0:0:0:0:
352,128,142821,1,8,0:0:0:0:
352,128,142920,1,8,0:0:0:0:
160,128,143019,1,0,0:0:0:0:
160,128,143117,1,0,0:0:0:0:
160,128,143315,1,0,0:0:0:0:
352,128,143414,1,8,0:0:0:0:
352,128,143512,1,8,0:0:0:0:
160,128,143709,1,0,0:0:0:0:
160,128,143907,1,0,0:0:0:0:
352,128,144104,1,8,0:0:0:0:
160,128,144203,1,0,0:0:0:0:
352,128,144301,1,8,0:0:0:0:
160,128,144400,1,0,0:0:0:0:
160,128,144499,1,0,0:0:0:0:
160,128,144696,1,0,0:0:0:0:
160,128,144894,1,0,0:0:0:0:
160,128,144992,1,0,0:0:0:0:
160,128,145091,1,0,0:0:0:0:
160,128,145288,1,0,0:0:0:0:
352,128,145387,1,8,0:0:0:0:
352,128,145486,1,8,0:0:0:0:
160,128,145585,1,0,0:0:0:0:
352,128,145683,1,8,0:0:0:0:
160,128,145880,1,0,0:0:0:0:
160,128,145979,1,0,0:0:0:0:
160,128,146078,1,0,0:0:0:0:
160,128,146176,1,0,0:0:0:0:
352,128,146275,1,8,0:0:0:0:
352,128,146374,1,8,0:0:0:0:
352,128,146472,1,8,0:0:0:0:
352,128,146571,1,8,0:0:0:0:
160,128,146670,1,0,0:0:0:0:
160,256,146867,1,4,0:0:0:0:
352,256,147065,1,12,0:0:0:0:
160,128,147262,1,0,0:0:0:0:
160,128,147361,1,0,0:0:0:0:
352,128,147459,1,8,0:0:0:0:
352,128,147558,1,8,0:0:0:0:
352,128,147657,1,8,0:0:0:0:
160,128,147756,1,0,0:0:0:0:
352,128,147854,1,8,0:0:0:0:
160,128,148051,1,0,0:0:0:0:
160,128,148150,1,0,0:0:0:0:
160,128,148249,1,0,0:0:0:0:
352,128,148347,1,8,0:0:0:0:
160,128,148446,1,0,0:0:0:0:
352,128,148644,1,8,0:0:0:0:
352,128,148841,1,8,0:0:0:0:
160,128,148940,1,0,0:0:0:0:
160,128,149038,1,0,0:0:0:0:
160,128,149137,1,0,0:0:0:0:
352,128,149236,1,8,0:0:0:0:
160,128,149334,1,0,0:0:0:0:
352,128,149433,1,8,0:0:0:0:
352,128,149630,1,8,0:0:0:0:
160,128,149729,1,0,0:0:0:0:
352,128,149828,1,8,0:0:0:0:
160,128,149926,1,0,0:0:0:0:
160,128,150025,1,0,0:0:0:0:
160,128,150222,1,0,0:0:0:0:
352,128,150321,1,8,0:0:0:0:
160,128,150420,1,0,0:0:0:0:
352,128,150519,1,8,0:0:0:0:
352,128,150617,1,8,0:0:0:0:
352,128,150815,1,8,0:0:0:0:
160,128,150913,1,0,0:0:0:0:
160,128,151012,1,0,0:0:0:0:
160,128,151209,1,0,0:0:0:0:
352,128,151308,1,8,0:0:0:0:
160,128,151407,1,0,0:0:0:0:
352,128,151505,1,8,0:0:0:0:
352,128,151604,1,8,0:0:0:0:
352,128,151703,1,8,0:0:0:0:
160,128,151801,1,0,0:0:0:0:
352,128,151999,1,8,0:0:0:0:
160,256,152394,1,4,0:0:0:0:
352,256,152591,1,12,0:0:0:0:
352,256,152986,1,12,0:0:0:0:
160,256,153183,1,4,0:0:0:0:
256,192,153282,12,0,153726,0:0:0:0:
160,128,153775,5,0,0:0:0:0:
352,128,153873,1,8,0:0:0:0:
160,128,153972,1,0,0:0:0:0:
160,128,154071,1,0,0:0:0:0:
160,128,154169,1,0,0:0:0:0:
352,128,154268,1,8,0:0:0:0:
352,128,154367,1,8,0:0:0:0:
160,128,154564,1,0,0:0:0:0:
352,128,154761,1,8,0:0:0:0:
352,128,154860,1,8,0:0:0:0:
160,128,154959,1,0,0:0:0:0:
160,128,155058,1,0,0:0:0:0:
160,128,155156,1,0,0:0:0:0:
160,128,155353,1,0,0:0:0:0:
352,128,155452,1,8,0:0:0:0:
352,128,155551,1,8,0:0:0:0:
352,128,155650,1,8,0:0:0:0:
352,128,155748,1,8,0:0:0:0:
160,128,155847,1,0,0:0:0:0:
160,128,155946,1,0,0:0:0:0:
160,128,156044,1,0,0:0:0:0:
352,128,156143,1,8,0:0:0:0:
352,128,156242,1,8,0:0:0:0:
352,128,156340,1,8,0:0:0:0:
160,128,156538,1,0,0:0:0:0:
352,128,156735,1,8,0:0:0:0:
160,128,156834,1,0,0:0:0:0:
352,128,156932,1,8,0:0:0:0:
160,128,157031,1,0,0:0:0:0:
352,128,157130,1,8,0:0:0:0:
352,128,157327,1,8,0:0:0:0:
160,128,157426,1,0,0:0:0:0:
160,128,157525,1,0,0:0:0:0:
352,128,157624,1,8,0:0:0:0:
160,128,157722,1,0,0:0:0:0:
160,128,157821,1,0,0:0:0:0:
352,128,157919,1,8,0:0:0:0:
160,128,158018,1,0,0:0:0:0:
352,128,158117,1,8,0:0:0:0:
352,128,158314,1,8,0:0:0:0:
160,128,158511,1,0,0:0:0:0:
160,128,158610,1,0,0:0:0:0:
352,128,158709,1,8,0:0:0:0:
160,128,158807,1,0,0:0:0:0:
352,128,158906,1,8,0:0:0:0:
352,128,159005,1,8,0:0:0:0:
160,128,159103,1,0,0:0:0:0:
352,128,159202,1,8,0:0:0:0:
160,128,159301,1,0,0:0:0:0:
160,256,159499,1,4,0:0:0:0:
352,256,159696,1,12,0:0:0:0:
160,128,159894,1,0,0:0:0:0:
160,128,159992,1,0,0:0:0:0:
352,128,160090,1,8,0:0:0:0:
160,128,160189,1,0,0:0:0:0:
160,128,160288,1,0,0:0:0:0:
160,128,160387,1,0,0:0:0:0:
352,128,160485,1,8,0:0:0:0:
160,128,160682,1,0,0:0:0:0:
352,128,160781,1,8,0:0:0:0:
352,128,160880,1,8,0:0:0:0:
352,128,160978,1,8,0:0:0:0:
160,128,161077,1,0,0:0:0:0:
352,128,161275,1,8,0:0:0:0:
352,128,161373,1,8,0:0:0:0:
352,128,161472,1,8,0:0:0:0:
160,128,161571,1,0,0:0:0:0:
352,128,161670,1,8,0:0:0:0:
160,128,161768,1,0,0:0:0:0:
352,128,161867,1,8,0:0:0:0:
160,128,162064,1,0,0:0:0:0:
352,128,162261,1,8,0:0:0:0:
160,128,162361,1,0,0:0:0:0:
352,128,162459,1,8,0:0:0:0:
352,128,162557,1,8,0:0:0:0:
160,128,162656,1,0,0:0:0:0:
352,128,162756,1,8,0:0:0:0:
160,128,162853,1,0,0:0:0:0:
160,128,163051,1,0,0:0:0:0:
352,128,163150,1,8,0:0:0:0:
352,128,163248,1,8,0:0:0:0:
352,128,163446,1,8,0:0:0:0:
160,128,163544,1,0,0:0:0:0:
160,128,163643,1,0,0:0:0:0:
352,128,163742,1,8,0:0:0:0:
160,128,163840,1,0,0:0:0:0:
352,128,164038,1,8,0:0:0:0:
352,128,164136,1,8,0:0:0:0:
352,128,164235,1,8,0:0:0:0:
160,128,164334,1,0,0:0:0:0:
160,128,164432,1,0,0:0:0:0:
352,128,164630,1,8,0:0:0:0:
160,256,165025,1,4,0:0:0:0:
352,256,165222,1,12,0:0:0:0:
352,256,165617,1,12,0:0:0:0:
160,256,165814,1,4,0:0:0:0:
160,128,166210,1,0,0:0:0:0:
160,256,166407,1,4,0:0:0:0:
352,256,166802,1,12,0:0:0:0:
160,256,167196,1,4,0:0:0:0:
352,128,167394,1,8,0:0:0:0:
160,256,167591,1,4,0:0:0:0:
352,128,167789,1,8,0:0:0:0:
160,128,167986,1,0,0:0:0:0:
352,128,168085,1,8,0:0:0:0:
352,128,168183,1,8,0:0:0:0:
160,256,168381,1,4,0:0:0:0:
352,128,168578,1,8,0:0:0:0:
160,256,168775,1,4,0:0:0:0:
352,256,169170,1,12,0:0:0:0:
352,256,169565,1,12,0:0:0:0:
160,256,169960,1,4,0:0:0:0:
352,256,170354,1,12,0:0:0:0:
160,128,170552,1,0,0:0:0:0:
352,256,170749,1,12,0:0:0:0:
160,128,170947,1,0,0:0:0:0:
352,128,171144,1,8,0:0:0:0:
160,128,171243,1,0,0:0:0:0:
352,128,171341,1,8,0:0:0:0:
160,256,171539,1,4,0:0:0:0:
160,128,171736,1,0,0:0:0:0:
352,256,171933,1,12,0:0:0:0:
160,128,172131,1,0,0:0:0:0:
160,256,172328,1,4,0:0:0:0:
160,256,172723,1,4,0:0:0:0:
352,256,173118,1,12,0:0:0:0:
160,256,173512,1,4,0:0:0:0:
352,128,173710,1,8,0:0:0:0:
160,256,173907,1,4,0:0:0:0:
352,128,174105,1,8,0:0:0:0:
160,128,174302,1,0,0:0:0:0:
352,128,174401,1,8,0:0:0:0:
352,128,174499,1,8,0:0:0:0:
160,256,174697,1,4,0:0:0:0:
352,128,174894,1,8,0:0:0:0:
160,256,175091,1,4,0:0:0:0:
352,256,175486,1,12,0:0:0:0:
160,256,175881,1,4,0:0:0:0:
160,128,176275,1,0,0:0:0:0:
160,128,176374,1,0,0:0:0:0:
160,128,176473,1,0,0:0:0:0:
160,128,176571,1,0,0:0:0:0:
352,256,176670,1,12,0:0:0:0:
352,256,176867,1,12,0:0:0:0:
352,256,177065,1,12,0:0:0:0:
352,256,177262,1,12,0:0:0:0:
160,256,177657,1,4,0:0:0:0:
352,256,177854,1,12,0:0:0:0:
352,256,178249,1,12,0:0:0:0:
160,256,178446,1,4,0:0:0:0:
