osu file format v14

[General]
AudioFilename: audio.mp3
AudioLeadIn: 0
PreviewTime: 59047
Countdown: 0
SampleSet: Normal
StackLeniency: 0.7
Mode: 2
LetterboxInBreaks: 0
StoryFireInFront: 0
WidescreenStoryboard: 1

[Editor]
Bookmarks: 2204,14836,27468,40099,52731,59047,71678,84310,96941,109573,122204,128520,134836,141152,153783,166415
DistanceSpacing: 6
BeatDivisor: 4
GridSize: 16
TimelineZoom: 2.799999

[Metadata]
Title:Alien Alien (Nhato Remix)
TitleUnicode:エイリアンエイリアン (Nhato Remix)
Artist:NayutalieN
ArtistUnicode:ナユタン星人
Creator:JarvisGaming
Version:Dodge The Beat (Use NF)
Source:
Tags:dtb avoid fruit maze ナユタン星人 EXIT TUNES PRESENTS Entrance Dream Music 3 EXIT TUNES nicovideo gimmick SVs Japanese Vocaloid 初音ミク Hatsune Miku Fukumuro Tatsuya kyu Trance Electronic Electropop Hardstyle EDM Hardcore Uplifting Entrance Dream Music
BeatmapID:2002385
BeatmapSetID:956486

[Difficulty]
HPDrainRate:10
CircleSize:5
OverallDifficulty:10
ApproachRate:8
SliderMultiplier:1.4
SliderTickRate:4

[Events]
//Background and Video events
0,0,"this bg cute.jpg",0,0
//Break Periods
//Storyboard Layer 0 (Background)
//Storyboard Layer 1 (Fail)
//Storyboard Layer 2 (Pass)
//Storyboard Layer 3 (Foreground)
//Storyboard Sound Samples

[TimingPoints]
626,394.736842105263,4,1,0,20,1,0
14836,-66.6666666666667,4,1,0,20,0,0
17599,-40,4,1,0,20,0,0
17994,-66.6666666666667,4,1,0,20,0,0
20757,-40,4,1,0,20,0,0
21152,-66.6666666666667,4,1,0,20,0,0
23915,-40,4,1,0,20,0,0
24310,-66.6666666666667,4,1,0,20,0,0
59047,-50,4,1,0,20,0,1
64770,-50,4,1,0,20,0,0
65362,-50,4,1,0,20,0,1
69902,-50,4,1,0,20,0,0
71678,-50,4,1,0,20,0,1
74047,-40,4,1,0,20,0,1
74836,-50,4,1,0,20,0,1
76810,-33.3333333333333,4,1,0,20,0,1
77402,-33.3333333333333,4,1,0,20,0,0
77994,-50,4,1,0,20,0,1
79573,-33.3333333333333,4,1,0,20,0,1
81152,-50,4,1,0,20,0,1
82533,-50,4,1,0,20,0,0
84310,-50,4,1,0,20,0,1
84408,-50,4,1,0,20,0,0
90033,-66.6666666666667,4,1,0,20,0,0
90625,-50,4,1,0,20,0,0
141152,-50,4,1,0,20,0,1
146875,-50,4,1,0,20,0,0
147468,-50,4,1,0,20,0,1
152007,-50,4,1,0,20,0,0
153783,-50,4,1,0,20,0,1
158520,-54.054054054054,4,1,0,20,0,1
159507,-50,4,1,0,20,0,0
160099,-50,4,1,0,20,0,1
161678,-33.3333333333333,4,1,0,20,0,1
164639,-50,4,1,0,20,0,0
166415,-66.6666666666667,4,1,0,20,0,1
166514,-66.6666666666667,4,1,0,20,0,0

[HitObjects]
416,0,626,5,0,0:0:0:0:
352,0,626,1,0,0:0:0:0:
480,0,626,1,0,0:0:0:0:
96,0,626,1,0,0:0:0:0:
32,0,626,1,0,0:0:0:0:
160,0,626,1,0,0:0:0:0:
224,64,922,1,0,0:0:0:0:
288,64,922,1,0,0:0:0:0:
288,64,1020,1,0,0:0:0:0:
224,64,1020,1,0,0:0:0:0:
96,0,1218,1,0,0:0:0:0:
32,0,1218,1,0,0:0:0:0:
160,0,1218,1,0,0:0:0:0:
416,0,1218,1,0,0:0:0:0:
352,0,1218,1,0,0:0:0:0:
480,0,1218,1,0,0:0:0:0:
288,64,1514,1,0,0:0:0:0:
224,64,1514,1,0,0:0:0:0:
224,64,1612,1,0,0:0:0:0:
288,64,1612,1,0,0:0:0:0:
160,128,1810,1,0,0:0:0:0:
96,128,1810,1,0,0:0:0:0:
416,128,1810,1,0,0:0:0:0:
352,128,1810,1,0,0:0:0:0:
416,128,1859,1,0,0:0:0:0:
352,128,1859,1,0,0:0:0:0:
160,128,1859,1,0,0:0:0:0:
96,128,1859,1,0,0:0:0:0:
160,128,1908,1,0,0:0:0:0:
96,128,1908,1,0,0:0:0:0:
416,128,1908,1,0,0:0:0:0:
352,128,1908,1,0,0:0:0:0:
416,128,1958,1,0,0:0:0:0:
352,128,1958,1,0,0:0:0:0:
160,128,1958,1,0,0:0:0:0:
96,128,1958,1,0,0:0:0:0:
160,128,2007,1,0,0:0:0:0:
96,128,2007,1,0,0:0:0:0:
416,128,2007,1,0,0:0:0:0:
352,128,2007,1,0,0:0:0:0:
32,192,2204,1,0,0:0:0:0:
192,192,2205,1,0,0:0:0:0:
256,192,2205,1,0,0:0:0:0:
320,192,2205,1,0,0:0:0:0:
480,192,2205,1,0,0:0:0:0:
384,0,2797,1,0,0:0:0:0:
320,0,2797,1,0,0:0:0:0:
512,0,2797,1,0,0:0:0:0:
448,0,2797,1,0,0:0:0:0:
0,0,2797,1,0,0:0:0:0:
256,0,2797,1,0,0:0:0:0:
192,0,2797,1,0,0:0:0:0:
192,64,2994,1,0,0:0:0:0:
256,64,2994,1,0,0:0:0:0:
0,64,2994,1,0,0:0:0:0:
320,64,2994,1,0,0:0:0:0:
384,64,2994,1,0,0:0:0:0:
448,64,2994,1,0,0:0:0:0:
512,64,2994,1,0,0:0:0:0:
64,128,3586,5,0,0:0:0:0:
384,128,3586,1,0,0:0:0:0:
512,128,3586,1,0,0:0:0:0:
448,128,3586,1,0,0:0:0:0:
0,128,3586,1,0,0:0:0:0:
128,128,3586,1,0,0:0:0:0:
192,128,3586,1,0,0:0:0:0:
64,192,3783,5,0,0:0:0:0:
128,192,3783,1,0,0:0:0:0:
192,192,3783,1,0,0:0:0:0:
256,192,3783,1,0,0:0:0:0:
0,192,3783,1,0,0:0:0:0:
320,192,3783,1,0,0:0:0:0:
512,192,3783,1,0,0:0:0:0:
32,256,3981,5,0,0:0:0:0:
352,256,3981,1,0,0:0:0:0:
288,256,3981,1,0,0:0:0:0:
96,256,3981,1,0,0:0:0:0:
224,256,3981,1,0,0:0:0:0:
160,256,3981,1,0,0:0:0:0:
32,320,4178,5,0,0:0:0:0:
96,320,4178,1,0,0:0:0:0:
160,320,4178,1,0,0:0:0:0:
224,320,4178,1,0,0:0:0:0:
416,320,4178,1,0,0:0:0:0:
480,320,4178,1,0,0:0:0:0:
64,384,4375,5,0,0:0:0:0:
384,384,4375,1,0,0:0:0:0:
512,384,4375,1,0,0:0:0:0:
448,384,4375,1,0,0:0:0:0:
0,384,4375,1,0,0:0:0:0:
128,384,4375,1,0,0:0:0:0:
192,384,4375,1,0,0:0:0:0:
32,0,4573,5,0,0:0:0:0:
96,0,4573,1,0,0:0:0:0:
288,0,4573,1,0,0:0:0:0:
352,0,4573,1,0,0:0:0:0:
416,0,4573,1,0,0:0:0:0:
480,0,4573,1,0,0:0:0:0:
64,64,4770,5,0,0:0:0:0:
384,64,4770,1,0,0:0:0:0:
512,64,4770,1,0,0:0:0:0:
448,64,4770,1,0,0:0:0:0:
0,64,4770,1,0,0:0:0:0:
128,64,4770,1,0,0:0:0:0:
192,64,4770,1,0,0:0:0:0:
32,128,4968,5,0,0:0:0:0:
288,128,4968,1,0,0:0:0:0:
96,128,4968,1,0,0:0:0:0:
480,128,4968,1,0,0:0:0:0:
416,128,4968,1,0,0:0:0:0:
352,128,4968,1,0,0:0:0:0:
64,192,5165,5,0,0:0:0:0:
128,192,5165,1,0,0:0:0:0:
0,192,5165,1,0,0:0:0:0:
448,192,5165,1,0,0:0:0:0:
192,192,5165,1,0,0:0:0:0:
512,192,5165,1,0,0:0:0:0:
384,192,5165,1,0,0:0:0:0:
64,0,5362,5,0,0:0:0:0:
320,0,5362,1,0,0:0:0:0:
512,0,5362,1,0,0:0:0:0:
0,0,5362,1,0,0:0:0:0:
128,0,5362,1,0,0:0:0:0:
256,0,5362,1,0,0:0:0:0:
192,0,5362,1,0,0:0:0:0:
512,0,5954,1,0,0:0:0:0:
256,0,5954,1,0,0:0:0:0:
320,0,5954,1,0,0:0:0:0:
64,0,5954,1,0,0:0:0:0:
128,0,5954,1,0,0:0:0:0:
192,0,5954,1,0,0:0:0:0:
0,0,5954,1,0,0:0:0:0:
320,64,6151,1,0,0:0:0:0:
256,64,6151,1,0,0:0:0:0:
512,64,6151,1,0,0:0:0:0:
192,64,6151,1,0,0:0:0:0:
128,64,6151,1,0,0:0:0:0:
64,64,6151,1,0,0:0:0:0:
0,64,6151,1,0,0:0:0:0:
448,128,6743,5,0,0:0:0:0:
512,128,6743,1,0,0:0:0:0:
384,128,6743,1,0,0:0:0:0:
320,128,6743,1,0,0:0:0:0:
64,128,6743,1,0,0:0:0:0:
128,128,6743,1,0,0:0:0:0:
0,128,6743,1,0,0:0:0:0:
448,192,6940,5,0,0:0:0:0:
512,192,6940,1,0,0:0:0:0:
192,192,6940,1,0,0:0:0:0:
0,192,6940,1,0,0:0:0:0:
256,192,6940,1,0,0:0:0:0:
384,192,6940,1,0,0:0:0:0:
320,192,6940,1,0,0:0:0:0:
480,256,7138,5,0,0:0:0:0:
416,256,7138,1,0,0:0:0:0:
160,256,7138,1,0,0:0:0:0:
224,256,7138,1,0,0:0:0:0:
288,256,7138,1,0,0:0:0:0:
352,256,7138,1,0,0:0:0:0:
480,320,7335,5,0,0:0:0:0:
288,320,7335,1,0,0:0:0:0:
416,320,7335,1,0,0:0:0:0:
352,320,7335,1,0,0:0:0:0:
96,320,7335,1,0,0:0:0:0:
32,320,7335,1,0,0:0:0:0:
448,384,7532,5,0,0:0:0:0:
512,384,7532,1,0,0:0:0:0:
384,384,7532,1,0,0:0:0:0:
320,384,7532,1,0,0:0:0:0:
64,384,7532,1,0,0:0:0:0:
128,384,7532,1,0,0:0:0:0:
0,384,7532,1,0,0:0:0:0:
480,0,7730,5,0,0:0:0:0:
160,0,7730,1,0,0:0:0:0:
96,0,7730,1,0,0:0:0:0:
32,0,7730,1,0,0:0:0:0:
416,0,7730,1,0,0:0:0:0:
224,0,7730,1,0,0:0:0:0:
448,64,7927,5,0,0:0:0:0:
128,64,7927,1,0,0:0:0:0:
0,64,7927,1,0,0:0:0:0:
64,64,7927,1,0,0:0:0:0:
320,64,7927,1,0,0:0:0:0:
512,64,7927,1,0,0:0:0:0:
384,64,7927,1,0,0:0:0:0:
480,128,8125,5,0,0:0:0:0:
32,128,8125,1,0,0:0:0:0:
224,128,8125,1,0,0:0:0:0:
416,128,8125,1,0,0:0:0:0:
96,128,8125,1,0,0:0:0:0:
160,128,8125,1,0,0:0:0:0:
448,192,8322,5,0,0:0:0:0:
320,192,8322,1,0,0:0:0:0:
0,192,8322,1,0,0:0:0:0:
128,192,8322,1,0,0:0:0:0:
64,192,8322,1,0,0:0:0:0:
384,192,8322,1,0,0:0:0:0:
512,192,8322,1,0,0:0:0:0:
448,0,8519,5,0,0:0:0:0:
384,0,8519,1,0,0:0:0:0:
256,0,8519,1,0,0:0:0:0:
320,0,8519,1,0,0:0:0:0:
512,0,8519,1,0,0:0:0:0:
192,0,8519,1,0,0:0:0:0:
0,0,8519,1,0,0:0:0:0:
384,0,9112,1,0,0:0:0:0:
320,0,9112,1,0,0:0:0:0:
512,0,9112,1,0,0:0:0:0:
448,0,9112,1,0,0:0:0:0:
0,0,9112,1,0,0:0:0:0:
256,0,9112,1,0,0:0:0:0:
192,0,9112,1,0,0:0:0:0:
384,64,9309,1,0,0:0:0:0:
448,64,9309,1,0,0:0:0:0:
512,64,9309,1,0,0:0:0:0:
320,64,9309,1,0,0:0:0:0:
192,64,9309,1,0,0:0:0:0:
256,64,9309,1,0,0:0:0:0:
0,64,9309,1,0,0:0:0:0:
64,128,9902,5,0,0:0:0:0:
384,128,9902,1,0,0:0:0:0:
320,128,9902,1,0,0:0:0:0:
512,128,9902,1,0,0:0:0:0:
448,128,9902,1,0,0:0:0:0:
0,128,9902,1,0,0:0:0:0:
256,128,9902,1,0,0:0:0:0:
96,192,10099,5,0,0:0:0:0:
160,192,10099,1,0,0:0:0:0:
32,192,10099,1,0,0:0:0:0:
352,192,10099,1,0,0:0:0:0:
416,192,10099,1,0,0:0:0:0:
480,192,10099,1,0,0:0:0:0:
64,256,10297,5,0,0:0:0:0:
384,256,10297,1,0,0:0:0:0:
512,256,10297,1,0,0:0:0:0:
448,256,10297,1,0,0:0:0:0:
0,256,10297,1,0,0:0:0:0:
128,256,10297,1,0,0:0:0:0:
192,256,10297,1,0,0:0:0:0:
80,320,10494,5,0,0:0:0:0:
144,320,10494,1,0,0:0:0:0:
208,320,10494,1,0,0:0:0:0:
16,320,10494,1,0,0:0:0:0:
400,320,10494,1,0,0:0:0:0:
464,320,10494,1,0,0:0:0:0:
88,368,10691,5,0,0:0:0:0:
408,368,10691,1,0,0:0:0:0:
472,368,10691,1,0,0:0:0:0:
152,368,10691,1,0,0:0:0:0:
216,368,10691,1,0,0:0:0:0:
24,368,10691,1,0,0:0:0:0:
64,0,10889,5,0,0:0:0:0:
128,0,10889,1,0,0:0:0:0:
192,0,10889,1,0,0:0:0:0:
0,0,10889,1,0,0:0:0:0:
384,0,10889,1,0,0:0:0:0:
448,0,10889,1,0,0:0:0:0:
512,0,10889,1,0,0:0:0:0:
64,64,11086,5,0,0:0:0:0:
384,64,11086,1,0,0:0:0:0:
320,64,11086,1,0,0:0:0:0:
512,64,11086,1,0,0:0:0:0:
448,64,11086,1,0,0:0:0:0:
0,64,11086,1,0,0:0:0:0:
128,64,11086,1,0,0:0:0:0:
224,128,11283,1,0,0:0:0:0:
288,128,11283,1,0,0:0:0:0:
32,128,11283,1,0,0:0:0:0:
352,128,11283,1,0,0:0:0:0:
416,128,11283,1,0,0:0:0:0:
480,128,11283,1,0,0:0:0:0:
64,192,11481,5,0,0:0:0:0:
384,192,11481,1,0,0:0:0:0:
320,192,11481,1,0,0:0:0:0:
512,192,11481,1,0,0:0:0:0:
448,192,11481,1,0,0:0:0:0:
0,192,11481,1,0,0:0:0:0:
256,192,11481,1,0,0:0:0:0:
64,0,11678,5,0,0:0:0:0:
384,0,11678,1,0,0:0:0:0:
512,0,11678,1,0,0:0:0:0:
448,0,11678,1,0,0:0:0:0:
0,0,11678,1,0,0:0:0:0:
128,0,11678,2,0,L|128:96,1,70
320,0,11679,2,0,L|320:96,1,70
64,128,12073,5,0,0:0:0:0:
512,128,12073,1,0,0:0:0:0:
0,128,12073,1,0,0:0:0:0:
128,128,12073,1,0,0:0:0:0:
192,128,12073,1,0,0:0:0:0:
256,128,12074,2,0,L|256:224,1,70
448,128,12074,2,0,L|448:224,1,70
64,0,12468,5,0,0:0:0:0:
448,0,12468,1,0,0:0:0:0:
512,0,12468,1,0,0:0:0:0:
0,0,12468,1,0,0:0:0:0:
128,0,12468,2,0,L|128:96,1,70
384,0,12468,1,0,0:0:0:0:
320,0,12469,2,0,L|320:96,1,70
384,240,12862,1,0,0:0:0:0:
320,240,12862,1,0,0:0:0:0:
512,240,12862,1,0,0:0:0:0:
448,240,12862,1,0,0:0:0:0:
256,240,12862,1,0,0:0:0:0:
0,240,12863,2,0,L|0:336,1,70
192,240,12863,2,0,L|192:336,1,70
64,0,13454,5,0,0:0:0:0:
384,0,13454,1,0,0:0:0:0:
512,0,13454,1,0,0:0:0:0:
448,0,13454,1,0,0:0:0:0:
0,0,13454,1,0,0:0:0:0:
128,0,13454,1,0,0:0:0:0:
192,0,13454,1,0,0:0:0:0:
64,64,13652,5,0,0:0:0:0:
128,64,13652,1,0,0:0:0:0:
192,64,13652,1,0,0:0:0:0:
256,64,13652,1,0,0:0:0:0:
0,64,13652,1,0,0:0:0:0:
320,64,13652,1,0,0:0:0:0:
512,64,13652,1,0,0:0:0:0:
64,128,13849,5,0,0:0:0:0:
384,128,13849,1,0,0:0:0:0:
320,128,13849,1,0,0:0:0:0:
448,128,13849,1,0,0:0:0:0:
0,128,13849,1,0,0:0:0:0:
128,128,13849,1,0,0:0:0:0:
256,128,13849,1,0,0:0:0:0:
192,128,13849,1,0,0:0:0:0:
64,192,14047,5,0,0:0:0:0:
128,192,14047,1,0,0:0:0:0:
192,192,14047,1,0,0:0:0:0:
256,192,14047,1,0,0:0:0:0:
0,192,14047,1,0,0:0:0:0:
320,192,14047,1,0,0:0:0:0:
512,192,14047,1,0,0:0:0:0:
64,256,14244,5,0,0:0:0:0:
512,256,14244,1,0,0:0:0:0:
448,256,14244,1,0,0:0:0:0:
0,256,14244,1,0,0:0:0:0:
128,256,14244,1,0,0:0:0:0:
256,256,14244,1,0,0:0:0:0:
192,256,14244,1,0,0:0:0:0:
64,320,14441,5,0,0:0:0:0:
128,320,14441,1,0,0:0:0:0:
192,320,14441,1,0,0:0:0:0:
256,320,14441,1,0,0:0:0:0:
0,320,14441,1,0,0:0:0:0:
320,320,14441,1,0,0:0:0:0:
512,320,14441,1,0,0:0:0:0:
64,384,14639,5,0,0:0:0:0:
384,384,14639,1,0,0:0:0:0:
512,384,14639,1,0,0:0:0:0:
448,384,14639,1,0,0:0:0:0:
0,384,14639,1,0,0:0:0:0:
128,384,14639,1,0,0:0:0:0:
192,384,14639,1,0,0:0:0:0:
64,0,14836,5,0,0:0:0:0:
384,0,14836,1,0,0:0:0:0:
512,0,14836,1,0,0:0:0:0:
448,0,14836,1,0,0:0:0:0:
0,0,14836,1,0,0:0:0:0:
320,0,14836,2,0,P|240:96|304:144,1,210.000008010865
128,0,14837,2,0,P|48:96|112:144,1,210.000008010865
64,192,15428,5,0,0:0:0:0:
256,192,15428,1,0,0:0:0:0:
512,192,15428,1,0,0:0:0:0:
448,192,15428,1,0,0:0:0:0:
0,192,15428,1,0,0:0:0:0:
128,192,15428,1,0,0:0:0:0:
192,192,15428,1,0,0:0:0:0:
64,0,15823,5,0,0:0:0:0:
384,0,15823,1,0,0:0:0:0:
320,0,15823,1,0,0:0:0:0:
512,0,15823,1,0,0:0:0:0:
448,0,15823,1,0,0:0:0:0:
0,0,15823,1,0,0:0:0:0:
128,0,15823,1,0,0:0:0:0:
64,64,16020,5,0,0:0:0:0:
256,64,16020,1,0,0:0:0:0:
0,64,16020,1,0,0:0:0:0:
320,64,16020,1,0,0:0:0:0:
384,64,16020,1,0,0:0:0:0:
448,64,16020,1,0,0:0:0:0:
512,64,16020,1,0,0:0:0:0:
64,128,16218,5,0,0:0:0:0:
384,128,16218,1,0,0:0:0:0:
320,128,16218,1,0,0:0:0:0:
512,128,16218,1,0,0:0:0:0:
448,128,16218,1,0,0:0:0:0:
0,128,16218,1,0,0:0:0:0:
128,128,16218,1,0,0:0:0:0:
96,192,16415,5,0,0:0:0:0:
160,192,16415,1,0,0:0:0:0:
224,192,16415,1,0,0:0:0:0:
32,192,16415,1,0,0:0:0:0:
416,192,16415,1,0,0:0:0:0:
480,192,16415,1,0,0:0:0:0:
64,256,16612,5,0,0:0:0:0:
320,256,16612,1,0,0:0:0:0:
512,256,16612,1,0,0:0:0:0:
0,256,16612,1,0,0:0:0:0:
128,256,16612,1,0,0:0:0:0:
256,256,16612,1,0,0:0:0:0:
192,256,16612,1,0,0:0:0:0:
32,288,16711,5,0,0:0:0:0:
96,288,16711,1,0,0:0:0:0:
160,288,16711,1,0,0:0:0:0:
224,288,16711,1,0,0:0:0:0:
288,288,16711,1,0,0:0:0:0:
480,288,16711,1,0,0:0:0:0:
64,320,16810,5,0,0:0:0:0:
512,320,16810,1,0,0:0:0:0:
448,320,16810,1,0,0:0:0:0:
0,320,16810,1,0,0:0:0:0:
128,320,16810,1,0,0:0:0:0:
256,320,16810,1,0,0:0:0:0:
192,320,16810,1,0,0:0:0:0:
64,0,17007,5,0,0:0:0:0:
128,0,17007,1,0,0:0:0:0:
192,0,17007,1,0,0:0:0:0:
0,0,17007,1,0,0:0:0:0:
384,0,17007,1,0,0:0:0:0:
448,0,17007,1,0,0:0:0:0:
512,0,17007,1,0,0:0:0:0:
32,64,17204,5,0,0:0:0:0:
352,64,17204,1,0,0:0:0:0:
480,64,17204,1,0,0:0:0:0:
416,64,17204,1,0,0:0:0:0:
96,64,17204,2,0,L|224:64,1,105.000004005432
288,64,17205,2,0,L|416:64,1,105.000004005432
64,128,17599,5,0,0:0:0:0:
512,128,17599,1,0,0:0:0:0:
0,128,17599,1,0,0:0:0:0:
128,128,17599,1,0,0:0:0:0:
192,128,17599,1,0,0:0:0:0:
448,128,17599,2,0,L|240:128,1,175
256,128,17600,2,0,L|48:128,1,175
448,192,17994,5,0,0:0:0:0:
64,192,17994,1,0,0:0:0:0:
128,192,17994,1,0,0:0:0:0:
0,192,17994,1,0,0:0:0:0:
512,192,17994,1,0,0:0:0:0:
192,192,17994,2,0,P|272:288|208:336,1,210.000008010865
384,192,17995,2,0,P|464:288|400:336,1,210.000008010865
448,384,18586,5,0,0:0:0:0:
512,384,18586,1,0,0:0:0:0:
384,384,18586,1,0,0:0:0:0:
320,384,18586,1,0,0:0:0:0:
64,384,18586,1,0,0:0:0:0:
256,384,18586,1,0,0:0:0:0:
0,384,18586,1,0,0:0:0:0:
448,0,18981,5,0,0:0:0:0:
128,0,18981,1,0,0:0:0:0:
192,0,18981,1,0,0:0:0:0:
0,0,18981,1,0,0:0:0:0:
384,0,18981,1,0,0:0:0:0:
64,0,18981,1,0,0:0:0:0:
512,0,18981,1,0,0:0:0:0:
448,64,19178,5,0,0:0:0:0:
128,64,19178,1,0,0:0:0:0:
64,64,19178,1,0,0:0:0:0:
0,64,19178,1,0,0:0:0:0:
192,64,19178,1,0,0:0:0:0:
256,64,19178,1,0,0:0:0:0:
512,64,19178,1,0,0:0:0:0:
448,128,19376,5,0,0:0:0:0:
128,128,19376,1,0,0:0:0:0:
192,128,19376,1,0,0:0:0:0:
0,128,19376,1,0,0:0:0:0:
384,128,19376,1,0,0:0:0:0:
64,128,19376,1,0,0:0:0:0:
512,128,19376,1,0,0:0:0:0:
416,192,19573,5,0,0:0:0:0:
480,192,19573,1,0,0:0:0:0:
96,192,19573,1,0,0:0:0:0:
32,192,19573,1,0,0:0:0:0:
352,192,19573,1,0,0:0:0:0:
288,192,19573,1,0,0:0:0:0:
448,256,19770,5,0,0:0:0:0:
192,256,19770,1,0,0:0:0:0:
0,256,19770,1,0,0:0:0:0:
512,256,19770,1,0,0:0:0:0:
320,256,19770,1,0,0:0:0:0:
384,256,19770,1,0,0:0:0:0:
256,256,19770,1,0,0:0:0:0:
480,288,19869,5,0,0:0:0:0:
288,288,19869,1,0,0:0:0:0:
224,288,19869,1,0,0:0:0:0:
32,288,19869,1,0,0:0:0:0:
416,288,19869,1,0,0:0:0:0:
352,288,19869,1,0,0:0:0:0:
448,320,19968,5,0,0:0:0:0:
0,320,19968,1,0,0:0:0:0:
64,320,19968,1,0,0:0:0:0:
512,320,19968,1,0,0:0:0:0:
320,320,19968,1,0,0:0:0:0:
384,320,19968,1,0,0:0:0:0:
256,320,19968,1,0,0:0:0:0:
448,0,20165,5,0,0:0:0:0:
128,0,20165,1,0,0:0:0:0:
64,0,20165,1,0,0:0:0:0:
0,0,20165,1,0,0:0:0:0:
512,0,20165,1,0,0:0:0:0:
384,0,20165,1,0,0:0:0:0:
320,0,20165,1,0,0:0:0:0:
480,64,20362,5,0,0:0:0:0:
160,64,20362,1,0,0:0:0:0:
32,64,20362,1,0,0:0:0:0:
416,64,20362,2,0,L|288:64,1,105.000004005432
96,64,20362,1,0,0:0:0:0:
224,64,20363,2,0,L|96:64,1,105.000004005432
448,128,20757,5,0,0:0:0:0:
384,128,20757,1,0,0:0:0:0:
320,128,20757,1,0,0:0:0:0:
0,128,20757,1,0,0:0:0:0:
512,128,20757,1,0,0:0:0:0:
256,128,20758,2,0,L|464:128,1,175
64,128,20758,2,0,L|272:128,1,175
64,192,21152,5,0,0:0:0:0:
512,192,21152,1,0,0:0:0:0:
0,192,21152,1,0,0:0:0:0:
320,192,21152,2,0,P|240:288|304:336,1,210.000008010865
448,192,21152,1,0,0:0:0:0:
384,192,21152,1,0,0:0:0:0:
128,192,21153,2,0,P|48:288|112:336,1,210.000008010865
64,384,21744,5,0,0:0:0:0:
0,384,21744,1,0,0:0:0:0:
128,384,21744,1,0,0:0:0:0:
192,384,21744,1,0,0:0:0:0:
512,384,21744,1,0,0:0:0:0:
448,384,21744,1,0,0:0:0:0:
256,384,21744,1,0,0:0:0:0:
64,0,22139,5,0,0:0:0:0:
384,0,22139,1,0,0:0:0:0:
320,0,22139,1,0,0:0:0:0:
512,0,22139,1,0,0:0:0:0:
128,0,22139,1,0,0:0:0:0:
448,0,22139,1,0,0:0:0:0:
0,0,22139,1,0,0:0:0:0:
64,64,22336,5,0,0:0:0:0:
384,64,22336,1,0,0:0:0:0:
448,64,22336,1,0,0:0:0:0:
512,64,22336,1,0,0:0:0:0:
320,64,22336,1,0,0:0:0:0:
256,64,22336,1,0,0:0:0:0:
0,64,22336,1,0,0:0:0:0:
64,128,22534,5,0,0:0:0:0:
384,128,22534,1,0,0:0:0:0:
320,128,22534,1,0,0:0:0:0:
512,128,22534,1,0,0:0:0:0:
128,128,22534,1,0,0:0:0:0:
448,128,22534,1,0,0:0:0:0:
0,128,22534,1,0,0:0:0:0:
96,192,22731,5,0,0:0:0:0:
32,192,22731,1,0,0:0:0:0:
416,192,22731,1,0,0:0:0:0:
480,192,22731,1,0,0:0:0:0:
160,192,22731,1,0,0:0:0:0:
224,192,22731,1,0,0:0:0:0:
64,256,22928,5,0,0:0:0:0:
320,256,22928,1,0,0:0:0:0:
512,256,22928,1,0,0:0:0:0:
0,256,22928,1,0,0:0:0:0:
192,256,22928,1,0,0:0:0:0:
128,256,22928,1,0,0:0:0:0:
256,256,22928,1,0,0:0:0:0:
32,288,23027,5,0,0:0:0:0:
224,288,23027,1,0,0:0:0:0:
288,288,23027,1,0,0:0:0:0:
480,288,23027,1,0,0:0:0:0:
96,288,23027,1,0,0:0:0:0:
160,288,23027,1,0,0:0:0:0:
64,320,23126,5,0,0:0:0:0:
512,320,23126,1,0,0:0:0:0:
448,320,23126,1,0,0:0:0:0:
0,320,23126,1,0,0:0:0:0:
192,320,23126,1,0,0:0:0:0:
128,320,23126,1,0,0:0:0:0:
256,320,23126,1,0,0:0:0:0:
64,0,23323,5,0,0:0:0:0:
384,0,23323,1,0,0:0:0:0:
448,0,23323,1,0,0:0:0:0:
512,0,23323,1,0,0:0:0:0:
0,0,23323,1,0,0:0:0:0:
128,0,23323,1,0,0:0:0:0:
192,0,23323,1,0,0:0:0:0:
32,64,23520,5,0,0:0:0:0:
352,64,23520,1,0,0:0:0:0:
480,64,23520,1,0,0:0:0:0:
96,64,23520,2,0,L|224:64,1,105.000004005432
416,64,23520,1,0,0:0:0:0:
288,64,23521,2,0,L|416:64,1,105.000004005432
64,128,23915,5,0,0:0:0:0:
256,128,23915,2,0,P|144:256|272:320,1,350
0,128,23915,1,0,0:0:0:0:
512,128,23915,1,0,0:0:0:0:
128,128,23915,1,0,0:0:0:0:
192,128,23915,1,0,0:0:0:0:
448,128,23916,2,0,P|336:256|464:320,1,350
64,128,24310,5,0,0:0:0:0:
0,128,24310,1,0,0:0:0:0:
192,128,24310,1,0,0:0:0:0:
128,128,24310,1,0,0:0:0:0:
0,0,24507,1,0,0:0:0:0:
0,64,24507,1,0,0:0:0:0:
0,128,24507,1,0,0:0:0:0:
0,192,24507,1,0,0:0:0:0:
512,128,24508,1,0,0:0:0:0:
512,192,24508,1,0,0:0:0:0:
512,0,24508,1,0,0:0:0:0:
512,64,24508,1,0,0:0:0:0:
0,0,24704,1,0,0:0:0:0:
24,64,24704,1,0,0:0:0:0:
16,128,24704,1,0,0:0:0:0:
8,192,24704,1,0,0:0:0:0:
512,0,24705,1,0,0:0:0:0:
488,64,24705,1,0,0:0:0:0:
496,128,24705,1,0,0:0:0:0:
504,192,24705,1,0,0:0:0:0:
0,0,24902,1,0,0:0:0:0:
48,64,24902,1,0,0:0:0:0:
32,128,24902,1,0,0:0:0:0:
16,192,24902,1,0,0:0:0:0:
480,128,24903,1,0,0:0:0:0:
496,192,24903,1,0,0:0:0:0:
512,0,24903,1,0,0:0:0:0:
464,64,24903,1,0,0:0:0:0:
0,0,25099,1,0,0:0:0:0:
72,64,25099,1,0,0:0:0:0:
48,128,25099,1,0,0:0:0:0:
24,192,25099,1,0,0:0:0:0:
512,0,25100,1,0,0:0:0:0:
440,64,25100,1,0,0:0:0:0:
464,128,25100,1,0,0:0:0:0:
488,192,25100,1,0,0:0:0:0:
0,0,25297,1,0,0:0:0:0:
96,64,25297,1,0,0:0:0:0:
64,128,25297,1,0,0:0:0:0:
32,192,25297,1,0,0:0:0:0:
448,128,25297,1,0,0:0:0:0:
480,192,25297,1,0,0:0:0:0:
512,0,25297,1,0,0:0:0:0:
416,64,25297,1,0,0:0:0:0:
0,0,25494,1,0,0:0:0:0:
120,64,25494,1,0,0:0:0:0:
80,128,25494,1,0,0:0:0:0:
40,192,25494,1,0,0:0:0:0:
512,0,25495,1,0,0:0:0:0:
392,64,25495,1,0,0:0:0:0:
432,128,25495,1,0,0:0:0:0:
472,192,25495,1,0,0:0:0:0:
96,128,25691,1,0,0:0:0:0:
0,0,25691,1,0,0:0:0:0:
144,64,25691,1,0,0:0:0:0:
48,192,25691,1,0,0:0:0:0:
368,64,25692,1,0,0:0:0:0:
464,192,25692,1,0,0:0:0:0:
416,128,25692,1,0,0:0:0:0:
512,0,25692,1,0,0:0:0:0:
0,0,25757,1,0,0:0:0:0:
160,64,25758,1,0,0:0:0:0:
108,128,25758,1,0,0:0:0:0:
52,192,25758,1,0,0:0:0:0:
512,0,25758,1,0,0:0:0:0:
352,64,25758,1,0,0:0:0:0:
404,128,25758,1,0,0:0:0:0:
460,192,25758,1,0,0:0:0:0:
176,64,25823,1,0,0:0:0:0:
56,192,25823,1,0,0:0:0:0:
0,0,25823,1,0,0:0:0:0:
112,128,25824,1,0,0:0:0:0:
512,0,25824,1,0,0:0:0:0:
456,192,25824,1,0,0:0:0:0:
336,64,25824,1,0,0:0:0:0:
400,128,25824,1,0,0:0:0:0:
0,0,25889,1,0,0:0:0:0:
192,64,25889,1,0,0:0:0:0:
128,128,25889,1,0,0:0:0:0:
64,192,25889,1,0,0:0:0:0:
512,0,25890,1,0,0:0:0:0:
320,64,25890,1,0,0:0:0:0:
384,128,25890,1,0,0:0:0:0:
448,192,25890,1,0,0:0:0:0:
128,128,25987,1,0,0:0:0:0:
64,192,25987,1,0,0:0:0:0:
0,0,25987,1,0,0:0:0:0:
192,64,25987,1,0,0:0:0:0:
384,128,25988,1,0,0:0:0:0:
448,192,25988,1,0,0:0:0:0:
512,0,25988,1,0,0:0:0:0:
320,64,25988,1,0,0:0:0:0:
0,0,26086,1,0,0:0:0:0:
192,64,26086,1,0,0:0:0:0:
128,128,26086,1,0,0:0:0:0:
64,192,26086,1,0,0:0:0:0:
512,0,26087,1,0,0:0:0:0:
320,64,26087,1,0,0:0:0:0:
384,128,26087,1,0,0:0:0:0:
448,192,26087,1,0,0:0:0:0:
128,128,26185,1,0,0:0:0:0:
64,192,26185,1,0,0:0:0:0:
0,0,26185,1,0,0:0:0:0:
192,64,26185,1,0,0:0:0:0:
384,128,26186,1,0,0:0:0:0:
448,192,26186,1,0,0:0:0:0:
512,0,26186,1,0,0:0:0:0:
320,64,26186,1,0,0:0:0:0:
0,0,26283,1,0,0:0:0:0:
192,64,26283,1,0,0:0:0:0:
128,128,26283,1,0,0:0:0:0:
64,192,26283,1,0,0:0:0:0:
512,0,26284,1,0,0:0:0:0:
320,64,26284,1,0,0:0:0:0:
384,128,26284,1,0,0:0:0:0:
448,192,26284,1,0,0:0:0:0:
128,128,26349,1,0,0:0:0:0:
64,192,26349,1,0,0:0:0:0:
0,0,26349,1,0,0:0:0:0:
192,64,26349,1,0,0:0:0:0:
384,128,26350,1,0,0:0:0:0:
448,192,26350,1,0,0:0:0:0:
512,0,26350,1,0,0:0:0:0:
320,64,26350,1,0,0:0:0:0:
0,0,26415,1,0,0:0:0:0:
192,64,26415,1,0,0:0:0:0:
128,128,26415,1,0,0:0:0:0:
64,192,26415,1,0,0:0:0:0:
512,0,26416,1,0,0:0:0:0:
320,64,26416,1,0,0:0:0:0:
384,128,26416,1,0,0:0:0:0:
448,192,26416,1,0,0:0:0:0:
128,128,26481,1,0,0:0:0:0:
64,192,26481,1,0,0:0:0:0:
0,0,26481,1,0,0:0:0:0:
192,64,26481,1,0,0:0:0:0:
384,128,26482,1,0,0:0:0:0:
448,192,26482,1,0,0:0:0:0:
512,0,26482,1,0,0:0:0:0:
320,64,26482,1,0,0:0:0:0:
0,0,26530,1,0,0:0:0:0:
192,64,26530,1,0,0:0:0:0:
128,128,26530,1,0,0:0:0:0:
64,192,26530,1,0,0:0:0:0:
512,0,26531,1,0,0:0:0:0:
320,64,26531,1,0,0:0:0:0:
384,128,26531,1,0,0:0:0:0:
448,192,26531,1,0,0:0:0:0:
128,128,26579,1,0,0:0:0:0:
64,192,26579,1,0,0:0:0:0:
0,0,26579,1,0,0:0:0:0:
192,64,26579,1,0,0:0:0:0:
384,128,26580,1,0,0:0:0:0:
448,192,26580,1,0,0:0:0:0:
512,0,26580,1,0,0:0:0:0:
320,64,26580,1,0,0:0:0:0:
128,128,26629,1,0,0:0:0:0:
64,192,26629,1,0,0:0:0:0:
0,0,26629,1,0,0:0:0:0:
192,64,26629,1,0,0:0:0:0:
384,128,26630,1,0,0:0:0:0:
448,192,26630,1,0,0:0:0:0:
512,0,26630,1,0,0:0:0:0:
320,64,26630,1,0,0:0:0:0:
0,0,26678,1,0,0:0:0:0:
192,64,26678,1,0,0:0:0:0:
128,128,26678,1,0,0:0:0:0:
64,192,26678,1,0,0:0:0:0:
512,0,26679,1,0,0:0:0:0:
320,64,26679,1,0,0:0:0:0:
384,128,26679,1,0,0:0:0:0:
448,192,26679,1,0,0:0:0:0:
128,128,26711,1,0,0:0:0:0:
64,192,26711,1,0,0:0:0:0:
0,0,26711,1,0,0:0:0:0:
192,64,26711,1,0,0:0:0:0:
384,128,26712,1,0,0:0:0:0:
448,192,26712,1,0,0:0:0:0:
512,0,26712,1,0,0:0:0:0:
320,64,26712,1,0,0:0:0:0:
0,0,26744,1,0,0:0:0:0:
192,64,26744,1,0,0:0:0:0:
128,128,26744,1,0,0:0:0:0:
64,192,26744,1,0,0:0:0:0:
512,0,26745,1,0,0:0:0:0:
320,64,26745,1,0,0:0:0:0:
384,128,26745,1,0,0:0:0:0:
448,192,26745,1,0,0:0:0:0:
128,128,26777,1,0,0:0:0:0:
64,192,26777,1,0,0:0:0:0:
0,0,26777,1,0,0:0:0:0:
192,64,26777,1,0,0:0:0:0:
384,128,26778,1,0,0:0:0:0:
448,192,26778,1,0,0:0:0:0:
512,0,26778,1,0,0:0:0:0:
320,64,26778,1,0,0:0:0:0:
0,0,26810,1,0,0:0:0:0:
192,64,26810,1,0,0:0:0:0:
128,128,26810,1,0,0:0:0:0:
64,192,26810,1,0,0:0:0:0:
512,0,26811,1,0,0:0:0:0:
320,64,26811,1,0,0:0:0:0:
384,128,26811,1,0,0:0:0:0:
448,192,26811,1,0,0:0:0:0:
128,128,26843,1,0,0:0:0:0:
64,192,26843,1,0,0:0:0:0:
0,0,26843,1,0,0:0:0:0:
192,64,26843,1,0,0:0:0:0:
384,128,26844,1,0,0:0:0:0:
448,192,26844,1,0,0:0:0:0:
512,0,26844,1,0,0:0:0:0:
320,64,26844,1,0,0:0:0:0:
0,0,26875,1,0,0:0:0:0:
192,64,26875,1,0,0:0:0:0:
128,128,26875,1,0,0:0:0:0:
64,192,26875,1,0,0:0:0:0:
512,0,26876,1,0,0:0:0:0:
320,64,26876,1,0,0:0:0:0:
384,128,26876,1,0,0:0:0:0:
448,192,26876,1,0,0:0:0:0:
128,128,26900,1,0,0:0:0:0:
64,192,26900,1,0,0:0:0:0:
0,0,26900,1,0,0:0:0:0:
192,64,26900,1,0,0:0:0:0:
384,128,26901,1,0,0:0:0:0:
448,192,26901,1,0,0:0:0:0:
512,0,26901,1,0,0:0:0:0:
320,64,26901,1,0,0:0:0:0:
0,0,26925,1,0,0:0:0:0:
192,64,26925,1,0,0:0:0:0:
128,128,26925,1,0,0:0:0:0:
64,192,26925,1,0,0:0:0:0:
512,0,26926,1,0,0:0:0:0:
320,64,26926,1,0,0:0:0:0:
384,128,26926,1,0,0:0:0:0:
448,192,26926,1,0,0:0:0:0:
128,128,26950,1,0,0:0:0:0:
64,192,26950,1,0,0:0:0:0:
0,0,26950,1,0,0:0:0:0:
192,64,26950,1,0,0:0:0:0:
384,128,26951,1,0,0:0:0:0:
448,192,26951,1,0,0:0:0:0:
512,0,26951,1,0,0:0:0:0:
320,64,26951,1,0,0:0:0:0:
0,0,26974,1,0,0:0:0:0:
192,64,26974,1,0,0:0:0:0:
128,128,26974,1,0,0:0:0:0:
64,192,26974,1,0,0:0:0:0:
512,0,26975,1,0,0:0:0:0:
320,64,26975,1,0,0:0:0:0:
384,128,26975,1,0,0:0:0:0:
448,192,26975,1,0,0:0:0:0:
256,192,27073,1,0,0:0:0:0:
256,192,27172,1,0,0:0:0:0:
256,192,27270,1,0,0:0:0:0:
0,0,27468,2,0,L|0:240,7,210.000008010865
64,0,27468,2,0,L|64:240,7,210.000008010865
448,0,27468,2,0,L|448:240,7,210.000008010865
512,0,27468,2,0,L|512:240,7,210.000008010865
128,208,27862,1,0,0:0:0:0:
176,208,27862,1,0,0:0:0:0:
384,208,27863,1,0,0:0:0:0:
336,208,27863,1,0,0:0:0:0:
128,208,28060,1,0,0:0:0:0:
176,208,28060,1,0,0:0:0:0:
336,208,28061,1,0,0:0:0:0:
384,208,28061,1,0,0:0:0:0:
224,144,28257,1,0,0:0:0:0:
288,144,28257,1,0,0:0:0:0:
224,144,28454,1,0,0:0:0:0:
288,144,28454,1,0,0:0:0:0:
128,80,28652,1,0,0:0:0:0:
192,80,28652,1,0,0:0:0:0:
256,80,28652,1,0,0:0:0:0:
256,80,28849,1,0,0:0:0:0:
192,80,28849,1,0,0:0:0:0:
128,80,28849,1,0,0:0:0:0:
256,16,29047,1,0,0:0:0:0:
320,16,29047,1,0,0:0:0:0:
384,16,29047,1,0,0:0:0:0:
256,16,29244,1,0,0:0:0:0:
320,16,29244,1,0,0:0:0:0:
384,16,29244,1,0,0:0:0:0:
176,208,29441,1,0,0:0:0:0:
336,208,29442,1,0,0:0:0:0:
176,208,29638,1,0,0:0:0:0:
336,208,29639,1,0,0:0:0:0:
256,0,29836,1,0,0:0:0:0:
224,48,30033,1,0,0:0:0:0:
288,48,30033,1,0,0:0:0:0:
320,96,30231,2,0,L|320:224,1,105.000004005432
192,96,30231,2,0,L|192:224,1,105.000004005432
224,0,30625,2,0,L|224:240,6,210.000008010865
288,0,30626,2,0,L|288:240,6,210.000008010865
0,144,31020,1,0,0:0:0:0:
160,144,31020,1,0,0:0:0:0:
512,144,31021,1,0,0:0:0:0:
352,144,31021,1,0,0:0:0:0:
160,144,31218,1,0,0:0:0:0:
0,144,31218,1,0,0:0:0:0:
512,144,31218,1,0,0:0:0:0:
352,144,31218,1,0,0:0:0:0:
80,144,31415,1,0,0:0:0:0:
432,144,31416,1,0,0:0:0:0:
80,144,31612,1,0,0:0:0:0:
432,144,31613,1,0,0:0:0:0:
0,144,31810,1,0,0:0:0:0:
64,144,31810,1,0,0:0:0:0:
448,144,31810,1,0,0:0:0:0:
512,144,31810,1,0,0:0:0:0:
0,144,32007,1,0,0:0:0:0:
64,144,32007,1,0,0:0:0:0:
512,144,32008,1,0,0:0:0:0:
448,144,32008,1,0,0:0:0:0:
160,144,32204,1,0,0:0:0:0:
96,144,32204,1,0,0:0:0:0:
416,144,32205,1,0,0:0:0:0:
352,144,32205,1,0,0:0:0:0:
96,144,32401,1,0,0:0:0:0:
160,144,32401,1,0,0:0:0:0:
416,144,32402,1,0,0:0:0:0:
352,144,32402,1,0,0:0:0:0:
0,144,32599,1,0,0:0:0:0:
160,144,32599,1,0,0:0:0:0:
352,144,32600,1,0,0:0:0:0:
512,144,32600,1,0,0:0:0:0:
160,144,32797,1,0,0:0:0:0:
0,144,32797,1,0,0:0:0:0:
352,144,32797,1,0,0:0:0:0:
512,144,32797,1,0,0:0:0:0:
0,144,32994,1,0,0:0:0:0:
160,144,32994,1,0,0:0:0:0:
352,144,32995,1,0,0:0:0:0:
512,144,32995,1,0,0:0:0:0:
0,16,33191,2,0,L|0:80,1,52.5000020027161
512,16,33192,2,0,L|512:80,1,52.5000020027161
0,80,33389,2,0,L|160:224,1,210.000008010865
512,80,33389,2,0,L|352:224,1,210.000008010865
448,0,33783,2,0,L|448:240,7,210.000008010865
512,0,33783,2,0,L|512:240,7,210.000008010865
0,0,33783,2,0,L|0:240,7,210.000008010865
64,0,33783,2,0,L|64:240,7,210.000008010865
128,192,34178,1,0,0:0:0:0:
192,192,34179,1,0,0:0:0:0:
256,192,34179,1,0,0:0:0:0:
128,192,34375,1,0,0:0:0:0:
256,192,34376,1,0,0:0:0:0:
192,192,34376,1,0,0:0:0:0:
384,128,34573,1,0,0:0:0:0:
320,128,34574,1,0,0:0:0:0:
256,128,34574,1,0,0:0:0:0:
384,128,34770,1,0,0:0:0:0:
320,128,34771,1,0,0:0:0:0:
256,128,34771,1,0,0:0:0:0:
176,64,34968,1,0,0:0:0:0:
112,64,34968,1,0,0:0:0:0:
400,64,34968,1,0,0:0:0:0:
336,64,34968,1,0,0:0:0:0:
112,64,35165,1,0,0:0:0:0:
176,64,35165,1,0,0:0:0:0:
336,64,35165,1,0,0:0:0:0:
400,64,35165,1,0,0:0:0:0:
208,0,35362,1,0,0:0:0:0:
256,0,35363,1,0,0:0:0:0:
304,0,35363,1,0,0:0:0:0:
208,0,35560,1,0,0:0:0:0:
304,0,35561,1,0,0:0:0:0:
256,0,35561,1,0,0:0:0:0:
144,0,35757,1,0,0:0:0:0:
368,0,35758,1,0,0:0:0:0:
144,0,35954,1,0,0:0:0:0:
368,0,35955,1,0,0:0:0:0:
256,0,36152,1,0,0:0:0:0:
224,48,36349,1,0,0:0:0:0:
288,48,36349,1,0,0:0:0:0:
192,96,36547,2,0,L|192:224,1,105.000004005432
320,96,36547,2,0,L|320:224,1,105.000004005432
224,0,36941,2,0,L|224:240,3,210.000008010865
288,0,36942,2,0,L|288:240,3,210.000008010865
160,0,37336,1,0,0:0:0:0:
80,0,37337,1,0,0:0:0:0:
352,0,37337,1,0,0:0:0:0:
432,0,37337,1,0,0:0:0:0:
160,0,37533,1,0,0:0:0:0:
80,0,37534,1,0,0:0:0:0:
352,0,37534,1,0,0:0:0:0:
432,0,37534,1,0,0:0:0:0:
0,64,37730,1,0,0:0:0:0:
160,64,37730,1,0,0:0:0:0:
352,64,37731,1,0,0:0:0:0:
512,64,37731,1,0,0:0:0:0:
0,64,37927,1,0,0:0:0:0:
160,64,37927,1,0,0:0:0:0:
352,64,37929,1,0,0:0:0:0:
512,64,37929,1,0,0:0:0:0:
0,128,38125,1,0,0:0:0:0:
80,128,38126,1,0,0:0:0:0:
512,128,38126,1,0,0:0:0:0:
432,128,38126,1,0,0:0:0:0:
0,128,38323,1,0,0:0:0:0:
80,128,38324,1,0,0:0:0:0:
512,128,38324,1,0,0:0:0:0:
432,128,38324,1,0,0:0:0:0:
32,0,38718,5,0,0:0:0:0:
416,0,38718,1,0,0:0:0:0:
352,0,38718,1,0,0:0:0:0:
480,0,38718,1,0,0:0:0:0:
96,0,38718,1,0,0:0:0:0:
160,0,38718,1,0,0:0:0:0:
192,64,39112,1,0,0:0:0:0:
256,64,39112,1,0,0:0:0:0:
0,64,39112,1,0,0:0:0:0:
320,64,39112,1,0,0:0:0:0:
512,64,39112,1,0,0:0:0:0:
32,0,39310,5,0,0:0:0:0:
480,0,39310,1,0,0:0:0:0:
96,0,39310,1,0,0:0:0:0:
160,0,39310,1,0,0:0:0:0:
416,0,39310,1,0,0:0:0:0:
352,0,39310,1,0,0:0:0:0:
0,128,39507,1,0,0:0:0:0:
512,128,39508,1,0,0:0:0:0:
0,192,39704,1,0,0:0:0:0:
64,192,39704,1,0,0:0:0:0:
512,192,39705,1,0,0:0:0:0:
448,192,39705,1,0,0:0:0:0:
0,256,39902,1,0,0:0:0:0:
64,256,39902,1,0,0:0:0:0:
128,256,39902,1,0,0:0:0:0:
384,256,39902,1,0,0:0:0:0:
512,256,39902,1,0,0:0:0:0:
448,256,39902,1,0,0:0:0:0:
64,0,40099,5,0,0:0:0:0:
384,0,40099,1,0,0:0:0:0:
512,0,40099,1,0,0:0:0:0:
448,0,40099,1,0,0:0:0:0:
0,0,40099,1,0,0:0:0:0:
320,0,40099,2,0,P|224:48|208:160,1,210.000008010865
128,0,40100,2,0,P|32:48|16:160,1,210.000008010865
64,192,40691,5,0,0:0:0:0:
384,192,40691,1,0,0:0:0:0:
320,192,40691,1,0,0:0:0:0:
512,192,40691,1,0,0:0:0:0:
448,192,40691,1,0,0:0:0:0:
0,192,40691,1,0,0:0:0:0:
128,192,40691,1,0,0:0:0:0:
64,256,40889,5,0,0:0:0:0:
128,256,40889,1,0,0:0:0:0:
192,256,40889,1,0,0:0:0:0:
0,256,40889,1,0,0:0:0:0:
512,256,40889,1,0,0:0:0:0:
256,256,40889,2,0,P|336:160|304:80,1,210.000008010865
448,256,40889,2,0,P|528:160|496:80,1,210.000008010865
64,0,41481,5,0,0:0:0:0:
384,0,41481,1,0,0:0:0:0:
512,0,41481,1,0,0:0:0:0:
448,0,41481,1,0,0:0:0:0:
0,0,41481,1,0,0:0:0:0:
128,0,41481,1,0,0:0:0:0:
192,0,41481,1,0,0:0:0:0:
64,64,41678,5,0,0:0:0:0:
256,64,41678,1,0,0:0:0:0:
0,64,41678,1,0,0:0:0:0:
320,64,41678,1,0,0:0:0:0:
384,64,41678,1,0,0:0:0:0:
448,64,41678,1,0,0:0:0:0:
512,64,41678,1,0,0:0:0:0:
64,64,41875,5,0,0:0:0:0:
0,64,41875,1,0,0:0:0:0:
256,64,41875,1,0,0:0:0:0:
512,64,41875,1,0,0:0:0:0:
320,64,41875,1,0,0:0:0:0:
448,64,41875,1,0,0:0:0:0:
384,64,41875,1,0,0:0:0:0:
64,128,42073,5,0,0:0:0:0:
384,128,42073,1,0,0:0:0:0:
512,128,42073,1,0,0:0:0:0:
448,128,42073,1,0,0:0:0:0:
0,128,42073,1,0,0:0:0:0:
128,128,42073,1,0,0:0:0:0:
192,128,42073,1,0,0:0:0:0:
64,128,42270,5,0,0:0:0:0:
128,128,42270,1,0,0:0:0:0:
0,128,42270,1,0,0:0:0:0:
448,128,42270,1,0,0:0:0:0:
192,128,42270,1,0,0:0:0:0:
512,128,42270,1,0,0:0:0:0:
384,128,42270,1,0,0:0:0:0:
64,192,42468,5,0,0:0:0:0:
128,192,42468,1,0,0:0:0:0:
192,192,42468,1,0,0:0:0:0:
256,192,42468,1,0,0:0:0:0:
0,192,42468,1,0,0:0:0:0:
320,192,42468,1,0,0:0:0:0:
512,192,42468,1,0,0:0:0:0:
64,0,42665,5,0,0:0:0:0:
512,0,42665,1,0,0:0:0:0:
448,0,42665,1,0,0:0:0:0:
0,0,42665,1,0,0:0:0:0:
128,0,42665,1,0,0:0:0:0:
256,0,42665,1,0,0:0:0:0:
192,0,42665,1,0,0:0:0:0:
32,32,42731,5,0,0:0:0:0:
96,32,42731,1,0,0:0:0:0:
160,32,42731,1,0,0:0:0:0:
224,32,42731,1,0,0:0:0:0:
416,32,42731,1,0,0:0:0:0:
480,32,42731,1,0,0:0:0:0:
64,64,42797,5,0,0:0:0:0:
384,64,42797,1,0,0:0:0:0:
512,64,42797,1,0,0:0:0:0:
448,64,42797,1,0,0:0:0:0:
0,64,42797,1,0,0:0:0:0:
128,64,42797,1,0,0:0:0:0:
192,64,42797,1,0,0:0:0:0:
32,96,42862,5,0,0:0:0:0:
96,96,42862,1,0,0:0:0:0:
160,96,42862,1,0,0:0:0:0:
352,96,42862,1,0,0:0:0:0:
416,96,42862,1,0,0:0:0:0:
480,96,42862,1,0,0:0:0:0:
64,192,43060,5,0,0:0:0:0:
0,192,43060,1,0,0:0:0:0:
320,192,43060,1,0,0:0:0:0:
512,192,43060,1,0,0:0:0:0:
256,192,43060,1,0,0:0:0:0:
128,192,43060,1,0,0:0:0:0:
192,192,43060,1,0,0:0:0:0:
64,0,43257,5,0,0:0:0:0:
512,0,43257,1,0,0:0:0:0:
448,0,43257,1,0,0:0:0:0:
0,0,43257,1,0,0:0:0:0:
128,0,43257,1,0,0:0:0:0:
384,0,43257,2,0,P|288:64|272:160,1,210.000008010865
192,0,43258,2,0,P|96:64|80:160,1,210.000008010865
64,192,43849,5,0,0:0:0:0:
384,192,43849,1,0,0:0:0:0:
512,192,43849,1,0,0:0:0:0:
448,192,43849,1,0,0:0:0:0:
0,192,43849,1,0,0:0:0:0:
128,192,43849,1,0,0:0:0:0:
192,192,43849,1,0,0:0:0:0:
0,240,44047,1,0,0:0:0:0:
320,240,44047,1,0,0:0:0:0:
384,240,44047,1,0,0:0:0:0:
448,240,44047,1,0,0:0:0:0:
512,240,44047,1,0,0:0:0:0:
256,240,44047,2,0,P|384:160|400:96,1,210.000008010865
64,240,44047,2,0,P|192:160|208:96,1,210.000008010865
64,192,44639,5,0,0:0:0:0:
0,192,44639,1,0,0:0:0:0:
128,192,44639,1,0,0:0:0:0:
192,192,44639,1,0,0:0:0:0:
448,192,44639,1,0,0:0:0:0:
384,192,44639,1,0,0:0:0:0:
512,192,44639,1,0,0:0:0:0:
64,128,44836,5,0,0:0:0:0:
512,128,44836,1,0,0:0:0:0:
448,128,44836,1,0,0:0:0:0:
0,128,44836,1,0,0:0:0:0:
128,128,44836,1,0,0:0:0:0:
256,128,44836,1,0,0:0:0:0:
192,128,44836,1,0,0:0:0:0:
32,64,45033,5,0,0:0:0:0:
96,64,45033,1,0,0:0:0:0:
160,64,45033,1,0,0:0:0:0:
224,64,45033,1,0,0:0:0:0:
288,64,45033,1,0,0:0:0:0:
480,64,45033,1,0,0:0:0:0:
32,0,45231,5,0,0:0:0:0:
352,0,45231,1,0,0:0:0:0:
480,0,45231,1,0,0:0:0:0:
416,0,45231,1,0,0:0:0:0:
96,0,45231,1,0,0:0:0:0:
160,0,45231,1,0,0:0:0:0:
64,64,45428,5,0,0:0:0:0:
128,64,45428,1,0,0:0:0:0:
0,64,45428,1,0,0:0:0:0:
320,64,45428,1,0,0:0:0:0:
384,64,45428,1,0,0:0:0:0:
448,64,45428,1,0,0:0:0:0:
512,64,45428,1,0,0:0:0:0:
64,128,45625,5,0,0:0:0:0:
512,128,45625,1,0,0:0:0:0:
448,128,45625,1,0,0:0:0:0:
0,128,45625,1,0,0:0:0:0:
128,128,45625,1,0,0:0:0:0:
256,128,45625,1,0,0:0:0:0:
192,128,45625,1,0,0:0:0:0:
96,160,45691,5,0,0:0:0:0:
160,160,45691,1,0,0:0:0:0:
224,160,45691,1,0,0:0:0:0:
288,160,45691,1,0,0:0:0:0:
32,160,45691,1,0,0:0:0:0:
480,160,45691,1,0,0:0:0:0:
64,128,45757,5,0,0:0:0:0:
448,128,45757,1,0,0:0:0:0:
512,128,45757,1,0,0:0:0:0:
0,128,45757,1,0,0:0:0:0:
192,128,45757,1,0,0:0:0:0:
256,128,45757,1,0,0:0:0:0:
128,128,45757,1,0,0:0:0:0:
96,160,45823,5,0,0:0:0:0:
480,160,45823,1,0,0:0:0:0:
32,160,45823,1,0,0:0:0:0:
224,160,45823,1,0,0:0:0:0:
160,160,45823,1,0,0:0:0:0:
288,160,45823,1,0,0:0:0:0:
64,128,45889,5,0,0:0:0:0:
256,128,45889,1,0,0:0:0:0:
128,128,45889,1,0,0:0:0:0:
192,128,45889,1,0,0:0:0:0:
448,128,45889,1,0,0:0:0:0:
512,128,45889,1,0,0:0:0:0:
0,128,45889,1,0,0:0:0:0:
96,160,45955,5,0,0:0:0:0:
160,160,45955,1,0,0:0:0:0:
288,160,45955,1,0,0:0:0:0:
480,160,45955,1,0,0:0:0:0:
32,160,45955,1,0,0:0:0:0:
224,160,45955,1,0,0:0:0:0:
64,128,46020,5,0,0:0:0:0:
128,128,46020,1,0,0:0:0:0:
256,128,46020,1,0,0:0:0:0:
192,128,46020,1,0,0:0:0:0:
0,128,46020,1,0,0:0:0:0:
512,128,46020,1,0,0:0:0:0:
448,128,46020,1,0,0:0:0:0:
64,0,46218,5,0,0:0:0:0:
384,0,46218,1,0,0:0:0:0:
320,0,46218,1,0,0:0:0:0:
512,0,46218,1,0,0:0:0:0:
448,0,46218,1,0,0:0:0:0:
0,0,46218,1,0,0:0:0:0:
128,0,46218,1,0,0:0:0:0:
384,64,46415,1,0,0:0:0:0:
320,64,46415,1,0,0:0:0:0:
512,64,46415,1,0,0:0:0:0:
448,64,46415,1,0,0:0:0:0:
256,64,46415,1,0,0:0:0:0:
0,64,46415,2,0,P|144:160|144:176,1,210.000008010865
192,64,46416,2,0,P|336:160|336:176,1,210.000008010865
64,208,47007,5,0,0:0:0:0:
512,208,47007,1,0,0:0:0:0:
448,208,47007,1,0,0:0:0:0:
0,208,47007,1,0,0:0:0:0:
128,208,47007,1,0,0:0:0:0:
256,208,47007,1,0,0:0:0:0:
192,208,47007,1,0,0:0:0:0:
80,256,47204,5,0,0:0:0:0:
16,256,47204,1,0,0:0:0:0:
400,256,47204,1,0,0:0:0:0:
464,256,47204,1,0,0:0:0:0:
336,256,47204,2,0,P|208:176|208:96,1,210.000008010865
144,256,47205,2,0,P|16:176|16:96,1,210.000008010865
64,0,47797,5,0,0:0:0:0:
384,0,47797,1,0,0:0:0:0:
512,0,47797,1,0,0:0:0:0:
448,0,47797,1,0,0:0:0:0:
0,0,47797,1,0,0:0:0:0:
128,0,47797,1,0,0:0:0:0:
192,0,47797,1,0,0:0:0:0:
64,64,47994,5,0,0:0:0:0:
128,64,47994,1,0,0:0:0:0:
192,64,47994,1,0,0:0:0:0:
256,64,47994,1,0,0:0:0:0:
0,64,47994,1,0,0:0:0:0:
320,64,47994,1,0,0:0:0:0:
512,64,47994,1,0,0:0:0:0:
64,128,48191,5,0,0:0:0:0:
320,128,48191,1,0,0:0:0:0:
512,128,48191,1,0,0:0:0:0:
0,128,48191,1,0,0:0:0:0:
128,128,48191,1,0,0:0:0:0:
256,128,48191,1,0,0:0:0:0:
192,128,48191,1,0,0:0:0:0:
64,192,48389,5,0,0:0:0:0:
128,192,48389,1,0,0:0:0:0:
192,192,48389,1,0,0:0:0:0:
0,192,48389,1,0,0:0:0:0:
384,192,48389,1,0,0:0:0:0:
448,192,48389,1,0,0:0:0:0:
512,192,48389,1,0,0:0:0:0:
64,256,48586,5,0,0:0:0:0:
384,256,48586,1,0,0:0:0:0:
512,256,48586,1,0,0:0:0:0:
448,256,48586,1,0,0:0:0:0:
0,256,48586,1,0,0:0:0:0:
128,256,48586,1,0,0:0:0:0:
192,256,48586,1,0,0:0:0:0:
64,0,48783,5,0,0:0:0:0:
256,0,48783,1,0,0:0:0:0:
0,0,48783,1,0,0:0:0:0:
320,0,48783,1,0,0:0:0:0:
384,0,48783,1,0,0:0:0:0:
448,0,48783,1,0,0:0:0:0:
512,0,48783,1,0,0:0:0:0:
64,64,48981,5,0,0:0:0:0:
384,64,48981,1,0,0:0:0:0:
320,64,48981,1,0,0:0:0:0:
512,64,48981,1,0,0:0:0:0:
448,64,48981,1,0,0:0:0:0:
0,64,48981,1,0,0:0:0:0:
128,64,48981,1,0,0:0:0:0:
32,128,49178,5,0,0:0:0:0:
96,128,49178,1,0,0:0:0:0:
160,128,49178,1,0,0:0:0:0:
224,128,49178,1,0,0:0:0:0:
416,128,49178,1,0,0:0:0:0:
480,128,49178,1,0,0:0:0:0:
32,192,49375,5,0,0:0:0:0:
352,192,49375,1,0,0:0:0:0:
480,192,49375,1,0,0:0:0:0:
416,192,49375,1,0,0:0:0:0:
96,192,49375,1,0,0:0:0:0:
160,192,49375,1,0,0:0:0:0:
448,0,49573,5,0,0:0:0:0:
64,0,49573,1,0,0:0:0:0:
128,0,49573,1,0,0:0:0:0:
0,0,49573,1,0,0:0:0:0:
512,0,49573,1,0,0:0:0:0:
192,0,49573,2,0,L|192:144,1,105.000004005432
384,0,49574,2,0,L|384:144,1,105.000004005432
448,128,49968,5,0,0:0:0:0:
384,128,49968,1,0,0:0:0:0:
320,128,49968,1,0,0:0:0:0:
512,128,49968,1,0,0:0:0:0:
0,128,49968,1,0,0:0:0:0:
64,128,49968,2,0,L|64:272,1,105.000004005432
256,128,49968,2,0,L|256:272,1,105.000004005432
448,0,50363,5,0,0:0:0:0:
512,0,50363,1,0,0:0:0:0:
64,0,50363,1,0,0:0:0:0:
0,0,50363,1,0,0:0:0:0:
128,0,50363,1,0,0:0:0:0:
192,0,50363,2,0,L|192:144,1,105.000004005432
384,0,50363,2,0,L|384:144,1,105.000004005432
64,240,50757,1,0,0:0:0:0:
256,240,50757,1,0,0:0:0:0:
0,240,50757,1,0,0:0:0:0:
128,240,50757,1,0,0:0:0:0:
192,240,50757,1,0,0:0:0:0:
320,240,50758,2,0,L|320:384,1,105.000004005432
512,240,50758,2,0,L|512:384,1,105.000004005432
64,0,51152,5,0,0:0:0:0:
384,0,51152,1,0,0:0:0:0:
512,0,51152,1,0,0:0:0:0:
448,0,51152,1,0,0:0:0:0:
0,0,51152,1,0,0:0:0:0:
128,0,51152,1,0,0:0:0:0:
192,0,51152,1,0,0:0:0:0:
64,64,51349,5,0,0:0:0:0:
128,64,51349,1,0,0:0:0:0:
0,64,51349,1,0,0:0:0:0:
320,64,51349,1,0,0:0:0:0:
384,64,51349,1,0,0:0:0:0:
448,64,51349,1,0,0:0:0:0:
512,64,51349,1,0,0:0:0:0:
32,128,51547,5,0,0:0:0:0:
352,128,51547,1,0,0:0:0:0:
288,128,51547,1,0,0:0:0:0:
416,128,51547,1,0,0:0:0:0:
96,128,51547,1,0,0:0:0:0:
80,192,51744,5,0,0:0:0:0:
272,192,51744,1,0,0:0:0:0:
16,192,51744,1,0,0:0:0:0:
336,192,51744,1,0,0:0:0:0:
400,192,51744,1,0,0:0:0:0:
464,192,51744,1,0,0:0:0:0:
64,0,51941,5,0,0:0:0:0:
384,0,51941,1,0,0:0:0:0:
512,0,51941,1,0,0:0:0:0:
448,0,51941,1,0,0:0:0:0:
0,0,51941,1,0,0:0:0:0:
128,0,51941,1,0,0:0:0:0:
192,0,51941,1,0,0:0:0:0:
32,64,52139,5,0,0:0:0:0:
96,64,52139,1,0,0:0:0:0:
160,64,52139,1,0,0:0:0:0:
224,64,52139,1,0,0:0:0:0:
416,64,52139,1,0,0:0:0:0:
480,64,52139,1,0,0:0:0:0:
192,128,52337,5,0,0:0:0:0:
384,128,52337,1,0,0:0:0:0:
320,128,52337,1,0,0:0:0:0:
512,128,52337,1,0,0:0:0:0:
448,128,52337,1,0,0:0:0:0:
0,128,52337,1,0,0:0:0:0:
256,128,52337,1,0,0:0:0:0:
288,192,52533,1,0,0:0:0:0:
352,192,52533,1,0,0:0:0:0:
416,192,52533,1,0,0:0:0:0:
480,192,52533,1,0,0:0:0:0:
224,192,52533,1,0,0:0:0:0:
32,192,52533,1,0,0:0:0:0:
384,0,52731,1,0,0:0:0:0:
320,0,52731,1,0,0:0:0:0:
512,0,52731,1,0,0:0:0:0:
448,0,52731,1,0,0:0:0:0:
128,0,52731,1,0,0:0:0:0:
256,0,52731,1,0,0:0:0:0:
192,0,52731,1,0,0:0:0:0:
64,64,53125,5,0,0:0:0:0:
256,64,53125,1,0,0:0:0:0:
0,64,53125,1,0,0:0:0:0:
320,64,53125,1,0,0:0:0:0:
384,64,53125,1,0,0:0:0:0:
448,64,53125,1,0,0:0:0:0:
512,64,53125,1,0,0:0:0:0:
64,128,53520,5,0,0:0:0:0:
384,128,53520,1,0,0:0:0:0:
512,128,53520,1,0,0:0:0:0:
448,128,53520,1,0,0:0:0:0:
0,128,53520,1,0,0:0:0:0:
128,128,53520,1,0,0:0:0:0:
192,128,53520,1,0,0:0:0:0:
64,192,53915,5,0,0:0:0:0:
256,192,53915,1,0,0:0:0:0:
0,192,53915,1,0,0:0:0:0:
320,192,53915,1,0,0:0:0:0:
384,192,53915,1,0,0:0:0:0:
448,192,53915,1,0,0:0:0:0:
512,192,53915,1,0,0:0:0:0:
128,0,54310,1,0,0:0:0:0:
192,0,54310,1,0,0:0:0:0:
0,0,54310,1,0,0:0:0:0:
64,0,54310,1,0,0:0:0:0:
384,0,54310,1,0,0:0:0:0:
256,0,54310,1,0,0:0:0:0:
320,0,54310,1,0,0:0:0:0:
448,64,54704,5,0,0:0:0:0:
128,64,54704,1,0,0:0:0:0:
64,64,54704,1,0,0:0:0:0:
0,64,54704,1,0,0:0:0:0:
192,64,54704,1,0,0:0:0:0:
256,64,54704,1,0,0:0:0:0:
512,64,54704,1,0,0:0:0:0:
448,128,55099,5,0,0:0:0:0:
128,128,55099,1,0,0:0:0:0:
0,128,55099,1,0,0:0:0:0:
64,128,55099,1,0,0:0:0:0:
320,128,55099,1,0,0:0:0:0:
512,128,55099,1,0,0:0:0:0:
384,128,55099,1,0,0:0:0:0:
448,192,55494,5,0,0:0:0:0:
128,192,55494,1,0,0:0:0:0:
64,192,55494,1,0,0:0:0:0:
0,192,55494,1,0,0:0:0:0:
192,192,55494,1,0,0:0:0:0:
256,192,55494,1,0,0:0:0:0:
512,192,55494,1,0,0:0:0:0:
32,0,55889,5,0,0:0:0:0:
352,0,55889,1,0,0:0:0:0:
288,0,55889,1,0,0:0:0:0:
480,0,55889,1,0,0:0:0:0:
416,0,55889,1,0,0:0:0:0:
224,0,55889,1,0,0:0:0:0:
64,64,56086,5,0,0:0:0:0:
128,64,56086,1,0,0:0:0:0:
0,64,56086,1,0,0:0:0:0:
320,64,56086,1,0,0:0:0:0:
384,64,56086,1,0,0:0:0:0:
448,64,56086,1,0,0:0:0:0:
512,64,56086,1,0,0:0:0:0:
480,128,56283,5,0,0:0:0:0:
224,128,56283,1,0,0:0:0:0:
160,128,56283,1,0,0:0:0:0:
288,128,56283,1,0,0:0:0:0:
96,128,56283,1,0,0:0:0:0:
32,128,56283,1,0,0:0:0:0:
448,192,56480,5,0,0:0:0:0:
64,192,56480,1,0,0:0:0:0:
128,192,56480,1,0,0:0:0:0:
192,192,56480,1,0,0:0:0:0:
0,192,56480,1,0,0:0:0:0:
512,192,56480,1,0,0:0:0:0:
384,192,56480,1,0,0:0:0:0:
28,0,56678,5,0,0:0:0:0:
484,0,56678,1,0,0:0:0:0:
356,0,56678,1,0,0:0:0:0:
292,0,56678,1,0,0:0:0:0:
420,0,56678,1,0,0:0:0:0:
224,0,56678,1,0,0:0:0:0:
64,64,56875,5,0,0:0:0:0:
384,64,56875,1,0,0:0:0:0:
448,64,56875,1,0,0:0:0:0:
512,64,56875,1,0,0:0:0:0:
320,64,56875,1,0,0:0:0:0:
128,64,56875,1,0,0:0:0:0:
0,64,56875,1,0,0:0:0:0:
480,128,57072,5,0,0:0:0:0:
288,128,57072,1,0,0:0:0:0:
224,128,57072,1,0,0:0:0:0:
160,128,57072,1,0,0:0:0:0:
96,128,57072,1,0,0:0:0:0:
32,128,57072,1,0,0:0:0:0:
448,192,57269,5,0,0:0:0:0:
0,192,57269,1,0,0:0:0:0:
512,192,57269,1,0,0:0:0:0:
384,192,57269,1,0,0:0:0:0:
192,192,57269,1,0,0:0:0:0:
64,192,57269,1,0,0:0:0:0:
128,192,57269,1,0,0:0:0:0:
28,0,57468,5,0,0:0:0:0:
356,0,57468,1,0,0:0:0:0:
292,0,57468,1,0,0:0:0:0:
484,0,57468,1,0,0:0:0:0:
420,0,57468,1,0,0:0:0:0:
92,0,57468,1,0,0:0:0:0:
28,0,57566,5,0,0:0:0:0:
484,0,57566,1,0,0:0:0:0:
420,0,57566,1,0,0:0:0:0:
92,0,57566,1,0,0:0:0:0:
356,0,57566,1,0,0:0:0:0:
292,0,57566,1,0,0:0:0:0:
484,64,57665,5,0,0:0:0:0:
220,64,57665,1,0,0:0:0:0:
156,64,57665,1,0,0:0:0:0:
420,64,57665,1,0,0:0:0:0:
92,64,57665,1,0,0:0:0:0:
28,64,57665,1,0,0:0:0:0:
484,64,57763,5,0,0:0:0:0:
220,64,57763,1,0,0:0:0:0:
156,64,57763,1,0,0:0:0:0:
92,64,57763,1,0,0:0:0:0:
28,64,57763,1,0,0:0:0:0:
420,64,57763,1,0,0:0:0:0:
28,0,57862,5,0,0:0:0:0:
92,0,57862,1,0,0:0:0:0:
292,0,57862,1,0,0:0:0:0:
356,0,57862,1,0,0:0:0:0:
420,0,57862,1,0,0:0:0:0:
484,0,57862,1,0,0:0:0:0:
28,0,57960,5,0,0:0:0:0:
292,0,57960,1,0,0:0:0:0:
356,0,57960,1,0,0:0:0:0:
92,0,57960,1,0,0:0:0:0:
420,0,57960,1,0,0:0:0:0:
484,0,57960,1,0,0:0:0:0:
484,64,58059,5,0,0:0:0:0:
92,64,58059,1,0,0:0:0:0:
420,64,58059,1,0,0:0:0:0:
156,64,58059,1,0,0:0:0:0:
220,64,58059,1,0,0:0:0:0:
28,64,58059,1,0,0:0:0:0:
484,64,58157,5,0,0:0:0:0:
156,64,58157,1,0,0:0:0:0:
420,64,58157,1,0,0:0:0:0:
28,64,58157,1,0,0:0:0:0:
220,64,58157,1,0,0:0:0:0:
92,64,58157,1,0,0:0:0:0:
28,0,58257,5,0,0:0:0:0:
420,0,58257,1,0,0:0:0:0:
484,0,58257,1,0,0:0:0:0:
92,0,58257,1,0,0:0:0:0:
292,0,58257,1,0,0:0:0:0:
356,0,58257,1,0,0:0:0:0:
96,192,58454,5,0,0:0:0:0:
352,192,58454,1,0,0:0:0:0:
480,192,58454,1,0,0:0:0:0:
416,192,58454,1,0,0:0:0:0:
160,192,58454,1,0,0:0:0:0:
32,192,58454,1,0,0:0:0:0:
96,192,58652,5,0,0:0:0:0:
416,192,58652,1,0,0:0:0:0:
32,192,58652,1,0,0:0:0:0:
480,192,58652,1,0,0:0:0:0:
160,192,58652,2,0,B|160:16|160:16|160:80,1,210.000008010865
352,192,58652,2,0,B|352:16|352:16|352:80,1,210.000008010865
96,192,59047,5,0,0:0:0:0:
416,192,59047,1,0,0:0:0:0:
32,192,59047,1,0,0:0:0:0:
480,192,59047,1,0,0:0:0:0:
352,192,59047,2,0,P|448:112|448:80,1,140
160,192,59047,2,0,P|256:112|256:80,1,140
64,0,59441,5,0,0:0:0:0:
384,0,59441,1,0,0:0:0:0:
320,0,59441,1,0,0:0:0:0:
512,0,59441,1,0,0:0:0:0:
448,0,59441,1,0,0:0:0:0:
0,0,59441,1,0,0:0:0:0:
128,0,59441,1,0,0:0:0:0:
64,64,59639,5,0,0:0:0:0:
128,64,59639,1,0,0:0:0:0:
192,64,59639,1,0,0:0:0:0:
0,64,59639,1,0,0:0:0:0:
512,64,59639,1,0,0:0:0:0:
256,64,59639,2,0,P|224:144|128:176,1,140
448,64,59639,2,0,P|416:144|320:176,1,140
64,240,60033,5,0,0:0:0:0:
384,240,60033,1,0,0:0:0:0:
320,240,60033,1,0,0:0:0:0:
512,240,60033,1,0,0:0:0:0:
448,240,60033,1,0,0:0:0:0:
0,240,60033,1,0,0:0:0:0:
256,240,60033,1,0,0:0:0:0:
128,0,60231,1,0,0:0:0:0:
192,0,60231,1,0,0:0:0:0:
256,0,60231,1,0,0:0:0:0:
320,0,60231,1,0,0:0:0:0:
384,0,60231,1,0,0:0:0:0:
448,0,60231,1,0,0:0:0:0:
512,0,60231,1,0,0:0:0:0:
64,64,60428,5,0,0:0:0:0:
384,64,60428,1,0,0:0:0:0:
320,64,60428,1,0,0:0:0:0:
512,64,60428,1,0,0:0:0:0:
448,64,60428,1,0,0:0:0:0:
0,64,60428,1,0,0:0:0:0:
256,64,60428,1,0,0:0:0:0:
32,128,60625,5,0,0:0:0:0:
96,128,60625,1,0,0:0:0:0:
160,128,60625,1,0,0:0:0:0:
416,128,60625,1,0,0:0:0:0:
480,128,60625,1,0,0:0:0:0:
224,128,60625,1,0,0:0:0:0:
64,192,60823,5,0,0:0:0:0:
384,192,60823,1,0,0:0:0:0:
320,192,60823,1,0,0:0:0:0:
512,192,60823,1,0,0:0:0:0:
448,192,60823,1,0,0:0:0:0:
0,192,60823,1,0,0:0:0:0:
128,192,60823,1,0,0:0:0:0:
96,224,60922,5,0,0:0:0:0:
160,224,60922,1,0,0:0:0:0:
32,224,60922,1,0,0:0:0:0:
352,224,60922,1,0,0:0:0:0:
416,224,60922,1,0,0:0:0:0:
480,224,60922,1,0,0:0:0:0:
64,256,61020,5,0,0:0:0:0:
384,256,61020,1,0,0:0:0:0:
512,256,61020,1,0,0:0:0:0:
448,256,61020,1,0,0:0:0:0:
0,256,61020,1,0,0:0:0:0:
128,256,61020,1,0,0:0:0:0:
192,256,61020,1,0,0:0:0:0:
64,320,61218,5,0,0:0:0:0:
256,320,61218,1,0,0:0:0:0:
0,320,61218,1,0,0:0:0:0:
320,320,61218,1,0,0:0:0:0:
384,320,61218,1,0,0:0:0:0:
448,320,61218,1,0,0:0:0:0:
512,320,61218,1,0,0:0:0:0:
64,0,61415,5,0,0:0:0:0:
512,0,61415,1,0,0:0:0:0:
0,0,61415,1,0,0:0:0:0:
128,0,61415,1,0,0:0:0:0:
192,0,61415,1,0,0:0:0:0:
256,0,61415,2,0,P|288:64|256:128,1,140
448,0,61416,2,0,P|480:64|448:128,1,140
448,64,61810,5,0,0:0:0:0:
384,64,61810,1,0,0:0:0:0:
512,64,61810,1,0,0:0:0:0:
320,64,61810,1,0,0:0:0:0:
256,64,61810,2,0,P|224:128|256:192,1,140
0,64,61810,1,0,0:0:0:0:
64,64,61811,2,0,P|32:128|64:192,1,140
64,128,62204,5,0,0:0:0:0:
384,128,62204,1,0,0:0:0:0:
512,128,62204,1,0,0:0:0:0:
448,128,62204,1,0,0:0:0:0:
0,128,62204,1,0,0:0:0:0:
128,128,62204,1,0,0:0:0:0:
192,128,62204,1,0,0:0:0:0:
64,192,62401,5,0,0:0:0:0:
128,192,62401,1,0,0:0:0:0:
192,192,62401,1,0,0:0:0:0:
256,192,62401,1,0,0:0:0:0:
0,192,62401,1,0,0:0:0:0:
320,192,62401,1,0,0:0:0:0:
512,192,62401,1,0,0:0:0:0:
32,224,62500,5,0,0:0:0:0:
288,224,62500,1,0,0:0:0:0:
480,224,62500,1,0,0:0:0:0:
96,224,62500,1,0,0:0:0:0:
224,224,62500,1,0,0:0:0:0:
160,224,62500,1,0,0:0:0:0:
64,256,62599,5,0,0:0:0:0:
128,256,62599,1,0,0:0:0:0:
192,256,62599,1,0,0:0:0:0:
0,256,62599,1,0,0:0:0:0:
448,256,62599,1,0,0:0:0:0:
512,256,62599,1,0,0:0:0:0:
256,256,62599,1,0,0:0:0:0:
64,320,62797,5,0,0:0:0:0:
384,320,62797,1,0,0:0:0:0:
320,320,62797,1,0,0:0:0:0:
512,320,62797,1,0,0:0:0:0:
448,320,62797,1,0,0:0:0:0:
0,320,62797,1,0,0:0:0:0:
128,320,62797,1,0,0:0:0:0:
64,0,62994,5,0,0:0:0:0:
512,0,62994,1,0,0:0:0:0:
0,0,62994,1,0,0:0:0:0:
128,0,62994,1,0,0:0:0:0:
192,0,62994,1,0,0:0:0:0:
256,0,62994,2,0,P|320:64|304:112,1,140
448,0,62995,2,0,P|512:64|496:112,1,140
64,144,63290,5,0,0:0:0:0:
512,144,63290,1,0,0:0:0:0:
448,144,63290,1,0,0:0:0:0:
0,144,63290,1,0,0:0:0:0:
128,144,63290,1,0,0:0:0:0:
256,144,63290,1,0,0:0:0:0:
192,144,63290,1,0,0:0:0:0:
64,192,63389,5,0,0:0:0:0:
128,192,63389,1,0,0:0:0:0:
0,192,63389,1,0,0:0:0:0:
448,192,63389,1,0,0:0:0:0:
512,192,63389,1,0,0:0:0:0:
384,192,63389,2,0,P|288:224|256:272,1,140
192,192,63389,2,0,P|96:224|64:272,1,140
64,0,63783,5,0,0:0:0:0:
384,0,63783,1,0,0:0:0:0:
512,0,63783,1,0,0:0:0:0:
448,0,63783,1,0,0:0:0:0:
0,0,63783,1,0,0:0:0:0:
128,0,63783,1,0,0:0:0:0:
192,0,63783,1,0,0:0:0:0:
64,64,63981,5,0,0:0:0:0:
320,64,63981,1,0,0:0:0:0:
512,64,63981,1,0,0:0:0:0:
0,64,63981,1,0,0:0:0:0:
128,64,63981,1,0,0:0:0:0:
256,64,63981,1,0,0:0:0:0:
192,64,63981,1,0,0:0:0:0:
32,128,64178,5,0,0:0:0:0:
96,128,64178,1,0,0:0:0:0:
160,128,64178,1,0,0:0:0:0:
352,128,64178,1,0,0:0:0:0:
416,128,64178,1,0,0:0:0:0:
480,128,64178,1,0,0:0:0:0:
384,192,64375,1,0,0:0:0:0:
320,192,64375,1,0,0:0:0:0:
512,192,64375,1,0,0:0:0:0:
448,192,64375,1,0,0:0:0:0:
0,192,64375,1,0,0:0:0:0:
256,192,64375,1,0,0:0:0:0:
192,192,64375,1,0,0:0:0:0:
64,256,64573,5,0,0:0:0:0:
128,256,64573,1,0,0:0:0:0:
0,256,64573,1,0,0:0:0:0:
320,256,64573,1,0,0:0:0:0:
384,256,64573,1,0,0:0:0:0:
448,256,64573,1,0,0:0:0:0:
512,256,64573,1,0,0:0:0:0:
256,0,64770,2,0,L|96:0,1,140
256,0,64771,2,0,L|416:0,1,140
512,0,65166,1,0,0:0:0:0:
0,0,65166,1,0,0:0:0:0:
0,0,65264,1,0,0:0:0:0:
512,0,65264,1,0,0:0:0:0:
64,64,65362,5,0,0:0:0:0:
384,64,65362,1,0,0:0:0:0:
512,64,65362,1,0,0:0:0:0:
448,64,65362,1,0,0:0:0:0:
0,64,65362,1,0,0:0:0:0:
320,64,65362,2,0,P|384:144|368:224,1,140
128,64,65363,2,0,P|192:144|176:224,1,140
64,224,65757,5,0,0:0:0:0:
0,224,65757,1,0,0:0:0:0:
128,224,65757,1,0,0:0:0:0:
256,224,65757,1,0,0:0:0:0:
192,224,65757,1,0,0:0:0:0:
512,224,65757,2,0,L|304:224,1,140
320,224,65758,2,0,L|112:224,1,140
64,0,66152,5,0,0:0:0:0:
384,0,66152,1,0,0:0:0:0:
320,0,66152,1,0,0:0:0:0:
512,0,66152,1,0,0:0:0:0:
448,0,66152,1,0,0:0:0:0:
0,0,66152,1,0,0:0:0:0:
256,0,66152,1,0,0:0:0:0:
32,64,66349,5,0,0:0:0:0:
96,64,66349,1,0,0:0:0:0:
160,64,66349,1,0,0:0:0:0:
352,64,66349,1,0,0:0:0:0:
416,64,66349,1,0,0:0:0:0:
480,64,66349,1,0,0:0:0:0:
64,0,66547,5,0,0:0:0:0:
384,0,66547,1,0,0:0:0:0:
320,0,66547,1,0,0:0:0:0:
512,0,66547,1,0,0:0:0:0:
448,0,66547,1,0,0:0:0:0:
0,0,66547,1,0,0:0:0:0:
256,0,66547,1,0,0:0:0:0:
64,128,66744,5,0,0:0:0:0:
128,128,66744,1,0,0:0:0:0:
192,128,66744,1,0,0:0:0:0:
256,128,66744,1,0,0:0:0:0:
0,128,66744,1,0,0:0:0:0:
448,128,66744,1,0,0:0:0:0:
512,128,66744,1,0,0:0:0:0:
384,128,66941,2,0,L|384:352,1,210
320,128,66942,2,0,L|320:352,1,210
256,128,66942,2,0,L|256:352,1,210
192,128,66942,2,0,L|192:352,1,210
128,128,66942,2,0,L|128:352,1,210
64,128,66942,2,0,L|64:352,1,210
0,128,66942,2,0,L|0:352,1,210
480,0,67337,2,0,L|480:80,1,70
288,0,67337,2,0,L|288:96,1,70
224,0,67337,2,0,L|224:80,1,70
96,0,67337,2,0,L|96:96,1,70
160,0,67337,2,0,L|160:80,1,70
32,0,67337,2,0,L|32:80,1,70
192,128,67533,2,0,L|192:224,1,70
64,128,67534,2,0,L|64:224,1,70
128,128,67534,2,0,L|128:208,1,70
0,128,67534,2,0,L|0:208,1,70
512,128,67534,2,0,L|512:208,1,70
448,128,67534,2,0,L|448:224,1,70
384,128,67534,2,0,L|384:208,1,70
32,0,67731,2,0,L|32:288,1,280
352,0,67731,2,0,L|352:288,1,280
288,0,67731,2,0,L|288:288,1,280
416,0,67731,2,0,L|416:288,1,280
480,0,67731,2,0,L|480:288,1,280
96,0,67731,2,0,L|96:288,1,280
64,0,68323,5,0,0:0:0:0:
384,0,68323,1,0,0:0:0:0:
512,0,68323,1,0,0:0:0:0:
448,0,68323,1,0,0:0:0:0:
0,0,68323,1,0,0:0:0:0:
128,0,68323,1,0,0:0:0:0:
192,0,68323,1,0,0:0:0:0:
64,64,68520,5,0,0:0:0:0:
128,64,68520,1,0,0:0:0:0:
192,64,68520,1,0,0:0:0:0:
256,64,68520,1,0,0:0:0:0:
0,64,68520,1,0,0:0:0:0:
512,64,68520,2,0,L|352:64,1,140
320,64,68521,2,0,L|160:64,1,140
64,64,68915,5,0,0:0:0:0:
256,64,68915,1,0,0:0:0:0:
128,64,68915,1,0,0:0:0:0:
192,64,68915,1,0,0:0:0:0:
0,64,68915,1,0,0:0:0:0:
512,64,68915,2,0,L|352:64,1,140
320,64,68916,2,0,L|160:64,1,140
448,64,69310,5,0,0:0:0:0:
256,64,69310,1,0,0:0:0:0:
512,64,69310,1,0,0:0:0:0:
384,64,69310,1,0,0:0:0:0:
320,64,69310,1,0,0:0:0:0:
0,64,69310,2,0,L|160:64,1,140
192,64,69311,2,0,L|352:64,1,140
448,64,69705,5,0,0:0:0:0:
384,64,69705,1,0,0:0:0:0:
320,64,69705,1,0,0:0:0:0:
0,64,69705,2,0,L|160:64,1,140
256,64,69705,1,0,0:0:0:0:
512,64,69705,1,0,0:0:0:0:
192,64,69706,2,0,L|352:64,1,140
64,0,70297,5,0,0:0:0:0:
512,0,70297,1,0,0:0:0:0:
448,0,70297,1,0,0:0:0:0:
0,0,70297,1,0,0:0:0:0:
128,0,70297,1,0,0:0:0:0:
256,0,70297,1,0,0:0:0:0:
192,0,70297,1,0,0:0:0:0:
448,64,70494,5,0,0:0:0:0:
384,64,70494,1,0,0:0:0:0:
256,64,70494,1,0,0:0:0:0:
320,64,70494,1,0,0:0:0:0:
512,64,70494,1,0,0:0:0:0:
0,64,70494,1,0,0:0:0:0:
64,64,70494,1,0,0:0:0:0:
448,64,70889,5,0,0:0:0:0:
384,64,70889,1,0,0:0:0:0:
256,64,70889,1,0,0:0:0:0:
320,64,70889,1,0,0:0:0:0:
512,64,70889,1,0,0:0:0:0:
64,64,70889,1,0,0:0:0:0:
0,64,70889,1,0,0:0:0:0:
64,0,71086,5,0,0:0:0:0:
128,0,71086,1,0,0:0:0:0:
256,0,71086,1,0,0:0:0:0:
192,0,71086,1,0,0:0:0:0:
0,0,71086,1,0,0:0:0:0:
512,0,71086,1,0,0:0:0:0:
448,0,71086,1,0,0:0:0:0:
0,192,71283,1,0,0:0:0:0:
512,192,71283,1,0,0:0:0:0:
16,192,71333,1,0,0:0:0:0:
496,192,71333,1,0,0:0:0:0:
0,192,71382,1,0,0:0:0:0:
512,192,71382,1,0,0:0:0:0:
16,192,71432,1,0,0:0:0:0:
496,192,71432,1,0,0:0:0:0:
0,192,71481,1,0,0:0:0:0:
512,192,71481,1,0,0:0:0:0:
16,192,71531,1,0,0:0:0:0:
496,192,71531,1,0,0:0:0:0:
0,192,71579,1,0,0:0:0:0:
512,192,71579,1,0,0:0:0:0:
16,192,71629,1,0,0:0:0:0:
496,192,71629,1,0,0:0:0:0:
384,0,71678,1,0,0:0:0:0:
320,0,71678,1,0,0:0:0:0:
512,0,71678,1,0,0:0:0:0:
448,0,71678,1,0,0:0:0:0:
0,0,71678,1,0,0:0:0:0:
256,0,71678,2,0,P|320:112|288:144,1,140
64,0,71679,2,0,P|128:112|96:144,1,140
192,144,72073,1,0,0:0:0:0:
256,144,72073,1,0,0:0:0:0:
64,192,72270,5,0,0:0:0:0:
384,192,72270,1,0,0:0:0:0:
512,192,72270,1,0,0:0:0:0:
448,192,72270,1,0,0:0:0:0:
0,192,72270,1,0,0:0:0:0:
320,192,72270,2,0,P|288:256|320:336,1,140
128,192,72271,2,0,P|96:256|128:336,1,140
64,0,72665,5,0,0:0:0:0:
512,0,72665,1,0,0:0:0:0:
448,0,72665,1,0,0:0:0:0:
0,0,72665,1,0,0:0:0:0:
128,0,72665,1,0,0:0:0:0:
256,0,72665,1,0,0:0:0:0:
192,0,72665,1,0,0:0:0:0:
32,64,72764,5,0,0:0:0:0:
96,64,72764,1,0,0:0:0:0:
160,64,72764,1,0,0:0:0:0:
224,64,72764,1,0,0:0:0:0:
288,64,72764,1,0,0:0:0:0:
480,64,72764,1,0,0:0:0:0:
64,128,72862,5,0,0:0:0:0:
512,128,72862,1,0,0:0:0:0:
448,128,72862,1,0,0:0:0:0:
0,128,72862,1,0,0:0:0:0:
128,128,72862,1,0,0:0:0:0:
256,128,72862,1,0,0:0:0:0:
192,128,72862,1,0,0:0:0:0:
32,192,73060,5,0,0:0:0:0:
96,192,73060,1,0,0:0:0:0:
288,192,73060,1,0,0:0:0:0:
352,192,73060,1,0,0:0:0:0:
416,192,73060,1,0,0:0:0:0:
480,192,73060,1,0,0:0:0:0:
480,256,73257,5,0,0:0:0:0:
160,256,73257,1,0,0:0:0:0:
96,256,73257,1,0,0:0:0:0:
32,256,73257,1,0,0:0:0:0:
416,256,73257,1,0,0:0:0:0:
224,256,73257,1,0,0:0:0:0:
448,0,73454,5,0,0:0:0:0:
64,0,73454,1,0,0:0:0:0:
0,0,73454,1,0,0:0:0:0:
512,0,73454,1,0,0:0:0:0:
384,0,73454,1,0,0:0:0:0:
320,0,73454,1,0,0:0:0:0:
256,0,73454,1,0,0:0:0:0:
480,64,73553,5,0,0:0:0:0:
224,64,73553,1,0,0:0:0:0:
288,64,73553,1,0,0:0:0:0:
352,64,73553,1,0,0:0:0:0:
32,64,73553,1,0,0:0:0:0:
416,64,73553,1,0,0:0:0:0:
448,128,73651,5,0,0:0:0:0:
512,128,73651,1,0,0:0:0:0:
64,128,73651,1,0,0:0:0:0:
256,128,73651,1,0,0:0:0:0:
320,128,73651,1,0,0:0:0:0:
0,128,73651,1,0,0:0:0:0:
384,128,73651,1,0,0:0:0:0:
96,192,73849,5,0,0:0:0:0:
416,192,73849,1,0,0:0:0:0:
352,192,73849,1,0,0:0:0:0:
480,192,73849,1,0,0:0:0:0:
32,192,73849,1,0,0:0:0:0:
160,192,73849,1,0,0:0:0:0:
256,256,74047,2,0,L|64:256,1,175
256,256,74047,2,0,L|448:256,1,175
0,256,74441,2,0,L|192:256,1,175
512,256,74442,2,0,L|320:256,1,175
64,0,74836,5,0,0:0:0:0:
512,0,74836,1,0,0:0:0:0:
0,0,74836,1,0,0:0:0:0:
128,0,74836,1,0,0:0:0:0:
192,0,74836,1,0,0:0:0:0:
448,0,74836,2,0,L|288:0,1,140
256,0,74837,2,0,L|96:0,1,140
64,64,75231,5,0,0:0:0:0:
384,64,75231,1,0,0:0:0:0:
320,64,75231,1,0,0:0:0:0:
512,64,75231,1,0,0:0:0:0:
448,64,75231,1,0,0:0:0:0:
0,64,75231,1,0,0:0:0:0:
256,64,75231,1,0,0:0:0:0:
128,128,75428,1,0,0:0:0:0:
192,128,75428,1,0,0:0:0:0:
256,128,75428,1,0,0:0:0:0:
320,128,75428,1,0,0:0:0:0:
384,128,75428,1,0,0:0:0:0:
448,128,75428,1,0,0:0:0:0:
512,128,75428,1,0,0:0:0:0:
96,192,75625,5,0,0:0:0:0:
416,192,75625,1,0,0:0:0:0:
352,192,75625,1,0,0:0:0:0:
480,192,75625,1,0,0:0:0:0:
32,192,75625,1,0,0:0:0:0:
288,192,75625,1,0,0:0:0:0:
64,256,75823,5,0,0:0:0:0:
128,256,75823,1,0,0:0:0:0:
192,256,75823,1,0,0:0:0:0:
0,256,75823,1,0,0:0:0:0:
384,256,75823,1,0,0:0:0:0:
448,256,75823,1,0,0:0:0:0:
512,256,75823,1,0,0:0:0:0:
96,304,75921,1,0,0:0:0:0:
416,304,75922,1,0,0:0:0:0:
160,304,75922,1,0,0:0:0:0:
480,304,75922,1,0,0:0:0:0:
32,304,75922,1,0,0:0:0:0:
64,352,76020,5,0,0:0:0:0:
384,352,76020,1,0,0:0:0:0:
448,352,76020,1,0,0:0:0:0:
512,352,76020,1,0,0:0:0:0:
0,352,76020,1,0,0:0:0:0:
128,352,76020,1,0,0:0:0:0:
192,352,76020,1,0,0:0:0:0:
384,0,76218,1,0,0:0:0:0:
320,0,76218,1,0,0:0:0:0:
128,0,76218,1,0,0:0:0:0:
256,0,76218,1,0,0:0:0:0:
192,0,76218,1,0,0:0:0:0:
0,64,76414,2,0,L|192:64,1,140
320,64,76415,1,0,0:0:0:0:
256,64,76415,1,0,0:0:0:0:
192,64,76415,1,0,0:0:0:0:
512,64,76416,2,0,L|320:64,1,140
256,128,76810,2,0,P|208:224|268:312,1,210.000008010865
256,128,76810,2,0,P|304:224|244:312,1,210.000008010865
64,128,76810,2,0,P|16:224|76:312,1,210.000008010865
448,128,76810,2,0,P|496:224|436:312,1,210.000008010865
0,128,76810,1,0,0:0:0:0:
512,128,76810,1,0,0:0:0:0:
0,128,77007,1,0,0:0:0:0:
512,128,77007,1,0,0:0:0:0:
96,0,77204,5,0,0:0:0:0:
416,0,77204,1,0,0:0:0:0:
480,0,77204,1,0,0:0:0:0:
32,0,77204,1,0,0:0:0:0:
352,0,77204,2,0,B|352:352|352:352|352:272,1,420.000016021729
160,0,77205,2,0,B|160:352|160:352|160:272,1,420.000016021729
448,48,77303,1,0,0:0:0:0:
64,48,77303,1,0,0:0:0:0:
96,0,77402,5,0,0:0:0:0:
416,0,77402,1,0,0:0:0:0:
32,0,77402,1,0,0:0:0:0:
480,0,77402,1,0,0:0:0:0:
64,48,77500,1,0,0:0:0:0:
448,48,77501,1,0,0:0:0:0:
96,0,77599,5,0,0:0:0:0:
480,0,77599,1,0,0:0:0:0:
416,0,77599,1,0,0:0:0:0:
32,0,77599,1,0,0:0:0:0:
0,192,77797,1,0,0:0:0:0:
512,192,77797,1,0,0:0:0:0:
0,192,77862,1,0,0:0:0:0:
512,192,77863,1,0,0:0:0:0:
0,192,77928,1,0,0:0:0:0:
512,192,77929,1,0,0:0:0:0:
384,128,77994,1,0,0:0:0:0:
320,128,77994,1,0,0:0:0:0:
512,128,77994,1,0,0:0:0:0:
448,128,77994,1,0,0:0:0:0:
0,128,77994,1,0,0:0:0:0:
64,128,77994,2,0,P|144:240|128:272,1,140
256,128,77995,2,0,P|336:240|320:272,1,140
64,256,78389,5,0,0:0:0:0:
512,256,78389,1,0,0:0:0:0:
448,256,78389,1,0,0:0:0:0:
0,256,78389,1,0,0:0:0:0:
128,256,78389,1,0,0:0:0:0:
256,256,78389,1,0,0:0:0:0:
192,256,78389,1,0,0:0:0:0:
64,320,78586,5,0,0:0:0:0:
128,320,78586,1,0,0:0:0:0:
0,320,78586,1,0,0:0:0:0:
320,320,78586,1,0,0:0:0:0:
384,320,78586,1,0,0:0:0:0:
448,320,78586,1,0,0:0:0:0:
512,320,78586,1,0,0:0:0:0:
384,0,78783,1,0,0:0:0:0:
320,0,78783,1,0,0:0:0:0:
512,0,78783,1,0,0:0:0:0:
448,0,78783,1,0,0:0:0:0:
256,0,78783,1,0,0:0:0:0:
0,0,78783,2,0,L|32:144,1,140
192,0,78784,2,0,L|224:144,1,140
64,160,79178,5,0,0:0:0:0:
384,160,79178,1,0,0:0:0:0:
512,160,79178,1,0,0:0:0:0:
448,160,79178,1,0,0:0:0:0:
0,160,79178,1,0,0:0:0:0:
128,160,79178,2,0,L|256:272,1,140
320,160,79179,2,0,L|448:272,1,140
64,0,79573,5,0,0:0:0:0:
512,0,79573,1,0,0:0:0:0:
448,0,79573,1,0,0:0:0:0:
0,0,79573,1,0,0:0:0:0:
128,0,79573,1,0,0:0:0:0:
384,0,79573,2,0,B|496:96|416:288|256:320,1,420.000016021729
192,0,79574,2,0,B|304:96|224:288|64:320,1,420.000016021729
68,319,79968,2,0,P|32:208|240:16,1,420.000016021729
261,319,79968,2,0,P|224:207|432:15,1,420.000016021729
396,320,79968,1,0,0:0:0:0:
328,320,79968,1,0,0:0:0:0:
464,320,79968,1,0,0:0:0:0:
4,320,79968,1,0,0:0:0:0:
223,15,80362,2,0,P|263:233|111:311,1,420.000016021729
96,16,80363,5,0,0:0:0:0:
413,14,80363,2,0,P|453:232|301:310,1,420.000016021729
160,16,80363,1,0,0:0:0:0:
32,16,80363,1,0,0:0:0:0:
480,16,80363,1,0,0:0:0:0:
303,310,80757,1,0,0:0:0:0:
113,311,80757,1,0,0:0:0:0:
368,320,80757,1,0,0:0:0:0:
496,320,80757,1,0,0:0:0:0:
432,320,80757,1,0,0:0:0:0:
48,304,80757,1,0,0:0:0:0:
64,0,80954,5,0,0:0:0:0:
512,0,80954,1,0,0:0:0:0:
448,0,80954,1,0,0:0:0:0:
0,0,80954,1,0,0:0:0:0:
128,0,80954,1,0,0:0:0:0:
256,0,80954,1,0,0:0:0:0:
192,0,80954,1,0,0:0:0:0:
32,64,81152,5,0,0:0:0:0:
352,64,81152,1,0,0:0:0:0:
416,64,81152,1,0,0:0:0:0:
480,64,81152,1,0,0:0:0:0:
288,64,81152,2,0,L|224:208,1,140
96,64,81152,2,0,L|32:208,1,140
64,128,81547,5,0,0:0:0:0:
512,128,81547,1,0,0:0:0:0:
448,128,81547,1,0,0:0:0:0:
0,128,81547,1,0,0:0:0:0:
128,128,81547,1,0,0:0:0:0:
192,128,81547,2,0,L|256:272,1,140
384,128,81547,2,0,L|448:272,1,140
64,0,81941,5,0,0:0:0:0:
384,0,81941,1,0,0:0:0:0:
320,0,81941,1,0,0:0:0:0:
512,0,81941,1,0,0:0:0:0:
448,0,81941,1,0,0:0:0:0:
0,0,81941,1,0,0:0:0:0:
256,0,81941,1,0,0:0:0:0:
64,64,82139,5,0,0:0:0:0:
128,64,82139,1,0,0:0:0:0:
192,64,82139,1,0,0:0:0:0:
0,64,82139,1,0,0:0:0:0:
384,64,82139,1,0,0:0:0:0:
448,64,82139,1,0,0:0:0:0:
512,64,82139,1,0,0:0:0:0:
64,0,82336,5,0,0:0:0:0:
256,0,82336,1,0,0:0:0:0:
0,0,82336,1,0,0:0:0:0:
448,0,82336,1,0,0:0:0:0:
320,0,82336,1,0,0:0:0:0:
512,0,82336,1,0,0:0:0:0:
384,0,82336,1,0,0:0:0:0:
64,64,82534,5,0,0:0:0:0:
0,64,82534,1,0,0:0:0:0:
192,64,82534,1,0,0:0:0:0:
128,64,82534,1,0,0:0:0:0:
384,64,82534,1,0,0:0:0:0:
512,64,82534,1,0,0:0:0:0:
448,64,82534,1,0,0:0:0:0:
448,128,82928,5,0,0:0:0:0:
0,128,82928,1,0,0:0:0:0:
64,128,82928,1,0,0:0:0:0:
512,128,82928,1,0,0:0:0:0:
320,128,82928,1,0,0:0:0:0:
384,128,82928,1,0,0:0:0:0:
256,128,82928,1,0,0:0:0:0:
64,192,83125,5,0,0:0:0:0:
0,192,83125,1,0,0:0:0:0:
512,192,83125,1,0,0:0:0:0:
448,192,83125,1,0,0:0:0:0:
192,192,83125,1,0,0:0:0:0:
128,192,83125,1,0,0:0:0:0:
256,192,83125,1,0,0:0:0:0:
64,192,83520,5,0,0:0:0:0:
128,192,83520,1,0,0:0:0:0:
256,192,83520,1,0,0:0:0:0:
192,192,83520,1,0,0:0:0:0:
512,192,83520,1,0,0:0:0:0:
0,192,83520,1,0,0:0:0:0:
448,192,83520,1,0,0:0:0:0:
448,128,83717,5,0,0:0:0:0:
512,128,83717,1,0,0:0:0:0:
0,128,83717,1,0,0:0:0:0:
64,128,83717,1,0,0:0:0:0:
320,128,83717,1,0,0:0:0:0:
384,128,83717,1,0,0:0:0:0:
256,128,83717,1,0,0:0:0:0:
96,0,84112,5,0,0:0:0:0:
416,0,84112,1,0,0:0:0:0:
352,0,84112,1,0,0:0:0:0:
480,0,84112,1,0,0:0:0:0:
32,0,84112,1,0,0:0:0:0:
160,0,84112,1,0,0:0:0:0:
96,0,84310,5,0,0:0:0:0:
480,0,84310,1,0,0:0:0:0:
32,0,84310,1,0,0:0:0:0:
416,0,84310,1,0,0:0:0:0:
352,0,84310,1,0,0:0:0:0:
160,0,84310,2,0,P|80:96|192:192,1,280
352,0,84310,2,0,P|432:96|320:192,1,280
112,0,84704,5,0,0:0:0:0:
400,0,84704,1,0,0:0:0:0:
464,0,84704,1,0,0:0:0:0:
48,0,84704,1,0,0:0:0:0:
256,192,84902,1,0,0:0:0:0:
192,192,84902,1,0,0:0:0:0:
320,192,84902,1,0,0:0:0:0:
0,0,85099,2,0,L|0:160,1,140
64,0,85100,2,0,L|64:144,1,140
128,0,85100,2,0,L|128:160,1,140
512,0,85100,2,0,L|512:160,1,140
384,0,85100,2,0,L|384:160,1,140
448,0,85100,2,0,L|448:144,1,140
192,0,85494,2,0,L|192:160,1,140
256,0,85495,2,0,L|256:144,1,140
320,0,85495,2,0,L|320:160,1,140
0,0,85889,2,0,L|0:160,1,140
448,0,85890,2,0,L|448:160,1,140
512,0,85890,2,0,L|512:160,1,140
64,0,85890,2,0,L|64:144,1,140
256,0,85890,2,0,L|256:160,1,140
256,240,86284,2,0,L|256:384,1,140
320,240,86284,2,0,L|320:400,1,140
512,240,86284,2,0,L|512:400,1,140
384,240,86284,2,0,L|384:400,1,140
448,240,86284,2,0,L|448:384,1,140
64,0,86678,5,0,0:0:0:0:
384,0,86678,1,0,0:0:0:0:
320,0,86678,1,0,0:0:0:0:
512,0,86678,1,0,0:0:0:0:
448,0,86678,1,0,0:0:0:0:
0,0,86678,1,0,0:0:0:0:
256,0,86678,1,0,0:0:0:0:
64,64,86875,5,0,0:0:0:0:
128,64,86875,1,0,0:0:0:0:
192,64,86875,1,0,0:0:0:0:
0,64,86875,1,0,0:0:0:0:
384,64,86875,1,0,0:0:0:0:
448,64,86875,1,0,0:0:0:0:
512,64,86875,1,0,0:0:0:0:
64,128,87073,5,0,0:0:0:0:
0,128,87073,1,0,0:0:0:0:
128,128,87073,1,0,0:0:0:0:
256,128,87073,1,0,0:0:0:0:
192,128,87073,1,0,0:0:0:0:
512,128,87073,2,0,P|352:128|272:240,1,280
320,128,87074,2,0,P|160:128|80:240,1,280
24,212,87468,2,0,L|24:372,1,140
344,212,87469,2,0,L|344:372,1,140
408,212,87469,2,0,L|408:356,1,140
472,212,87469,2,0,L|472:372,1,140
88,212,87469,2,0,L|88:356,1,140
280,212,87469,2,0,L|280:372,1,140
0,0,87862,2,0,L|0:160,1,140
64,0,87863,2,0,L|64:144,1,140
128,0,87863,2,0,L|128:160,1,140
512,0,87863,2,0,L|512:160,1,140
384,0,87863,2,0,L|384:160,1,140
448,0,87863,2,0,L|448:144,1,140
0,0,88257,2,0,L|0:160,1,140
192,0,88258,2,0,L|192:160,1,140
256,0,88258,2,0,L|256:144,1,140
512,0,88258,2,0,L|512:160,1,140
64,0,88258,2,0,L|64:144,1,140
128,0,88258,2,0,L|128:160,1,140
320,0,88258,2,0,L|320:176,1,140
0,208,88652,2,0,L|0:368,1,140
64,208,88653,2,0,L|64:352,1,140
128,208,88653,2,0,L|128:368,1,140
512,208,88653,2,0,L|512:368,1,140
384,208,88653,2,0,L|384:368,1,140
448,208,88653,2,0,L|448:352,1,140
0,0,89047,2,0,L|0:160,1,140
64,0,89048,2,0,L|64:160,1,140
448,0,89048,2,0,L|448:144,1,140
512,0,89048,2,0,L|512:160,1,140
224,0,89048,2,0,L|224:144,1,140
288,0,89048,2,0,L|288:160,1,140
96,208,89441,2,0,L|96:368,1,140
160,208,89442,2,0,L|160:352,1,140
224,208,89442,2,0,L|224:368,1,140
416,208,89442,2,0,L|416:368,1,140
288,208,89442,2,0,L|288:368,1,140
352,208,89442,2,0,L|352:352,1,140
256,0,89836,1,0,0:0:0:0:
192,0,89836,1,0,0:0:0:0:
320,0,89836,1,0,0:0:0:0:
0,16,90033,2,0,L|0:80,1,52.5000020027161
512,16,90034,2,0,L|512:80,1,52.5000020027161
512,80,90231,2,0,L|352:224,1,210.000008010865
0,80,90231,2,0,L|160:224,1,210.000008010865
156,220,90625,2,0,B|156:16|156:16|156:116,1,280
355,220,90626,2,0,B|356:16|356:16|356:116,1,280
256,192,91218,1,0,0:0:0:0:
192,192,91218,1,0,0:0:0:0:
320,192,91218,1,0,0:0:0:0:
512,0,91415,2,0,L|512:160,1,140
448,0,91416,2,0,L|448:144,1,140
384,0,91416,2,0,L|384:160,1,140
0,0,91416,2,0,L|0:160,1,140
128,0,91416,2,0,L|128:160,1,140
64,0,91416,2,0,L|64:144,1,140
320,0,91810,2,0,L|320:160,1,140
192,0,91811,2,0,L|192:160,1,140
256,0,91811,2,0,L|256:144,1,140
512,0,92205,2,0,L|512:160,1,140
64,0,92206,2,0,L|64:160,1,140
0,0,92206,2,0,L|0:160,1,140
448,0,92206,2,0,L|448:144,1,140
256,0,92206,2,0,L|256:160,1,140
128,240,92600,2,0,L|128:400,1,140
64,240,92600,2,0,L|64:384,1,140
0,240,92600,2,0,L|0:400,1,140
256,240,92600,2,0,L|256:384,1,140
192,240,92600,2,0,L|192:400,1,140
448,0,92994,5,0,0:0:0:0:
128,0,92994,1,0,0:0:0:0:
192,0,92994,1,0,0:0:0:0:
0,0,92994,1,0,0:0:0:0:
256,0,92994,1,0,0:0:0:0:
64,0,92994,1,0,0:0:0:0:
512,0,92994,1,0,0:0:0:0:
448,64,93191,5,0,0:0:0:0:
384,64,93191,1,0,0:0:0:0:
320,64,93191,1,0,0:0:0:0:
512,64,93191,1,0,0:0:0:0:
0,64,93191,1,0,0:0:0:0:
128,64,93191,1,0,0:0:0:0:
64,64,93191,1,0,0:0:0:0:
448,128,93389,5,0,0:0:0:0:
256,128,93389,1,0,0:0:0:0:
512,128,93389,1,0,0:0:0:0:
384,128,93389,1,0,0:0:0:0:
320,128,93389,1,0,0:0:0:0:
0,128,93389,2,0,P|160:128|240:240,1,280
192,128,93390,2,0,P|352:128|432:240,1,280
488,212,93784,2,0,L|488:372,1,140
168,212,93785,2,0,L|168:372,1,140
104,212,93785,2,0,L|104:356,1,140
40,212,93785,2,0,L|40:372,1,140
424,212,93785,2,0,L|424:356,1,140
232,212,93785,2,0,L|232:372,1,140
0,0,94178,1,0,0:0:0:0:
512,0,94179,1,0,0:0:0:0:
16,0,94277,1,0,0:0:0:0:
496,0,94278,1,0,0:0:0:0:
32,0,94375,1,0,0:0:0:0:
480,0,94376,1,0,0:0:0:0:
48,0,94474,1,0,0:0:0:0:
464,0,94475,1,0,0:0:0:0:
0,64,94573,1,0,0:0:0:0:
64,64,94573,1,0,0:0:0:0:
448,64,94574,1,0,0:0:0:0:
512,64,94574,1,0,0:0:0:0:
80,0,94672,1,0,0:0:0:0:
432,0,94672,1,0,0:0:0:0:
32,128,94770,1,0,0:0:0:0:
96,128,94770,1,0,0:0:0:0:
416,128,94771,1,0,0:0:0:0:
480,128,94771,1,0,0:0:0:0:
112,0,94869,1,0,0:0:0:0:
400,0,94870,1,0,0:0:0:0:
0,192,94968,1,0,0:0:0:0:
64,192,94968,1,0,0:0:0:0:
128,192,94968,1,0,0:0:0:0:
384,192,94968,1,0,0:0:0:0:
448,192,94968,1,0,0:0:0:0:
512,192,94968,1,0,0:0:0:0:
144,0,95066,1,0,0:0:0:0:
368,0,95067,1,0,0:0:0:0:
32,256,95165,1,0,0:0:0:0:
96,256,95165,1,0,0:0:0:0:
160,256,95165,1,0,0:0:0:0:
352,256,95166,1,0,0:0:0:0:
480,256,95166,1,0,0:0:0:0:
416,256,95166,1,0,0:0:0:0:
176,0,95264,1,0,0:0:0:0:
336,0,95265,1,0,0:0:0:0:
64,64,95560,5,0,0:0:0:0:
128,64,95560,1,0,0:0:0:0:
0,64,95560,1,0,0:0:0:0:
320,64,95560,1,0,0:0:0:0:
384,64,95560,1,0,0:0:0:0:
448,64,95560,1,0,0:0:0:0:
512,64,95560,1,0,0:0:0:0:
384,0,95757,1,0,0:0:0:0:
320,0,95757,1,0,0:0:0:0:
512,0,95757,1,0,0:0:0:0:
448,0,95757,1,0,0:0:0:0:
128,0,95757,1,0,0:0:0:0:
256,0,95757,1,0,0:0:0:0:
192,0,95757,1,0,0:0:0:0:
448,64,96152,5,0,0:0:0:0:
512,64,96152,1,0,0:0:0:0:
384,64,96152,1,0,0:0:0:0:
0,64,96152,1,0,0:0:0:0:
128,64,96152,1,0,0:0:0:0:
192,64,96152,1,0,0:0:0:0:
64,64,96152,1,0,0:0:0:0:
384,0,96349,1,0,0:0:0:0:
64,0,96349,1,0,0:0:0:0:
320,0,96349,1,0,0:0:0:0:
256,0,96349,1,0,0:0:0:0:
0,0,96349,1,0,0:0:0:0:
192,0,96349,1,0,0:0:0:0:
128,0,96349,1,0,0:0:0:0:
384,0,96941,1,0,0:0:0:0:
320,0,96941,1,0,0:0:0:0:
512,0,96941,1,0,0:0:0:0:
448,0,96941,1,0,0:0:0:0:
0,0,96941,1,0,0:0:0:0:
256,0,96941,1,0,0:0:0:0:
192,0,96941,1,0,0:0:0:0:
64,64,97139,5,0,0:0:0:0:
256,64,97139,1,0,0:0:0:0:
0,64,97139,1,0,0:0:0:0:
320,64,97139,1,0,0:0:0:0:
384,64,97139,1,0,0:0:0:0:
448,64,97139,1,0,0:0:0:0:
512,64,97139,1,0,0:0:0:0:
64,128,97336,5,0,0:0:0:0:
384,128,97336,1,0,0:0:0:0:
320,128,97336,1,0,0:0:0:0:
512,128,97336,1,0,0:0:0:0:
448,128,97336,1,0,0:0:0:0:
0,128,97336,1,0,0:0:0:0:
128,128,97336,1,0,0:0:0:0:
64,0,97731,5,0,0:0:0:0:
128,0,97731,1,0,0:0:0:0:
192,0,97731,1,0,0:0:0:0:
256,0,97731,1,0,0:0:0:0:
0,0,97731,1,0,0:0:0:0:
320,0,97731,1,0,0:0:0:0:
512,0,97731,1,0,0:0:0:0:
64,64,97928,5,0,0:0:0:0:
512,64,97928,1,0,0:0:0:0:
448,64,97928,1,0,0:0:0:0:
0,64,97928,1,0,0:0:0:0:
128,64,97928,1,0,0:0:0:0:
256,64,97928,1,0,0:0:0:0:
192,64,97928,1,0,0:0:0:0:
64,0,98520,5,0,0:0:0:0:
128,0,98520,1,0,0:0:0:0:
0,0,98520,1,0,0:0:0:0:
320,0,98520,1,0,0:0:0:0:
384,0,98520,1,0,0:0:0:0:
448,0,98520,1,0,0:0:0:0:
512,0,98520,1,0,0:0:0:0:
32,64,98619,5,0,0:0:0:0:
352,64,98619,1,0,0:0:0:0:
288,64,98619,1,0,0:0:0:0:
480,64,98619,1,0,0:0:0:0:
416,64,98619,1,0,0:0:0:0:
96,64,98619,1,0,0:0:0:0:
16,128,98718,5,0,0:0:0:0:
80,128,98718,1,0,0:0:0:0:
272,128,98718,1,0,0:0:0:0:
336,128,98718,1,0,0:0:0:0:
400,128,98718,1,0,0:0:0:0:
464,128,98718,1,0,0:0:0:0:
96,192,98816,5,0,0:0:0:0:
416,192,98816,1,0,0:0:0:0:
352,192,98816,1,0,0:0:0:0:
480,192,98816,1,0,0:0:0:0:
32,192,98816,1,0,0:0:0:0:
288,192,98816,1,0,0:0:0:0:
384,192,98915,5,0,0:0:0:0:
448,192,98915,1,0,0:0:0:0:
320,192,98915,1,0,0:0:0:0:
128,192,98915,1,0,0:0:0:0:
64,192,98915,1,0,0:0:0:0:
0,192,98915,1,0,0:0:0:0:
448,192,98915,1,0,0:0:0:0:
416,256,99014,5,0,0:0:0:0:
32,256,99014,1,0,0:0:0:0:
352,256,99014,1,0,0:0:0:0:
96,256,99014,1,0,0:0:0:0:
160,256,99014,1,0,0:0:0:0:
480,256,99014,1,0,0:0:0:0:
432,320,99113,5,0,0:0:0:0:
368,320,99113,1,0,0:0:0:0:
48,320,99113,1,0,0:0:0:0:
176,320,99113,1,0,0:0:0:0:
112,320,99113,1,0,0:0:0:0:
496,320,99113,1,0,0:0:0:0:
352,384,99211,5,0,0:0:0:0:
32,384,99211,1,0,0:0:0:0:
96,384,99211,1,0,0:0:0:0:
416,384,99211,1,0,0:0:0:0:
160,384,99211,1,0,0:0:0:0:
480,384,99211,1,0,0:0:0:0:
64,0,99310,5,0,0:0:0:0:
384,0,99310,1,0,0:0:0:0:
448,0,99310,1,0,0:0:0:0:
512,0,99310,1,0,0:0:0:0:
320,0,99310,1,0,0:0:0:0:
128,0,99310,1,0,0:0:0:0:
0,0,99310,1,0,0:0:0:0:
64,64,99507,5,0,0:0:0:0:
384,64,99507,1,0,0:0:0:0:
512,64,99507,1,0,0:0:0:0:
448,64,99507,1,0,0:0:0:0:
0,64,99507,1,0,0:0:0:0:
128,64,99507,1,0,0:0:0:0:
192,64,99507,1,0,0:0:0:0:
64,128,99704,5,0,0:0:0:0:
128,128,99704,1,0,0:0:0:0:
192,128,99704,1,0,0:0:0:0:
256,128,99704,1,0,0:0:0:0:
0,128,99704,1,0,0:0:0:0:
448,128,99704,1,0,0:0:0:0:
512,128,99704,1,0,0:0:0:0:
64,0,100099,5,0,0:0:0:0:
320,0,100099,1,0,0:0:0:0:
512,0,100099,1,0,0:0:0:0:
0,0,100099,1,0,0:0:0:0:
128,0,100099,1,0,0:0:0:0:
256,0,100099,1,0,0:0:0:0:
192,0,100099,1,0,0:0:0:0:
64,64,100297,5,0,0:0:0:0:
128,64,100297,1,0,0:0:0:0:
192,64,100297,1,0,0:0:0:0:
256,64,100297,1,0,0:0:0:0:
0,64,100297,1,0,0:0:0:0:
448,64,100297,1,0,0:0:0:0:
512,64,100297,1,0,0:0:0:0:
64,128,100494,5,0,0:0:0:0:
384,128,100494,1,0,0:0:0:0:
512,128,100494,1,0,0:0:0:0:
448,128,100494,1,0,0:0:0:0:
0,128,100494,1,0,0:0:0:0:
128,128,100494,1,0,0:0:0:0:
192,128,100494,1,0,0:0:0:0:
512,192,100889,5,0,0:0:0:0:
0,192,100889,1,0,0:0:0:0:
64,192,100889,1,0,0:0:0:0:
128,192,100889,1,0,0:0:0:0:
320,192,100889,1,0,0:0:0:0:
384,192,100889,1,0,0:0:0:0:
448,192,100889,1,0,0:0:0:0:
512,256,101086,5,0,0:0:0:0:
256,256,101086,1,0,0:0:0:0:
384,256,101086,1,0,0:0:0:0:
320,256,101086,1,0,0:0:0:0:
0,256,101086,1,0,0:0:0:0:
64,256,101086,1,0,0:0:0:0:
448,256,101086,1,0,0:0:0:0:
512,320,101283,5,0,0:0:0:0:
0,320,101283,1,0,0:0:0:0:
192,320,101283,1,0,0:0:0:0:
256,320,101283,1,0,0:0:0:0:
320,320,101283,1,0,0:0:0:0:
384,320,101283,1,0,0:0:0:0:
448,320,101283,1,0,0:0:0:0:
448,0,101678,5,0,0:0:0:0:
128,0,101678,1,0,0:0:0:0:
64,0,101678,1,0,0:0:0:0:
0,0,101678,1,0,0:0:0:0:
192,0,101678,1,0,0:0:0:0:
384,0,101678,1,0,0:0:0:0:
512,0,101678,1,0,0:0:0:0:
480,64,101777,5,0,0:0:0:0:
32,64,101777,1,0,0:0:0:0:
160,64,101777,1,0,0:0:0:0:
224,64,101777,1,0,0:0:0:0:
96,64,101777,1,0,0:0:0:0:
416,64,101777,1,0,0:0:0:0:
496,128,101876,5,0,0:0:0:0:
176,128,101876,1,0,0:0:0:0:
112,128,101876,1,0,0:0:0:0:
48,128,101876,1,0,0:0:0:0:
432,128,101876,1,0,0:0:0:0:
240,128,101876,1,0,0:0:0:0:
416,192,101974,5,0,0:0:0:0:
32,192,101974,1,0,0:0:0:0:
96,192,101974,1,0,0:0:0:0:
160,192,101974,1,0,0:0:0:0:
480,192,101974,1,0,0:0:0:0:
224,192,101974,1,0,0:0:0:0:
128,192,102073,5,0,0:0:0:0:
448,192,102073,1,0,0:0:0:0:
512,192,102073,1,0,0:0:0:0:
64,192,102073,1,0,0:0:0:0:
384,192,102073,1,0,0:0:0:0:
64,192,102073,1,0,0:0:0:0:
192,192,102073,1,0,0:0:0:0:
96,256,102172,5,0,0:0:0:0:
416,256,102172,1,0,0:0:0:0:
480,256,102172,1,0,0:0:0:0:
160,256,102172,1,0,0:0:0:0:
352,256,102172,1,0,0:0:0:0:
32,256,102172,1,0,0:0:0:0:
80,320,102271,5,0,0:0:0:0:
336,320,102271,1,0,0:0:0:0:
400,320,102271,1,0,0:0:0:0:
16,320,102271,1,0,0:0:0:0:
144,320,102271,1,0,0:0:0:0:
464,320,102271,1,0,0:0:0:0:
160,384,102369,5,0,0:0:0:0:
96,384,102369,1,0,0:0:0:0:
480,384,102369,1,0,0:0:0:0:
416,384,102369,1,0,0:0:0:0:
352,384,102369,1,0,0:0:0:0:
32,384,102369,1,0,0:0:0:0:
448,0,102468,5,0,0:0:0:0:
192,0,102468,1,0,0:0:0:0:
384,0,102468,1,0,0:0:0:0:
512,0,102468,1,0,0:0:0:0:
0,0,102468,1,0,0:0:0:0:
128,0,102468,1,0,0:0:0:0:
64,0,102468,1,0,0:0:0:0:
112,64,102566,5,0,0:0:0:0:
432,64,102566,1,0,0:0:0:0:
496,64,102566,1,0,0:0:0:0:
48,64,102566,1,0,0:0:0:0:
176,64,102566,1,0,0:0:0:0:
240,64,102566,1,0,0:0:0:0:
96,128,102665,5,0,0:0:0:0:
160,128,102665,1,0,0:0:0:0:
224,128,102665,1,0,0:0:0:0:
288,128,102665,1,0,0:0:0:0:
480,128,102665,1,0,0:0:0:0:
112,64,102764,5,0,0:0:0:0:
48,64,102764,1,0,0:0:0:0:
176,64,102764,1,0,0:0:0:0:
240,64,102764,1,0,0:0:0:0:
432,64,102764,1,0,0:0:0:0:
496,64,102764,1,0,0:0:0:0:
448,0,102862,5,0,0:0:0:0:
0,0,102862,1,0,0:0:0:0:
128,0,102862,1,0,0:0:0:0:
64,0,102862,1,0,0:0:0:0:
512,0,102862,1,0,0:0:0:0:
192,0,102862,1,0,0:0:0:0:
384,0,102862,1,0,0:0:0:0:
64,0,103257,5,0,0:0:0:0:
384,0,103257,1,0,0:0:0:0:
320,0,103257,1,0,0:0:0:0:
512,0,103257,1,0,0:0:0:0:
448,0,103257,1,0,0:0:0:0:
0,0,103257,1,0,0:0:0:0:
128,0,103257,1,0,0:0:0:0:
64,64,103454,5,0,0:0:0:0:
256,64,103454,1,0,0:0:0:0:
0,64,103454,1,0,0:0:0:0:
320,64,103454,1,0,0:0:0:0:
384,64,103454,1,0,0:0:0:0:
448,64,103454,1,0,0:0:0:0:
512,64,103454,1,0,0:0:0:0:
384,128,103652,1,0,0:0:0:0:
320,128,103652,1,0,0:0:0:0:
512,128,103652,1,0,0:0:0:0:
448,128,103652,1,0,0:0:0:0:
0,128,103652,1,0,0:0:0:0:
256,128,103652,1,0,0:0:0:0:
192,128,103652,1,0,0:0:0:0:
64,192,104047,5,0,0:0:0:0:
128,192,104047,1,0,0:0:0:0:
192,192,104047,1,0,0:0:0:0:
0,192,104047,1,0,0:0:0:0:
384,192,104047,1,0,0:0:0:0:
448,192,104047,1,0,0:0:0:0:
512,192,104047,1,0,0:0:0:0:
64,256,104244,5,0,0:0:0:0:
512,256,104244,1,0,0:0:0:0:
448,256,104244,1,0,0:0:0:0:
0,256,104244,1,0,0:0:0:0:
128,256,104244,1,0,0:0:0:0:
256,256,104244,1,0,0:0:0:0:
192,256,104244,1,0,0:0:0:0:
64,320,104441,5,0,0:0:0:0:
128,320,104441,1,0,0:0:0:0:
192,320,104441,1,0,0:0:0:0:
256,320,104441,1,0,0:0:0:0:
0,320,104441,1,0,0:0:0:0:
320,320,104441,1,0,0:0:0:0:
512,320,104441,1,0,0:0:0:0:
64,0,104836,5,0,0:0:0:0:
128,0,104836,1,0,0:0:0:0:
0,0,104836,1,0,0:0:0:0:
320,0,104836,1,0,0:0:0:0:
512,0,104836,1,0,0:0:0:0:
384,0,104836,1,0,0:0:0:0:
448,0,104836,1,0,0:0:0:0:
32,64,104935,5,0,0:0:0:0:
480,64,104935,1,0,0:0:0:0:
416,64,104935,1,0,0:0:0:0:
96,64,104935,1,0,0:0:0:0:
352,64,104935,1,0,0:0:0:0:
288,64,104935,1,0,0:0:0:0:
16,128,105034,5,0,0:0:0:0:
336,128,105034,1,0,0:0:0:0:
80,128,105034,1,0,0:0:0:0:
272,128,105034,1,0,0:0:0:0:
400,128,105034,1,0,0:0:0:0:
464,128,105034,1,0,0:0:0:0:
96,192,105132,5,0,0:0:0:0:
480,192,105132,1,0,0:0:0:0:
32,192,105132,1,0,0:0:0:0:
288,192,105132,1,0,0:0:0:0:
416,192,105132,1,0,0:0:0:0:
352,192,105132,1,0,0:0:0:0:
64,0,105231,5,0,0:0:0:0:
384,0,105231,1,0,0:0:0:0:
448,0,105231,1,0,0:0:0:0:
512,0,105231,1,0,0:0:0:0:
128,0,105231,1,0,0:0:0:0:
0,0,105231,1,0,0:0:0:0:
320,0,105231,1,0,0:0:0:0:
32,64,105330,5,0,0:0:0:0:
352,64,105330,1,0,0:0:0:0:
288,64,105330,1,0,0:0:0:0:
480,64,105330,1,0,0:0:0:0:
416,64,105330,1,0,0:0:0:0:
96,64,105330,1,0,0:0:0:0:
16,128,105429,5,0,0:0:0:0:
400,128,105429,1,0,0:0:0:0:
464,128,105429,1,0,0:0:0:0:
336,128,105429,1,0,0:0:0:0:
80,128,105429,1,0,0:0:0:0:
272,128,105429,1,0,0:0:0:0:
96,192,105527,5,0,0:0:0:0:
416,192,105527,1,0,0:0:0:0:
352,192,105527,1,0,0:0:0:0:
480,192,105527,1,0,0:0:0:0:
32,192,105527,1,0,0:0:0:0:
288,192,105527,1,0,0:0:0:0:
384,192,105625,5,0,0:0:0:0:
64,192,105625,1,0,0:0:0:0:
0,192,105625,1,0,0:0:0:0:
448,192,105625,1,0,0:0:0:0:
128,192,105625,1,0,0:0:0:0:
448,192,105625,1,0,0:0:0:0:
320,192,105625,1,0,0:0:0:0:
416,256,105724,5,0,0:0:0:0:
96,256,105724,1,0,0:0:0:0:
32,256,105724,1,0,0:0:0:0:
352,256,105724,1,0,0:0:0:0:
160,256,105724,1,0,0:0:0:0:
480,256,105724,1,0,0:0:0:0:
432,320,105823,5,0,0:0:0:0:
176,320,105823,1,0,0:0:0:0:
112,320,105823,1,0,0:0:0:0:
496,320,105823,1,0,0:0:0:0:
368,320,105823,1,0,0:0:0:0:
48,320,105823,1,0,0:0:0:0:
352,384,105921,5,0,0:0:0:0:
416,384,105921,1,0,0:0:0:0:
32,384,105921,1,0,0:0:0:0:
96,384,105921,1,0,0:0:0:0:
160,384,105921,1,0,0:0:0:0:
480,384,105921,1,0,0:0:0:0:
64,0,106020,5,0,0:0:0:0:
320,0,106020,1,0,0:0:0:0:
128,0,106020,1,0,0:0:0:0:
0,0,106020,1,0,0:0:0:0:
512,0,106020,1,0,0:0:0:0:
384,0,106020,1,0,0:0:0:0:
448,0,106020,1,0,0:0:0:0:
64,0,106415,5,0,0:0:0:0:
512,0,106415,1,0,0:0:0:0:
448,0,106415,1,0,0:0:0:0:
0,0,106415,1,0,0:0:0:0:
128,0,106415,1,0,0:0:0:0:
256,0,106415,1,0,0:0:0:0:
192,0,106415,1,0,0:0:0:0:
64,64,106612,5,0,0:0:0:0:
128,64,106612,1,0,0:0:0:0:
192,64,106612,1,0,0:0:0:0:
0,64,106612,1,0,0:0:0:0:
384,64,106612,1,0,0:0:0:0:
448,64,106612,1,0,0:0:0:0:
512,64,106612,1,0,0:0:0:0:
64,128,106810,5,0,0:0:0:0:
384,128,106810,1,0,0:0:0:0:
320,128,106810,1,0,0:0:0:0:
512,128,106810,1,0,0:0:0:0:
448,128,106810,1,0,0:0:0:0:
0,128,106810,1,0,0:0:0:0:
128,128,106810,1,0,0:0:0:0:
64,192,107007,5,0,0:0:0:0:
128,192,107007,1,0,0:0:0:0:
192,192,107007,1,0,0:0:0:0:
0,192,107007,1,0,0:0:0:0:
384,192,107007,1,0,0:0:0:0:
448,192,107007,1,0,0:0:0:0:
512,192,107007,1,0,0:0:0:0:
96,224,107106,5,0,0:0:0:0:
416,224,107106,1,0,0:0:0:0:
480,224,107106,1,0,0:0:0:0:
32,224,107106,1,0,0:0:0:0:
160,224,107106,1,0,0:0:0:0:
224,224,107106,1,0,0:0:0:0:
64,256,107204,5,0,0:0:0:0:
128,256,107204,1,0,0:0:0:0:
192,256,107204,1,0,0:0:0:0:
256,256,107204,1,0,0:0:0:0:
0,256,107204,1,0,0:0:0:0:
448,256,107204,1,0,0:0:0:0:
512,256,107204,1,0,0:0:0:0:
64,320,107402,5,0,0:0:0:0:
384,320,107402,1,0,0:0:0:0:
512,320,107402,1,0,0:0:0:0:
448,320,107402,1,0,0:0:0:0:
0,320,107402,1,0,0:0:0:0:
128,320,107402,1,0,0:0:0:0:
192,320,107402,1,0,0:0:0:0:
64,384,107599,5,0,0:0:0:0:
128,384,107599,1,0,0:0:0:0:
0,384,107599,1,0,0:0:0:0:
320,384,107599,1,0,0:0:0:0:
384,384,107599,1,0,0:0:0:0:
448,384,107599,1,0,0:0:0:0:
512,384,107599,1,0,0:0:0:0:
384,0,107994,1,0,0:0:0:0:
64,0,107994,1,0,0:0:0:0:
512,0,107994,1,0,0:0:0:0:
448,0,107994,1,0,0:0:0:0:
0,0,107994,1,0,0:0:0:0:
128,0,107994,2,0,L|-32:0,2,140
320,0,107995,2,0,L|160:0,2,140
288,64,108586,1,0,0:0:0:0:
224,64,108586,1,0,0:0:0:0:
64,0,108783,1,0,0:0:0:0:
512,0,108783,1,0,0:0:0:0:
384,0,108783,2,0,L|544:0,2,140
128,0,108783,1,0,0:0:0:0:
448,0,108783,1,0,0:0:0:0:
0,0,108783,1,0,0:0:0:0:
192,0,108784,2,0,L|352:0,2,140
176,0,109227,1,0,0:0:0:0:
400,0,109227,1,0,0:0:0:0:
384,0,109276,1,0,0:0:0:0:
192,0,109277,1,0,0:0:0:0:
176,0,109326,1,0,0:0:0:0:
400,0,109326,1,0,0:0:0:0:
384,0,109375,1,0,0:0:0:0:
192,0,109376,1,0,0:0:0:0:
64,64,109573,1,0,0:0:0:0:
0,64,109573,1,0,0:0:0:0:
128,64,109573,1,0,0:0:0:0:
192,64,109573,1,0,0:0:0:0:
512,64,109573,2,0,P|384:80|320:224,1,280
256,64,109573,1,0,0:0:0:0:
320,64,109574,2,0,P|192:80|128:224,1,280
384,0,110165,1,0,0:0:0:0:
320,0,110165,1,0,0:0:0:0:
512,0,110165,1,0,0:0:0:0:
448,0,110165,1,0,0:0:0:0:
0,0,110165,1,0,0:0:0:0:
256,0,110165,1,0,0:0:0:0:
192,0,110165,1,0,0:0:0:0:
64,64,110362,5,0,0:0:0:0:
0,64,110362,1,0,0:0:0:0:
320,64,110362,1,0,0:0:0:0:
384,64,110362,1,0,0:0:0:0:
448,64,110362,1,0,0:0:0:0:
512,64,110362,1,0,0:0:0:0:
64,64,110362,2,0,P|176:112|224:256,1,280
256,64,110363,2,0,P|368:112|416:256,1,280
64,0,110954,5,0,0:0:0:0:
384,0,110954,1,0,0:0:0:0:
320,0,110954,1,0,0:0:0:0:
512,0,110954,1,0,0:0:0:0:
448,0,110954,1,0,0:0:0:0:
0,0,110954,1,0,0:0:0:0:
128,0,110954,1,0,0:0:0:0:
64,64,111152,5,0,0:0:0:0:
128,64,111152,1,0,0:0:0:0:
192,64,111152,1,0,0:0:0:0:
256,64,111152,1,0,0:0:0:0:
0,64,111152,1,0,0:0:0:0:
448,64,111152,1,0,0:0:0:0:
512,64,111152,1,0,0:0:0:0:
64,64,111250,5,0,0:0:0:0:
192,64,111250,1,0,0:0:0:0:
128,64,111250,1,0,0:0:0:0:
512,64,111250,1,0,0:0:0:0:
256,64,111250,1,0,0:0:0:0:
448,64,111250,1,0,0:0:0:0:
0,64,111250,1,0,0:0:0:0:
64,64,111349,5,0,0:0:0:0:
448,64,111349,1,0,0:0:0:0:
0,64,111349,1,0,0:0:0:0:
256,64,111349,1,0,0:0:0:0:
192,64,111349,1,0,0:0:0:0:
128,64,111349,1,0,0:0:0:0:
512,64,111349,1,0,0:0:0:0:
64,128,111547,5,0,0:0:0:0:
384,128,111547,1,0,0:0:0:0:
320,128,111547,1,0,0:0:0:0:
512,128,111547,1,0,0:0:0:0:
448,128,111547,1,0,0:0:0:0:
0,128,111547,1,0,0:0:0:0:
256,128,111547,1,0,0:0:0:0:
64,128,111645,5,0,0:0:0:0:
0,128,111645,1,0,0:0:0:0:
448,128,111645,1,0,0:0:0:0:
512,128,111645,1,0,0:0:0:0:
256,128,111645,1,0,0:0:0:0:
320,128,111645,1,0,0:0:0:0:
384,128,111645,1,0,0:0:0:0:
64,128,111744,5,0,0:0:0:0:
320,128,111744,1,0,0:0:0:0:
384,128,111744,1,0,0:0:0:0:
256,128,111744,1,0,0:0:0:0:
0,128,111744,1,0,0:0:0:0:
448,128,111744,1,0,0:0:0:0:
512,128,111744,1,0,0:0:0:0:
64,0,111941,5,0,0:0:0:0:
384,0,111941,1,0,0:0:0:0:
512,0,111941,1,0,0:0:0:0:
448,0,111941,1,0,0:0:0:0:
0,0,111941,1,0,0:0:0:0:
128,0,111941,1,0,0:0:0:0:
192,0,111941,1,0,0:0:0:0:
64,0,112040,5,0,0:0:0:0:
128,0,112040,1,0,0:0:0:0:
0,0,112040,1,0,0:0:0:0:
192,0,112040,1,0,0:0:0:0:
448,0,112040,1,0,0:0:0:0:
512,0,112040,1,0,0:0:0:0:
384,0,112040,1,0,0:0:0:0:
96,64,112139,5,0,0:0:0:0:
288,64,112139,1,0,0:0:0:0:
32,64,112139,1,0,0:0:0:0:
352,64,112139,1,0,0:0:0:0:
416,64,112139,1,0,0:0:0:0:
480,64,112139,1,0,0:0:0:0:
96,64,112238,5,0,0:0:0:0:
480,64,112238,1,0,0:0:0:0:
288,64,112238,1,0,0:0:0:0:
352,64,112238,1,0,0:0:0:0:
416,64,112238,1,0,0:0:0:0:
32,64,112238,1,0,0:0:0:0:
64,0,112336,5,0,0:0:0:0:
512,0,112336,1,0,0:0:0:0:
384,0,112336,1,0,0:0:0:0:
448,0,112336,1,0,0:0:0:0:
128,0,112336,1,0,0:0:0:0:
0,0,112336,1,0,0:0:0:0:
192,0,112336,1,0,0:0:0:0:
64,0,112435,5,0,0:0:0:0:
128,0,112435,1,0,0:0:0:0:
0,0,112435,1,0,0:0:0:0:
192,0,112435,1,0,0:0:0:0:
448,0,112435,1,0,0:0:0:0:
512,0,112435,1,0,0:0:0:0:
384,0,112435,1,0,0:0:0:0:
96,64,112534,5,0,0:0:0:0:
416,64,112534,1,0,0:0:0:0:
32,64,112534,1,0,0:0:0:0:
480,64,112534,1,0,0:0:0:0:
288,64,112534,1,0,0:0:0:0:
352,64,112534,1,0,0:0:0:0:
96,64,112633,5,0,0:0:0:0:
480,64,112633,1,0,0:0:0:0:
288,64,112633,1,0,0:0:0:0:
352,64,112633,1,0,0:0:0:0:
416,64,112633,1,0,0:0:0:0:
32,64,112633,1,0,0:0:0:0:
64,0,112731,5,0,0:0:0:0:
0,0,112731,1,0,0:0:0:0:
128,0,112731,1,0,0:0:0:0:
448,0,112731,1,0,0:0:0:0:
512,0,112731,1,0,0:0:0:0:
192,0,112731,2,0,P|96:128|160:224,1,280
384,0,112731,2,0,P|288:128|352:224,1,280
64,192,113323,5,0,0:0:0:0:
320,192,113323,1,0,0:0:0:0:
512,192,113323,1,0,0:0:0:0:
0,192,113323,1,0,0:0:0:0:
128,192,113323,1,0,0:0:0:0:
256,192,113323,1,0,0:0:0:0:
192,192,113323,1,0,0:0:0:0:
64,240,113520,5,0,0:0:0:0:
128,240,113520,1,0,0:0:0:0:
192,240,113520,1,0,0:0:0:0:
0,240,113520,1,0,0:0:0:0:
512,240,113520,1,0,0:0:0:0:
448,240,113520,2,0,P|304:160|288:48,1,280
256,240,113521,2,0,P|112:160|96:48,1,280
64,0,114112,5,0,0:0:0:0:
320,0,114112,1,0,0:0:0:0:
512,0,114112,1,0,0:0:0:0:
0,0,114112,1,0,0:0:0:0:
128,0,114112,1,0,0:0:0:0:
256,0,114112,1,0,0:0:0:0:
192,0,114112,1,0,0:0:0:0:
64,64,114310,5,0,0:0:0:0:
128,64,114310,1,0,0:0:0:0:
192,64,114310,1,0,0:0:0:0:
0,64,114310,1,0,0:0:0:0:
384,64,114310,1,0,0:0:0:0:
448,64,114310,1,0,0:0:0:0:
512,64,114310,1,0,0:0:0:0:
96,96,114408,5,0,0:0:0:0:
416,96,114408,1,0,0:0:0:0:
480,96,114408,1,0,0:0:0:0:
32,96,114408,1,0,0:0:0:0:
160,96,114408,1,0,0:0:0:0:
224,96,114408,1,0,0:0:0:0:
64,64,114507,5,0,0:0:0:0:
192,64,114507,1,0,0:0:0:0:
128,64,114507,1,0,0:0:0:0:
512,64,114507,1,0,0:0:0:0:
384,64,114507,1,0,0:0:0:0:
0,64,114507,1,0,0:0:0:0:
448,64,114507,1,0,0:0:0:0:
384,160,114704,1,0,0:0:0:0:
320,160,114704,1,0,0:0:0:0:
512,160,114704,1,0,0:0:0:0:
448,160,114704,1,0,0:0:0:0:
0,160,114704,1,0,0:0:0:0:
256,160,114704,1,0,0:0:0:0:
192,160,114704,1,0,0:0:0:0:
32,192,114803,1,0,0:0:0:0:
288,192,114803,1,0,0:0:0:0:
224,192,114803,1,0,0:0:0:0:
480,192,114803,1,0,0:0:0:0:
416,192,114803,1,0,0:0:0:0:
352,192,114803,1,0,0:0:0:0:
0,160,114901,1,0,0:0:0:0:
448,160,114901,1,0,0:0:0:0:
192,160,114901,1,0,0:0:0:0:
256,160,114901,1,0,0:0:0:0:
512,160,114901,1,0,0:0:0:0:
320,160,114901,1,0,0:0:0:0:
384,160,114901,1,0,0:0:0:0:
64,0,115099,5,0,0:0:0:0:
384,0,115099,1,0,0:0:0:0:
320,0,115099,1,0,0:0:0:0:
512,0,115099,1,0,0:0:0:0:
448,0,115099,1,0,0:0:0:0:
0,0,115099,1,0,0:0:0:0:
256,0,115099,1,0,0:0:0:0:
64,0,115198,5,0,0:0:0:0:
320,0,115198,1,0,0:0:0:0:
384,0,115198,1,0,0:0:0:0:
512,0,115198,1,0,0:0:0:0:
256,0,115198,1,0,0:0:0:0:
0,0,115198,1,0,0:0:0:0:
448,0,115198,1,0,0:0:0:0:
32,64,115296,5,0,0:0:0:0:
96,64,115296,1,0,0:0:0:0:
160,64,115296,1,0,0:0:0:0:
352,64,115296,1,0,0:0:0:0:
416,64,115296,1,0,0:0:0:0:
480,64,115296,1,0,0:0:0:0:
32,64,115395,5,0,0:0:0:0:
480,64,115395,1,0,0:0:0:0:
416,64,115395,1,0,0:0:0:0:
160,64,115395,1,0,0:0:0:0:
96,64,115395,1,0,0:0:0:0:
352,64,115395,1,0,0:0:0:0:
64,0,115494,5,0,0:0:0:0:
0,0,115494,1,0,0:0:0:0:
448,0,115494,1,0,0:0:0:0:
256,0,115494,1,0,0:0:0:0:
320,0,115494,1,0,0:0:0:0:
384,0,115494,1,0,0:0:0:0:
512,0,115494,1,0,0:0:0:0:
64,0,115593,5,0,0:0:0:0:
320,0,115593,1,0,0:0:0:0:
384,0,115593,1,0,0:0:0:0:
512,0,115593,1,0,0:0:0:0:
256,0,115593,1,0,0:0:0:0:
0,0,115593,1,0,0:0:0:0:
448,0,115593,1,0,0:0:0:0:
32,64,115691,5,0,0:0:0:0:
96,64,115691,1,0,0:0:0:0:
352,64,115691,1,0,0:0:0:0:
480,64,115691,1,0,0:0:0:0:
416,64,115691,1,0,0:0:0:0:
160,64,115691,1,0,0:0:0:0:
32,64,115790,5,0,0:0:0:0:
480,64,115790,1,0,0:0:0:0:
416,64,115790,1,0,0:0:0:0:
160,64,115790,1,0,0:0:0:0:
96,64,115790,1,0,0:0:0:0:
352,64,115790,1,0,0:0:0:0:
448,0,115889,1,0,0:0:0:0:
0,0,115889,1,0,0:0:0:0:
512,0,115889,1,0,0:0:0:0:
384,0,115889,1,0,0:0:0:0:
320,0,115889,1,0,0:0:0:0:
64,0,115889,2,0,P|64:128|208:192,1,280
256,0,115889,2,0,P|256:128|400:192,1,280
384,0,116481,1,0,0:0:0:0:
320,0,116481,1,0,0:0:0:0:
512,0,116481,1,0,0:0:0:0:
448,0,116481,1,0,0:0:0:0:
0,0,116481,1,0,0:0:0:0:
256,0,116481,1,0,0:0:0:0:
192,0,116481,1,0,0:0:0:0:
64,64,116678,5,0,0:0:0:0:
0,64,116678,1,0,0:0:0:0:
384,64,116678,1,0,0:0:0:0:
448,64,116678,1,0,0:0:0:0:
512,64,116678,1,0,0:0:0:0:
320,64,116678,2,0,P|448:128|432:256,1,280
128,64,116679,2,0,P|256:128|240:256,1,280
64,0,117270,5,0,0:0:0:0:
384,0,117270,1,0,0:0:0:0:
320,0,117270,1,0,0:0:0:0:
512,0,117270,1,0,0:0:0:0:
448,0,117270,1,0,0:0:0:0:
0,0,117270,1,0,0:0:0:0:
128,0,117270,1,0,0:0:0:0:
192,64,117468,1,0,0:0:0:0:
256,64,117468,1,0,0:0:0:0:
0,64,117468,1,0,0:0:0:0:
320,64,117468,1,0,0:0:0:0:
384,64,117468,1,0,0:0:0:0:
448,64,117468,1,0,0:0:0:0:
512,64,117468,1,0,0:0:0:0:
0,64,117566,1,0,0:0:0:0:
256,64,117566,1,0,0:0:0:0:
192,64,117566,1,0,0:0:0:0:
320,64,117566,1,0,0:0:0:0:
512,64,117566,1,0,0:0:0:0:
448,64,117566,1,0,0:0:0:0:
384,64,117566,1,0,0:0:0:0:
512,64,117665,1,0,0:0:0:0:
448,64,117665,1,0,0:0:0:0:
384,64,117665,1,0,0:0:0:0:
320,64,117665,1,0,0:0:0:0:
0,64,117665,1,0,0:0:0:0:
256,64,117665,1,0,0:0:0:0:
192,64,117665,1,0,0:0:0:0:
64,128,117862,5,0,0:0:0:0:
384,128,117862,1,0,0:0:0:0:
512,128,117862,1,0,0:0:0:0:
448,128,117862,1,0,0:0:0:0:
0,128,117862,1,0,0:0:0:0:
128,128,117862,1,0,0:0:0:0:
192,128,117862,1,0,0:0:0:0:
64,128,117960,5,0,0:0:0:0:
128,128,117960,1,0,0:0:0:0:
0,128,117960,1,0,0:0:0:0:
448,128,117960,1,0,0:0:0:0:
192,128,117960,1,0,0:0:0:0:
512,128,117960,1,0,0:0:0:0:
384,128,117960,1,0,0:0:0:0:
64,128,118059,5,0,0:0:0:0:
512,128,118059,1,0,0:0:0:0:
384,128,118059,1,0,0:0:0:0:
192,128,118059,1,0,0:0:0:0:
128,128,118059,1,0,0:0:0:0:
0,128,118059,1,0,0:0:0:0:
448,128,118059,1,0,0:0:0:0:
64,0,118257,5,0,0:0:0:0:
320,0,118257,1,0,0:0:0:0:
512,0,118257,1,0,0:0:0:0:
0,0,118257,1,0,0:0:0:0:
128,0,118257,1,0,0:0:0:0:
256,0,118257,1,0,0:0:0:0:
192,0,118257,1,0,0:0:0:0:
64,0,118356,5,0,0:0:0:0:
512,0,118356,1,0,0:0:0:0:
320,0,118356,1,0,0:0:0:0:
0,0,118356,1,0,0:0:0:0:
192,0,118356,1,0,0:0:0:0:
256,0,118356,1,0,0:0:0:0:
128,0,118356,1,0,0:0:0:0:
96,64,118454,5,0,0:0:0:0:
160,64,118454,1,0,0:0:0:0:
224,64,118454,1,0,0:0:0:0:
32,64,118454,1,0,0:0:0:0:
416,64,118454,1,0,0:0:0:0:
480,64,118454,1,0,0:0:0:0:
96,64,118553,5,0,0:0:0:0:
480,64,118553,1,0,0:0:0:0:
416,64,118553,1,0,0:0:0:0:
224,64,118553,1,0,0:0:0:0:
160,64,118553,1,0,0:0:0:0:
32,64,118553,1,0,0:0:0:0:
64,0,118652,5,0,0:0:0:0:
256,0,118652,1,0,0:0:0:0:
128,0,118652,1,0,0:0:0:0:
192,0,118652,1,0,0:0:0:0:
512,0,118652,1,0,0:0:0:0:
320,0,118652,1,0,0:0:0:0:
0,0,118652,1,0,0:0:0:0:
64,0,118750,5,0,0:0:0:0:
256,0,118750,1,0,0:0:0:0:
128,0,118750,1,0,0:0:0:0:
192,0,118750,1,0,0:0:0:0:
512,0,118750,1,0,0:0:0:0:
320,0,118750,1,0,0:0:0:0:
0,0,118750,1,0,0:0:0:0:
96,64,118849,5,0,0:0:0:0:
160,64,118849,1,0,0:0:0:0:
32,64,118849,1,0,0:0:0:0:
480,64,118849,1,0,0:0:0:0:
416,64,118849,1,0,0:0:0:0:
224,64,118849,1,0,0:0:0:0:
96,64,118947,5,0,0:0:0:0:
160,64,118947,1,0,0:0:0:0:
32,64,118947,1,0,0:0:0:0:
480,64,118947,1,0,0:0:0:0:
416,64,118947,1,0,0:0:0:0:
224,64,118947,1,0,0:0:0:0:
64,0,119047,5,0,0:0:0:0:
0,0,119047,1,0,0:0:0:0:
192,0,119047,1,0,0:0:0:0:
256,0,119047,1,0,0:0:0:0:
128,0,119047,1,0,0:0:0:0:
320,0,119047,2,0,L|320:144,1,140
512,0,119047,2,0,L|512:144,1,140
64,64,119441,5,0,0:0:0:0:
512,64,119441,1,0,0:0:0:0:
448,64,119441,1,0,0:0:0:0:
0,64,119441,1,0,0:0:0:0:
128,64,119441,1,0,0:0:0:0:
384,64,119441,2,0,L|384:208,1,140
192,64,119441,2,0,L|192:208,1,140
384,128,119836,1,0,0:0:0:0:
320,128,119836,1,0,0:0:0:0:
512,128,119836,1,0,0:0:0:0:
448,128,119836,1,0,0:0:0:0:
256,128,119836,1,0,0:0:0:0:
0,128,119836,2,0,L|0:272,1,140
192,128,119836,2,0,L|192:272,1,140
64,64,120231,5,0,0:0:0:0:
128,64,120231,1,0,0:0:0:0:
0,64,120231,1,0,0:0:0:0:
512,64,120231,1,0,0:0:0:0:
448,64,120231,1,0,0:0:0:0:
192,128,120231,2,0,L|-16:128,2,140
372,132,120231,2,0,L|580:132,2,140
284,64,120428,1,0,0:0:0:0:
64,64,120625,5,0,0:0:0:0:
448,64,120625,1,0,0:0:0:0:
512,64,120625,1,0,0:0:0:0:
0,64,120625,1,0,0:0:0:0:
128,64,120625,1,0,0:0:0:0:
128,0,122204,1,0,0:0:0:0:
256,0,122204,1,0,0:0:0:0:
192,0,122204,1,0,0:0:0:0:
448,0,122204,1,0,0:0:0:0:
384,0,122204,1,0,0:0:0:0:
320,0,122204,1,0,0:0:0:0:
512,0,122204,1,0,0:0:0:0:
64,64,122598,5,0,0:0:0:0:
256,64,122598,1,0,0:0:0:0:
0,64,122598,1,0,0:0:0:0:
320,64,122598,1,0,0:0:0:0:
512,64,122598,1,0,0:0:0:0:
384,64,122598,1,0,0:0:0:0:
448,64,122598,1,0,0:0:0:0:
64,128,122993,5,0,0:0:0:0:
0,128,122993,1,0,0:0:0:0:
128,128,122993,1,0,0:0:0:0:
192,128,122993,1,0,0:0:0:0:
448,128,122993,1,0,0:0:0:0:
384,128,122993,1,0,0:0:0:0:
512,128,122993,1,0,0:0:0:0:
64,192,123388,5,0,0:0:0:0:
256,192,123388,1,0,0:0:0:0:
0,192,123388,1,0,0:0:0:0:
320,192,123388,1,0,0:0:0:0:
512,192,123388,1,0,0:0:0:0:
384,192,123388,1,0,0:0:0:0:
448,192,123388,1,0,0:0:0:0:
384,0,123783,1,0,0:0:0:0:
256,0,123783,1,0,0:0:0:0:
320,0,123783,1,0,0:0:0:0:
64,0,123783,1,0,0:0:0:0:
128,0,123783,1,0,0:0:0:0:
192,0,123783,1,0,0:0:0:0:
0,0,123783,1,0,0:0:0:0:
448,64,124177,5,0,0:0:0:0:
128,64,124177,1,0,0:0:0:0:
64,64,124177,1,0,0:0:0:0:
0,64,124177,1,0,0:0:0:0:
512,64,124177,1,0,0:0:0:0:
192,64,124177,1,0,0:0:0:0:
256,64,124177,1,0,0:0:0:0:
448,128,124572,5,0,0:0:0:0:
320,128,124572,1,0,0:0:0:0:
512,128,124572,1,0,0:0:0:0:
384,128,124572,1,0,0:0:0:0:
64,128,124572,1,0,0:0:0:0:
128,128,124572,1,0,0:0:0:0:
0,128,124572,1,0,0:0:0:0:
448,192,124967,5,0,0:0:0:0:
128,192,124967,1,0,0:0:0:0:
64,192,124967,1,0,0:0:0:0:
0,192,124967,1,0,0:0:0:0:
512,192,124967,1,0,0:0:0:0:
192,192,124967,1,0,0:0:0:0:
256,192,124967,1,0,0:0:0:0:
32,0,125362,5,0,0:0:0:0:
480,0,125362,1,0,0:0:0:0:
416,0,125362,1,0,0:0:0:0:
224,0,125362,1,0,0:0:0:0:
352,0,125362,1,0,0:0:0:0:
288,0,125362,1,0,0:0:0:0:
64,64,125559,5,0,0:0:0:0:
128,64,125559,1,0,0:0:0:0:
0,64,125559,1,0,0:0:0:0:
320,64,125559,1,0,0:0:0:0:
512,64,125559,1,0,0:0:0:0:
384,64,125559,1,0,0:0:0:0:
448,64,125559,1,0,0:0:0:0:
480,128,125756,5,0,0:0:0:0:
288,128,125756,1,0,0:0:0:0:
96,128,125756,1,0,0:0:0:0:
32,128,125756,1,0,0:0:0:0:
224,128,125756,1,0,0:0:0:0:
160,128,125756,1,0,0:0:0:0:
448,192,125953,5,0,0:0:0:0:
64,192,125953,1,0,0:0:0:0:
128,192,125953,1,0,0:0:0:0:
192,192,125953,1,0,0:0:0:0:
384,192,125953,1,0,0:0:0:0:
0,192,125953,1,0,0:0:0:0:
512,192,125953,1,0,0:0:0:0:
28,0,126151,5,0,0:0:0:0:
292,0,126151,1,0,0:0:0:0:
420,0,126151,1,0,0:0:0:0:
224,0,126151,1,0,0:0:0:0:
484,0,126151,1,0,0:0:0:0:
356,0,126151,1,0,0:0:0:0:
64,64,126348,5,0,0:0:0:0:
384,64,126348,1,0,0:0:0:0:
448,64,126348,1,0,0:0:0:0:
512,64,126348,1,0,0:0:0:0:
0,64,126348,1,0,0:0:0:0:
320,64,126348,1,0,0:0:0:0:
128,64,126348,1,0,0:0:0:0:
480,128,126545,5,0,0:0:0:0:
160,128,126545,1,0,0:0:0:0:
96,128,126545,1,0,0:0:0:0:
32,128,126545,1,0,0:0:0:0:
288,128,126545,1,0,0:0:0:0:
224,128,126545,1,0,0:0:0:0:
448,192,126742,5,0,0:0:0:0:
0,192,126742,1,0,0:0:0:0:
512,192,126742,1,0,0:0:0:0:
384,192,126742,1,0,0:0:0:0:
128,192,126742,1,0,0:0:0:0:
192,192,126742,1,0,0:0:0:0:
64,192,126742,1,0,0:0:0:0:
28,0,126941,5,0,0:0:0:0:
484,0,126941,1,0,0:0:0:0:
420,0,126941,1,0,0:0:0:0:
92,0,126941,1,0,0:0:0:0:
356,0,126941,1,0,0:0:0:0:
292,0,126941,1,0,0:0:0:0:
28,0,127039,5,0,0:0:0:0:
92,0,127039,1,0,0:0:0:0:
484,0,127039,1,0,0:0:0:0:
420,0,127039,1,0,0:0:0:0:
356,0,127039,1,0,0:0:0:0:
292,0,127039,1,0,0:0:0:0:
484,64,127138,5,0,0:0:0:0:
420,64,127138,1,0,0:0:0:0:
92,64,127138,1,0,0:0:0:0:
28,64,127138,1,0,0:0:0:0:
220,64,127138,1,0,0:0:0:0:
156,64,127138,1,0,0:0:0:0:
484,64,127236,5,0,0:0:0:0:
92,64,127236,1,0,0:0:0:0:
220,64,127236,1,0,0:0:0:0:
156,64,127236,1,0,0:0:0:0:
28,64,127236,1,0,0:0:0:0:
420,64,127236,1,0,0:0:0:0:
28,0,127335,5,0,0:0:0:0:
356,0,127335,1,0,0:0:0:0:
420,0,127335,1,0,0:0:0:0:
484,0,127335,1,0,0:0:0:0:
92,0,127335,1,0,0:0:0:0:
292,0,127335,1,0,0:0:0:0:
28,0,127433,5,0,0:0:0:0:
92,0,127433,1,0,0:0:0:0:
292,0,127433,1,0,0:0:0:0:
356,0,127433,1,0,0:0:0:0:
420,0,127433,1,0,0:0:0:0:
484,0,127433,1,0,0:0:0:0:
484,64,127532,5,0,0:0:0:0:
156,64,127532,1,0,0:0:0:0:
220,64,127532,1,0,0:0:0:0:
28,64,127532,1,0,0:0:0:0:
92,64,127532,1,0,0:0:0:0:
420,64,127532,1,0,0:0:0:0:
484,64,127630,5,0,0:0:0:0:
28,64,127630,1,0,0:0:0:0:
156,64,127630,1,0,0:0:0:0:
420,64,127630,1,0,0:0:0:0:
220,64,127630,1,0,0:0:0:0:
92,64,127630,1,0,0:0:0:0:
28,0,127730,5,0,0:0:0:0:
92,0,127730,1,0,0:0:0:0:
292,0,127730,1,0,0:0:0:0:
356,0,127730,1,0,0:0:0:0:
420,0,127730,1,0,0:0:0:0:
484,0,127730,1,0,0:0:0:0:
384,0,128520,1,0,0:0:0:0:
320,0,128520,1,0,0:0:0:0:
512,0,128520,1,0,0:0:0:0:
448,0,128520,1,0,0:0:0:0:
128,0,128520,1,0,0:0:0:0:
256,0,128520,1,0,0:0:0:0:
192,0,128520,1,0,0:0:0:0:
64,64,128915,5,0,0:0:0:0:
256,64,128915,1,0,0:0:0:0:
0,64,128915,1,0,0:0:0:0:
320,64,128915,1,0,0:0:0:0:
384,64,128915,1,0,0:0:0:0:
448,64,128915,1,0,0:0:0:0:
512,64,128915,1,0,0:0:0:0:
384,128,129310,1,0,0:0:0:0:
320,128,129310,1,0,0:0:0:0:
512,128,129310,1,0,0:0:0:0:
448,128,129310,1,0,0:0:0:0:
0,128,129310,1,0,0:0:0:0:
256,128,129310,1,0,0:0:0:0:
192,128,129310,1,0,0:0:0:0:
64,192,129704,5,0,0:0:0:0:
128,192,129704,1,0,0:0:0:0:
0,192,129704,1,0,0:0:0:0:
320,192,129704,1,0,0:0:0:0:
384,192,129704,1,0,0:0:0:0:
448,192,129704,1,0,0:0:0:0:
512,192,129704,1,0,0:0:0:0:
64,256,130099,5,0,0:0:0:0:
384,256,130099,1,0,0:0:0:0:
320,256,130099,1,0,0:0:0:0:
512,256,130099,1,0,0:0:0:0:
448,256,130099,1,0,0:0:0:0:
0,256,130099,1,0,0:0:0:0:
256,256,130099,1,0,0:0:0:0:
64,320,130494,5,0,0:0:0:0:
128,320,130494,1,0,0:0:0:0:
192,320,130494,1,0,0:0:0:0:
0,320,130494,1,0,0:0:0:0:
384,320,130494,1,0,0:0:0:0:
448,320,130494,1,0,0:0:0:0:
512,320,130494,1,0,0:0:0:0:
64,0,130889,5,0,0:0:0:0:
384,0,130889,1,0,0:0:0:0:
320,0,130889,1,0,0:0:0:0:
512,0,130889,1,0,0:0:0:0:
448,0,130889,1,0,0:0:0:0:
0,0,130889,1,0,0:0:0:0:
128,0,130889,1,0,0:0:0:0:
64,64,131283,5,0,0:0:0:0:
128,64,131283,1,0,0:0:0:0:
192,64,131283,1,0,0:0:0:0:
256,64,131283,1,0,0:0:0:0:
0,64,131283,1,0,0:0:0:0:
448,64,131283,1,0,0:0:0:0:
512,64,131283,1,0,0:0:0:0:
128,0,131678,1,0,0:0:0:0:
192,0,131678,1,0,0:0:0:0:
0,0,131678,1,0,0:0:0:0:
64,0,131678,1,0,0:0:0:0:
384,0,131678,1,0,0:0:0:0:
256,0,131678,1,0,0:0:0:0:
320,0,131678,1,0,0:0:0:0:
448,64,132073,5,0,0:0:0:0:
128,64,132073,1,0,0:0:0:0:
64,64,132073,1,0,0:0:0:0:
0,64,132073,1,0,0:0:0:0:
192,64,132073,1,0,0:0:0:0:
256,64,132073,1,0,0:0:0:0:
512,64,132073,1,0,0:0:0:0:
128,128,132468,1,0,0:0:0:0:
192,128,132468,1,0,0:0:0:0:
0,128,132468,1,0,0:0:0:0:
64,128,132468,1,0,0:0:0:0:
512,128,132468,1,0,0:0:0:0:
256,128,132468,1,0,0:0:0:0:
320,128,132468,1,0,0:0:0:0:
448,192,132862,5,0,0:0:0:0:
128,192,132862,1,0,0:0:0:0:
64,192,132862,1,0,0:0:0:0:
0,192,132862,1,0,0:0:0:0:
192,192,132862,1,0,0:0:0:0:
384,192,132862,1,0,0:0:0:0:
512,192,132862,1,0,0:0:0:0:
448,256,133257,5,0,0:0:0:0:
128,256,133257,1,0,0:0:0:0:
192,256,133257,1,0,0:0:0:0:
0,256,133257,1,0,0:0:0:0:
256,256,133257,1,0,0:0:0:0:
64,256,133257,1,0,0:0:0:0:
512,256,133257,1,0,0:0:0:0:
448,320,133652,5,0,0:0:0:0:
128,320,133652,1,0,0:0:0:0:
64,320,133652,1,0,0:0:0:0:
0,320,133652,1,0,0:0:0:0:
512,320,133652,1,0,0:0:0:0:
384,320,133652,1,0,0:0:0:0:
320,320,133652,1,0,0:0:0:0:
448,0,134047,5,0,0:0:0:0:
128,0,134047,1,0,0:0:0:0:
192,0,134047,1,0,0:0:0:0:
0,0,134047,1,0,0:0:0:0:
384,0,134047,1,0,0:0:0:0:
64,0,134047,1,0,0:0:0:0:
512,0,134047,1,0,0:0:0:0:
448,64,134244,5,0,0:0:0:0:
128,64,134244,1,0,0:0:0:0:
384,64,134244,1,0,0:0:0:0:
320,64,134244,1,0,0:0:0:0:
0,64,134244,1,0,0:0:0:0:
512,64,134244,1,0,0:0:0:0:
64,64,134244,1,0,0:0:0:0:
448,64,134441,5,0,0:0:0:0:
512,64,134441,1,0,0:0:0:0:
64,64,134441,1,0,0:0:0:0:
0,64,134441,1,0,0:0:0:0:
128,64,134441,1,0,0:0:0:0:
384,64,134441,1,0,0:0:0:0:
320,64,134441,1,0,0:0:0:0:
384,0,134836,1,0,0:0:0:0:
320,0,134836,1,0,0:0:0:0:
512,0,134836,1,0,0:0:0:0:
448,0,134836,1,0,0:0:0:0:
0,0,134836,1,0,0:0:0:0:
256,0,134836,1,0,0:0:0:0:
192,0,134836,1,0,0:0:0:0:
32,64,135033,5,0,0:0:0:0:
224,64,135033,1,0,0:0:0:0:
288,64,135033,1,0,0:0:0:0:
352,64,135033,1,0,0:0:0:0:
416,64,135033,1,0,0:0:0:0:
480,64,135033,1,0,0:0:0:0:
80,128,135231,5,0,0:0:0:0:
400,128,135231,1,0,0:0:0:0:
336,128,135231,1,0,0:0:0:0:
464,128,135231,1,0,0:0:0:0:
16,128,135231,1,0,0:0:0:0:
272,128,135231,1,0,0:0:0:0:
80,192,135428,5,0,0:0:0:0:
144,192,135428,1,0,0:0:0:0:
16,192,135428,1,0,0:0:0:0:
336,192,135428,1,0,0:0:0:0:
400,192,135428,1,0,0:0:0:0:
464,192,135428,1,0,0:0:0:0:
64,0,135625,5,0,0:0:0:0:
512,0,135625,1,0,0:0:0:0:
448,0,135625,1,0,0:0:0:0:
0,0,135625,1,0,0:0:0:0:
128,0,135625,1,0,0:0:0:0:
256,0,135625,1,0,0:0:0:0:
192,0,135625,1,0,0:0:0:0:
80,64,135823,5,0,0:0:0:0:
144,64,135823,1,0,0:0:0:0:
208,64,135823,1,0,0:0:0:0:
272,64,135823,1,0,0:0:0:0:
16,64,135823,1,0,0:0:0:0:
464,64,135823,1,0,0:0:0:0:
64,128,136020,5,0,0:0:0:0:
384,128,136020,1,0,0:0:0:0:
320,128,136020,1,0,0:0:0:0:
512,128,136020,1,0,0:0:0:0:
448,128,136020,1,0,0:0:0:0:
0,128,136020,1,0,0:0:0:0:
128,128,136020,1,0,0:0:0:0:
48,192,136218,5,0,0:0:0:0:
112,192,136218,1,0,0:0:0:0:
304,192,136218,1,0,0:0:0:0:
368,192,136218,1,0,0:0:0:0:
432,192,136218,1,0,0:0:0:0:
496,192,136218,1,0,0:0:0:0:
64,0,136415,5,0,0:0:0:0:
512,0,136415,1,0,0:0:0:0:
448,0,136415,1,0,0:0:0:0:
0,0,136415,1,0,0:0:0:0:
128,0,136415,1,0,0:0:0:0:
192,0,136415,2,0,L|272:144,1,140
384,0,136416,2,0,L|464:144,1,140
64,128,136810,5,0,0:0:0:0:
384,128,136810,1,0,0:0:0:0:
320,128,136810,1,0,0:0:0:0:
512,128,136810,1,0,0:0:0:0:
448,128,136810,1,0,0:0:0:0:
0,128,136810,1,0,0:0:0:0:
128,128,136810,1,0,0:0:0:0:
64,192,137007,5,0,0:0:0:0:
128,192,137007,1,0,0:0:0:0:
192,192,137007,1,0,0:0:0:0:
256,192,137007,1,0,0:0:0:0:
0,192,137007,1,0,0:0:0:0:
448,192,137007,1,0,0:0:0:0:
512,192,137007,1,0,0:0:0:0:
64,256,137204,5,0,0:0:0:0:
384,256,137204,1,0,0:0:0:0:
512,256,137204,1,0,0:0:0:0:
448,256,137204,1,0,0:0:0:0:
0,256,137204,1,0,0:0:0:0:
128,256,137204,2,0,L|16:112,1,140
320,256,137205,2,0,L|208:112,1,140
320,256,137598,2,0,L|432:112,1,140
448,256,137599,1,0,0:0:0:0:
512,256,137599,1,0,0:0:0:0:
0,256,137599,1,0,0:0:0:0:
384,256,137599,1,0,0:0:0:0:
64,256,137599,1,0,0:0:0:0:
128,256,137600,2,0,L|240:112,1,140
64,0,137994,5,0,0:0:0:0:
320,0,137994,1,0,0:0:0:0:
512,0,137994,1,0,0:0:0:0:
0,0,137994,1,0,0:0:0:0:
128,0,137994,1,0,0:0:0:0:
256,0,137994,1,0,0:0:0:0:
192,0,137994,1,0,0:0:0:0:
48,64,138191,5,0,0:0:0:0:
112,64,138191,1,0,0:0:0:0:
176,64,138191,1,0,0:0:0:0:
240,64,138191,1,0,0:0:0:0:
304,64,138191,1,0,0:0:0:0:
496,64,138191,1,0,0:0:0:0:
64,128,138389,5,0,0:0:0:0:
384,128,138389,1,0,0:0:0:0:
320,128,138389,1,0,0:0:0:0:
512,128,138389,1,0,0:0:0:0:
448,128,138389,1,0,0:0:0:0:
0,128,138389,1,0,0:0:0:0:
128,128,138389,1,0,0:0:0:0:
80,192,138586,5,0,0:0:0:0:
144,192,138586,1,0,0:0:0:0:
16,192,138586,1,0,0:0:0:0:
336,192,138586,1,0,0:0:0:0:
400,192,138586,1,0,0:0:0:0:
464,192,138586,1,0,0:0:0:0:
64,0,138783,5,0,0:0:0:0:
512,0,138783,1,0,0:0:0:0:
448,0,138783,1,0,0:0:0:0:
0,0,138783,1,0,0:0:0:0:
128,0,138783,1,0,0:0:0:0:
256,0,138783,1,0,0:0:0:0:
192,0,138783,1,0,0:0:0:0:
64,64,138981,5,0,0:0:0:0:
128,64,138981,1,0,0:0:0:0:
0,64,138981,1,0,0:0:0:0:
320,64,138981,1,0,0:0:0:0:
384,64,138981,1,0,0:0:0:0:
448,64,138981,1,0,0:0:0:0:
512,64,138981,1,0,0:0:0:0:
64,0,139178,5,0,0:0:0:0:
448,0,139178,1,0,0:0:0:0:
512,0,139178,1,0,0:0:0:0:
192,0,139178,1,0,0:0:0:0:
0,0,139178,1,0,0:0:0:0:
256,0,139178,1,0,0:0:0:0:
128,0,139178,1,0,0:0:0:0:
64,64,139376,5,0,0:0:0:0:
448,64,139376,1,0,0:0:0:0:
384,64,139376,1,0,0:0:0:0:
320,64,139376,1,0,0:0:0:0:
512,64,139376,1,0,0:0:0:0:
0,64,139376,1,0,0:0:0:0:
128,64,139376,1,0,0:0:0:0:
384,0,139770,1,0,0:0:0:0:
320,0,139770,1,0,0:0:0:0:
512,0,139770,1,0,0:0:0:0:
448,0,139770,1,0,0:0:0:0:
128,0,139770,1,0,0:0:0:0:
256,0,139770,1,0,0:0:0:0:
192,0,139770,1,0,0:0:0:0:
128,0,139968,1,0,0:0:0:0:
256,0,139968,1,0,0:0:0:0:
192,0,139968,1,0,0:0:0:0:
448,0,139968,1,0,0:0:0:0:
384,0,139968,1,0,0:0:0:0:
320,0,139968,1,0,0:0:0:0:
512,0,139968,1,0,0:0:0:0:
256,64,140362,1,0,0:0:0:0:
0,64,140362,1,0,0:0:0:0:
64,64,140362,1,0,0:0:0:0:
448,64,140362,1,0,0:0:0:0:
512,64,140362,1,0,0:0:0:0:
192,128,140461,1,0,0:0:0:0:
256,128,140461,1,0,0:0:0:0:
320,128,140461,1,0,0:0:0:0:
0,128,140461,1,0,0:0:0:0:
512,128,140461,1,0,0:0:0:0:
128,192,140560,1,0,0:0:0:0:
192,192,140560,1,0,0:0:0:0:
256,192,140560,1,0,0:0:0:0:
384,192,140560,1,0,0:0:0:0:
320,192,140560,1,0,0:0:0:0:
192,256,140658,1,0,0:0:0:0:
512,256,140658,1,0,0:0:0:0:
0,256,140658,1,0,0:0:0:0:
256,256,140659,1,0,0:0:0:0:
320,256,140659,1,0,0:0:0:0:
256,320,140757,1,0,0:0:0:0:
64,320,140757,1,0,0:0:0:0:
448,320,140757,1,0,0:0:0:0:
512,320,140757,1,0,0:0:0:0:
0,320,140757,1,0,0:0:0:0:
64,0,141152,5,0,0:0:0:0:
0,0,141152,1,0,0:0:0:0:
448,0,141152,1,0,0:0:0:0:
384,0,141152,1,0,0:0:0:0:
512,0,141152,1,0,0:0:0:0:
320,0,141152,2,0,P|240:64|256:112,1,140
128,0,141152,2,0,P|48:64|64:112,1,140
64,144,141547,5,0,0:0:0:0:
384,144,141547,1,0,0:0:0:0:
512,144,141547,1,0,0:0:0:0:
448,144,141547,1,0,0:0:0:0:
128,144,141547,1,0,0:0:0:0:
320,144,141547,1,0,0:0:0:0:
0,144,141547,1,0,0:0:0:0:
448,208,141744,5,0,0:0:0:0:
64,208,141744,1,0,0:0:0:0:
0,208,141744,1,0,0:0:0:0:
128,208,141744,1,0,0:0:0:0:
512,208,141744,1,0,0:0:0:0:
384,208,141744,2,0,P|464:272|448:320,1,140
192,208,141744,2,0,P|272:272|256:320,1,140
64,0,142139,5,0,0:0:0:0:
384,0,142139,1,0,0:0:0:0:
320,0,142139,1,0,0:0:0:0:
512,0,142139,1,0,0:0:0:0:
448,0,142139,1,0,0:0:0:0:
0,0,142139,1,0,0:0:0:0:
128,0,142139,1,0,0:0:0:0:
64,64,142237,5,0,0:0:0:0:
256,64,142237,1,0,0:0:0:0:
0,64,142237,1,0,0:0:0:0:
320,64,142237,1,0,0:0:0:0:
384,64,142237,1,0,0:0:0:0:
448,64,142237,1,0,0:0:0:0:
512,64,142237,1,0,0:0:0:0:
384,128,142336,1,0,0:0:0:0:
320,128,142336,1,0,0:0:0:0:
512,128,142336,1,0,0:0:0:0:
448,128,142336,1,0,0:0:0:0:
0,128,142336,1,0,0:0:0:0:
256,128,142336,1,0,0:0:0:0:
192,128,142336,1,0,0:0:0:0:
64,192,142533,5,0,0:0:0:0:
128,192,142533,1,0,0:0:0:0:
0,192,142533,1,0,0:0:0:0:
320,192,142533,1,0,0:0:0:0:
384,192,142533,1,0,0:0:0:0:
448,192,142533,1,0,0:0:0:0:
512,192,142533,1,0,0:0:0:0:
64,256,142731,5,0,0:0:0:0:
512,256,142731,1,0,0:0:0:0:
448,256,142731,1,0,0:0:0:0:
0,256,142731,1,0,0:0:0:0:
128,256,142731,1,0,0:0:0:0:
256,256,142731,1,0,0:0:0:0:
192,256,142731,1,0,0:0:0:0:
64,0,142928,5,0,0:0:0:0:
384,0,142928,1,0,0:0:0:0:
512,0,142928,1,0,0:0:0:0:
448,0,142928,1,0,0:0:0:0:
0,0,142928,1,0,0:0:0:0:
128,0,142928,1,0,0:0:0:0:
192,0,142928,1,0,0:0:0:0:
96,64,143027,5,0,0:0:0:0:
160,64,143027,1,0,0:0:0:0:
352,64,143027,1,0,0:0:0:0:
480,64,143027,1,0,0:0:0:0:
32,64,143027,1,0,0:0:0:0:
416,64,143027,1,0,0:0:0:0:
64,128,143125,5,0,0:0:0:0:
384,128,143125,1,0,0:0:0:0:
512,128,143125,1,0,0:0:0:0:
448,128,143125,1,0,0:0:0:0:
0,128,143125,1,0,0:0:0:0:
128,128,143125,1,0,0:0:0:0:
192,128,143125,1,0,0:0:0:0:
64,192,143323,5,0,0:0:0:0:
256,192,143323,1,0,0:0:0:0:
0,192,143323,1,0,0:0:0:0:
320,192,143323,1,0,0:0:0:0:
384,192,143323,1,0,0:0:0:0:
448,192,143323,1,0,0:0:0:0:
512,192,143323,1,0,0:0:0:0:
64,0,143520,5,0,0:0:0:0:
128,0,143520,1,0,0:0:0:0:
192,0,143520,1,0,0:0:0:0:
256,0,143520,1,0,0:0:0:0:
0,0,143520,1,0,0:0:0:0:
448,0,143520,1,0,0:0:0:0:
512,0,143520,1,0,0:0:0:0:
256,0,143570,1,0,0:0:0:0:
448,0,143570,1,0,0:0:0:0:
448,0,143619,1,0,0:0:0:0:
256,0,143619,1,0,0:0:0:0:
256,0,143668,1,0,0:0:0:0:
448,0,143668,1,0,0:0:0:0:
64,0,143718,5,0,0:0:0:0:
0,0,143718,1,0,0:0:0:0:
448,0,143718,1,0,0:0:0:0:
512,0,143718,1,0,0:0:0:0:
128,0,143718,1,0,0:0:0:0:
192,0,143718,1,0,0:0:0:0:
256,0,143718,1,0,0:0:0:0:
64,64,143915,5,0,0:0:0:0:
384,64,143915,1,0,0:0:0:0:
320,64,143915,1,0,0:0:0:0:
512,64,143915,1,0,0:0:0:0:
448,64,143915,1,0,0:0:0:0:
0,64,143915,1,0,0:0:0:0:
256,64,143915,1,0,0:0:0:0:
64,64,143964,1,0,0:0:0:0:
256,64,143964,1,0,0:0:0:0:
256,64,144014,1,0,0:0:0:0:
64,64,144014,1,0,0:0:0:0:
64,64,144063,1,0,0:0:0:0:
256,64,144063,1,0,0:0:0:0:
64,64,144113,5,0,0:0:0:0:
384,64,144113,1,0,0:0:0:0:
320,64,144113,1,0,0:0:0:0:
512,64,144113,1,0,0:0:0:0:
448,64,144113,1,0,0:0:0:0:
0,64,144113,1,0,0:0:0:0:
256,64,144113,1,0,0:0:0:0:
64,0,144310,5,0,0:0:0:0:
512,0,144310,1,0,0:0:0:0:
0,0,144310,1,0,0:0:0:0:
128,0,144310,1,0,0:0:0:0:
192,0,144310,1,0,0:0:0:0:
256,0,144310,2,0,L|112:0,1,140
448,0,144310,2,0,L|304:0,1,140
384,64,144704,1,0,0:0:0:0:
320,64,144704,1,0,0:0:0:0:
512,64,144704,1,0,0:0:0:0:
448,64,144704,1,0,0:0:0:0:
128,64,144704,1,0,0:0:0:0:
256,64,144704,1,0,0:0:0:0:
192,64,144704,1,0,0:0:0:0:
64,128,144902,5,0,0:0:0:0:
256,128,144902,1,0,0:0:0:0:
0,128,144902,1,0,0:0:0:0:
320,128,144902,1,0,0:0:0:0:
384,128,144902,1,0,0:0:0:0:
448,128,144902,1,0,0:0:0:0:
512,128,144902,1,0,0:0:0:0:
64,192,145099,5,0,0:0:0:0:
496,192,145099,1,0,0:0:0:0:
432,192,145099,1,0,0:0:0:0:
0,192,145099,1,0,0:0:0:0:
128,192,145099,1,0,0:0:0:0:
192,192,145099,2,0,L|368:192,2,140
368,192,145100,2,0,L|544:192,2,140
192,256,145691,1,0,0:0:0:0:
256,256,145691,1,0,0:0:0:0:
0,256,145691,1,0,0:0:0:0:
320,256,145691,1,0,0:0:0:0:
384,256,145691,1,0,0:0:0:0:
448,256,145691,1,0,0:0:0:0:
512,256,145691,1,0,0:0:0:0:
64,0,145889,5,0,0:0:0:0:
384,0,145889,1,0,0:0:0:0:
320,0,145889,1,0,0:0:0:0:
512,0,145889,1,0,0:0:0:0:
448,0,145889,1,0,0:0:0:0:
0,0,145889,1,0,0:0:0:0:
256,0,145889,1,0,0:0:0:0:
64,64,146086,5,0,0:0:0:0:
128,64,146086,1,0,0:0:0:0:
192,64,146086,1,0,0:0:0:0:
256,64,146086,1,0,0:0:0:0:
0,64,146086,1,0,0:0:0:0:
448,64,146086,1,0,0:0:0:0:
512,64,146086,1,0,0:0:0:0:
64,0,146283,5,0,0:0:0:0:
320,0,146283,1,0,0:0:0:0:
384,0,146283,1,0,0:0:0:0:
256,0,146283,1,0,0:0:0:0:
512,0,146283,1,0,0:0:0:0:
0,0,146283,1,0,0:0:0:0:
448,0,146283,1,0,0:0:0:0:
64,64,146480,5,0,0:0:0:0:
448,64,146480,1,0,0:0:0:0:
0,64,146480,1,0,0:0:0:0:
256,64,146480,1,0,0:0:0:0:
512,64,146480,1,0,0:0:0:0:
192,64,146480,1,0,0:0:0:0:
128,64,146480,1,0,0:0:0:0:
64,0,146678,5,0,0:0:0:0:
0,0,146678,1,0,0:0:0:0:
448,0,146678,1,0,0:0:0:0:
512,0,146678,1,0,0:0:0:0:
320,0,146678,1,0,0:0:0:0:
384,0,146678,1,0,0:0:0:0:
256,0,146678,1,0,0:0:0:0:
384,0,146875,1,0,0:0:0:0:
320,0,146875,1,0,0:0:0:0:
512,0,146875,1,0,0:0:0:0:
448,0,146875,1,0,0:0:0:0:
128,0,146875,1,0,0:0:0:0:
256,0,146875,1,0,0:0:0:0:
192,0,146875,1,0,0:0:0:0:
128,0,147073,1,0,0:0:0:0:
192,0,147073,1,0,0:0:0:0:
256,0,147073,1,0,0:0:0:0:
320,0,147073,1,0,0:0:0:0:
384,0,147073,1,0,0:0:0:0:
448,0,147073,1,0,0:0:0:0:
512,0,147073,1,0,0:0:0:0:
0,0,147270,1,0,0:0:0:0:
512,0,147270,1,0,0:0:0:0:
512,0,147368,1,0,0:0:0:0:
0,0,147369,1,0,0:0:0:0:
384,64,147468,1,0,0:0:0:0:
320,64,147468,1,0,0:0:0:0:
512,64,147468,1,0,0:0:0:0:
448,64,147468,1,0,0:0:0:0:
256,64,147468,1,0,0:0:0:0:
0,64,147468,2,0,P|112:112|128:160,1,140
192,64,147468,2,0,P|304:112|320:160,1,140
64,128,147862,5,0,0:0:0:0:
512,128,147862,1,0,0:0:0:0:
0,128,147862,1,0,0:0:0:0:
128,128,147862,1,0,0:0:0:0:
192,128,147862,1,0,0:0:0:0:
448,128,147862,2,0,P|352:192|304:192,1,140
256,128,147863,2,0,P|160:192|112:192,1,140
64,0,148257,5,0,0:0:0:0:
512,0,148257,1,0,0:0:0:0:
448,0,148257,1,0,0:0:0:0:
0,0,148257,1,0,0:0:0:0:
128,0,148257,1,0,0:0:0:0:
256,0,148257,1,0,0:0:0:0:
192,0,148257,1,0,0:0:0:0:
64,64,148454,5,0,0:0:0:0:
128,64,148454,1,0,0:0:0:0:
0,64,148454,1,0,0:0:0:0:
320,64,148454,1,0,0:0:0:0:
384,64,148454,1,0,0:0:0:0:
448,64,148454,1,0,0:0:0:0:
512,64,148454,1,0,0:0:0:0:
64,0,148652,5,0,0:0:0:0:
448,0,148652,1,0,0:0:0:0:
512,0,148652,1,0,0:0:0:0:
192,0,148652,1,0,0:0:0:0:
0,0,148652,1,0,0:0:0:0:
256,0,148652,1,0,0:0:0:0:
128,0,148652,1,0,0:0:0:0:
64,64,148849,5,0,0:0:0:0:
448,64,148849,1,0,0:0:0:0:
384,64,148849,1,0,0:0:0:0:
320,64,148849,1,0,0:0:0:0:
512,64,148849,1,0,0:0:0:0:
0,64,148849,1,0,0:0:0:0:
128,64,148849,1,0,0:0:0:0:
64,128,149047,5,0,0:0:0:0:
512,128,149047,1,0,0:0:0:0:
448,128,149047,1,0,0:0:0:0:
0,128,149047,1,0,0:0:0:0:
128,128,149047,1,0,0:0:0:0:
192,128,149047,2,0,P|256:224|256:272,1,140
384,128,149047,2,0,P|448:224|448:272,1,140
64,0,149441,5,0,0:0:0:0:
384,0,149441,1,0,0:0:0:0:
320,0,149441,1,0,0:0:0:0:
512,0,149441,1,0,0:0:0:0:
448,0,149441,1,0,0:0:0:0:
0,0,149441,1,0,0:0:0:0:
256,0,149441,1,0,0:0:0:0:
64,0,149540,5,0,0:0:0:0:
384,0,149540,1,0,0:0:0:0:
320,0,149540,1,0,0:0:0:0:
512,0,149540,1,0,0:0:0:0:
256,0,149540,1,0,0:0:0:0:
448,0,149540,1,0,0:0:0:0:
0,0,149540,1,0,0:0:0:0:
32,64,149639,5,0,0:0:0:0:
96,64,149639,1,0,0:0:0:0:
160,64,149639,1,0,0:0:0:0:
352,64,149639,1,0,0:0:0:0:
416,64,149639,1,0,0:0:0:0:
480,64,149639,1,0,0:0:0:0:
32,64,149738,5,0,0:0:0:0:
352,64,149738,1,0,0:0:0:0:
416,64,149738,1,0,0:0:0:0:
480,64,149738,1,0,0:0:0:0:
96,64,149738,1,0,0:0:0:0:
160,64,149738,1,0,0:0:0:0:
448,0,149836,1,0,0:0:0:0:
0,0,149836,1,0,0:0:0:0:
384,0,149836,1,0,0:0:0:0:
320,0,149836,1,0,0:0:0:0:
512,0,149836,1,0,0:0:0:0:
64,0,149836,2,0,P|96:112|160:144,1,140
256,0,149837,2,0,P|288:112|352:144,1,140
64,160,150231,5,0,0:0:0:0:
0,160,150231,1,0,0:0:0:0:
128,160,150231,1,0,0:0:0:0:
256,160,150231,1,0,0:0:0:0:
192,160,150231,1,0,0:0:0:0:
512,160,150231,2,0,L|352:160,1,140
320,160,150231,2,0,L|160:160,1,140
64,0,150625,5,0,0:0:0:0:
384,0,150625,1,0,0:0:0:0:
512,0,150625,1,0,0:0:0:0:
448,0,150625,1,0,0:0:0:0:
0,0,150625,1,0,0:0:0:0:
128,0,150625,1,0,0:0:0:0:
192,0,150625,1,0,0:0:0:0:
64,64,150823,5,0,0:0:0:0:
128,64,150823,1,0,0:0:0:0:
0,64,150823,1,0,0:0:0:0:
320,64,150823,1,0,0:0:0:0:
384,64,150823,1,0,0:0:0:0:
448,64,150823,1,0,0:0:0:0:
512,64,150823,1,0,0:0:0:0:
384,128,151020,1,0,0:0:0:0:
320,128,151020,1,0,0:0:0:0:
512,128,151020,1,0,0:0:0:0:
448,128,151020,1,0,0:0:0:0:
128,128,151020,1,0,0:0:0:0:
256,128,151020,1,0,0:0:0:0:
192,128,151020,1,0,0:0:0:0:
192,192,151218,1,0,0:0:0:0:
256,192,151218,1,0,0:0:0:0:
0,192,151218,1,0,0:0:0:0:
320,192,151218,1,0,0:0:0:0:
384,192,151218,1,0,0:0:0:0:
448,192,151218,1,0,0:0:0:0:
512,192,151218,1,0,0:0:0:0:
64,256,151415,5,0,0:0:0:0:
384,256,151415,1,0,0:0:0:0:
320,256,151415,1,0,0:0:0:0:
512,256,151415,1,0,0:0:0:0:
448,256,151415,1,0,0:0:0:0:
0,256,151415,1,0,0:0:0:0:
128,256,151415,1,0,0:0:0:0:
64,320,151612,5,0,0:0:0:0:
128,320,151612,1,0,0:0:0:0:
192,320,151612,1,0,0:0:0:0:
256,320,151612,1,0,0:0:0:0:
0,320,151612,1,0,0:0:0:0:
448,320,151612,1,0,0:0:0:0:
512,320,151612,1,0,0:0:0:0:
64,256,151810,5,0,0:0:0:0:
320,256,151810,1,0,0:0:0:0:
384,256,151810,1,0,0:0:0:0:
128,256,151810,1,0,0:0:0:0:
512,256,151810,1,0,0:0:0:0:
0,256,151810,1,0,0:0:0:0:
448,256,151810,1,0,0:0:0:0:
64,320,152007,5,0,0:0:0:0:
448,320,152007,1,0,0:0:0:0:
0,320,152007,1,0,0:0:0:0:
256,320,152007,1,0,0:0:0:0:
512,320,152007,1,0,0:0:0:0:
192,320,152007,1,0,0:0:0:0:
128,320,152007,1,0,0:0:0:0:
64,0,152402,5,0,0:0:0:0:
512,0,152402,1,0,0:0:0:0:
448,0,152402,1,0,0:0:0:0:
0,0,152402,1,0,0:0:0:0:
192,0,152402,1,0,0:0:0:0:
128,0,152402,1,0,0:0:0:0:
256,0,152402,1,0,0:0:0:0:
448,64,152599,5,0,0:0:0:0:
512,64,152599,1,0,0:0:0:0:
0,64,152599,1,0,0:0:0:0:
64,64,152599,1,0,0:0:0:0:
320,64,152599,1,0,0:0:0:0:
384,64,152599,1,0,0:0:0:0:
256,64,152599,1,0,0:0:0:0:
88,0,152994,5,0,0:0:0:0:
472,0,152994,1,0,0:0:0:0:
280,0,152994,1,0,0:0:0:0:
152,0,152994,1,0,0:0:0:0:
216,0,152994,1,0,0:0:0:0:
24,0,152994,1,0,0:0:0:0:
56,0,152994,1,0,0:0:0:0:
120,0,152994,1,0,0:0:0:0:
184,0,152994,1,0,0:0:0:0:
248,0,152994,1,0,0:0:0:0:
496,0,152994,1,0,0:0:0:0:
424,64,153191,5,0,0:0:0:0:
456,64,153191,1,0,0:0:0:0:
488,64,153191,1,0,0:0:0:0:
392,64,153191,1,0,0:0:0:0:
264,64,153191,1,0,0:0:0:0:
328,64,153191,1,0,0:0:0:0:
40,64,153191,1,0,0:0:0:0:
232,64,153191,1,0,0:0:0:0:
296,64,153191,1,0,0:0:0:0:
360,64,153191,1,0,0:0:0:0:
8,64,153191,1,0,0:0:0:0:
64,256,153783,5,0,0:0:0:0:
448,256,153783,1,0,0:0:0:0:
0,256,153783,1,0,0:0:0:0:
128,256,153783,1,0,0:0:0:0:
384,256,153783,1,0,0:0:0:0:
512,256,153783,1,0,0:0:0:0:
64,320,153882,5,0,0:0:0:0:
288,320,153882,1,0,0:0:0:0:
224,320,153882,1,0,0:0:0:0:
512,320,153882,1,0,0:0:0:0:
448,320,153882,1,0,0:0:0:0:
0,320,153882,1,0,0:0:0:0:
64,384,153981,5,0,0:0:0:0:
448,384,153981,1,0,0:0:0:0:
0,384,153981,1,0,0:0:0:0:
128,384,153981,1,0,0:0:0:0:
384,384,153981,1,0,0:0:0:0:
512,384,153981,1,0,0:0:0:0:
256,0,154178,1,0,0:0:0:0:
256,64,154277,1,0,0:0:0:0:
192,64,154277,1,0,0:0:0:0:
320,64,154277,1,0,0:0:0:0:
256,128,154375,1,0,0:0:0:0:
192,128,154375,1,0,0:0:0:0:
128,128,154375,1,0,0:0:0:0:
320,128,154375,1,0,0:0:0:0:
384,128,154375,1,0,0:0:0:0:
64,0,154573,5,0,0:0:0:0:
384,0,154573,1,0,0:0:0:0:
512,0,154573,1,0,0:0:0:0:
448,0,154573,1,0,0:0:0:0:
0,0,154573,1,0,0:0:0:0:
128,0,154573,1,0,0:0:0:0:
64,64,154770,5,0,0:0:0:0:
512,64,154770,1,0,0:0:0:0:
448,64,154770,1,0,0:0:0:0:
0,64,154770,1,0,0:0:0:0:
256,64,154770,1,0,0:0:0:0:
192,128,154869,1,0,0:0:0:0:
256,128,154869,1,0,0:0:0:0:
0,128,154869,1,0,0:0:0:0:
320,128,154869,1,0,0:0:0:0:
512,128,154869,1,0,0:0:0:0:
384,192,154968,1,0,0:0:0:0:
320,192,154968,1,0,0:0:0:0:
128,192,154968,1,0,0:0:0:0:
256,192,154968,1,0,0:0:0:0:
192,192,154968,1,0,0:0:0:0:
64,0,155165,5,0,0:0:0:0:
512,0,155165,1,0,0:0:0:0:
448,0,155165,1,0,0:0:0:0:
0,0,155165,1,0,0:0:0:0:
0,0,155362,1,0,0:0:0:0:
320,0,155362,1,0,0:0:0:0:
384,0,155362,1,0,0:0:0:0:
448,0,155362,1,0,0:0:0:0:
512,0,155362,1,0,0:0:0:0:
256,0,155362,2,0,P|208:64|256:128,1,140
64,0,155363,2,0,P|16:64|64:128,1,140
96,64,155757,5,0,0:0:0:0:
352,64,155757,1,0,0:0:0:0:
480,64,155757,1,0,0:0:0:0:
416,64,155757,1,0,0:0:0:0:
32,64,155757,1,0,0:0:0:0:
160,64,155757,1,0,0:0:0:0:
96,64,155856,5,0,0:0:0:0:
416,64,155856,1,0,0:0:0:0:
32,64,155856,1,0,0:0:0:0:
160,64,155856,1,0,0:0:0:0:
352,64,155856,1,0,0:0:0:0:
480,64,155856,1,0,0:0:0:0:
288,128,155954,1,0,0:0:0:0:
224,128,155954,1,0,0:0:0:0:
224,128,156053,1,0,0:0:0:0:
288,128,156053,1,0,0:0:0:0:
0,0,156152,5,0,0:0:0:0:
48,0,156177,1,0,0:0:0:0:
96,0,156202,1,0,0:0:0:0:
144,0,156226,1,0,0:0:0:0:
192,0,156251,1,0,0:0:0:0:
240,0,156276,1,0,0:0:0:0:
288,0,156300,1,0,0:0:0:0:
336,0,156325,1,0,0:0:0:0:
384,0,156350,1,0,0:0:0:0:
336,0,156374,1,0,0:0:0:0:
288,0,156399,1,0,0:0:0:0:
240,0,156424,1,0,0:0:0:0:
192,0,156448,1,0,0:0:0:0:
144,0,156473,1,0,0:0:0:0:
96,0,156498,1,0,0:0:0:0:
48,0,156522,1,0,0:0:0:0:
512,64,156547,1,0,0:0:0:0:
0,0,156547,1,0,0:0:0:0:
464,64,156572,1,0,0:0:0:0:
416,64,156597,1,0,0:0:0:0:
368,64,156621,1,0,0:0:0:0:
320,64,156646,1,0,0:0:0:0:
272,64,156671,1,0,0:0:0:0:
224,64,156695,1,0,0:0:0:0:
176,64,156720,1,0,0:0:0:0:
128,64,156745,1,0,0:0:0:0:
176,64,156769,1,0,0:0:0:0:
224,64,156794,1,0,0:0:0:0:
272,64,156819,1,0,0:0:0:0:
320,64,156843,1,0,0:0:0:0:
368,64,156868,1,0,0:0:0:0:
416,64,156893,1,0,0:0:0:0:
464,64,156917,1,0,0:0:0:0:
64,0,156941,5,0,0:0:0:0:
0,0,156941,1,0,0:0:0:0:
128,0,156941,1,0,0:0:0:0:
64,0,157139,5,0,0:0:0:0:
0,0,157139,1,0,0:0:0:0:
128,0,157139,1,0,0:0:0:0:
256,0,157139,1,0,0:0:0:0:
192,0,157139,1,0,0:0:0:0:
512,0,157139,1,0,0:0:0:0:
320,0,157139,1,0,0:0:0:0:
480,32,157188,1,0,0:0:0:0:
96,32,157189,5,0,0:0:0:0:
160,32,157189,1,0,0:0:0:0:
224,32,157189,1,0,0:0:0:0:
288,32,157189,1,0,0:0:0:0:
32,32,157189,1,0,0:0:0:0:
448,64,157237,1,0,0:0:0:0:
64,64,157238,5,0,0:0:0:0:
0,64,157238,1,0,0:0:0:0:
128,64,157238,1,0,0:0:0:0:
256,64,157238,1,0,0:0:0:0:
192,64,157238,1,0,0:0:0:0:
96,96,157287,5,0,0:0:0:0:
480,96,157287,1,0,0:0:0:0:
160,96,157287,1,0,0:0:0:0:
224,96,157287,1,0,0:0:0:0:
288,96,157287,1,0,0:0:0:0:
32,96,157287,1,0,0:0:0:0:
512,128,157336,1,0,0:0:0:0:
64,128,157337,5,0,0:0:0:0:
320,128,157337,1,0,0:0:0:0:
0,128,157337,1,0,0:0:0:0:
128,128,157337,1,0,0:0:0:0:
256,128,157337,1,0,0:0:0:0:
192,128,157337,1,0,0:0:0:0:
64,192,157533,5,0,0:0:0:0:
384,192,157533,1,0,0:0:0:0:
512,192,157533,1,0,0:0:0:0:
448,192,157533,1,0,0:0:0:0:
0,192,157533,1,0,0:0:0:0:
128,192,157533,1,0,0:0:0:0:
192,192,157533,1,0,0:0:0:0:
192,256,157731,1,0,0:0:0:0:
256,256,157731,1,0,0:0:0:0:
0,256,157731,1,0,0:0:0:0:
320,256,157731,1,0,0:0:0:0:
384,256,157731,1,0,0:0:0:0:
448,256,157731,1,0,0:0:0:0:
512,256,157731,1,0,0:0:0:0:
64,0,157928,5,0,0:0:0:0:
512,0,157928,1,0,0:0:0:0:
384,0,157928,1,0,0:0:0:0:
320,0,157928,1,0,0:0:0:0:
448,0,157928,1,0,0:0:0:0:
128,0,157928,1,0,0:0:0:0:
0,0,157928,1,0,0:0:0:0:
160,32,157977,1,0,0:0:0:0:
32,32,157977,1,0,0:0:0:0:
96,32,157977,1,0,0:0:0:0:
352,32,157978,1,0,0:0:0:0:
416,32,157978,1,0,0:0:0:0:
480,32,157978,1,0,0:0:0:0:
192,64,158026,1,0,0:0:0:0:
512,64,158027,1,0,0:0:0:0:
448,64,158027,1,0,0:0:0:0:
384,64,158027,1,0,0:0:0:0:
0,64,158027,1,0,0:0:0:0:
64,64,158027,1,0,0:0:0:0:
128,64,158027,1,0,0:0:0:0:
416,96,158076,1,0,0:0:0:0:
352,96,158076,1,0,0:0:0:0:
160,96,158076,1,0,0:0:0:0:
480,96,158076,1,0,0:0:0:0:
32,96,158076,1,0,0:0:0:0:
96,96,158076,1,0,0:0:0:0:
128,128,158125,1,0,0:0:0:0:
64,128,158126,5,0,0:0:0:0:
512,128,158126,1,0,0:0:0:0:
384,128,158126,1,0,0:0:0:0:
448,128,158126,1,0,0:0:0:0:
320,128,158126,1,0,0:0:0:0:
0,128,158126,1,0,0:0:0:0:
384,256,158323,1,0,0:0:0:0:
448,256,158323,1,0,0:0:0:0:
512,256,158323,1,0,0:0:0:0:
320,256,158323,1,0,0:0:0:0:
192,256,158323,1,0,0:0:0:0:
256,256,158323,1,0,0:0:0:0:
0,256,158323,1,0,0:0:0:0:
64,0,158520,5,0,0:0:0:0:
384,0,158520,1,0,0:0:0:0:
512,0,158520,1,0,0:0:0:0:
448,0,158520,1,0,0:0:0:0:
0,0,158520,1,0,0:0:0:0:
128,0,158520,2,0,L|272:0,4,129.499999505997
320,0,158521,2,0,L|464:0,4,129.499999505997
64,64,158718,5,0,0:0:0:0:
128,64,158718,1,0,0:0:0:0:
192,64,158718,1,0,0:0:0:0:
0,64,158718,1,0,0:0:0:0:
512,64,158718,1,0,0:0:0:0:
64,0,158915,5,0,0:0:0:0:
0,0,158915,1,0,0:0:0:0:
384,0,158915,1,0,0:0:0:0:
512,0,158915,1,0,0:0:0:0:
448,0,158915,1,0,0:0:0:0:
64,64,159112,5,0,0:0:0:0:
128,64,159112,1,0,0:0:0:0:
192,64,159112,1,0,0:0:0:0:
512,64,159112,1,0,0:0:0:0:
0,64,159112,1,0,0:0:0:0:
64,0,159310,5,0,0:0:0:0:
448,0,159310,1,0,0:0:0:0:
512,0,159310,1,0,0:0:0:0:
0,0,159310,1,0,0:0:0:0:
384,0,159310,1,0,0:0:0:0:
64,64,159507,5,0,0:0:0:0:
512,64,159507,1,0,0:0:0:0:
448,64,159507,1,0,0:0:0:0:
0,64,159507,1,0,0:0:0:0:
256,64,159507,1,0,0:0:0:0:
64,64,159704,5,0,0:0:0:0:
0,64,159704,1,0,0:0:0:0:
256,64,159704,1,0,0:0:0:0:
448,64,159704,1,0,0:0:0:0:
512,64,159704,1,0,0:0:0:0:
0,0,159902,1,0,0:0:0:0:
512,0,159902,1,0,0:0:0:0:
0,64,160000,1,0,0:0:0:0:
64,64,160000,1,0,0:0:0:0:
448,64,160001,1,0,0:0:0:0:
512,64,160001,1,0,0:0:0:0:
384,128,160099,1,0,0:0:0:0:
320,128,160099,1,0,0:0:0:0:
512,128,160099,1,0,0:0:0:0:
448,128,160099,1,0,0:0:0:0:
0,128,160099,1,0,0:0:0:0:
256,128,160099,2,0,P|208:208|256:272,1,140
64,128,160100,2,0,P|16:208|64:272,1,140
448,240,160494,1,0,0:0:0:0:
192,240,160494,2,0,P|240:320|192:384,1,140
128,240,160494,1,0,0:0:0:0:
0,240,160494,1,0,0:0:0:0:
64,240,160494,1,0,0:0:0:0:
512,240,160494,1,0,0:0:0:0:
384,240,160495,2,0,P|432:320|384:384,1,140
448,0,160888,5,0,0:0:0:0:
512,0,160888,1,0,0:0:0:0:
384,0,160888,1,0,0:0:0:0:
64,0,160889,1,0,0:0:0:0:
128,0,160889,1,0,0:0:0:0:
0,0,160889,1,0,0:0:0:0:
320,0,160889,1,0,0:0:0:0:
416,32,160938,5,0,0:0:0:0:
288,32,160938,1,0,0:0:0:0:
480,32,160938,1,0,0:0:0:0:
352,32,160938,1,0,0:0:0:0:
96,32,160939,1,0,0:0:0:0:
32,32,160939,1,0,0:0:0:0:
448,64,160987,5,0,0:0:0:0:
256,64,160987,1,0,0:0:0:0:
512,64,160987,1,0,0:0:0:0:
384,64,160987,1,0,0:0:0:0:
320,64,160987,1,0,0:0:0:0:
0,64,160988,1,0,0:0:0:0:
64,64,160988,1,0,0:0:0:0:
416,96,161036,5,0,0:0:0:0:
480,96,161036,1,0,0:0:0:0:
352,96,161036,1,0,0:0:0:0:
32,96,161037,1,0,0:0:0:0:
288,96,161037,1,0,0:0:0:0:
96,96,161037,1,0,0:0:0:0:
448,128,161086,5,0,0:0:0:0:
320,128,161086,1,0,0:0:0:0:
512,128,161086,1,0,0:0:0:0:
384,128,161086,1,0,0:0:0:0:
64,128,161087,1,0,0:0:0:0:
0,128,161087,1,0,0:0:0:0:
128,128,161087,1,0,0:0:0:0:
64,192,161283,5,0,0:0:0:0:
512,192,161283,1,0,0:0:0:0:
448,192,161283,1,0,0:0:0:0:
0,192,161283,1,0,0:0:0:0:
128,192,161283,1,0,0:0:0:0:
256,192,161283,1,0,0:0:0:0:
192,192,161283,1,0,0:0:0:0:
64,256,161481,5,0,0:0:0:0:
256,256,161481,1,0,0:0:0:0:
0,256,161481,1,0,0:0:0:0:
320,256,161481,1,0,0:0:0:0:
384,256,161481,1,0,0:0:0:0:
448,256,161481,1,0,0:0:0:0:
512,256,161481,1,0,0:0:0:0:
64,384,161678,5,0,0:0:0:0:
384,384,161678,1,0,0:0:0:0:
512,384,161678,1,0,0:0:0:0:
448,384,161678,1,0,0:0:0:0:
0,384,161678,1,0,0:0:0:0:
320,384,161678,2,0,P|208:160|352:32,1,420.000016021729
128,384,161679,2,0,P|16:160|160:32,1,420.000016021729
424,52,162072,1,0,0:0:0:0:
360,52,162072,1,0,0:0:0:0:
104,51,162073,2,0,P|320:112|304:272,1,420.000016021729
40,52,162074,5,0,0:0:0:0:
296,52,162074,2,0,P|511:112|495:272,1,420.000016021729
488,52,162074,1,0,0:0:0:0:
48,272,162468,5,0,0:0:0:0:
304,272,162468,2,0,P|136:264|0:36,1,420.000016021729
495,271,162468,2,0,P|327:263|191:35,1,420.000016021729
176,272,162468,1,0,0:0:0:0:
112,272,162468,1,0,0:0:0:0:
240,272,162468,1,0,0:0:0:0:
384,68,162862,1,0,0:0:0:0:
320,68,162862,1,0,0:0:0:0:
512,68,162862,1,0,0:0:0:0:
448,68,162862,1,0,0:0:0:0:
256,68,162862,1,0,0:0:0:0:
64,0,163060,5,0,0:0:0:0:
128,0,163060,1,0,0:0:0:0:
0,0,163060,1,0,0:0:0:0:
448,0,163060,1,0,0:0:0:0:
384,0,163060,1,0,0:0:0:0:
512,0,163060,1,0,0:0:0:0:
320,0,163060,1,0,0:0:0:0:
64,128,163257,5,0,0:0:0:0:
512,128,163257,1,0,0:0:0:0:
448,128,163257,1,0,0:0:0:0:
192,128,163257,1,0,0:0:0:0:
128,128,163257,1,0,0:0:0:0:
1,128,163257,1,0,0:0:0:0:
256,128,163257,1,0,0:0:0:0:
32,160,163356,5,0,0:0:0:0:
96,160,163356,1,0,0:0:0:0:
160,160,163356,1,0,0:0:0:0:
224,160,163356,1,0,0:0:0:0:
480,160,163356,1,0,0:0:0:0:
288,160,163356,1,0,0:0:0:0:
64,192,163454,5,0,0:0:0:0:
512,192,163454,1,0,0:0:0:0:
448,192,163454,1,0,0:0:0:0:
192,192,163454,1,0,0:0:0:0:
128,192,163454,1,0,0:0:0:0:
0,192,163454,1,0,0:0:0:0:
256,192,163454,1,0,0:0:0:0:
448,256,163652,5,0,0:0:0:0:
64,256,163652,1,0,0:0:0:0:
0,256,163652,1,0,0:0:0:0:
320,256,163652,1,0,0:0:0:0:
384,256,163652,1,0,0:0:0:0:
256,256,163652,1,0,0:0:0:0:
511,256,163652,1,0,0:0:0:0:
480,288,163751,5,0,0:0:0:0:
32,288,163751,1,0,0:0:0:0:
288,288,163751,1,0,0:0:0:0:
352,288,163751,1,0,0:0:0:0:
224,288,163751,1,0,0:0:0:0:
416,288,163751,1,0,0:0:0:0:
448,320,163849,5,0,0:0:0:0:
320,320,163849,1,0,0:0:0:0:
64,320,163849,1,0,0:0:0:0:
512,320,163849,1,0,0:0:0:0:
256,320,163849,1,0,0:0:0:0:
0,320,163849,1,0,0:0:0:0:
384,320,163849,1,0,0:0:0:0:
64,0,164047,5,0,0:0:0:0:
384,0,164047,1,0,0:0:0:0:
512,0,164047,1,0,0:0:0:0:
448,0,164047,1,0,0:0:0:0:
0,0,164047,1,0,0:0:0:0:
128,0,164047,1,0,0:0:0:0:
192,0,164047,1,0,0:0:0:0:
64,64,164244,5,0,0:0:0:0:
256,64,164244,1,0,0:0:0:0:
0,64,164244,1,0,0:0:0:0:
320,64,164244,1,0,0:0:0:0:
384,64,164244,1,0,0:0:0:0:
448,64,164244,1,0,0:0:0:0:
512,64,164244,1,0,0:0:0:0:
64,0,164441,5,0,0:0:0:0:
512,0,164441,1,0,0:0:0:0:
384,0,164441,1,0,0:0:0:0:
192,0,164441,1,0,0:0:0:0:
448,0,164441,1,0,0:0:0:0:
128,0,164441,1,0,0:0:0:0:
0,0,164441,1,0,0:0:0:0:
64,64,164638,5,0,0:0:0:0:
448,64,164638,1,0,0:0:0:0:
384,64,164638,1,0,0:0:0:0:
320,64,164638,1,0,0:0:0:0:
512,64,164638,1,0,0:0:0:0:
0,64,164638,1,0,0:0:0:0:
256,64,164638,1,0,0:0:0:0:
80,0,165033,5,0,0:0:0:0:
464,0,165033,1,0,0:0:0:0:
16,0,165033,1,0,0:0:0:0:
144,0,165033,1,0,0:0:0:0:
272,0,165033,1,0,0:0:0:0:
208,0,165033,1,0,0:0:0:0:
432,64,165231,5,0,0:0:0:0:
368,64,165231,1,0,0:0:0:0:
240,64,165231,1,0,0:0:0:0:
304,64,165231,1,0,0:0:0:0:
48,64,165231,1,0,0:0:0:0:
496,64,165231,1,0,0:0:0:0:
80,0,165625,5,0,0:0:0:0:
16,0,165625,1,0,0:0:0:0:
464,0,165625,1,0,0:0:0:0:
208,0,165625,1,0,0:0:0:0:
272,0,165625,1,0,0:0:0:0:
144,0,165625,1,0,0:0:0:0:
432,64,165823,5,0,0:0:0:0:
496,64,165823,1,0,0:0:0:0:
48,64,165823,1,0,0:0:0:0:
240,64,165823,1,0,0:0:0:0:
368,64,165823,1,0,0:0:0:0:
304,64,165823,1,0,0:0:0:0:
0,192,166218,1,0,0:0:0:0:
64,192,166218,1,0,0:0:0:0:
448,192,166218,1,0,0:0:0:0:
512,192,166218,1,0,0:0:0:0:
448,0,166415,2,0,L|448:240,7,210.000008010865
512,0,166415,2,0,L|512:240,7,210.000008010865
0,0,166415,2,0,L|0:240,7,210.000008010865
64,0,166415,2,0,L|64:240,7,210.000008010865
128,208,166809,1,0,0:0:0:0:
176,208,166809,1,0,0:0:0:0:
384,208,166810,1,0,0:0:0:0:
336,208,166810,1,0,0:0:0:0:
224,144,167204,1,0,0:0:0:0:
288,144,167204,1,0,0:0:0:0:
128,80,167599,1,0,0:0:0:0:
192,80,167599,1,0,0:0:0:0:
256,80,167599,1,0,0:0:0:0:
384,16,167994,1,0,0:0:0:0:
320,16,167994,1,0,0:0:0:0:
256,16,167994,1,0,0:0:0:0:
176,208,168388,1,0,0:0:0:0:
336,208,168389,1,0,0:0:0:0:
176,208,168585,1,0,0:0:0:0:
336,208,168586,1,0,0:0:0:0:
224,0,168783,2,0,L|224:144,1,105.000004005432
288,0,168784,2,0,L|288:144,1,105.000004005432
128,0,169178,2,0,L|128:144,1,105.000004005432
384,0,169179,2,0,L|384:144,1,105.000004005432
224,0,169573,2,0,L|224:240,6,210.000008010865
288,0,169574,2,0,L|288:240,6,210.000008010865
0,144,169967,1,0,0:0:0:0:
160,144,169967,1,0,0:0:0:0:
512,144,169968,1,0,0:0:0:0:
352,144,169968,1,0,0:0:0:0:
80,144,170362,1,0,0:0:0:0:
432,144,170363,1,0,0:0:0:0:
448,144,170757,1,0,0:0:0:0:
512,144,170757,1,0,0:0:0:0:
0,144,170757,1,0,0:0:0:0:
64,144,170757,1,0,0:0:0:0:
160,144,171151,1,0,0:0:0:0:
96,144,171151,1,0,0:0:0:0:
416,144,171152,1,0,0:0:0:0:
352,144,171152,1,0,0:0:0:0:
0,144,171546,1,0,0:0:0:0:
160,144,171546,1,0,0:0:0:0:
512,144,171547,1,0,0:0:0:0:
352,144,171547,1,0,0:0:0:0:
352,144,171744,1,0,0:0:0:0:
512,144,171744,1,0,0:0:0:0:
160,144,171744,1,0,0:0:0:0:
0,144,171744,1,0,0:0:0:0:
0,0,171941,2,0,L|0:128,1,105.000004005432
512,0,171942,2,0,L|512:128,1,105.000004005432
512,80,172336,2,0,L|352:224,1,210.000008010865
0,80,172336,2,0,L|160:224,1,210.000008010865
0,0,172730,2,0,L|0:240,7,210.000008010865
448,0,172730,2,0,L|448:240,7,210.000008010865
512,0,172730,2,0,L|512:240,7,210.000008010865
64,0,172730,2,0,L|64:240,7,210.000008010865
128,192,173125,1,0,0:0:0:0:
256,192,173126,1,0,0:0:0:0:
192,192,173126,1,0,0:0:0:0:
384,128,173520,1,0,0:0:0:0:
256,128,173521,1,0,0:0:0:0:
320,128,173521,1,0,0:0:0:0:
400,64,173915,1,0,0:0:0:0:
336,64,173915,1,0,0:0:0:0:
176,64,173915,1,0,0:0:0:0:
112,64,173915,1,0,0:0:0:0:
208,0,174309,1,0,0:0:0:0:
256,0,174310,1,0,0:0:0:0:
304,0,174310,1,0,0:0:0:0:
144,0,174704,1,0,0:0:0:0:
368,0,174705,1,0,0:0:0:0:
224,64,175099,2,0,L|224:192,1,105.000004005432
288,64,175100,2,0,L|288:192,1,105.000004005432
256,0,175494,2,0,L|96:0,1,157.500006008148
256,0,175494,2,0,L|416:0,1,157.500006008148
0,0,175889,2,0,L|0:144,1,105.000004005432
512,0,175889,2,0,L|512:144,1,105.000004005432
64,0,176283,5,0,0:0:0:0:
448,0,176283,5,0,0:0:0:0:
0,0,176283,1,0,0:0:0:0:
128,0,176283,1,0,0:0:0:0:
512,0,176283,1,0,0:0:0:0:
384,0,176283,1,0,0:0:0:0:
76,60,176382,5,0,0:0:0:0:
436,60,176382,5,0,0:0:0:0:
140,60,176382,1,0,0:0:0:0:
12,60,176382,1,0,0:0:0:0:
500,60,176382,1,0,0:0:0:0:
372,60,176382,1,0,0:0:0:0:
88,120,176481,5,0,0:0:0:0:
424,120,176481,5,0,0:0:0:0:
24,120,176481,1,0,0:0:0:0:
152,120,176481,1,0,0:0:0:0:
488,120,176481,1,0,0:0:0:0:
360,120,176481,1,0,0:0:0:0:
100,180,176579,5,0,0:0:0:0:
412,180,176579,5,0,0:0:0:0:
36,180,176579,1,0,0:0:0:0:
164,180,176579,1,0,0:0:0:0:
476,180,176579,1,0,0:0:0:0:
348,180,176579,1,0,0:0:0:0:
28,0,176678,5,0,0:0:0:0:
484,0,176678,1,0,0:0:0:0:
356,0,176678,1,0,0:0:0:0:
292,0,176678,1,0,0:0:0:0:
420,0,176678,1,0,0:0:0:0:
92,0,176678,1,0,0:0:0:0:
28,0,176776,5,0,0:0:0:0:
92,0,176776,1,0,0:0:0:0:
356,0,176776,1,0,0:0:0:0:
292,0,176776,1,0,0:0:0:0:
484,0,176776,1,0,0:0:0:0:
420,0,176776,1,0,0:0:0:0:
484,64,176875,5,0,0:0:0:0:
420,64,176875,1,0,0:0:0:0:
220,64,176875,1,0,0:0:0:0:
156,64,176875,1,0,0:0:0:0:
92,64,176875,1,0,0:0:0:0:
28,64,176875,1,0,0:0:0:0:
484,64,176973,5,0,0:0:0:0:
92,64,176973,1,0,0:0:0:0:
28,64,176973,1,0,0:0:0:0:
420,64,176973,1,0,0:0:0:0:
220,64,176973,1,0,0:0:0:0:
156,64,176973,1,0,0:0:0:0:
28,0,177072,5,0,0:0:0:0:
356,0,177072,1,0,0:0:0:0:
92,0,177072,1,0,0:0:0:0:
292,0,177072,1,0,0:0:0:0:
420,0,177072,1,0,0:0:0:0:
484,0,177072,1,0,0:0:0:0:
28,0,177170,5,0,0:0:0:0:
92,0,177170,1,0,0:0:0:0:
420,0,177170,1,0,0:0:0:0:
484,0,177170,1,0,0:0:0:0:
292,0,177170,1,0,0:0:0:0:
356,0,177170,1,0,0:0:0:0:
484,64,177269,5,0,0:0:0:0:
156,64,177269,1,0,0:0:0:0:
92,64,177269,1,0,0:0:0:0:
420,64,177269,1,0,0:0:0:0:
220,64,177269,1,0,0:0:0:0:
28,64,177269,1,0,0:0:0:0:
484,64,177367,5,0,0:0:0:0:
28,64,177367,1,0,0:0:0:0:
220,64,177367,1,0,0:0:0:0:
92,64,177367,1,0,0:0:0:0:
156,64,177367,1,0,0:0:0:0:
420,64,177367,1,0,0:0:0:0:
192,0,177665,1,0,0:0:0:0:
256,0,177665,1,0,0:0:0:0:
0,0,177665,1,0,0:0:0:0:
448,0,177665,1,0,0:0:0:0:
384,0,177665,1,0,0:0:0:0:
512,0,177665,1,0,0:0:0:0:
320,0,177665,1,0,0:0:0:0:
32,64,177862,5,0,0:0:0:0:
480,64,177862,1,0,0:0:0:0:
416,64,177862,1,0,0:0:0:0:
160,64,177862,1,0,0:0:0:0:
96,64,177862,1,0,0:0:0:0:
224,64,177862,1,0,0:0:0:0:
512,128,178257,1,0,0:0:0:0:
256,128,178257,1,0,0:0:0:0:
192,128,178257,1,0,0:0:0:0:
0,128,178257,1,0,0:0:0:0:
128,128,178257,1,0,0:0:0:0:
64,128,178257,1,0,0:0:0:0:
320,128,178257,1,0,0:0:0:0:
480,192,178454,5,0,0:0:0:0:
32,192,178454,1,0,0:0:0:0:
416,192,178454,1,0,0:0:0:0:
96,192,178454,1,0,0:0:0:0:
352,192,178454,1,0,0:0:0:0:
288,192,178454,1,0,0:0:0:0:
