osu file format v14

[General]
AudioFilename: audio.ogg
AudioLeadIn: 0
PreviewTime: 136356
Countdown: 0
SampleSet: Soft
StackLeniency: 0.7
Mode: 0
LetterboxInBreaks: 0
WidescreenStoryboard: 1

[Editor]
Bookmarks: 239023
DistanceSpacing: 1.1
BeatDivisor: 4
GridSize: 16
TimelineZoom: 1.996

[Metadata]
Title:White Promise
TitleUnicode:White Promise
Artist:Nayugorou
ArtistUnicode:なゆごろう
Creator:ckharv
Version:Zekk's Insane
Source:LOST:SMILE memories + promises
Tags:ロストスマイルメモリーズ プロミセス ロッスマ Rossuma life0 opening op visual novel vn galgame galge pop jpop j-pop female vocals video game japanese Ichijou Meguru 一条 めぐる Masaki Minato 真咲 湊 Mihiro-san みひろさん Yonamine Jun 与那嶺 純 zekk matsuyuki ame matsuyuki_ame rk657 ninym
BeatmapID:3627901
BeatmapSetID:1766146

[Difficulty]
HPDrainRate:5
CircleSize:4
OverallDifficulty:8
ApproachRate:8.8
SliderMultiplier:1.6
SliderTickRate:1

[Events]
//Background and Video events
0,0,"150333.jpg",0,0
//Break Periods
2,83516,88020
2,131516,133020
2,155516,166020
2,190183,191187
//Storyboard Layer 0 (Background)
//Storyboard Layer 1 (Fail)
//Storyboard Layer 2 (Pass)
//Storyboard Layer 3 (Foreground)
//Storyboard Layer 4 (Overlay)
//Storyboard Sound Samples

[TimingPoints]
650,333.333333333333,4,2,1,45,1,0
650,-142.857142857143,4,2,1,45,0,0
5899,-142.857142857143,4,2,1,5,0,0
5983,-125,4,2,1,55,0,0
6649,-125,4,2,2,55,0,0
6816,-125,4,2,2,5,0,0
6899,-125,4,2,2,55,0,0
7066,-125,4,2,2,5,0,0
7149,-125,4,2,2,55,0,0
8649,-125,4,2,1,55,0,0
10149,-125,4,2,1,65,0,0
10316,-125,4,2,1,70,0,0
10483,-125,4,2,1,75,0,0
10649,-125,4,2,1,60,0,0
10816,-125,4,2,1,65,0,0
10983,-125,4,2,1,70,0,0
11149,-125,4,2,1,75,0,0
11316,-100,4,2,1,90,0,0
11399,-100,4,2,1,85,0,0
16566,-100,4,2,1,5,0,0
16649,-100,4,2,1,85,0,0
18233,-100,4,2,1,5,0,0
18316,-100,4,2,1,85,0,0
21983,-125,4,2,1,50,0,0
31233,-125,4,2,1,5,0,0
31316,-125,4,2,1,55,0,0
31399,-125,4,2,1,5,0,0
31816,-125,4,2,1,55,0,0
32649,-111.111111111111,4,2,1,65,0,0
32983,-111.111111111111,4,2,2,65,0,0
36899,-111.111111111111,4,2,2,5,0,0
36983,-111.111111111111,4,2,2,65,0,0
40566,-111.111111111111,4,2,1,5,0,0
40649,-111.111111111111,4,2,1,65,0,0
43233,-111.111111111111,4,2,1,5,0,0
43316,-117.647058823529,4,2,1,65,0,0
53983,-117.647058823529,4,2,1,70,0,0
59316,-111.111111111111,4,2,1,70,0,0
59483,-111.111111111111,4,2,1,65,0,0
59983,-111.111111111111,4,2,1,70,0,0
60483,-111.111111111111,4,2,1,75,0,0
60983,-111.111111111111,4,2,1,80,0,0
61483,-111.111111111111,4,2,1,85,0,0
62316,-111.111111111111,4,2,1,70,0,0
62649,-111.111111111111,4,2,1,75,0,0
62983,-111.111111111111,4,2,1,80,0,0
63316,-111.111111111111,4,2,1,85,0,0
63816,-111.111111111111,4,2,1,100,0,0
64483,-111.111111111111,4,2,1,85,0,0
64649,-100,4,2,1,90,0,1
65149,-100,4,2,1,85,0,1
66733,-100,4,2,1,5,0,1
66816,-100,4,2,1,85,0,1
68233,-100,4,2,1,5,0,1
68316,-100,4,2,1,85,0,1
72066,-100,4,2,1,5,0,1
72149,-100,4,2,1,85,0,1
73733,-100,4,2,1,5,0,1
73816,-100,4,2,1,85,0,1
74816,-100,4,2,1,75,0,1
75066,-100,4,2,1,80,0,1
75274,-100,4,2,1,85,0,1
75316,-100,4,2,1,90,0,1
75649,-100,4,2,1,85,0,1
82149,-100,4,2,1,100,0,1
83316,-125,4,2,1,100,0,0
88316,-125,4,2,1,70,0,0
88566,-125,4,2,1,5,0,0
88649,-100,4,2,1,75,0,0
88983,-100,4,2,1,70,0,0
89983,-100,4,2,1,75,0,0
91316,-100,4,2,1,80,0,0
92649,-100,4,2,1,85,0,0
93983,-125,4,2,1,65,0,0
97899,-125,4,2,1,5,0,0
97983,-125,4,2,1,65,0,0
104566,-125,4,2,1,5,0,0
104649,-111.111111111111,4,2,1,70,0,0
105899,-111.111111111111,4,2,1,5,0,0
105983,-111.111111111111,4,2,1,70,0,0
107233,-111.111111111111,4,2,1,5,0,0
107316,-111.111111111111,4,2,1,70,0,0
108899,-111.111111111111,4,2,1,5,0,0
108983,-111.111111111111,4,2,1,70,0,0
110566,-111.111111111111,4,2,1,5,0,0
110649,-111.111111111111,4,2,1,70,0,0
111566,-111.111111111111,4,2,1,5,0,0
111649,-111.111111111111,4,2,1,70,0,0
114566,-111.111111111111,4,2,1,5,0,0
114649,-111.111111111111,4,2,1,70,0,0
115316,-117.647058823529,4,2,1,65,0,0
121566,-117.647058823529,4,2,1,5,0,0
121649,-117.647058823529,4,2,1,65,0,0
125983,-117.647058823529,4,2,1,70,0,0
128649,-117.647058823529,4,2,1,75,0,0
128983,-117.647058823529,4,2,1,65,0,0
129316,-117.647058823529,4,2,1,70,0,0
129649,-117.647058823529,4,2,1,75,0,0
129983,-117.647058823529,4,2,1,80,0,0
131316,-117.647058823529,4,2,1,65,0,0
133649,-117.647058823529,4,2,1,75,0,0
133899,-117.647058823529,4,2,1,5,0,0
133983,-111.111111111111,4,2,1,75,0,0
134649,-111.111111111111,4,2,1,80,0,0
135316,-111.111111111111,4,2,1,70,0,0
135649,-111.111111111111,4,2,1,75,0,0
136149,-111.111111111111,4,2,1,70,0,0
136316,-111.111111111111,4,2,1,75,0,0
136483,-111.111111111111,4,2,1,80,0,0
136649,-100,4,2,1,90,0,1
136983,-100,4,2,1,85,0,1
138733,-100,4,2,1,5,0,1
138816,-100,4,2,1,85,0,1
140233,-100,4,2,1,5,0,1
140316,-100,4,2,1,85,0,1
144066,-100,4,2,1,5,0,1
144149,-100,4,2,1,85,0,1
145733,-100,4,2,1,5,0,1
145816,-100,4,2,1,85,0,1
146816,-100,4,2,1,80,0,1
147066,-100,4,2,1,85,0,1
147274,-100,4,2,1,100,0,1
147316,-100,4,2,1,90,0,1
147649,-100,4,2,1,85,0,1
150233,-100,4,2,1,5,0,1
150316,-100,4,2,1,85,0,1
150566,-100,4,2,1,5,0,1
150649,-100,4,2,1,85,0,1
150899,-100,4,2,1,5,0,1
150983,-100,4,2,1,85,0,1
155316,-125,4,2,1,85,0,0
166649,-133.333333333333,4,2,1,60,0,0
176649,-117.647058823529,4,2,2,70,0,0
189983,-95.2380952380952,4,2,1,70,0,1
191649,-95.2380952380952,4,2,1,75,0,1
191816,-95.2380952380952,4,2,1,80,0,0
191983,-95.2380952380952,4,2,1,85,0,0
192649,-95.2380952380952,4,2,1,90,0,1
192983,-95.2380952380952,4,2,1,85,0,1
194733,-95.2380952380952,4,2,1,5,0,1
194816,-95.2380952380952,4,2,1,85,0,1
196233,-95.2380952380952,4,2,1,5,0,1
196316,-95.2380952380952,4,2,1,85,0,1
200066,-95.2380952380952,4,2,1,5,0,1
200149,-95.2380952380952,4,2,1,85,0,1
201733,-95.2380952380952,4,2,1,5,0,1
201816,-95.2380952380952,4,2,1,85,0,1
202066,-95.2380952380952,4,2,1,5,0,1
202149,-95.2380952380952,4,2,1,85,0,1
202816,-95.2380952380952,4,2,1,80,0,1
203066,-95.2380952380952,4,2,1,85,0,1
203274,-95.2380952380952,4,2,1,100,0,1
203316,-95.2380952380952,4,2,1,90,0,1
203649,-95.2380952380952,4,2,1,85,0,1
208566,-95.2380952380952,4,2,1,5,0,1
208649,-100,4,2,1,80,0,0
208983,-100,4,2,1,75,0,0
209816,-100,4,2,1,80,0,0
209983,-95.2380952380952,4,2,1,80,0,0
210149,-95.2380952380952,4,2,1,85,0,0
211274,-95.2380952380952,4,2,1,85,0,0
211316,-95.2380952380952,4,2,1,90,0,1
211649,-95.2380952380952,4,2,1,85,0,1
216608,-95.2380952380952,4,2,1,100,0,1
216649,-95.2380952380952,4,2,1,90,0,1
216816,-95.2380952380952,4,2,1,85,0,1
219316,-95.2380952380952,4,2,1,90,0,1
219566,-95.2380952380952,4,2,1,5,0,1
219649,-95.2380952380952,4,2,1,90,0,1
220066,-95.2380952380952,4,2,1,5,0,1
220149,-95.2380952380952,4,2,1,90,0,1
220983,-95.2380952380952,4,2,1,80,0,1
221733,-95.2380952380952,4,2,1,85,0,1
221983,-95.2380952380952,4,2,1,90,0,1
222316,-95.2380952380952,4,2,1,85,0,1
224566,-95.2380952380952,4,2,1,5,0,1
224649,-95.2380952380952,4,2,1,85,0,1
226983,-95.2380952380952,4,2,1,90,0,1
227316,-95.2380952380952,4,2,1,85,0,1
227566,-95.2380952380952,4,2,1,5,0,1
227649,-95.2380952380952,4,2,1,85,0,1
227899,-95.2380952380952,4,2,1,5,0,1
227983,-95.2380952380952,4,2,1,85,0,1
232649,-100,4,2,1,85,0,0
238983,-100,4,2,1,5,0,0

[Colours]
Combo1 : 248,237,163
Combo2 : 235,220,190
Combo3 : 241,159,148

[HitObjects]
506,92,650,6,0,P|473:102|442:107,1,55.9999982910157,2|0,0:0|0:0,0:0:0:0:
375,58,983,1,0,0:0:0:0:
317,106,1149,2,0,P|305:149|314:232,1,111.999996582031
369,279,1649,2,0,P|363:313|349:346,1,55.9999982910157,2|0,0:0|0:0,0:0:0:0:
234,382,1983,5,2,0:0:0:0:
176,333,2149,2,0,P|114:310|51:308,1,111.999996582031
111,137,2649,2,0,P|78:182|34:216,1,111.999996582031,2|2,0:0|0:0,0:0:0:0:
266,126,3316,6,0,P|262:98|252:59,1,55.9999982910157,2|0,0:0|0:0,0:0:0:0:
332,5,3649,1,0,0:0:0:0:
395,50,3816,2,0,P|453:76|508:79,1,111.999996582031
509,170,4316,2,0,P|487:177|440:185,1,55.9999982910157,2|0,0:0|0:0,0:0:0:0:
354,296,4649,5,2,0:0:0:0:
290,257,4816,2,0,P|267:212|278:145,1,111.999996582031,0|0,0:0|1:0,0:0:0:0:
451,255,5316,2,0,P|446:286|439:328,1,55.9999982910157,2|0,0:1|1:0,0:0:0:0:
441,310,5566,1,0,0:0:0:0:
441,310,5649,2,0,P|408:303|373:292,1,55.9999982910157,2|0,0:1|0:0,0:0:0:0:
215,384,5983,6,0,B|225:355|225:355|217:331|217:331|231:300|230:241,1,128,2|2,1:2|1:2,0:0:0:0:
166,171,6483,1,0,0:0:0:0:
98,207,6649,2,0,P|56:202|13:188,1,64,8|0,1:2|0:0,0:0:0:0:
13,163,6899,1,8,0:0:0:0:
13,163,6983,1,0,0:0:0:0:
76,75,7149,5,8,0:0:0:0:
135,124,7316,2,0,P|196:118|279:102,1,128,2|0,1:2|1:0,0:0:0:0:
360,27,7816,1,0,0:0:0:0:
360,27,7983,2,0,P|369:61|376:112,1,64,10|8,1:2|0:0,0:0:0:0:
344,231,8316,2,0,P|335:197|328:146,1,64,2|0,1:2|0:0,0:0:0:0:
462,359,8649,6,0,P|399:341|314:332,1,128,2|2,1:2|1:2,0:0:0:0:
264,260,9149,1,2,0:0:0:0:
180,303,9316,2,0,P|173:330|171:376,1,64,0|2,1:0|0:0,0:0:0:0:
25,241,9649,2,0,P|52:248|98:250,1,64,2|0,1:2|0:0,0:0:0:0:
273,117,9983,6,0,P|221:137|127:154,1,128,2|8,1:2|0:0,0:0:0:0:
50,49,10483,1,8,0:0:0:0:
50,49,10566,1,8,0:0:0:0:
50,49,10649,1,2,1:2:0:0:
40,215,10816,1,2,0:0:0:0:
150,151,10983,1,2,0:0:0:0:
19,134,11149,1,2,0:0:0:0:
151,241,11316,6,0,B|239:233|220:264|332:249,1,160,6|8,1:2|0:0,0:0:0:0:
460,336,11816,1,0,0:0:0:0:
426,178,11983,2,0,P|417:220|416:269,1,80,2|0,1:2|0:0,0:0:0:0:
234,384,12316,2,0,P|237:344|245:305,1,80,8|2,0:0|0:0,0:0:0:0:
159,160,12649,6,0,P|89:199|-12:184,1,160,2|10,1:2|0:0,0:0:0:0:
54,10,13149,1,0,0:0:0:0:
149,54,13316,2,0,P|192:42|261:26,1,80,2|0,1:2|0:0,0:0:0:0:
327,118,13649,2,0,P|314:157|294:212,1,80,10|0,0:0|0:0,0:0:0:0:
173,317,13983,6,0,B|214:312|242:293|242:293|284:329|336:331,1,160,2|8,1:2|0:0,0:0:0:0:
490,262,14483,1,0,0:0:0:0:
402,163,14649,1,2,1:2:0:0:
378,245,14816,1,2,0:0:0:0:
512,165,14983,2,0,P|508:121|496:58,1,80,10|2,0:0|0:0,0:0:0:0:
289,1,15316,6,0,P|282:40|279:80,1,80,2|0,1:2|0:0,0:0:0:0:
222,201,15649,1,8,0:0:0:0:
137,116,15816,1,2,0:0:0:0:
329,157,15983,1,0,0:0:0:0:
131,237,16149,1,0,1:0:0:0:
77,171,16316,2,0,P|39:161|-23:148,1,80,8|0,0:0|0:0,0:0:0:0:
172,322,16649,6,0,B|231:315|269:338|269:338|299:313|356:314,1,160,6|8,1:2|0:0,0:0:0:0:
457,374,17149,2,0,P|444:299|433:204,1,160,2|2,0:0|1:2,0:0:0:0:
351,93,17649,1,10,0:0:0:0:
295,228,17816,1,2,0:0:0:0:
235,169,17983,2,0,P|191:160|136:156,1,80,2|0,1:2|0:0,0:0:0:0:
329,310,18316,2,0,P|373:301|428:297,1,80,8|0,0:0|0:0,0:0:0:0:
480,130,18649,5,2,1:2:0:0:
349,177,18816,1,0,0:0:0:0:
319,14,18983,1,10,0:0:0:0:
401,55,19149,1,0,0:0:0:0:
280,110,19316,6,0,P|222:113|132:55,1,160,4|8,1:2|0:0,0:0:0:0:
38,172,19816,1,2,1:2:0:0:
152,247,19983,2,0,P|150:201|141:142,1,80,0|2,1:0|1:2,0:0:0:0:
1,307,20316,2,0,P|45:320|96:332,1,80,0|2,1:0|1:2,0:0:0:0:
256,369,20649,5,8,0:0:0:0:
236,213,20816,1,0,1:0:0:0:
384,270,20983,1,8,0:0:0:0:
302,303,21149,1,0,1:0:0:0:
345,198,21316,2,0,P|340:167|324:110,1,80,8|0,0:0|1:0,0:0:0:0:
251,3,21649,1,8,0:0:0:0:
421,68,21816,1,8,0:0:0:0:
421,68,21983,6,0,P|366:93|291:81,1,128,2|0,0:0|0:0,0:0:0:0:
219,129,22483,2,0,P|157:125|71:108,1,128
13,172,22983,2,0,P|16:208|32:249,1,64
185,335,23316,5,2,0:0:0:0:
116,298,23483,2,0,P|81:307|43:325,1,64
191,231,23816,2,0,P|236:263|324:285,1,128
388,323,24316,2,0,P|378:357|369:395,1,64
512,276,24649,6,0,P|519:225|471:163,1,128,2|0,0:0|0:0,0:0:0:0:
398,119,25149,2,0,P|399:84|412:35,1,64
468,11,25483,1,0,0:0:0:0:
319,76,25649,2,0,P|288:67|244:51,1,64
34,140,25983,6,0,P|103:128|163:110,1,128,2|0,0:0|0:0,0:0:0:0:
247,168,26483,2,0,P|239:214|161:259,1,128
84,301,26983,2,0,P|52:294|14:283,1,64,2|0,0:0|0:0,0:0:0:0:
165,363,27316,6,0,B|196:354|226:340|226:340|247:365|298:375,1,128,2|2,0:0|0:0,0:0:0:0:
364,334,27816,2,0,P|417:319|498:317,1,128,2|0,0:0|0:0,0:0:0:0:
410,180,28316,2,0,P|396:219|396:256,1,64,2|0,0:0|0:0,0:0:0:0:
279,294,28649,6,0,P|232:233|239:175,1,128,2|2,0:0|0:0,0:0:0:0:
234,185,29149,1,0,0:0:0:0:
162,136,29316,2,0,P|124:127|82:116,1,64,2|2,0:0|0:0,0:0:0:0:
266,83,29649,2,0,P|297:75|329:68,1,64,2|2,0:0|0:0,0:0:0:0:
129,227,29983,6,0,P|113:282|86:357,1,128,2|0,0:0|0:0,0:0:0:0:
224,308,30483,1,0,0:0:0:0:
289,352,30649,2,0,P|322:361|377:382,1,64
479,281,30983,2,0,P|448:291|417:299,1,64,2|0,1:2|0:0,0:0:0:0:
330,133,31316,6,0,P|273:165|262:248,1,128,2|0,0:0|0:0,0:0:0:0:
0,249,31816,2,0,P|62:237|144:212,1,128,8|4,3:0|3:0,0:0:0:0:
154,56,32316,2,0,P|165:86|173:118,1,64,0|0,0:0|1:0,0:0:0:0:
184,130,32566,1,0,1:0:0:0:
184,130,32649,6,0,B|216:117|216:117|240:123|240:123|281:105|342:113,1,143.999995605469,6|10,1:2|1:2,0:0:0:0:
431,64,33149,1,2,0:0:0:0:
476,128,33316,2,0,P|467:167|447:205,1,71.9999978027344,8|10,1:2|0:0,0:0:0:0:
453,195,33565,1,8,0:0:0:0:
453,195,33649,1,10,1:2:0:0:
359,205,33815,1,8,0:0:0:0:
347,300,33983,6,0,P|404:286|503:245,1,143.999995605469,0|2,1:0|1:2,0:0:0:0:
259,384,34483,2,0,P|246:345|225:293,1,71.9999978027344,0|10,0:0|1:2,0:0:0:0:
171,233,34816,1,8,0:0:0:0:
86,272,34983,2,0,P|51:281|18:295,1,71.9999978027344,2|0,1:2|0:0,0:0:0:0:
210,155,35316,6,0,P|243:168|277:178,1,71.9999978027344,2|2,1:2|0:0,0:0:0:0:
366,92,35649,1,10,1:2:0:0:
297,45,35816,2,0,P|227:50|152:83,1,143.999995605469,10|2,0:0|0:0,0:0:0:0:
67,127,36316,2,0,P|57:90|33:44,1,71.9999978027344,2|8,1:2|0:0,0:0:0:0:
11,213,36649,6,0,B|73:202|101:234|184:211,1,143.999995605469,2|8,1:2|0:0,0:0:0:0:
253,257,37149,1,8,0:0:0:0:
171,314,37316,2,0,P|163:348|168:392,1,71.9999978027344,2|10,1:2|0:0,0:0:0:0:
337,289,37649,2,0,P|340:253|331:218,1,71.9999978027344,10|2,1:2|0:0,0:0:0:0:
213,138,37983,6,0,P|276:126|382:93,1,143.999995605469,2|2,1:2|1:2,0:0:0:0:
226,18,38483,1,0,0:0:0:0:
162,64,38649,2,0,P|136:57|80:35,1,71.9999978027344,10|2,1:2|0:0,0:0:0:0:
93,41,38899,1,8,0:0:0:0:
93,41,38983,1,2,1:2:0:0:
23,111,39149,1,10,0:0:0:0:
73,171,39316,2,0,P|86:228|90:327,1,143.999995605469,2|2,1:2|1:2,0:0:0:0:
183,250,39816,2,0,P|248:249|312:302,1,143.999995605469,2|10,0:0|0:0,0:0:0:0:
396,339,40316,2,0,B|435:330|474:316|474:315,1,71.9999978027344,2|0,1:2|0:0,0:0:0:0:
416,161,40649,6,0,P|409:199|405:242,1,71.9999978027344,4|0,1:2|0:0,0:0:0:0:
243,345,40983,2,0,P|236:307|232:264,1,71.9999978027344,0|2,1:0|0:0,0:0:0:0:
204,141,41316,1,0,1:0:0:0:
311,171,41483,1,2,0:0:0:0:
161,205,41649,1,0,1:0:0:0:
328,160,41816,1,2,0:0:0:0:
132,189,41983,6,0,P|99:181|46:167,1,71.9999978027344,0|0,1:0|1:0,0:0:0:0:
212,62,42316,2,0,P|245:54|298:40,1,71.9999978027344,8|0,0:0|1:0,0:0:0:0:
281,44,42566,1,0,1:0:0:0:
281,44,42649,1,8,0:0:0:0:
371,13,42816,1,8,3:0:0:0:
443,73,42983,1,4,3:0:0:0:
412,164,43149,1,0,0:0:0:0:
311,148,43316,6,0,P|259:138|165:111,1,136.000002593994,6|0,1:2|0:0,0:0:0:0:
43,214,43983,2,0,P|56:253|78:296,1,68.0000012969971,8|0,0:0|0:0,0:0:0:0:
146,310,44316,2,0,P|178:301|221:287,1,68.0000012969971,2|0,0:0|0:0,0:0:0:0:
318,237,44649,5,0,0:0:0:0:
369,298,44816,2,0,P|400:317|509:323,1,136.000002593994,8|0,0:0|0:0,0:0:0:0:
496,208,45316,2,0,P|462:211|424:222,1,68.0000012969971,10|0,0:0|0:0,0:0:0:0:
280,128,45649,2,0,P|314:131|352:142,1,68.0000012969971,2|2,1:2|0:0,0:0:0:0:
426,45,45983,6,0,P|435:79|445:128,1,68.0000012969971,2|0,1:2|0:0,0:0:0:0:
285,284,46316,2,0,P|276:250|266:201,1,68.0000012969971,2|2,1:2|0:0,0:0:0:0:
152,144,46649,2,0,B|118:162|118:162|87:158|87:158|55:179|5:184,1,136.000002593994,8|2,0:0|1:2,0:0:0:0:
10,268,47149,1,8,3:0:0:0:
77,319,47316,6,0,P|113:311|161:299,1,68.0000012969971,0|4,0:0|3:0,0:0:0:0:
269,217,47649,2,0,P|233:225|185:237,1,68.0000012969971,4|0,3:0|0:0,0:0:0:0:
367,302,47983,1,10,0:0:0:0:
413,239,48149,2,0,P|411:182|347:114,1,136.000002593994,0|10,1:0|1:3,0:0:0:0:
260,27,48649,6,0,P|252:57|249:107,1,68.0000012969971,4|0,1:2|0:0,0:0:0:0:
156,150,48983,2,0,P|116:142|74:126,1,68.0000012969971,0|2,1:0|0:0,0:0:0:0:
2,295,49316,2,0,P|60:254|152:244,1,136.000002593994,10|2,0:0|0:0,0:0:0:0:
235,298,49816,5,2,0:0:0:0:
235,298,49983,1,0,1:0:0:0:
291,240,50149,2,0,P|286:200|273:168,1,68.0000012969971,8|0,0:0|1:0,0:0:0:0:
409,347,50483,1,2,0:0:0:0:
486,299,50649,2,0,P|426:268|355:276,1,136.000002593994,8|2,0:0|1:2,0:0:0:0:
280,374,51149,1,10,0:0:0:0:
189,292,51316,6,0,P|145:298|104:309,1,68.0000012969971,2|2,1:2|0:0,0:0:0:0:
13,197,51649,2,0,P|57:203|98:214,1,68.0000012969971,2|2,1:2|0:0,0:0:0:0:
250,137,51983,1,10,2:0:0:0:
178,90,52149,1,2,2:0:0:0:
164,171,52316,1,2,2:0:0:0:
261,53,52483,6,0,P|318:50|396:116,1,136.000002593994,8|0,3:0|1:0,0:0:0:0:
492,180,52983,2,0,P|454:189|396:192,1,68.0000012969971,4|0,3:0|0:0,0:0:0:0:
284,258,53316,2,0,P|322:267|380:270,1,68.0000012969971,10|2,0:0|0:0,0:0:0:0:
460,347,53649,1,8,0:0:0:0:
460,347,53733,1,8,0:0:0:0:
460,347,53816,1,8,0:0:0:0:
332,370,53983,6,0,P|269:344|181:338,1,136.000002593994,4|0,1:2|0:0,0:0:0:0:
36,248,54649,1,2,1:2:0:0:
168,117,54983,1,8,2:0:0:0:
168,117,55067,1,8,2:0:0:0:
168,117,55149,2,0,L|181:172,1,34.0000006484985,8|8,2:0|2:0,0:0:0:0:
247,187,55316,6,0,B|292:181|331:209|331:209|351:188|389:169,1,136.000002593994,8|0,0:0|1:0,0:0:0:0:
499,88,55983,2,0,P|451:74|416:59,1,68.0000012969971,2|0,1:2|0:0,0:0:0:0:
325,1,56316,1,8,0:0:0:0:
325,1,56399,1,8,0:0:0:0:
325,1,56483,1,8,0:0:0:0:
325,1,56566,1,8,0:0:0:0:
325,1,56649,6,0,P|295:64|293:129,1,136.000002593994,10|2,0:0|1:2,0:0:0:0:
156,25,57316,1,2,1:2:0:0:
106,86,57483,2,0,P|74:97|32:102,1,68.0000012969971,8|2,0:0|1:2,0:0:0:0:
231,151,57816,2,0,P|264:146|296:135,1,68.0000012969971,8|2,0:0|1:2,0:0:0:0:
164,286,58149,5,0,0:0:0:0:
96,228,58316,2,0,P|48:244|18:249,1,68.0000012969971,0|10,1:0|0:2,0:0:0:0:
112,355,58649,2,0,P|144:366|178:372,1,68.0000012969971,2|8,1:2|0:3,0:0:0:0:
248,285,58983,1,0,0:0:0:0:
322,382,59149,5,8,0:0:0:0:
322,382,59233,1,0,1:0:0:0:
322,382,59316,2,0,P|377:374|445:329,1,107.999996704102,4|8,1:2|0:0,0:0:0:0:
447,315,59649,1,8,0:0:0:0:
474,213,59816,2,0,P|465:181|443:125,1,71.9999978027344,4|8,1:2|0:0,0:0:0:0:
482,39,60149,5,8,0:0:0:0:
482,39,60233,1,8,0:0:0:0:
482,39,60316,2,0,B|431:62|406:86|406:86|383:77|335:68,1,143.999995605469,4|8,1:2|0:0,0:0:0:0:
330,65,60733,1,8,0:0:0:0:
330,65,60816,1,4,1:2:0:0:
245,116,60983,2,0,L|199:129,2,35.9999989013672,8|8|8,0:0|0:0|0:0,0:0:0:0:
317,215,61316,6,0,P|315:287|290:361,1,143.999995605469,4|8,1:2|0:0,0:0:0:0:
201,278,61816,1,8,0:0:0:0:
201,278,61899,1,8,0:0:0:0:
201,278,61983,6,0,P|154:285|99:298,1,71.9999978027344,4|2,1:2|0:0,0:0:0:0:
35,229,62316,1,10,0:0:0:0:
71,147,62483,1,0,1:0:0:0:
189,161,62649,1,8,0:0:0:0:
154,49,62816,1,0,1:0:0:0:
314,143,62983,1,8,0:0:0:0:
127,218,63149,1,0,1:0:0:0:
317,172,63316,6,0,L|371:186,4,35.9999989013672,8|4|4|4|8,0:0|3:0|3:0|3:0|0:0,0:0:0:0:
256,34,63816,1,8,0:0:0:0:
250,362,64483,5,0,0:0:0:0:
185,306,64649,2,0,B|156:315|156:315|126:311|126:311|85:336|22:331,1,160,6|10,1:2|0:0,0:0:0:0:
22,173,65149,2,0,P|54:179|116:199,1,80,2|0,0:0|1:0,0:0:0:0:
213,106,65483,2,0,P|224:78|240:17,1,80,2|8,0:0|0:0,0:0:0:0:
380,211,65816,5,2,0:0:0:0:
277,255,65983,1,2,1:2:0:0:
302,158,66149,1,2,0:0:0:0:
353,315,66316,1,10,0:0:0:0:
273,350,66483,2,0,P|211:353|127:292,1,160,2|0,0:0|1:0,0:0:0:0:
185,138,66983,2,0,P|196:179|203:232,1,80,8|2,0:0|0:0,0:0:0:0:
347,68,67316,6,0,P|387:74|450:94,1,80,2|2,1:2|0:0,0:0:0:0:
489,190,67649,1,10,2:0:0:0:
401,265,67816,1,2,2:0:0:0:
296,227,67983,2,0,P|215:230|166:295,1,160,2|10,1:2|0:0,0:0:0:0:
26,347,68483,6,0,P|72:360|121:366,1,80,2|0,0:0|1:0,0:0:0:0:
251,299,68816,1,2,1:2:0:0:
173,193,68983,2,0,P|180:155|194:91,1,80,10|2,0:0|0:0,0:0:0:0:
279,13,69316,1,0,1:0:0:0:
386,110,69483,1,2,0:0:0:0:
261,182,69649,1,10,0:0:0:0:
288,107,69816,1,2,0:0:0:0:
353,198,69983,6,0,P|415:239|514:240,2,160,4|10|0,1:2|0:0|1:0,0:0:0:0:
244,256,70816,1,2,0:0:0:0:
301,306,70983,2,0,P|314:340|320:386,1,80,10|2,0:0|0:0,0:0:0:0:
0,207,71316,6,0,P|73:235|152:251,1,160,0|10,1:0|0:0,0:0:0:0:
245,157,71816,1,2,0:0:0:0:
161,61,71983,2,0,P|141:98|125:154,1,80,0|0,1:0|1:0,0:0:0:0:
280,286,72316,2,0,P|300:249|316:193,1,80,8|2,0:0|0:0,0:0:0:0:
440,113,72649,5,2,1:2:0:0:
309,79,72816,1,0,0:0:0:0:
460,136,72983,1,10,0:0:0:0:
241,164,73149,1,2,0:0:0:0:
470,163,73316,2,0,P|429:159|368:141,1,80,2|2,1:2|1:2,0:0:0:0:
246,286,73649,6,0,P|254:325|265:363,1,80,8|6,0:0|1:2,0:0:0:0:
133,240,73983,1,0,0:0:0:0:
241,164,74149,1,2,1:2:0:0:
339,244,74316,2,0,P|370:256|427:266,1,80,8|10,0:0|0:0,0:0:0:0:
415,265,74566,1,8,0:0:0:0:
415,265,74649,1,8,0:0:0:0:
349,160,74816,1,8,0:0:0:0:
238,246,74983,6,0,L|250:307,1,40,8|8,0:0|0:0,0:0:0:0:
189,384,75149,2,0,L|177:323,1,40,10|8,0:0|0:0,0:0:0:0:
313,330,75316,6,0,B|377:315|408:356|486:344,1,160,6|10,1:2|0:0,0:0:0:0:
490,218,75816,2,0,P|445:208|399:203,1,80,2|0,0:0|1:0,0:0:0:0:
321,54,76149,2,0,P|313:92|310:149,1,80,2|8,0:0|0:0,0:0:0:0:
239,249,76483,1,2,0:0:0:0:
116,177,76649,5,2,1:2:0:0:
194,108,76816,1,2,2:0:0:0:
216,271,76983,1,10,2:0:0:0:
141,226,77149,2,0,P|71:225|1:284,1,160,2|2,0:0|1:2,0:0:0:0:
121,372,77649,2,0,P|155:369|212:354,1,80,10|2,0:0|0:0,0:0:0:0:
327,201,77983,6,0,P|342:233|358:291,1,80,2|2,1:2|0:0,0:0:0:0:
166,137,78316,2,0,P|177:98|194:62,1,80,10|0,0:0|0:0,0:0:0:0:
448,85,78649,2,0,P|382:109|273:115,1,160,2|10,1:2|0:0,0:0:0:0:
209,220,79149,1,2,0:0:0:0:
94,164,79316,5,2,1:2:0:0:
194,62,79483,1,2,0:0:0:0:
179,142,79649,1,10,0:0:0:0:
58,72,79816,1,2,0:0:0:0:
111,178,79983,2,0,P|120:212|133:287,1,80,0|2,1:0|0:0,0:0:0:0:
0,376,80316,2,0,P|43:365|114:350,1,80,10|2,0:0|0:0,0:0:0:0:
303,321,80649,5,12,0:0:0:0:
220,263,80816,1,2,1:2:0:0:
311,189,80983,1,10,0:0:0:0:
337,330,81149,1,2,1:2:0:0:
432,190,81316,1,8,0:0:0:0:
308,238,81483,1,2,1:2:0:0:
308,238,81566,1,2,0:0:0:0:
308,238,81649,1,8,0:0:0:0:
335,108,81816,1,0,1:0:0:0:
202,153,81983,5,8,0:0:0:0:
446,216,82149,1,8,0:0:0:0:
56,253,83316,5,2,0:0:0:0:
47,165,88649,6,0,P|96:175|146:181,1,80,4|0,1:2|0:0,0:0:0:0:
336,160,88983,1,8,0:0:0:0:
216,102,89149,1,0,1:0:0:0:
210,251,89316,1,8,0:0:0:0:
253,181,89483,1,0,1:0:0:0:
105,251,89649,1,8,0:0:0:0:
314,237,89816,1,0,1:0:0:0:
207,368,89983,6,0,P|212:327|228:263,1,80,8|0,0:0|1:0,0:0:0:0:
425,247,90316,1,8,0:0:0:0:
376,366,90483,1,0,1:0:0:0:
314,249,90649,1,8,0:0:0:0:
445,264,90816,1,0,1:0:0:0:
369,114,90983,1,8,0:0:0:0:
297,158,91149,1,4,1:3:0:0:
406,178,91316,6,0,P|443:173|514:152,1,80,12|0,0:0|0:0,0:0:0:0:
293,46,91649,2,0,P|256:41|185:20,1,80,8|0,0:0|1:0,0:0:0:0:
97,85,91983,1,8,0:0:0:0:
107,196,92149,1,0,1:0:0:0:
210,223,92316,1,8,0:0:0:0:
303,159,92483,1,0,1:0:0:0:
186,115,92649,1,8,0:0:0:0:
242,307,92816,1,0,1:0:0:0:
309,187,92983,2,0,P|352:180|409:178,1,80,8|0,0:0|1:0,0:0:0:0:
475,296,93316,5,8,0:3:0:0:
381,349,93483,1,8,0:0:0:0:
381,349,93566,1,8,0:0:0:0:
381,349,93649,2,0,L|329:333,1,40,8|8,0:0|0:0,0:0:0:0:
282,267,93816,2,0,L|269:312,1,40,8|8,0:0|0:0,0:0:0:0:
203,350,93983,6,0,B|151:346|117:376|117:376|92:356|58:353,1,128,6|2,1:2|1:2,0:0:0:0:
0,212,94649,2,0,P|38:219|73:227,1,64,0|2,1:0|0:0,0:0:0:0:
142,175,94983,2,0,P|173:168|204:162,1,64,2|0,1:2|0:0,0:0:0:0:
286,96,95316,6,0,P|301:141|328:243,1,128,0|2,1:0|1:2,0:0:0:0:
386,302,95816,1,0,0:0:0:0:
451,267,95983,2,0,P|488:278|539:296,1,64,2|0,1:2|0:0,0:0:0:0:
430,162,96316,2,0,P|393:151|342:133,1,64,2|0,1:2|0:0,0:0:0:0:
191,70,96649,6,0,P|276:52|338:32,1,128,2|2,1:2|1:2,0:0:0:0:
315,40,97149,1,2,0:0:0:0:
246,150,97316,2,0,P|235:186|227:235,1,64,2|2,1:2|0:0,0:0:0:0:
145,286,97649,2,0,P|138:254|128:224,1,64,2|0,1:2|0:0,0:0:0:0:
0,115,97983,6,0,B|46:115|76:145|76:145|95:126|130:121,1,128,2|0,1:2|1:0,0:0:0:0:
190,62,98483,1,2,0:0:0:0:
124,22,98649,2,0,P|89:15|39:8,1,64,0|2,1:0|0:0,0:0:0:0:
212,86,98983,2,0,P|247:79|297:72,1,64,0|2,1:0|0:0,0:0:0:0:
386,17,99316,6,0,P|447:24|509:94,1,128,2|2,1:2|1:2,0:0:0:0:
430,167,99816,2,0,P|437:230|454:307,1,128,2|0,0:0|0:0,0:0:0:0:
316,229,100316,2,0,P|282:223|230:217,1,64,0|2,1:0|0:0,0:0:0:0:
128,253,100649,6,0,B|142:285|142:285|139:310|139:310|150:342|148:393,1,128,2|2,1:2|1:2,0:0:0:0:
28,278,101149,1,0,0:0:0:0:
28,278,101316,2,0,P|35:247|54:207,1,64,2|2,1:2|0:0,0:0:0:0:
114,162,101649,1,2,1:2:0:0:
24,122,101816,1,2,0:0:0:0:
185,113,101983,6,0,P|250:127|329:132,1,128,2|2,1:2|1:2,0:0:0:0:
418,70,102483,1,2,0:0:0:0:
392,160,102649,2,0,P|399:204|406:252,1,64,2|2,1:2|0:0,0:0:0:0:
293,333,102983,2,0,P|286:289|279:241,1,64,2|0,1:2|0:0,0:0:0:0:
510,331,103316,6,0,P|461:321|367:293,1,128,2|2,1:2|1:2,0:0:0:0:
336,151,103816,1,2,0:0:0:0:
466,201,103983,1,2,1:2:0:0:
383,68,104149,1,2,1:2:0:0:
445,112,104316,2,0,P|473:122|516:131,1,64,2|0,1:0|0:0,0:0:0:0:
337,240,104649,6,0,B|305:253|305:253|281:247|281:247|240:265|179:257,1,143.999995605469,6|10,1:2|0:0,0:0:0:0:
56,299,105149,2,0,P|65:260|85:222,1,71.9999978027344,2|0,0:0|1:0,0:0:0:0:
168,167,105483,1,2,0:0:0:0:
119,112,105649,2,0,P|71:97|15:91,1,71.9999978027344,10|0,0:0|0:0,0:0:0:0:
264,16,105983,6,0,P|261:88|248:187,1,143.999995605469,0|10,1:0|0:0,0:0:0:0:
461,104,106483,1,0,0:0:0:0:
371,70,106649,2,0,P|356:104|351:159,1,71.9999978027344,2|0,1:2|0:0,0:0:0:0:
469,264,106983,2,0,P|462:228|448:195,1,71.9999978027344,10|0,0:0|0:0,0:0:0:0:
302,229,107316,6,0,P|269:216|235:206,1,71.9999978027344,2|2,1:2|0:0,0:0:0:0:
131,282,107649,1,10,0:0:0:0:
216,356,107816,2,0,P|286:351|361:318,1,143.999995605469,2|2,0:0|0:0,0:0:0:0:
451,276,108316,2,0,P|461:313|485:359,1,71.9999978027344,8|0,0:0|0:0,0:0:0:0:
501,171,108649,6,0,B|439:182|411:150|328:173,1,143.999995605469,2|8,1:2|0:0,0:0:0:0:
259,127,109149,1,0,0:0:0:0:
341,70,109316,2,0,P|349:36|344:-8,1,71.9999978027344,2|2,1:2|0:0,0:0:0:0:
192,186,109649,1,10,0:0:0:0:
161,77,109816,1,2,0:0:0:0:
299,246,109983,6,0,P|236:258|130:291,1,143.999995605469,4|10,1:2|0:0,0:0:0:0:
286,366,110483,1,0,0:0:0:0:
361,322,110649,2,0,P|394:336|438:348,1,71.9999978027344,2|2,1:2|0:0,0:0:0:0:
510,221,110983,1,10,0:0:0:0:
383,250,111149,1,2,0:0:0:0:
417,33,111316,6,0,P|419:104|434:175,1,143.999995605469,2|10,1:2|0:0,0:0:0:0:
329,134,111816,2,0,P|264:135|200:82,1,143.999995605469,2|0,0:0|0:0,0:0:0:0:
116,45,112316,2,0,B|77:54|38:68|38:69,1,71.9999978027344,8|0,0:0|0:0,0:0:0:0:
96,223,112649,6,0,P|103:185|107:142,1,71.9999978027344,4|0,1:2|0:0,0:0:0:0:
269,39,112983,2,0,P|276:77|280:120,1,71.9999978027344,8|0,0:0|1:0,0:0:0:0:
297,238,113316,1,8,0:0:0:0:
201,213,113483,1,0,1:0:0:0:
384,165,113649,1,8,0:0:0:0:
192,134,113816,1,0,1:0:0:0:
382,267,113983,6,0,P|392:236|404:184,1,71.9999978027344,0|0,1:0|1:0,0:0:0:0:
287,327,114316,2,0,P|254:335|201:349,1,71.9999978027344,12|0,0:0|0:0,0:0:0:0:
108,259,114649,1,10,3:3:0:0:
32,354,114816,1,2,1:2:0:0:
19,222,114983,1,6,3:3:0:0:
34,335,115149,1,2,1:2:0:0:
201,236,115316,6,0,P|253:246|347:273,1,136.000002593994,6|0,1:2|1:2,0:0:0:0:
469,170,115983,2,0,P|456:131|434:88,1,68.0000012969971,10|0,0:0|0:0,0:0:0:0:
366,74,116316,2,0,P|334:83|291:97,1,68.0000012969971,2|0,0:0|0:0,0:0:0:0:
194,147,116649,5,0,0:0:0:0:
143,86,116816,2,0,P|112:67|3:61,1,136.000002593994,8|0,0:0|0:0,0:0:0:0:
16,176,117316,2,0,P|50:173|88:162,1,68.0000012969971,10|0,0:0|0:0,0:0:0:0:
232,256,117649,2,0,P|198:253|160:242,1,68.0000012969971,2|2,1:2|0:0,0:0:0:0:
86,339,117983,6,0,P|77:305|67:256,1,68.0000012969971,2|0,1:2|0:0,0:0:0:0:
227,100,118316,2,0,P|236:134|246:183,1,68.0000012969971,2|2,1:2|0:0,0:0:0:0:
360,240,118649,2,0,B|394:222|394:222|425:226|425:226|457:205|507:200,1,136.000002593994,8|2,0:0|0:0,0:0:0:0:
502,116,119149,1,8,3:0:0:0:
435,65,119316,6,0,P|399:73|351:85,1,68.0000012969971,0|8,0:0|1:3,0:0:0:0:
243,167,119649,2,0,P|279:159|327:147,1,68.0000012969971,4|0,3:0|0:0,0:0:0:0:
145,82,119983,1,10,0:0:0:0:
99,145,120149,2,0,P|101:202|165:270,1,136.000002593994,2|10,1:2|1:3,0:0:0:0:
252,357,120649,6,0,P|260:327|263:277,1,68.0000012969971,4|0,1:2|0:0,0:0:0:0:
356,234,120983,2,0,P|396:242|438:258,1,68.0000012969971,0|2,1:0|0:0,0:0:0:0:
510,108,121316,2,0,P|461:113|372:131,1,136.000002593994,8|2,0:0|0:0,0:0:0:0:
271,73,121816,6,0,P|259:108|246:156,1,68.0000012969971,2|0,0:0|1:0,0:0:0:0:
198,261,122149,2,0,P|186:226|173:178,1,68.0000012969971,8|0,0:0|1:0,0:0:0:0:
103,37,122483,1,2,0:0:0:0:
26,85,122649,2,0,P|86:116|157:108,1,136.000002593994,8|2,0:0|1:2,0:0:0:0:
232,10,123149,1,10,0:0:0:0:
323,92,123316,6,0,P|367:86|408:75,1,68.0000012969971,2|2,1:2|0:0,0:0:0:0:
499,187,123649,2,0,P|455:181|414:170,1,68.0000012969971,2|2,1:2|0:0,0:0:0:0:
262,247,123983,1,10,2:0:0:0:
334,294,124149,1,2,2:0:0:0:
348,213,124316,1,2,2:0:0:0:
251,331,124483,6,0,P|194:334|116:268,1,136.000002593994,8|0,3:0|1:0,0:0:0:0:
16,217,124983,2,0,P|54:208|112:205,1,68.0000012969971,6|0,3:3|0:0,0:0:0:0:
254,151,125316,2,0,P|216:142|158:139,1,68.0000012969971,8|2,0:0|1:2,0:0:0:0:
83,44,125649,2,0,P|116:40|149:31,1,68.0000012969971,2|2,0:0|1:2,0:0:0:0:
180,14,125899,1,0,1:0:0:0:
180,14,125983,6,0,P|243:40|331:46,1,136.000002593994,4|0,1:2|1:0,0:0:0:0:
382,13,126483,1,2,0:1:0:0:
436,68,126649,2,0,P|426:101|413:141,1,68.0000012969971,0|2,1:0|0:1,0:0:0:0:
464,242,126983,2,0,P|437:232|385:209,1,68.0000012969971,2|2,1:2|0:1,0:0:0:0:
309,181,127316,6,0,B|261:184|225:159|225:159|167:199,1,136.000002593994,0|0,1:0|1:0,0:0:0:0:
100,170,127816,1,2,0:1:0:0:
54,242,127983,2,0,P|63:287|74:323,1,68.0000012969971,2|2,1:2|0:1,0:0:0:0:
187,383,128316,1,10,3:0:0:0:
187,383,128399,1,4,3:0:0:0:
187,383,128483,1,4,3:0:0:0:
187,383,128566,1,4,3:0:0:0:
187,383,128649,6,0,P|201:288|217:235,1,136.000002593994,6|10,1:2|0:0,0:0:0:0:
304,212,129149,1,0,1:0:0:0:
304,212,129233,1,0,1:0:0:0:
304,212,129316,2,0,L|352:227,3,34.0000006484985,10|0|0|0,0:0|1:0|1:0|1:0,0:0:0:0:
380,251,129649,2,0,L|428:266,3,34.0000006484985,10|0|0|0,0:0|1:0|1:0|1:0,0:0:0:0:
463,239,129983,5,10,0:0:0:0:
497,141,130149,1,0,1:0:0:0:
497,141,130233,1,0,1:0:0:0:
497,141,130316,2,0,P|493:105|475:65,1,68.0000012969971,8|2,0:0|1:2,0:0:0:0:
481,75,130566,1,0,1:0:0:0:
481,75,130649,2,0,P|439:89|402:97,1,68.0000012969971,10|0,0:0|1:0,0:0:0:0:
299,35,130983,5,10,0:0:0:0:
299,35,131066,1,0,1:0:0:0:
299,35,131149,1,2,1:2:0:0:
299,35,131233,1,0,1:0:0:0:
299,35,131316,1,0,1:0:0:0:
237,359,133649,5,2,1:2:0:0:
237,359,133983,2,0,P|227:322|219:276,1,71.9999978027344,4|0,1:2|0:0,0:0:0:0:
291,178,134316,1,8,0:0:0:0:
406,263,134483,1,0,1:0:0:0:
314,316,134649,1,8,0:0:0:0:
324,156,134816,1,0,1:0:0:0:
455,194,134983,1,8,0:0:0:0:
308,240,135149,1,0,1:0:0:0:
216,177,135316,6,0,P|173:167|117:162,1,71.9999978027344,8|4,3:0|3:0,0:0:0:0:
145,163,135566,1,4,3:0:0:0:
145,163,135649,2,0,L|78:185,1,35.9999989013672,8|4,3:0|3:0,0:0:0:0:
32,167,135816,2,0,L|28:218,1,35.9999989013672,4|4,3:0|3:0,0:0:0:0:
96,259,135983,5,2,1:0:0:0:
195,337,136149,1,4,3:0:0:0:
195,337,136233,1,8,0:0:0:0:
195,337,136316,2,0,L|246:351,3,35.9999989013672,8|8|8|8,0:0|0:0|0:0|0:0,0:0:0:0:
271,361,136649,6,0,P|337:347|443:306,1,160,6|10,1:2|0:0,0:0:0:0:
333,153,137149,2,0,P|325:196|322:247,1,80,2|0,0:0|1:0,0:0:0:0:
177,317,137483,2,0,P|185:274|188:223,1,80,2|8,0:0|0:0,0:0:0:0:
116,73,137816,1,2,0:0:0:0:
40,193,137983,1,2,1:2:0:0:
193,159,138149,1,2,0:0:0:0:
21,94,138316,1,10,0:0:0:0:
225,156,138483,6,0,B|270:157|321:186|321:186|349:165|393:159,1,160,2|0,0:0|1:0,0:0:0:0:
488,61,138983,2,0,P|435:47|384:41,1,80,8|0,0:0|0:0,0:0:0:0:
270,253,139316,6,0,P|323:239|374:233,1,80,2|2,1:2|0:0,0:0:0:0:
449,343,139649,1,10,0:0:0:0:
493,213,139816,1,2,0:0:0:0:
326,349,139983,2,0,P|244:343|148:309,1,160,2|8,1:2|0:0,0:0:0:0:
92,200,140483,2,0,P|74:233|54:292,1,80,2|0,0:0|0:0,0:0:0:0:
204,153,140816,1,2,1:2:0:0:
79,61,140983,1,10,0:0:0:0:
190,0,141149,5,2,0:0:0:0:
178,187,141316,1,0,1:0:0:0:
297,83,141483,2,0,P|337:80|397:65,1,80,2|10,0:0|0:0,0:0:0:0:
471,18,141816,1,2,0:0:0:0:
411,208,141983,6,0,B|356:206|312:185|312:185|276:217|237:217,1,160,4|10,1:2|0:0,0:0:0:0:
199,303,142483,1,2,0:0:0:0:
113,245,142649,2,0,P|99:217|87:152,1,80,0|2,1:0|0:0,0:0:0:0:
261,33,142983,2,0,P|252:72|235:108,1,80,10|2,0:0|0:0,0:0:0:0:
0,74,143316,6,0,P|67:59|170:47,1,160,2|10,1:2|0:0,0:0:0:0:
335,115,143816,1,2,0:0:0:0:
213,217,143983,1,0,1:0:0:0:
235,108,144149,1,0,1:0:0:0:
335,210,144316,2,0,P|331:249|318:304,1,80,8|2,0:0|0:0,0:0:0:0:
140,364,144649,6,0,P|183:351|225:345,1,80,2|0,1:2|0:0,0:0:0:0:
413,298,144983,1,10,0:0:0:0:
198,237,145149,1,0,0:0:0:0:
419,276,145316,1,2,1:2:0:0:
271,138,145483,2,0,P|279:179|296:239,1,80,2|8,1:2|0:0,0:0:0:0:
453,155,145816,6,0,P|475:83|484:-3,1,160,6|2,1:2|1:2,0:0:0:0:
368,115,146316,1,8,0:0:0:0:
293,27,146483,1,10,0:0:0:0:
293,27,146566,1,8,0:0:0:0:
293,27,146649,2,0,P|248:37|191:60,1,80,8|8,0:0|0:0,0:0:0:0:
110,17,146983,1,8,0:0:0:0:
110,17,147066,1,8,0:0:0:0:
110,17,147149,2,0,L|93:81,1,40,8|8,0:0|0:0,0:0:0:0:
61,89,147316,6,0,B|80:137|80:137|53:177|54:248,1,160,6|10,1:2|0:0,0:0:0:0:
236,268,147816,2,0,P|188:257|127:253,1,80,2|0,0:0|1:0,0:0:0:0:
21,372,148149,2,0,P|60:367|99:357,1,80,2|8,0:0|0:0,0:0:0:0:
180,325,148483,1,2,0:0:0:0:
288,370,148649,1,2,1:2:0:0:
317,198,148816,1,2,2:0:0:0:
422,268,148983,1,10,2:0:0:0:
236,268,149149,6,0,P|223:194|215:75,1,160,2|2,0:0|1:2,0:0:0:0:
366,9,149649,2,0,P|361:56|345:117,1,80,8|2,0:0|0:0,0:0:0:0:
497,183,149983,6,0,P|460:176|389:155,1,80,2|0,1:2|0:0,0:0:0:0:
238,284,150316,2,0,P|275:277|346:256,1,80,10|0,0:0|0:0,0:0:0:0:
497,384,150649,2,0,B|456:355|394:376|394:376|374:353|308:359,1,160,2|10,1:2|0:0,0:0:0:0:
238,284,151149,1,2,0:0:0:0:
90,350,151316,1,2,1:2:0:0:
147,188,151483,1,2,0:0:0:0:
219,304,151649,5,10,0:0:0:0:
56,243,151816,1,2,0:0:0:0:
249,198,151983,2,0,P|287:204|352:211,1,80,0|2,1:0|0:0,0:0:0:0:
86,125,152316,2,0,P|48:131|-17:138,1,80,10|2,0:0|0:0,0:0:0:0:
203,21,152649,5,12,0:0:0:0:
241,119,152816,1,2,1:2:0:0:
341,25,152983,5,10,0:0:0:0:
232,150,153149,1,2,1:2:0:0:
385,128,153316,5,8,0:0:0:0:
188,104,153483,1,2,1:2:0:0:
301,252,153649,5,8,0:0:0:0:
409,105,153816,1,2,0:0:0:0:
382,291,153983,5,8,0:0:0:0:
245,44,154149,1,8,0:0:0:0:
512,220,155316,5,0,0:0:0:0:
23,73,166649,6,0,P|70:88|214:126,1,180.000006866455,2|0,0:0|0:0,0:0:0:0:
274,65,167316,2,0,P|249:121|232:250,1,180.000006866455,2|0,0:0|0:0,0:0:0:0:
296,311,167983,1,2,0:0:0:0:
482,137,168649,6,0,B|406:113|330:161|330:161|296:133|245:133,1,240.000009155274,2|0,0:0|0:0,0:0:0:0:
116,67,169649,1,0,1:0:0:0:
27,181,169983,2,0,P|32:234|65:312,1,120.000004577637,2|0,0:0|0:0,0:0:0:0:
89,367,170483,1,2,0:0:0:0:
151,322,170649,2,0,P|181:310|230:303,1,60.0000022888184,2|2,0:0|0:0,0:0:0:0:
208,304,170983,1,2,0:0:0:0:
276,349,171149,1,0,0:0:0:0:
365,293,171316,6,0,P|394:243|394:123,1,180.000006866455,2|0,0:0|0:0,0:0:0:0:
311,100,171983,2,0,P|284:107|246:115,1,60.0000022888184,2|2,0:0|0:0,0:0:0:0:
162,183,172316,2,0,P|171:152|178:113,1,60.0000022888184,2|2,0:0|0:0,0:0:0:0:
31,32,172649,6,0,P|34:96|69:222,1,180.000006866455,2|2,0:0|0:0,0:0:0:0:
22,297,173316,2,0,P|57:286|97:274,1,60.0000022888184,0|2,0:0|0:0,0:0:0:0:
170,357,173649,2,0,P|162:318|152:277,1,60.0000022888184,2|0,0:0|0:0,0:0:0:0:
293,170,173983,6,0,P|291:255|273:356,1,180.000006866455,2|0,0:0|0:0,0:0:0:0:
369,384,174649,2,0,P|371:299|389:198,1,180.000006866455,2|0,0:0|0:0,0:0:0:0:
481,92,175316,6,0,P|412:82|293:47,1,180.000006866455,2|0,0:0|0:0,0:0:0:0:
40,66,175983,2,0,P|109:76|228:111,1,180.000006866455,2|0,0:0|0:0,0:0:0:0:
283,179,176649,5,2,1:2:0:0:
197,226,176816,1,2,1:2:0:0:
280,268,176983,2,0,P|286:309|283:358,1,68.0000012969971,10|0,0:0|0:0,0:0:0:0:
156,378,177316,2,0,P|150:337|153:288,1,68.0000012969971,10|0,0:0|0:0,0:0:0:0:
150,310,177566,1,8,0:0:0:0:
150,310,177649,2,0,P|112:321|74:323,1,68.0000012969971,2|10,0:0|0:0,0:0:0:0:
70,166,177983,5,2,1:2:0:0:
0,211,178149,2,0,P|55:210|142:240,1,136.000002593994,0|10,1:0|0:0,0:0:0:0:
205,184,178649,2,0,P|220:152|226:110,1,68.0000012969971,8|0,0:0|0:0,0:0:0:0:
123,23,178983,2,0,P|108:55|102:97,1,68.0000012969971,8|0,0:0|0:0,0:0:0:0:
244,40,179316,5,2,1:2:0:0:
315,107,179483,1,2,1:2:0:0:
366,47,179649,2,0,P|398:41|453:36,1,68.0000012969971,10|0,0:0|0:0,0:0:0:0:
511,141,179983,2,0,P|479:135|424:130,1,68.0000012969971,10|0,0:0|0:0,0:0:0:0:
444,131,180233,1,2,0:0:0:0:
444,131,180316,2,0,P|434:162|426:210,1,68.0000012969971,2|2,0:0|0:0,0:0:0:0:
444,347,180649,5,2,1:2:0:0:
491,264,180816,1,0,1:0:0:0:
358,303,180983,2,0,B|301:301|262:327|262:327|226:312|202:310,1,136.000002593994,2|2,0:0|1:2,0:0:0:0:
165,237,181483,5,0,1:0:0:0:
241,189,181649,2,0,P|246:157|257:109,1,68.0000012969971,10|0,0:0|0:0,0:0:0:0:
110,57,181983,6,0,P|94:139|73:215,1,136.000002593994,2|8,1:2|0:0,0:0:0:0:
16,244,182483,1,0,0:0:0:0:
98,332,182649,2,0,P|165:313|257:301,1,136.000002593994,8|2,0:0|0:0,0:0:0:0:
315,277,183149,1,10,0:0:0:0:
411,357,183316,5,0,1:0:0:0:
468,288,183483,1,0,1:0:0:0:
372,190,183649,2,0,P|379:223|389:255,1,68.0000012969971,0|8,0:0|0:0,0:0:0:0:
477,121,183983,2,0,P|427:114|331:87,1,136.000002593994,8|10,0:0|0:0,0:0:0:0:
285,33,184483,1,2,0:0:0:0:
190,143,184649,5,0,1:0:0:0:
152,40,184816,1,0,1:0:0:0:
230,54,184983,2,0,P|262:47|323:28,1,68.0000012969971,8|0,0:0|0:0,0:0:0:0:
101,124,185316,2,0,P|69:117|8:98,1,68.0000012969971,8|0,0:0|0:0,0:0:0:0:
35,107,185566,1,8,0:0:0:0:
35,107,185649,2,0,P|25:148|18:192,1,68.0000012969971,0|8,0:0|0:0,0:0:0:0:
103,264,185983,5,2,1:2:0:0:
199,213,186149,1,0,1:0:0:0:
102,160,186316,1,2,0:0:0:0:
123,254,186483,1,10,0:0:0:0:
222,199,186649,2,0,P|258:189|302:185,1,68.0000012969971,10|0,0:0|0:0,0:0:0:0:
90,275,186983,2,0,P|54:265|10:261,1,68.0000012969971,2|0,0:0|0:0,0:0:0:0:
234,376,187316,5,2,1:2:0:0:
437,257,187816,1,0,0:0:0:0:
364,208,187983,1,8,0:0:0:0:
353,298,188316,1,0,1:0:0:0:
457,99,188649,5,2,0:0:0:0:
274,181,189316,5,2,0:0:0:0:
119,343,189983,5,0,1:0:0:0:
376,275,191816,5,0,1:0:0:0:
376,275,191899,1,0,1:0:0:0:
376,275,191983,1,8,0:0:0:0:
303,216,192149,2,0,P|263:211|203:195,1,83.9999974365235,8|0,0:0|0:0,0:0:0:0:
88,124,192483,5,0,0:0:0:0:
195,51,192649,1,6,1:2:0:0:
143,202,192816,1,0,0:0:0:0:
8,68,192983,1,10,0:0:0:0:
234,118,193149,2,0,P|229:161|215:219,1,83.9999974365235,2|0,0:0|1:0,0:0:0:0:
42,317,193483,2,0,P|33:275|28:234,1,83.9999974365235,2|8,0:0|0:0,0:0:0:0:
265,363,193816,1,2,0:0:0:0:
241,212,193983,5,2,1:2:0:0:
181,322,194149,1,2,0:0:0:0:
249,192,194316,1,10,0:0:0:0:
357,288,194483,2,0,B|411:294|451:321|451:321|474:303|524:289,1,167.999994873047,2|0,0:0|1:0,0:0:0:0:
423,172,194983,2,0,P|369:163|308:160,1,83.9999974365235,8|2,0:0|0:0,0:0:0:0:
189,122,195316,5,2,1:2:0:0:
274,49,195483,1,2,0:0:0:0:
260,206,195649,1,10,0:0:0:0:
149,113,195816,1,2,0:0:0:0:
372,73,195983,2,0,P|366:143|342:262,1,167.999994873047,2|10,1:2|0:0,0:0:0:0:
188,334,196483,6,0,P|179:295|173:237,1,83.9999974365235,2|0,0:0|1:0,0:0:0:0:
64,169,196816,1,2,1:2:0:0:
185,101,196983,1,10,0:0:0:0:
238,201,197149,1,2,0:0:0:0:
80,151,197316,2,0,P|41:144|-21:138,1,83.9999974365235,0|2,1:0|0:0,0:0:0:0:
123,325,197649,2,0,P|134:279|140:235,1,83.9999974365235,10|2,0:0|0:0,0:0:0:0:
248,183,197983,6,0,B|289:180|289:180|318:192|318:192|361:187|430:216,1,167.999994873047,4|8,1:2|0:0,0:0:0:0:
505,69,198483,1,2,0:0:0:0:
343,6,198649,2,0,P|353:55|367:108,1,83.9999974365235,0|2,1:0|0:0,0:0:0:0:
202,180,198983,2,0,P|212:139|220:98,1,83.9999974365235,8|2,0:0|0:0,0:0:0:0:
411,208,199316,5,0,1:0:0:0:
252,305,199483,1,2,1:2:0:0:
308,151,199649,1,10,0:0:0:0:
434,229,199816,1,2,0:0:0:0:
228,283,199983,2,0,P|181:275|130:264,1,83.9999974365235,0|0,0:0|1:0,0:0:0:0:
394,369,200316,2,0,P|441:361|492:350,1,83.9999974365235,8|2,0:0|0:0,0:0:0:0:
309,169,200649,5,0,1:0:0:0:
346,281,200816,1,0,0:0:0:0:
405,129,200983,1,8,0:0:0:0:
241,208,201149,1,2,0:0:0:0:
161,154,201316,2,0,P|116:141|50:132,1,83.9999974365235,2|2,1:2|1:2,0:0:0:0:
247,0,201649,1,8,0:0:0:0:
356,78,201816,5,6,1:2:0:0:
251,170,201983,1,0,0:0:0:0:
269,88,202149,1,2,1:2:0:0:
137,185,202316,2,0,P|143:223|159:290,1,83.9999974365235,8|10,0:0|0:0,0:0:0:0:
152,267,202566,1,8,0:0:0:0:
152,267,202649,1,8,0:0:0:0:
290,328,202816,6,0,L|344:341,1,41.9999987182618,8|8,0:0|0:0,0:0:0:0:
382,251,202983,2,0,L|328:264,1,41.9999987182618,8|8,0:0|0:0,0:0:0:0:
418,363,203149,2,0,L|393:298,1,41.9999987182618,8|8,0:0|0:0,0:0:0:0:
251,243,203316,2,0,B|275:202|275:202|254:152|281:83,1,167.999994873047,6|10,1:2|0:0,0:0:0:0:
452,164,203816,2,0,P|420:155|357:147,1,83.9999974365235,2|0,0:0|1:0,0:0:0:0:
92,82,204149,2,0,P|132:71|174:65,1,83.9999974365235,2|8,0:0|0:0,0:0:0:0:
254,7,204483,1,2,0:0:0:0:
292,168,204649,5,2,1:2:0:0:
176,87,204816,1,2,0:0:0:0:
296,33,204983,1,10,0:0:0:0:
190,177,205149,2,0,P|177:225|169:285,1,83.9999974365235,2|0,0:0|1:0,0:0:0:0:
171,258,205483,1,2,1:2:0:0:
7,201,205649,2,0,P|52:198|120:184,1,83.9999974365235,10|2,0:0|0:0,0:0:0:0:
296,338,205983,6,0,B|237:331|182:364|182:364|161:335|130:334,1,167.999994873047,2|10,1:2|0:0,0:0:0:0:
255,175,206483,1,0,0:0:0:0:
361,265,206649,2,0,P|377:303|393:361,1,83.9999974365235,2|0,1:2|0:0,0:0:0:0:
225,252,206983,1,10,0:0:0:0:
339,164,207149,1,2,0:0:0:0:
177,67,207316,5,2,1:2:0:0:
181,178,207483,1,2,0:0:0:0:
331,83,207649,1,10,0:0:0:0:
103,117,207816,1,2,0:0:0:0:
240,7,207983,6,0,P|248:50|260:112,1,83.9999974365235,0|0,1:0|1:2,0:0:0:0:
92,216,208316,2,0,P|99:174|107:133,1,83.9999974365235,8|0,0:0|0:0,0:0:0:0:
277,268,208649,5,4,1:2:0:0:
340,313,208816,2,0,P|389:321|485:266,1,160,0|2,1:0|0:0,0:0:0:0:
512,173,209316,2,0,P|454:165|339:133,1,160,8|0,0:0|1:0,0:0:0:0:
245,200,209816,1,0,1:0:0:0:
245,200,209899,1,0,1:0:0:0:
245,200,209983,6,0,P|234:162|229:101,1,83.9999974365235,8|0,0:0|1:0,0:0:0:0:
228,117,210233,1,0,1:0:0:0:
228,117,210316,2,0,P|180:130|127:134,1,83.9999974365235,8|0,0:0|1:0,0:0:0:0:
0,243,210649,2,0,P|47:256|96:265,1,83.9999974365235,8|0,3:0|1:0,0:0:0:0:
206,365,210983,5,4,3:0:0:0:
206,365,211066,1,0,1:0:0:0:
206,365,211149,1,0,1:0:0:0:
206,365,211233,1,0,1:0:0:0:
206,365,211316,2,0,P|216:291|221:178,1,167.999994873047,6|8,1:2|0:0,0:0:0:0:
291,74,211816,1,0,1:0:0:0:
153,117,211983,1,8,0:0:0:0:
325,183,212149,1,0,1:0:0:0:
266,53,212316,1,8,0:0:0:0:
210,229,212483,1,0,1:0:0:0:
352,112,212649,6,0,P|396:101|453:93,1,83.9999974365235,8|0,0:0|1:0,0:0:0:0:
199,146,212983,2,0,P|155:135|98:127,1,83.9999974365235,8|0,0:0|1:0,0:0:0:0:
332,315,213316,1,10,0:0:0:0:
442,191,213483,1,0,1:0:0:0:
270,232,213649,1,8,0:0:0:0:
410,352,213816,1,2,1:2:0:0:
301,324,213983,6,0,P|267:320|183:303,1,83.9999974365235,8|0,0:0|1:0,0:0:0:0:
59,384,214316,2,0,P|68:343|72:301,1,83.9999974365235,8|0,0:0|1:0,0:0:0:0:
42,184,214649,1,8,0:0:0:0:
105,72,214816,1,0,1:0:0:0:
201,216,214983,1,8,0:0:0:0:
285,47,215149,1,0,1:0:0:0:
94,179,215316,6,0,P|52:171|-12:144,1,83.9999974365235,8|2,0:0|1:2,0:0:0:0:
199,3,215649,2,0,P|209:41|217:96,1,83.9999974365235,10|2,0:0|1:2,0:0:0:0:
307,229,215983,1,10,0:0:0:0:
389,78,216149,1,0,1:0:0:0:
230,165,216316,2,0,P|220:203|212:258,1,83.9999974365235,10|0,0:0|1:0,0:0:0:0:
385,359,216649,6,0,P|338:345|274:333,1,83.9999974365235,14|0,0:0|1:0,0:0:0:0:
174,377,216983,1,8,0:0:0:0:
61,169,217149,1,0,1:0:0:0:
248,259,217316,1,8,0:0:0:0:
71,319,217483,1,0,1:0:0:0:
86,135,217649,1,8,0:0:0:0:
171,273,217816,1,0,1:0:0:0:
266,152,217983,6,0,P|252:81|239:47,1,83.9999974365235,8|0,0:0|1:0,0:0:0:0:
53,237,218316,2,0,P|67:308|80:342,1,83.9999974365235,8|0,0:0|1:0,0:0:0:0:
43,90,218649,1,10,0:0:0:0:
179,187,218816,1,0,1:0:0:0:
212,0,218983,1,8,0:0:0:0:
37,125,219149,1,0,1:0:0:0:
266,152,219316,6,0,P|307:147|381:130,1,83.9999974365235,6|0,1:2|0:0,0:0:0:0:
446,57,219649,1,8,0:0:0:0:
489,178,219816,2,0,B|490:231|529:272|529:272|496:312|494:352,1,167.999994873047,6|2,1:2|1:2,0:0:0:0:
351,238,220316,1,8,0:0:0:0:
232,338,220483,6,0,P|172:326|57:290,1,167.999994873047,6|0,1:2|1:0,0:0:0:0:
16,173,220983,1,8,0:0:0:0:
16,173,221066,1,0,1:0:0:0:
16,173,221149,1,0,1:0:0:0:
153,100,221316,5,8,3:0:0:0:
43,47,221483,2,0,P|36:31|24:3,2,41.9999987182618,8|0|8,0:0|1:0|0:0,0:0:0:0:
118,212,221816,1,0,1:0:0:0:
232,127,221983,6,0,B|271:117|271:117|306:132|306:132|344:113|421:115,1,167.999994873047,6|8,1:2|0:0,0:0:0:0:
481,51,222483,1,0,0:0:0:0:
490,228,222649,1,0,1:0:0:0:
379,133,222816,1,0,1:0:0:0:
469,151,222983,1,8,0:0:0:0:
395,254,223149,6,0,P|386:298|385:351,1,83.9999974365235,0|2,1:0|1:2,0:0:0:0:
253,261,223483,1,0,1:0:0:0:
184,327,223649,2,0,P|141:341|82:346,1,83.9999974365235,10|0,0:0|0:0,0:0:0:0:
0,185,223983,2,0,P|43:199|103:208,1,83.9999974365235,2|0,1:2|1:0,0:0:0:0:
219,121,224316,1,10,0:0:0:0:
77,66,224483,1,0,0:0:0:0:
163,198,224649,6,0,P|179:134|193:12,1,167.999994873047,2|8,1:2|0:0,0:0:0:0:
302,165,225149,1,0,0:0:0:0:
421,103,225316,1,2,1:2:0:0:
253,86,225483,1,2,1:2:0:0:
454,136,225649,1,8,0:0:0:0:
231,209,225816,6,0,B|270:201|270:201|305:216|305:216|349:193|430:203,1,167.999994873047,2|0,1:2|1:0,0:0:0:0:
486,284,226316,2,0,P|479:327|467:383,1,83.9999974365235,10|0,0:0|0:0,0:0:0:0:
302,262,226649,2,0,P|309:219|321:163,1,83.9999974365235,2|0,1:2|1:0,0:0:0:0:
155,331,226983,2,0,P|110:339|56:357,1,83.9999974365235,12|0,0:0|0:0,0:0:0:0:
0,173,227316,6,0,L|199:213,1,167.999994873047,10|10,0:0|0:0,0:0:0:0:
285,112,227816,1,0,0:0:0:0:
139,32,227983,1,10,0:0:0:0:
204,145,228149,2,0,L|268:130,2,41.9999987182618,2|0|8,1:2|1:2|0:0,0:0:0:0:
352,31,228483,1,2,1:2:0:0:
456,201,228649,5,10,0:0:0:0:
317,126,228816,1,0,0:0:0:0:
456,68,228983,1,10,0:0:0:0:
387,238,229149,1,2,1:2:0:0:
323,152,229316,1,8,0:0:0:0:
496,230,229483,1,2,1:2:0:0:
345,320,229649,2,0,P|301:317|233:297,1,83.9999974365235,8|0,0:0|1:0,0:0:0:0:
101,109,229983,5,10,0:0:0:0:
92,292,230149,1,10,0:0:0:0:
223,217,230316,1,0,1:0:0:0:
58,130,230483,1,10,0:0:0:0:
139,232,230649,1,8,0:0:0:0:
192,44,230816,1,2,1:2:0:0:
354,161,230983,1,8,0:0:0:0:
261,223,231149,6,0,P|277:143|286:19,1,167.999994873047,6|2,1:2|1:2,0:0:0:0:
468,185,231649,2,0,P|425:195|356:201,1,83.9999974365235,2|2,1:2|1:2,0:0:0:0:
94,302,231983,2,0,P|137:312|206:318,1,83.9999974365235,10|2,0:0|1:2,0:0:0:0:
350,384,232316,1,10,0:0:0:0:
276,207,232483,1,10,0:0:0:0:
416,300,232649,5,8,3:0:0:0:
416,300,232733,1,4,3:0:0:0:
416,300,232816,1,8,3:0:0:0:
416,300,232899,1,4,3:0:0:0:
416,300,232983,1,6,1:2:0:0:
256,192,233066,12,0,238983,0:0:0:0:
