osu file format v14

[General]
AudioFilename: audio.ogg
AudioLeadIn: 0
PreviewTime: 136356
Countdown: 0
SampleSet: Soft
StackLeniency: 0.7
Mode: 0
LetterboxInBreaks: 0
WidescreenStoryboard: 0

[Editor]
Bookmarks: 239023
DistanceSpacing: 1.1
BeatDivisor: 4
GridSize: 16
TimelineZoom: 2.1

[Metadata]
Title:White Promise
TitleUnicode:White Promise
Artist:Nayugorou
ArtistUnicode:なゆごろう
Creator:ckharv
Version:Nostalgia
Source:LOST:SMILE memories + promises
Tags:ロストスマイルメモリーズ プロミセス ロッスマ Rossuma life0 opening op visual novel vn galgame galge pop jpop j-pop female vocals video game japanese Ichijou Meguru 一条 めぐる Masaki Minato 真咲 湊 Mihiro-san みひろさん Yonamine Jun 与那嶺 純 zekk matsuyuki ame matsuyuki_ame rk657 ninym
BeatmapID:3615226
BeatmapSetID:1766146

[Difficulty]
HPDrainRate:6
CircleSize:4
OverallDifficulty:8.8
ApproachRate:9.2
SliderMultiplier:2
SliderTickRate:1

[Events]
//Background and Video events
0,0,"423.jpg",0,0
//Break Periods
2,83316,87579
2,155316,166079
2,187515,189413
//Storyboard Layer 0 (Background)
//Storyboard Layer 1 (Fail)
//Storyboard Layer 2 (Pass)
//Storyboard Layer 3 (Foreground)
//Storyboard Layer 4 (Overlay)
//Storyboard Sound Samples

[TimingPoints]
650,333.333333333333,4,2,1,45,1,0
650,-181.818181818182,4,2,1,45,0,0
5899,-181.818181818182,4,2,1,5,0,0
5983,-133.333333333333,4,2,1,55,0,0
6649,-133.333333333333,4,2,2,55,0,0
6816,-133.333333333333,4,2,2,5,0,0
6899,-133.333333333333,4,2,2,55,0,0
7066,-133.333333333333,4,2,2,5,0,0
7149,-133.333333333333,4,2,2,55,0,0
8649,-133.333333333333,4,2,1,55,0,0
9983,-133.333333333333,4,2,1,55,0,0
10149,-133.333333333333,4,2,1,65,0,0
10316,-133.333333333333,4,2,1,70,0,0
10483,-133.333333333333,4,2,1,75,0,0
10649,-133.333333333333,4,2,1,60,0,0
10816,-133.333333333333,4,2,1,65,0,0
10983,-133.333333333333,4,2,1,70,0,0
11149,-133.333333333333,4,2,1,75,0,0
11316,-100,4,2,1,90,0,1
11399,-100,4,2,1,85,0,0
16566,-100,4,2,1,5,0,0
16649,-100,4,2,1,85,0,0
18233,-100,4,2,1,5,0,0
18316,-100,4,2,1,85,0,0
21983,-100,4,2,1,50,0,0
25983,-181.818181818182,4,2,1,50,0,0
31233,-181.818181818182,4,2,1,5,0,0
31316,-181.818181818182,4,2,1,55,0,0
31399,-100,4,2,1,5,0,0
31816,-100,4,2,1,55,0,0
32649,-133.333333333333,4,2,1,65,0,0
32983,-133.333333333333,4,2,2,65,0,0
36899,-133.333333333333,4,2,2,5,0,0
36983,-133.333333333333,4,2,2,65,0,0
40566,-133.333333333333,4,2,1,5,0,0
40649,-133.333333333333,4,2,1,65,0,0
43233,-181.818181818182,4,2,1,5,0,0
43316,-181.818181818182,4,2,1,65,0,0
53983,-133.333333333333,4,2,1,70,0,0
59483,-133.333333333333,4,2,1,65,0,0
59983,-133.333333333333,4,2,1,70,0,0
60483,-133.333333333333,4,2,1,75,0,0
60983,-133.333333333333,4,2,1,80,0,0
61483,-133.333333333333,4,2,1,85,0,0
62316,-133.333333333333,4,2,1,70,0,0
62649,-133.333333333333,4,2,1,75,0,0
62983,-133.333333333333,4,2,1,80,0,0
63316,-133.333333333333,4,2,1,85,0,0
63816,-181.818181818182,4,2,1,100,0,0
64316,-181.818181818182,4,2,1,5,0,0
64649,-100,4,2,1,90,0,1
65149,-100,4,2,1,85,0,1
66733,-100,4,2,1,5,0,1
66816,-100,4,2,1,85,0,1
68233,-100,4,2,1,5,0,1
68316,-100,4,2,1,85,0,1
72066,-100,4,2,1,5,0,1
72149,-100,4,2,1,85,0,1
73483,-400,4,2,1,85,0,1
73733,-100,4,2,1,5,0,1
73816,-100,4,2,1,85,0,1
74816,-100,4,2,1,75,0,1
75066,-100,4,2,1,80,0,1
75274,-100,4,2,1,85,0,0
75316,-83.3333333333333,4,2,1,90,0,1
75649,-100,4,2,1,85,0,1
82149,-100,4,2,1,100,0,0
88316,-181.818181818182,4,2,1,70,0,0
88566,-181.818181818182,4,2,1,5,0,0
88649,-100,4,2,1,75,0,0
88983,-100,4,2,1,70,0,0
89983,-100,4,2,1,75,0,0
91316,-100,4,2,1,80,0,0
92649,-100,4,2,1,85,0,0
93983,-133.333333333333,4,2,1,65,0,0
97899,-133.333333333333,4,2,1,5,0,0
97983,-133.333333333333,4,2,1,65,0,0
104566,-133.333333333333,4,2,1,5,0,0
104649,-117.647058823529,4,2,1,70,0,0
105899,-117.647058823529,4,2,1,5,0,0
105983,-117.647058823529,4,2,1,70,0,0
107233,-117.647058823529,4,2,1,5,0,0
107316,-117.647058823529,4,2,1,70,0,0
108899,-117.647058823529,4,2,1,5,0,0
108983,-117.647058823529,4,2,1,70,0,0
110566,-117.647058823529,4,2,1,5,0,0
110649,-117.647058823529,4,2,1,70,0,0
111566,-117.647058823529,4,2,1,5,0,0
111649,-117.647058823529,4,2,1,70,0,0
114316,-107.52688172043,4,2,1,70,0,0
114566,-107.52688172043,4,2,1,5,0,0
114649,-133.333333333333,4,2,1,70,0,0
115316,-181.818181818182,4,2,1,65,0,0
121566,-181.818181818182,4,2,1,5,0,0
121649,-181.818181818182,4,2,1,65,0,0
125983,-181.818181818182,4,2,1,70,0,0
126149,-133.333333333333,4,2,1,70,0,0
128649,-133.333333333333,4,2,1,75,0,0
128983,-133.333333333333,4,2,1,65,0,0
129316,-133.333333333333,4,2,1,70,0,0
129649,-133.333333333333,4,2,1,75,0,0
129983,-133.333333333333,4,2,1,80,0,0
131316,-133.333333333333,4,2,1,65,0,0
133649,-133.333333333333,4,2,1,75,0,0
133899,-133.333333333333,4,2,1,5,0,0
133983,-133.333333333333,4,2,1,75,0,0
134649,-133.333333333333,4,2,1,80,0,0
135316,-133.333333333333,4,2,1,70,0,0
135649,-133.333333333333,4,2,1,75,0,0
136149,-133.333333333333,4,2,1,70,0,0
136316,-133.333333333333,4,2,1,75,0,0
136483,-133.333333333333,4,2,1,80,0,0
136649,-100,4,2,1,90,0,1
136983,-100,4,2,1,85,0,1
138733,-100,4,2,1,5,0,1
138816,-100,4,2,1,85,0,1
140233,-100,4,2,1,5,0,1
140316,-100,4,2,1,85,0,1
144066,-100,4,2,1,5,0,1
144149,-100,4,2,1,85,0,1
145483,-400,4,2,1,85,0,1
145733,-181.818181818182,4,2,1,5,0,1
145816,-100,4,2,1,85,0,1
146816,-100,4,2,1,80,0,1
147066,-100,4,2,1,85,0,1
147274,-100,4,2,1,100,0,0
147316,-83.3333333333333,4,2,1,90,0,1
147649,-83.3333333333333,4,2,1,85,0,1
147816,-100,4,2,1,85,0,1
150233,-100,4,2,1,5,0,1
150316,-100,4,2,1,85,0,1
150566,-100,4,2,1,5,0,1
150649,-100,4,2,1,85,0,1
150899,-100,4,2,1,5,0,1
150983,-100,4,2,1,85,0,1
154149,-100,4,2,1,85,0,0
166649,-222.222222222222,4,2,1,60,0,0
176649,-166.666666666667,4,2,2,70,0,0
189983,-166.666666666667,4,2,1,70,0,0
191649,-166.666666666667,4,2,1,75,0,0
191816,-166.666666666667,4,2,1,80,0,0
191983,-166.666666666667,4,2,1,85,0,0
192649,-95.2380952380952,4,2,1,90,0,1
192983,-95.2380952380952,4,2,1,85,0,1
194733,-95.2380952380952,4,2,1,5,0,1
194816,-95.2380952380952,4,2,1,85,0,1
196233,-95.2380952380952,4,2,1,5,0,1
196316,-95.2380952380952,4,2,1,85,0,1
200066,-95.2380952380952,4,2,1,5,0,1
200149,-95.2380952380952,4,2,1,85,0,1
201483,-333.333333333333,4,2,1,85,0,1
201733,-166.666666666667,4,2,1,5,0,1
201816,-95.2380952380952,4,2,1,85,0,1
202066,-95.2380952380952,4,2,1,5,0,1
202149,-95.2380952380952,4,2,1,85,0,1
202816,-95.2380952380952,4,2,1,80,0,1
203066,-95.2380952380952,4,2,1,85,0,1
203274,-95.2380952380952,4,2,1,100,0,0
203316,-80,4,2,1,90,0,1
203649,-80,4,2,1,85,0,1
203816,-95.2380952380952,4,2,1,85,0,1
208316,-166.666666666667,4,2,1,85,0,1
208566,-166.666666666667,4,2,1,5,0,1
208649,-117.647058823529,4,2,1,80,0,1
208983,-117.647058823529,4,2,1,75,0,1
209816,-117.647058823529,4,2,1,80,0,1
210149,-117.647058823529,4,2,1,85,0,1
210983,-166.666666666667,4,2,1,85,0,1
211233,-117.647058823529,4,2,1,5,0,1
211274,-95.2380952380952,4,2,1,85,0,0
211316,-95.2380952380952,4,2,1,90,0,1
211649,-95.2380952380952,4,2,1,85,0,1
216608,-95.2380952380952,4,2,1,100,0,0
216649,-95.2380952380952,4,2,1,90,0,1
216816,-95.2380952380952,4,2,1,85,0,1
219316,-95.2380952380952,4,2,1,90,0,1
219566,-95.2380952380952,4,2,1,5,0,1
219649,-95.2380952380952,4,2,1,90,0,1
220066,-95.2380952380952,4,2,1,5,0,1
220149,-95.2380952380952,4,2,1,90,0,1
220483,-95.2380952380952,4,2,1,90,0,1
220816,-95.2380952380952,4,2,1,90,0,1
220983,-95.2380952380952,4,2,1,80,0,1
221733,-95.2380952380952,4,2,1,85,0,1
221983,-90.9090909090909,4,2,1,90,0,0
222316,-90.9090909090909,4,2,1,85,0,0
222483,-100,4,2,1,85,0,0
224566,-100,4,2,1,5,0,0
224649,-100,4,2,1,85,0,0
226983,-100,4,2,1,90,0,0
227316,-100,4,2,1,85,0,0
227566,-100,4,2,1,5,0,0
227649,-100,4,2,1,85,0,0
227899,-100,4,2,1,5,0,0
227983,-100,4,2,1,85,0,0
238983,-100,4,2,1,5,0,0

[Colours]
Combo1 : 248,237,163
Combo2 : 235,220,190
Combo3 : 241,159,148

[HitObjects]
40,19,650,6,0,P|144:48|240:116,1,220.000006713867,2|0,0:0|0:0,0:0:0:0:
313,206,1649,1,2,0:0:0:0:
360,106,1983,6,0,P|304:100|206:238,1,220.000006713867,2|2,0:0|0:0,0:0:0:0:
242,333,2983,1,2,0:0:0:0:
124,234,3316,6,0,B|192:233|216:280|216:280|243:334|316:333,1,220.000006713867,2|0,0:0|0:0,0:0:0:0:
447,254,4316,1,2,0:0:0:0:
395,384,4649,6,0,P|382:319|357:218,1,165.000005035401,2|0,0:0|1:0,0:0:0:0:
349,193,5233,1,0,1:0:0:0:
349,193,5316,1,2,0:1:0:0:
299,63,5483,1,0,1:0:0:0:
193,175,5649,2,0,P|233:159|283:148,1,82.5000025177003,2|0,0:1|0:0,0:0:0:0:
254,261,5983,6,0,P|229:284|180:291,1,75.0000028610231,2|0,1:2|0:0,0:0:0:0:
105,279,6316,2,0,P|75:262|53:217,1,75.0000028610231,2|0,1:2|0:0,0:0:0:0:
113,80,6649,2,0,P|68:77|35:108,1,75.0000028610231,8|0,1:2|0:0,0:0:0:0:
50,135,6899,2,0,P|94:137|127:106,1,75.0000028610231,8|0,0:0|0:0,0:0:0:0:
112,79,7149,1,8,0:0:0:0:
206,12,7316,6,0,P|251:24|290:32,1,75.0000028610231,2|2,1:2|0:0,0:0:0:0:
336,93,7649,2,0,P|381:105|420:113,1,75.0000028610231,0|0,1:0|0:0,0:0:0:0:
469,186,7983,1,10,1:2:0:0:
411,258,8149,1,8,0:0:0:0:
311,176,8316,2,0,P|264:183|241:213,1,75.0000028610231,2|0,1:2|0:0,0:0:0:0:
194,375,8649,6,0,P|183:331|170:290,1,75.0000028610231,2|2,1:2|0:0,0:0:0:0:
144,222,8983,2,0,P|128:179|110:139,1,75.0000028610231,2|2,1:2|0:0,0:0:0:0:
62,76,9316,1,0,1:0:0:0:
27,173,9483,1,2,0:0:0:0:
147,77,9649,2,0,P|190:92|228:102,1,75.0000028610231,2|0,1:2|0:0,0:0:0:0:
371,0,9983,5,2,1:2:0:0:
426,80,10149,1,10,0:0:0:0:
403,91,10232,1,8,0:0:0:0:
379,96,10315,1,8,0:0:0:0:
354,94,10399,1,8,0:0:0:0:
331,84,10482,1,8,0:0:0:0:
312,69,10565,1,8,0:0:0:0:
298,48,10649,5,2,1:2:0:0:
218,99,10816,5,2,0:0:0:0:
180,203,10983,5,2,0:0:0:0:
234,329,11149,5,2,0:0:0:0:
417,384,11316,6,0,P|425:329|454:181,1,200,6|8,1:2|0:0,0:0:0:0:
390,3,11816,1,0,0:0:0:0:
465,85,11983,2,0,P|372:111|295:53,1,200,2|8,1:2|0:0,0:0:0:0:
180,203,12483,1,2,0:0:0:0:
69,4,12649,6,0,P|94:64|107:118,1,100,2|0,1:2|0:0,0:0:0:0:
101,291,12983,2,0,P|87:338|66:384,1,100,10|0,0:0|0:0,0:0:0:0:
0,150,13316,1,2,1:2:0:0:
106,213,13483,1,0,0:0:0:0:
210,96,13649,2,0,P|257:80|306:71,1,100,10|0,0:0|0:0,0:0:0:0:
465,204,13983,6,0,B|445:242|416:263|416:263|462:376,2,200,2|8|2,1:2|0:0|1:2,0:0:0:0:
343,176,14816,1,2,0:0:0:0:
503,78,14983,1,10,0:0:0:0:
312,0,15149,1,2,0:0:0:0:
465,204,15316,5,2,1:2:0:0:
465,204,15649,1,8,0:0:0:0:
351,349,15816,2,0,P|312:373|168:313,1,200,2|0,0:0|1:0,0:0:0:0:
32,234,16316,2,0,P|85:226|182:202,1,150,8|0,0:0|0:0,0:0:0:0:
206,177,16649,6,0,P|137:160|68:49,1,200,6|8,1:2|0:0,0:0:0:0:
275,0,17149,2,0,B|338:4|355:47|355:47|374:96|438:100,1,200,2|2,0:0|1:2,0:0:0:0:
375,256,17649,1,10,0:0:0:0:
512,158,17816,1,2,0:0:0:0:
324,169,17983,6,0,P|280:220|305:317,1,150,2|0,1:2|0:0,0:0:0:0:
268,332,18316,2,0,P|206:312|156:300,1,100,8|0,0:0|0:0,0:0:0:0:
49,383,18649,1,2,1:2:0:0:
110,263,18816,1,0,0:0:0:0:
0,126,18983,2,0,P|19:182|29:239,1,100,10|0,0:0|0:0,0:0:0:0:
148,16,19316,6,0,P|226:3|311:83,1,200,4|8,1:2|0:0,0:0:0:0:
352,206,19816,1,2,1:2:0:0:
429,123,19983,1,0,1:0:0:0:
462,236,20149,1,2,1:2:0:0:
323,118,20316,1,0,1:0:0:0:
292,290,20483,1,2,1:2:0:0:
504,167,20649,5,8,0:0:0:0:
258,60,20816,1,0,1:0:0:0:
489,7,20983,1,8,0:0:0:0:
274,200,21149,1,0,1:0:0:0:
31,19,21316,5,8,0:0:0:0:
63,286,21483,1,0,1:0:0:0:
195,345,21649,5,8,0:0:0:0:
258,60,21816,1,8,0:0:0:0:
343,114,21983,5,2,0:0:0:0:
343,114,23316,5,2,0:0:0:0:
343,114,24649,5,2,0:0:0:0:
343,114,25983,6,0,P|401:91|467:77,2,110.000003356934,2|0|2,0:0|0:0|0:0,0:0:0:0:
275,72,26816,1,0,0:0:0:0:
300,1,26983,1,2,0:0:0:0:
60,50,27316,6,0,P|75:88|93:162,1,110.000003356934,2|2,0:0|0:0,0:0:0:0:
216,220,27816,2,0,P|167:227|103:250,1,110.000003356934,2|0,0:0|0:0,0:0:0:0:
190,132,28316,1,2,0:0:0:0:
318,243,28649,6,0,P|329:276|320:319,1,55.0000016784668,2|2,0:0|0:0,0:0:0:0:
309,373,28983,1,2,0:0:0:0:
460,284,29316,2,0,P|490:286|524:307,1,55.0000016784668,2|2,0:0|0:0,0:0:0:0:
470,196,29649,2,0,P|440:194|406:173,1,55.0000016784668,2|2,0:0|0:0,0:0:0:0:
290,12,29983,5,2,0:0:0:0:
290,12,30983,2,0,P|240:24|191:43,1,82.5000025177003,2|0,1:2|0:0,0:0:0:0:
154,91,31316,6,0,L|138:48,1,27.5000008392334,2|0,0:0|0:0,0:0:0:0:
309,204,31816,5,8,3:0:0:0:
95,352,32149,5,4,3:0:0:0:
42,276,32483,1,0,1:0:0:0:
42,276,32566,1,0,1:0:0:0:
42,276,32649,6,0,P|100:299|199:325,1,150,6|10,1:2|1:2,0:0:0:0:
305,202,33149,2,0,P|258:214|224:227,1,75.0000028610231,2|8,0:0|1:2,0:0:0:0:
378,334,33483,1,10,0:0:0:0:
378,334,33566,1,8,0:0:0:0:
378,334,33649,2,0,P|342:321|306:312,1,75.0000028610231,10|8,1:2|0:0,0:0:0:0:
151,240,33983,6,0,P|119:195|147:79,1,150.000005722046,0|2,1:0|1:2,0:0:0:0:
171,27,34483,1,0,0:0:0:0:
301,101,34649,2,0,P|256:116|224:132,1,75.0000028610231,10|8,1:2|0:0,0:0:0:0:
97,176,34983,2,0,P|56:163|16:155,1,75.0000028610231,2|2,1:2|0:0,0:0:0:0:
72,351,35316,5,2,1:2:0:0:
99,260,35483,1,2,0:0:0:0:
186,287,35649,1,10,1:2:0:0:
161,376,35816,1,10,0:0:0:0:
293,296,35983,1,10,1:2:0:0:
293,296,36066,1,2,0:0:0:0:
293,296,36149,2,8,L|280:247,1,37.5000014305115,2|8,0:0|0:0,0:0:0:0:
223,152,36316,2,0,P|233:111|242:68,1,75.0000028610231,2|8,1:2|0:0,0:0:0:0:
400,7,36649,6,0,P|440:39|436:115,1,112.500004291535,2|0,1:2|0:0,0:0:0:0:
419,136,36983,2,0,P|401:179|413:210,1,75.0000028610231,8|8,0:0|0:0,0:0:0:0:
332,98,37316,1,2,1:2:0:0:
223,152,37483,1,2,0:0:0:0:
134,56,37649,1,10,1:2:0:0:
19,20,37816,1,2,0:0:0:0:
83,208,37983,6,0,P|75:169|61:131,1,75.0000028610231,2|0,1:2|0:0,0:0:0:0:
172,265,38316,2,0,P|142:291|116:322,1,75.0000028610231,2|0,1:2|0:0,0:0:0:0:
200,162,38649,2,0,P|237:174|277:181,1,75.0000028610231,10|2,1:2|0:0,0:0:0:0:
296,224,38899,1,8,0:0:0:0:
296,224,38983,2,0,P|331:212|368:205,1,75.0000028610231,10|10,1:2|0:0,0:0:0:0:
425,89,39316,5,2,1:2:0:0:
476,184,39483,1,2,0:0:0:0:
333,118,39649,1,2,1:2:0:0:
378,0,39816,1,2,0:0:0:0:
191,6,39983,2,0,P|232:22|262:37,1,75.0000028610231,10|10,1:2|0:0,0:0:0:0:
425,89,40316,2,0,P|377:109|355:189,1,112.500004291535,2|0,1:2|0:0,0:0:0:0:
368,204,40649,6,0,P|391:277|410:363,1,150.000005722046,4|0,1:2|1:0,0:0:0:0:
291,279,41149,2,0,P|253:276|222:297,1,75.0000028610231,2|0,0:0|1:0,0:0:0:0:
106,367,41483,2,0,P|125:335|122:299,1,75.0000028610231,2|0,0:0|1:0,0:0:0:0:
132,162,41816,2,0,P|148:194|181:210,2,75.0000028610231,2|0|0,0:0|1:0|1:0,0:0:0:0:
40,230,42316,5,8,0:0:0:0:
147,87,42483,1,0,1:0:0:0:
147,87,42566,1,0,1:0:0:0:
147,87,42649,1,8,0:0:0:0:
64,6,42816,1,8,3:0:0:0:
210,140,42983,2,0,P|256:158|334:172,1,112.500004291535,4|0,3:0|0:0,0:0:0:0:
412,95,43316,6,0,P|341:39|337:129,1,220.000006713867,6|8,1:2|0:0,0:0:0:0:
486,219,44316,1,2,0:0:0:0:
386,382,44649,5,0,0:0:0:0:
301,350,44816,1,8,0:0:0:0:
366,290,44983,1,0,1:0:0:0:
234,138,45316,2,0,P|185:152|114:167,1,110.000003356934,10|2,0:0|1:2,0:0:0:0:
54,99,45816,1,2,0:0:0:0:
155,264,45983,6,0,P|106:250|35:235,1,110.000003356934,2|2,1:2|1:2,0:0:0:0:
127,164,46483,1,2,0:0:0:0:
35,332,46649,1,8,0:0:0:0:
283,221,46983,1,2,1:2:0:0:
209,149,47149,6,0,P|242:144|326:117,1,110.000003356934,8|4,3:0|3:0,0:0:0:0:
444,0,47649,1,4,3:0:0:0:
388,180,47983,2,0,P|353:149|359:71,1,110.000003356934,10|2,0:0|1:2,0:0:0:0:
470,99,48483,1,10,1:3:0:0:
508,255,48649,6,0,P|492:300|477:387,1,110.000003356934,4|0,1:2|1:0,0:0:0:0:
356,252,49149,1,2,0:0:0:0:
321,345,49316,1,10,0:0:0:0:
405,327,49483,1,2,0:0:0:0:
274,270,49649,1,2,0:0:0:0:
391,177,49816,6,0,P|401:145|385:108,1,55.0000016784668,2|0,0:0|1:0,0:0:0:0:
290,37,50149,2,0,P|320:50|350:57,1,55.0000016784668,8|0,0:0|1:0,0:0:0:0:
427,3,50483,1,2,0:0:0:0:
298,143,50649,1,8,0:0:0:0:
298,143,50983,2,0,P|272:131|246:124,1,55.0000016784668,2|10,1:2|0:0,0:0:0:0:
84,3,51316,6,0,P|71:27|70:54,1,55.0000016784668,2|2,1:2|0:0,0:0:0:0:
153,78,51649,2,0,P|166:53|167:26,1,55.0000016784668,2|2,1:2|0:0,0:0:0:0:
16,131,51983,1,10,2:0:0:0:
92,154,52149,1,2,2:0:0:0:
168,178,52316,1,2,2:0:0:0:
21,319,52483,5,8,3:0:0:0:
21,319,52816,1,0,1:0:0:0:
116,376,52983,2,0,P|160:363|211:353,1,82.5000025177003,4|0,3:0|0:0,0:0:0:0:
227,335,53317,1,10,0:0:0:0:
145,269,53483,1,2,0:0:0:0:
258,142,53650,1,8,0:0:0:0:
258,142,53733,1,8,0:0:0:0:
258,142,53817,1,8,0:0:0:0:
164,182,53983,5,4,1:2:0:0:
232,242,54149,2,0,P|278:261|378:288,1,150.000005722046,2|0,1:2|1:0,0:0:0:0:
472,364,54649,2,0,P|420:371|400:396,1,75.0000028610231,2|0,1:2|0:0,0:0:0:0:
497,280,54983,1,8,2:0:0:0:
508,255,55066,1,8,2:0:0:0:
511,228,55149,1,8,2:0:0:0:
505,201,55233,1,8,2:0:0:0:
488,174,55316,6,0,P|415:155|345:128,1,150.000005722046,8|0,0:0|1:0,0:0:0:0:
213,93,55816,1,0,0:0:0:0:
313,0,55983,2,0,P|292:60|289:76,1,75.0000028610231,2|0,1:2|0:0,0:0:0:0:
293,202,56316,1,8,0:0:0:0:
274,221,56399,1,8,0:0:0:0:
249,232,56482,1,8,0:0:0:0:
222,232,56566,1,8,0:0:0:0:
197,220,56649,6,0,P|163:198|120:198,1,75.0000028610231,10|0,0:0|0:0,0:0:0:0:
46,154,56983,2,0,P|8:171|-17:207,1,75.0000028610231,2|0,1:2|0:0,0:0:0:0:
6,334,57316,1,2,1:2:0:0:
68,247,57483,1,8,0:0:0:0:
185,300,57649,1,2,1:2:0:0:
116,115,57816,1,8,0:0:0:0:
185,58,57983,6,0,P|228:77|329:106,1,150.000005722046,2|0,1:2|1:0,0:0:0:0:
467,13,58483,1,8,0:0:0:0:
425,137,58649,2,0,P|414:99|396:59,1,75.0000028610231,2|8,1:2|3:0,0:0:0:0:
512,155,58983,1,2,1:2:0:0:
364,209,59149,1,8,0:0:0:0:
381,213,59233,1,0,1:0:0:0:
398,220,59316,5,4,1:2:0:0:
456,353,59483,5,8,0:0:0:0:
427,343,59566,1,8,0:0:0:0:
427,313,59649,1,8,0:0:0:0:
456,304,59733,1,8,0:0:0:0:
473,328,59816,1,4,1:2:0:0:
306,382,59983,5,8,0:0:0:0:
269,365,60066,1,8,0:0:0:0:
273,326,60149,1,8,0:0:0:0:
311,318,60233,1,8,0:0:0:0:
330,351,60316,1,4,1:2:0:0:
167,313,60483,5,8,0:0:0:0:
120,285,60566,1,8,0:0:0:0:
130,236,60649,1,8,0:0:0:0:
180,229,60733,1,8,0:0:0:0:
201,274,60816,1,4,1:2:0:0:
49,178,60983,5,8,0:0:0:0:
3,131,61066,1,8,0:0:0:0:
31,73,61149,1,8,0:0:0:0:
96,81,61233,1,8,0:0:0:0:
106,145,61316,1,4,1:2:0:0:
223,0,61483,5,8,0:0:0:0:
211,32,61566,1,8,0:0:0:0:
200,61,61649,1,8,0:0:0:0:
337,131,61816,5,8,0:0:0:0:
326,101,61899,1,8,0:0:0:0:
315,70,61983,1,4,1:2:0:0:
424,105,62149,5,2,0:0:0:0:
275,203,62316,2,0,P|316:213|369:232,1,75.0000028610231,10|0,0:0|1:0,0:0:0:0:
483,303,62649,5,8,0:0:0:0:
369,382,62816,1,0,1:0:0:0:
179,327,62983,1,8,0:0:0:0:
147,115,63149,1,0,1:0:0:0:
376,19,63316,5,8,0:0:0:0:
376,19,63399,1,4,3:0:0:0:
376,19,63483,1,4,3:0:0:0:
376,19,63566,1,4,3:0:0:0:
376,19,63649,1,8,0:0:0:0:
228,190,63816,6,0,B|177:189|157:149|157:149|139:114|88:114,1,165.000005035401,8|0,0:0|0:0,0:0:0:0:
88,123,64649,6,0,P|168:108|288:71,1,200,6|10,1:2|0:0,0:0:0:0:
424,235,65149,2,0,P|375:217|327:204,1,100,2|0,0:0|1:0,0:0:0:0:
492,15,65483,2,0,P|513:56|487:120,1,100,2|8,0:0|0:0,0:0:0:0:
403,60,65816,1,2,0:0:0:0:
512,282,65983,5,2,1:2:0:0:
449,352,66149,1,2,0:0:0:0:
361,317,66316,1,10,0:0:0:0:
224,131,66483,2,0,P|243:205|258:287,1,150,2|0,0:0|0:0,0:0:0:0:
253,299,66816,1,0,1:0:0:0:
11,250,66983,2,0,P|64:239|109:223,1,100,8|2,0:0|0:0,0:0:0:0:
141,137,67316,5,2,1:2:0:0:
76,58,67483,1,2,0:0:0:0:
317,0,67649,1,10,2:0:0:0:
294,100,67816,1,2,2:0:0:0:
454,305,67983,2,0,P|494:255|470:139,1,150,2|0,1:2|0:0,0:0:0:0:
479,152,68316,1,10,0:0:0:0:
221,37,68483,6,0,B|218:100|255:124|255:124|300:151|294:230,1,200,2|2,0:0|1:2,0:0:0:0:
279,313,68983,1,10,0:0:0:0:
99,230,69149,2,0,P|160:215|206:196,1,100,2|0,0:0|1:0,0:0:0:0:
419,82,69483,1,2,0:0:0:0:
313,13,69649,1,10,0:0:0:0:
421,232,69816,1,2,0:0:0:0:
421,232,69899,1,2,0:0:0:0:
421,232,69983,6,0,P|362:218|314:198,1,100,4|2,1:2|0:0,0:0:0:0:
150,34,70316,1,10,0:0:0:0:
95,126,70483,2,0,P|48:143|-1:154,1,100,2|0,0:0|1:0,0:0:0:0:
138,364,70816,1,2,0:0:0:0:
215,253,70983,1,10,0:0:0:0:
339,354,71149,6,0,P|286:339|143:282,1,200,2|2,0:0|1:2,0:0:0:0:
22,175,71649,1,10,0:0:0:0:
217,12,71816,2,0,P|190:75|162:159,1,150,2|0,0:0|0:0,0:0:0:0:
159,176,72149,1,0,1:0:0:0:
43,28,72316,2,0,P|96:48|141:71,1,100,8|2,0:0|0:0,0:0:0:0:
249,260,72649,6,0,P|279:211|421:203,1,200,2|10,1:2|0:0,0:0:0:0:
488,259,73149,1,2,0:0:0:0:
311,8,73316,1,2,1:2:0:0:
406,109,73483,6,0,P|381:104|367:99,1,37.5,2|0,1:2|0:0,0:0:0:0:
205,18,73816,5,6,1:2:0:0:
34,253,74149,5,2,1:2:0:0:
117,222,74316,1,8,0:0:0:0:
205,200,74483,1,10,0:0:0:0:
205,200,74566,1,8,0:0:0:0:
205,200,74649,1,8,0:0:0:0:
263,384,74816,5,8,0:0:0:0:
244,335,74899,1,8,0:0:0:0:
257,285,74982,1,8,0:0:0:0:
290,246,75065,1,8,0:0:0:0:
315,202,75149,1,10,0:0:0:0:
307,151,75232,1,8,0:0:0:0:
272,113,75316,6,0,B|320:183|402:150|402:150|416:94|346:68,1,239.999992675781,6|10,1:2|0:0,0:0:0:0:
107,33,75816,2,0,P|155:19|200:0,1,100,2|0,0:0|1:0,0:0:0:0:
93,212,76149,2,0,P|44:225|-1:245,1,100,2|8,0:0|0:0,0:0:0:0:
94,324,76483,1,2,0:0:0:0:
295,126,76649,5,2,1:2:0:0:
235,196,76816,1,2,2:0:0:0:
292,270,76983,1,10,2:0:0:0:
480,120,77149,2,0,B|418:108|404:58|404:58|390:16|329:4,1,200,2|2,0:0|1:2,0:0:0:0:
224,93,77649,1,10,0:0:0:0:
148,2,77816,1,2,0:0:0:0:
22,207,77983,5,2,1:2:0:0:
119,137,78149,1,2,0:0:0:0:
231,324,78316,2,0,B|286:390|354:342|354:342|360:296|403:283,2,200,10|2|10,0:0|1:2|0:0,0:0:0:0:
151,238,79149,1,2,0:0:0:0:
446,75,79316,5,2,1:2:0:0:
383,144,79483,1,2,0:0:0:0:
440,219,79649,1,10,0:0:0:0:
252,43,79816,2,0,P|304:30|359:6,1,100,2|0,0:0|1:0,0:0:0:0:
453,78,80149,1,2,0:0:0:0:
288,249,80316,1,10,0:0:0:0:
203,185,80483,1,2,0:0:0:0:
203,185,80566,1,2,0:0:0:0:
203,185,80649,5,12,0:0:0:0:
86,372,80816,1,2,1:2:0:0:
46,115,80983,5,10,0:0:0:0:
216,336,81149,1,2,1:2:0:0:
184,41,81316,5,8,0:0:0:0:
35,295,81483,1,2,1:2:0:0:
199,15,81649,1,8,0:0:0:0:
436,242,81983,5,8,0:0:0:0:
46,115,82149,1,8,0:0:0:0:
397,265,88149,5,0,3:0:0:0:
326,332,88316,2,0,P|372:347|415:365,1,82.5000025177003,0|0,1:0|0:0,0:0:0:0:
423,365,88649,6,0,P|466:329|443:168,1,200,4|8,1:2|0:0,0:0:0:0:
418,96,89149,1,0,1:0:0:0:
334,188,89316,1,8,0:0:0:0:
334,188,89483,1,0,1:0:0:0:
278,56,89649,1,8,0:0:0:0:
278,56,89816,1,0,1:0:0:0:
106,231,89983,5,8,0:0:0:0:
258,141,90149,1,0,1:0:0:0:
85,26,90316,1,8,0:0:0:0:
171,167,90483,1,0,1:0:0:0:
41,376,90649,5,8,0:0:0:0:
162,323,90816,1,0,1:0:0:0:
283,269,90983,1,8,0:0:0:0:
404,216,91149,1,4,1:3:0:0:
165,9,91316,6,0,P|189:67|237:217,1,200,12|8,0:0|0:0,0:0:0:0:
289,363,91816,1,0,1:0:0:0:
512,159,91983,1,8,0:0:0:0:
441,315,92149,1,0,1:0:0:0:
284,85,92316,1,8,0:0:0:0:
341,237,92483,1,0,1:0:0:0:
4,112,92649,5,8,0:0:0:0:
92,28,92816,1,0,1:0:0:0:
204,81,92983,1,8,0:0:0:0:
366,314,93149,1,0,1:0:0:0:
482,240,93316,1,8,0:3:0:0:
229,173,93483,5,8,0:0:0:0:
209,177,93566,1,8,0:0:0:0:
189,183,93649,1,8,0:0:0:0:
170,189,93732,1,8,0:0:0:0:
151,194,93815,1,8,0:0:0:0:
132,201,93898,1,8,0:0:0:0:
114,206,93983,6,0,P|132:265|159:371,1,150.000005722046,6|2,1:2|1:2,0:0:0:0:
28,267,94483,2,0,P|73:278|108:291,1,75.0000028610231,2|0,0:0|1:0,0:0:0:0:
171,373,94816,1,2,0:0:0:0:
171,373,94983,2,0,P|206:360|242:352,1,75.0000028610231,2|0,1:2|0:0,0:0:0:0:
377,284,95316,6,0,P|395:252|373:146,1,150.000005722046,0|2,1:0|1:2,0:0:0:0:
296,98,95816,1,0,0:0:0:0:
233,190,95983,2,0,P|283:202|312:213,1,75.0000028610231,2|0,1:2|0:0,0:0:0:0:
136,123,96316,2,0,P|171:110|208:102,1,75.0000028610231,2|0,1:2|0:0,0:0:0:0:
137,216,96649,5,2,1:2:0:0:
47,178,96816,1,2,0:0:0:0:
35,93,96983,1,2,1:2:0:0:
104,30,97149,1,2,0:0:0:0:
213,115,97316,1,2,1:2:0:0:
213,115,97483,1,2,0:0:0:0:
302,5,97649,2,0,P|360:1|402:40,1,112.500004291535,2|0,1:2|0:0,0:0:0:0:
404,55,97983,6,0,P|388:112|367:215,1,150.000005722046,2|0,1:2|1:0,0:0:0:0:
254,104,98483,2,0,P|270:161|291:264,1,150.000005722046,2|2,0:0|0:0,0:0:0:0:
423,280,98983,2,0,P|381:292|359:326,1,75.0000028610231,0|2,1:0|0:0,0:0:0:0:
220,384,99316,6,0,P|175:369|66:341,1,150.000005722046,2|2,1:2|1:2,0:0:0:0:
0,194,99816,2,0,P|14:236|22:273,1,75.0000028610231,2|0,0:0|1:0,0:0:0:0:
121,135,100149,1,0,0:0:0:0:
121,135,100316,2,0,P|106:177|98:214,1,75.0000028610231,0|2,1:0|0:0,0:0:0:0:
58,22,100649,5,2,1:2:0:0:
138,56,100816,1,2,0:0:0:0:
219,93,100983,1,2,1:2:0:0:
222,101,101316,2,0,P|270:86|304:78,1,75.0000028610231,2|2,1:2|0:0,0:0:0:0:
393,0,101649,2,0,P|376:57|368:97,1,75.0000028610231,2|2,1:2|0:0,0:0:0:0:
446,217,101983,6,0,P|483:179|447:66,1,150.000005722046,2|2,1:2|1:2,0:0:0:0:
397,35,102483,1,2,0:0:0:0:
333,166,102649,1,2,1:2:0:0:
361,248,102816,1,2,0:0:0:0:
392,338,102983,2,0,P|427:326|463:319,1,75.0000028610231,2|0,1:2|0:0,0:0:0:0:
351,241,103316,5,2,1:2:0:0:
262,312,103483,1,2,0:0:0:0:
164,235,103649,1,2,1:2:0:0:
48,205,103816,1,2,0:0:0:0:
158,362,103983,1,2,1:2:0:0:
158,362,104149,1,2,1:2:0:0:
262,217,104316,2,0,P|276:175|235:88,1,112.500004291535,2|0,1:0|0:0,0:0:0:0:
243,93,104649,6,0,P|304:79|418:43,1,170.000003242493,6|10,1:2|0:0,0:0:0:0:
512,203,105149,2,0,P|472:169|421:176,1,85.0000016212464,2|0,0:0|1:0,0:0:0:0:
282,266,105483,1,2,0:0:0:0:
344,133,105649,2,0,P|359:185|387:269,1,127.50000243187,10|0,0:0|0:0,0:0:0:0:
394,288,105983,6,0,P|378:337|371:379,1,85.0000016212464,0|0,1:0|0:0,0:0:0:0:
201,245,106316,2,0,P|250:258|287:272,1,85.0000016212464,10|0,0:0|0:0,0:0:0:0:
154,328,106649,2,0,P|124:358|91:385,1,85.0000016212464,2|0,1:2|0:0,0:0:0:0:
102,244,106983,2,0,P|90:203|77:117,1,127.50000243187,10|0,0:0|0:0,0:0:0:0:
80,95,107316,5,2,1:2:0:0:
0,185,107483,1,2,0:0:0:0:
164,96,107649,1,10,0:0:0:0:
64,0,107816,1,2,0:0:0:0:
238,73,107983,2,0,P|224:132|218:173,1,85.0000016212464,2|2,1:2|0:0,0:0:0:0:
192,357,108316,1,8,0:0:0:0:
192,357,108649,6,0,P|183:305|163:232,1,127.50000243187,2|0,1:2|0:0,0:0:0:0:
157,208,108983,2,0,P|203:236|250:229,1,85.0000016212464,8|0,0:0|0:0,0:0:0:0:
350,120,109316,1,2,1:2:0:0:
311,229,109483,1,2,0:0:0:0:
457,132,109649,1,10,0:0:0:0:
384,22,109816,1,2,0:0:0:0:
241,120,109983,6,0,P|295:135|347:156,1,85.0000016212464,4|2,1:2|0:0,0:0:0:0:
488,290,110316,2,0,P|453:325|359:330,1,127.50000243187,10|0,0:0|0:0,0:0:0:0:
360,324,110649,1,2,1:2:0:0:
268,244,110816,1,2,0:0:0:0:
173,329,110983,1,10,0:0:0:0:
41,369,111149,1,2,0:0:0:0:
49,148,111316,6,0,P|73:210|91:281,1,127.50000243187,2|0,1:2|0:0,0:0:0:0:
90,290,111649,1,10,0:0:0:0:
191,180,111816,1,2,0:0:0:0:
92,48,111983,2,0,P|50:63|4:75,1,85.0000016212464,2|0,1:2|0:0,0:0:0:0:
152,188,112316,2,0,P|199:206|238:188,1,85.0000016212464,8|0,0:0|0:0,0:0:0:0:
361,14,112649,5,4,1:2:0:0:
278,47,112816,1,0,0:0:0:0:
194,80,112983,1,8,0:0:0:0:
402,274,113149,5,0,1:0:0:0:
310,232,113316,1,8,0:0:0:0:
319,130,113483,1,0,1:0:0:0:
420,108,113649,1,8,0:0:0:0:
471,197,113816,1,0,1:0:0:0:
315,357,113983,5,0,1:0:0:0:
315,357,114149,1,0,1:0:0:0:
189,175,114316,2,0,P|122:167|58:218,1,139.500004363632,12|0,0:0|0:0,0:0:0:0:
62,224,114649,2,0,P|51:186|38:149,1,75.0000028610231,10|2,3:3|1:2,0:0:0:0:
177,267,114983,1,6,3:3:0:0:
153,353,115149,1,2,1:2:0:0:
273,135,115316,6,0,B|320:73|394:108|394:108|403:161|337:180,1,220.000006713867,6|10,1:2|0:0,0:0:0:0:
259,1,116316,1,2,0:0:0:0:
131,126,116649,5,0,0:0:0:0:
45,94,116816,1,8,0:0:0:0:
109,35,116983,1,0,1:0:0:0:
227,202,117316,2,0,P|174:216|122:235,1,110.000003356934,10|2,0:0|1:2,0:0:0:0:
33,189,117816,1,2,0:0:0:0:
142,350,117983,6,0,P|90:331|37:316,1,110.000003356934,2|2,1:2|1:2,0:0:0:0:
122,235,118483,1,2,0:0:0:0:
252,383,118649,1,8,0:0:0:0:
461,193,118983,1,2,0:0:0:0:
391,255,119149,6,0,P|444:269|495:288,1,110.000003356934,8|8,3:0|1:3,0:0:0:0:
360,384,119649,1,4,3:0:0:0:
269,208,119983,2,0,P|255:248|264:280,1,55.0000016784668,10|2,0:0|1:2,0:0:0:0:
358,185,120316,2,0,P|355:157|341:133,1,55.0000016784668,2|10,0:0|1:3,0:0:0:0:
184,46,120649,6,0,P|235:33|300:11,1,110.000003356934,4|0,1:2|1:0,0:0:0:0:
256,120,121149,1,2,0:0:0:0:
89,10,121316,2,0,P|108:70|118:111,1,82.5000025177003,8|0,0:0|0:0,0:0:0:0:
117,109,121649,1,2,0:0:0:0:
19,214,121816,6,0,P|51:203|75:197,1,55.0000016784668,2|0,0:0|1:0,0:0:0:0:
171,287,122149,2,0,P|138:276|114:270,1,55.0000016784668,8|0,0:0|1:0,0:0:0:0:
183,179,122483,1,2,0:0:0:0:
78,350,122649,1,8,0:0:0:0:
78,350,122983,2,0,P|104:356|130:365,1,55.0000016784668,2|10,1:2|0:0,0:0:0:0:
323,273,123316,6,0,P|324:246|313:221,1,55.0000016784668,2|2,1:2|0:0,0:0:0:0:
230,241,123649,2,0,P|229:268|241:293,1,55.0000016784668,2|2,1:2|0:0,0:0:0:0:
332,127,123983,1,10,2:0:0:0:
256,148,124149,1,2,2:0:0:0:
178,168,124316,1,2,2:0:0:0:
42,9,124483,5,8,3:0:0:0:
42,9,124816,1,0,1:0:0:0:
159,74,124983,2,0,P|114:89|70:108,1,82.5000025177003,6|0,3:3|0:0,0:0:0:0:
61,114,125316,1,8,0:0:0:0:
144,179,125483,1,2,1:2:0:0:
260,46,125649,1,2,0:0:0:0:
239,154,125816,1,2,1:2:0:0:
239,154,125899,1,0,1:0:0:0:
239,154,125983,5,4,1:2:0:0:
159,74,126149,2,0,P|181:148|201:227,1,150.000005722046,2|2,1:2|0:1,0:0:0:0:
328,134,126649,2,0,P|306:208|286:287,1,150.000005722046,0|2,1:0|1:2,0:0:0:0:
427,186,127149,1,2,0:1:0:0:
352,35,127316,6,0,P|398:52|431:60,1,75.0000028610231,0|2,1:0|0:1,0:0:0:0:
328,134,127649,2,0,P|293:121|256:111,1,75.0000028610231,0|2,1:0|0:1,0:0:0:0:
126,0,127983,2,0,P|141:43|148:89,1,75.0000028610231,2|2,1:2|0:1,0:0:0:0:
185,234,128316,1,10,3:0:0:0:
153,215,128399,1,4,3:0:0:0:
116,216,128482,1,4,3:0:0:0:
85,236,128565,1,4,3:0:0:0:
69,269,128649,5,6,1:2:0:0:
190,384,128983,1,10,0:0:0:0:
190,384,129066,1,0,1:0:0:0:
190,384,129149,2,0,L|167:336,1,37.5000014305115,0|0,1:0|1:0,0:0:0:0:
273,308,129316,1,10,0:0:0:0:
273,308,129399,1,0,1:0:0:0:
273,308,129482,2,0,L|260:257,1,37.5000014305115,0|0,1:0|1:0,0:0:0:0:
353,119,129649,1,10,0:0:0:0:
353,119,129732,1,0,1:0:0:0:
353,119,129815,2,0,L|344:155,1,37.5000014305115,0|0,1:0|1:0,0:0:0:0:
449,201,129983,1,10,0:0:0:0:
449,201,130066,1,0,1:0:0:0:
449,201,130149,2,0,L|431:233,1,37.5000014305115,0|0,1:0|1:0,0:0:0:0:
273,308,130316,5,8,0:0:0:0:
236,301,130399,1,0,1:0:0:0:
207,279,130482,1,2,1:2:0:0:
191,245,130565,1,0,1:0:0:0:
193,208,130649,2,0,L|214:160,3,37.5000014305115,10|0|0|0,0:0|1:0|1:0|1:0,0:0:0:0:
118,0,130983,2,0,L|132:54,1,37.5000014305115,10|0,0:0|1:0,0:0:0:0:
37,168,131149,2,0,L|79:154,1,37.5000014305115,2|0,1:2|1:0,0:0:0:0:
278,53,131316,5,0,1:0:0:0:
278,53,131649,1,2,0:0:0:0:
347,96,131816,1,0,1:0:0:0:
416,9,131983,1,2,0:1:0:0:
504,203,132316,6,0,L|509:169,4,25.0000009536744,0|0|0|0|0,1:0|1:0|1:0|1:0|1:0,0:0:0:0:
497,243,132649,6,0,P|450:254|418:267,1,75.0000028610231,0|2,1:0|0:0,0:0:0:0:
350,340,132983,2,0,P|386:347|421:360,1,75.0000028610231,0|2,1:0|0:0,0:0:0:0:
329,240,133316,1,2,0:0:0:0:
329,240,133483,1,2,1:2:0:0:
239,352,133649,2,0,P|196:371|111:386,1,112.500004291535,2|0,1:2|0:0,0:0:0:0:
66,339,133983,5,4,1:2:0:0:
73,333,134316,5,8,0:0:0:0:
132,248,134483,1,0,1:0:0:0:
104,125,134649,1,8,0:0:0:0:
0,21,134816,1,0,1:0:0:0:
92,168,134983,1,8,0:0:0:0:
287,220,135149,1,0,1:0:0:0:
434,23,135316,5,8,3:0:0:0:
434,23,135399,1,4,3:0:0:0:
434,23,135483,1,4,3:0:0:0:
434,23,135566,1,4,3:0:0:0:
434,23,135649,6,0,P|421:48|409:86,1,37.5000014305115,8|4,3:0|3:0,0:0:0:0:
321,291,135816,2,0,P|314:271|308:254,1,37.5000014305115,4|4,3:0|3:0,0:0:0:0:
147,27,135983,5,2,1:0:0:0:
343,123,136149,5,4,3:0:0:0:
315,113,136233,1,8,0:0:0:0:
278,115,136316,1,8,0:0:0:0:
243,132,136399,1,8,0:0:0:0:
205,174,136483,1,8,0:0:0:0:
192,241,136566,1,8,0:0:0:0:
214,308,136649,6,0,P|193:241|134:115,1,200,6|10,1:2|0:0,0:0:0:0:
27,354,137149,2,0,P|75:330|121:315,1,100,2|0,0:0|1:0,0:0:0:0:
308,117,137483,2,0,P|356:141|402:156,1,100,2|8,0:0|0:0,0:0:0:0:
488,94,137816,1,2,0:0:0:0:
335,379,137983,5,2,1:2:0:0:
285,295,138149,1,2,0:0:0:0:
352,227,138316,1,10,0:0:0:0:
198,58,138483,2,0,P|137:82|53:106,1,150,2|0,0:0|0:0,0:0:0:0:
38,102,138816,1,0,1:0:0:0:
175,226,138983,2,0,P|198:269|172:335,1,100,8|0,0:0|0:0,0:0:0:0:
118,383,139316,5,2,1:2:0:0:
38,321,139483,1,2,0:0:0:0:
256,177,139649,1,10,0:0:0:0:
241,283,139816,1,2,0:0:0:0:
456,147,139983,2,0,P|463:61|389:-5,1,150,2|0,1:2|0:0,0:0:0:0:
409,0,140316,1,8,0:0:0:0:
164,181,140483,6,0,B|226:185|246:234|246:234|263:274|326:281,1,200,2|2,0:0|1:2,0:0:0:0:
429,297,140983,1,10,0:0:0:0:
372,100,141149,2,0,P|349:147|330:202,1,100,2|0,0:0|1:0,0:0:0:0:
143,384,141483,1,2,0:0:0:0:
206,271,141649,1,10,0:0:0:0:
21,200,141816,1,2,0:0:0:0:
21,200,141899,1,2,0:0:0:0:
21,200,141983,6,0,P|72:187|122:167,1,100,4|2,1:2|0:0,0:0:0:0:
305,0,142316,1,10,0:0:0:0:
379,82,142483,2,0,P|424:102|472:115,1,100,2|0,0:0|1:0,0:0:0:0:
328,361,142816,1,2,0:0:0:0:
441,280,142983,1,10,0:0:0:0:
342,169,143149,6,0,P|367:228|416:373,1,200,2|2,0:0|1:2,0:0:0:0:
471,161,143649,1,10,0:0:0:0:
292,291,143816,2,0,P|229:287|149:207,1,150,2|0,0:0|0:0,0:0:0:0:
160,218,144149,1,0,1:0:0:0:
26,384,144316,2,0,P|87:355|135:339,1,100,8|2,0:0|0:0,0:0:0:0:
256,193,144649,6,0,P|266:129|300:-2,1,200,2|10,1:2|0:0,0:0:0:0:
185,54,145149,1,0,0:0:0:0:
469,198,145316,1,2,1:2:0:0:
370,100,145483,6,0,P|374:118|380:147,1,37.5,2|0,1:2|0:0,0:0:0:0:
405,319,145816,5,6,1:2:0:0:
146,281,146149,5,2,1:2:0:0:
229,252,146316,1,8,0:0:0:0:
315,230,146483,1,10,0:0:0:0:
315,230,146566,1,8,0:0:0:0:
315,230,146649,1,8,0:0:0:0:
469,40,146816,5,8,0:0:0:0:
422,20,146899,1,8,0:0:0:0:
378,38,146982,1,8,0:0:0:0:
356,82,147066,1,8,0:0:0:0:
328,124,147149,1,8,0:0:0:0:
281,134,147232,1,8,0:0:0:0:
233,132,147316,6,0,B|156:91|180:7|180:7|233:-12|267:53,1,239.999992675781,6|10,1:2|0:0,0:0:0:0:
101,208,147816,2,0,P|53:222|6:240,1,100,2|0,0:0|1:0,0:0:0:0:
187,383,148149,2,0,P|233:365|281:350,1,100,2|8,0:0|0:0,0:0:0:0:
195,275,148483,1,2,0:0:0:0:
458,123,148649,5,2,1:2:0:0:
372,162,148816,1,2,2:0:0:0:
313,81,148983,1,10,2:0:0:0:
512,296,149149,2,0,P|459:283|351:390,1,200,2|2,0:0|1:2,0:0:0:0:
195,275,149649,1,8,0:0:0:0:
289,216,149816,1,2,0:0:0:0:
143,27,149983,6,0,P|163:90|186:173,1,150,2|0,1:2|0:0,0:0:0:0:
129,237,150316,2,0,P|67:249|6:182,1,150,10|0,0:2|0:0,0:0:0:0:
51,117,150649,2,0,P|108:105|139:13,1,150,2|0,1:2|0:0,0:0:0:0:
185,170,150983,1,10,0:0:0:0:
62,38,151149,1,2,0:0:0:0:
433,98,151316,5,2,1:2:0:0:
368,176,151483,1,2,0:0:0:0:
281,129,151649,1,10,0:0:0:0:
223,373,151816,2,0,P|273:353|339:335,1,100,2|0,0:0|1:0,0:0:0:0:
372,269,152149,1,2,0:0:0:0:
129,186,152316,1,10,0:0:0:0:
207,113,152483,1,2,0:0:0:0:
207,113,152566,1,2,0:0:0:0:
207,113,152649,5,12,0:0:0:0:
77,288,152816,1,2,1:2:0:0:
35,62,152983,5,10,0:0:0:0:
178,290,153149,1,2,1:2:0:0:
347,31,153316,5,8,0:0:0:0:
260,337,153483,1,2,1:2:0:0:
354,9,153649,1,8,0:0:0:0:
23,163,153983,5,8,0:0:0:0:
420,280,154150,1,8,0:0:0:0:
496,69,166649,6,0,P|454:80|405:101,1,89.9999972534181,2|0,0:0|0:0,0:0:0:0:
399,213,167316,2,0,P|378:115|351:37,2,179.999994506836,2|2|2,0:0|0:0|0:0,0:0:0:0:
372,312,168983,2,0,P|338:321|323:328,1,44.999998626709
271,381,169316,1,0,0:0:0:0:
211,266,169649,2,0,L|218:241,3,14.9999995422363,0|0|0|0,1:0|1:0|1:0|1:0,0:0:0:0:
176,343,169983,6,0,P|124:335|39:307,1,134.999995880127,2|2,0:0|0:0,0:0:0:0:
102,246,170649,2,0,P|112:213|101:189,2,44.999998626709,2|2|2,0:0|0:0|0:0,0:0:0:0:
8,103,171316,2,0,P|20:145|29:189,1,89.9999972534181,2|0,0:0|0:0,0:0:0:0:
104,122,171983,2,0,P|139:133|157:136,1,44.999998626709,2|2,0:0|0:0,0:0:0:0:
202,201,172316,2,0,P|235:192|262:190,1,44.999998626709,2|2,0:0|0:0,0:0:0:0:
328,43,172649,6,0,P|317:86|308:138,1,89.9999972534181,2|2,0:0|0:0,0:0:0:0:
255,194,173149,2,0,P|266:237|275:289,1,89.9999972534181,2|2,0:0|0:0,0:0:0:0:
334,345,173649,1,2,0:0:0:0:
183,315,173983,6,0,P|225:300|284:286,1,89.9999972534181,2|0,0:0|0:0,0:0:0:0:
417,187,174649,2,0,P|382:203|283:119,2,179.999994506836,2|2|2,0:0|0:0|0:0,0:0:0:0:
479,124,176316,1,0,0:0:0:0:
341,21,176649,5,2,1:2:0:0:
341,21,176816,1,2,1:2:0:0:
282,99,176983,1,10,0:0:0:0:
150,14,177316,2,0,P|167:54|182:109,1,89.9999972534181,10|8,0:0|0:0,0:0:0:0:
190,139,177649,2,0,P|179:170|174:196,1,59.9999981689454,2|10,0:0|0:0,0:0:0:0:
119,369,177983,5,2,1:2:0:0:
119,369,178149,1,0,1:0:0:0:
28,304,178316,2,0,P|70:293|97:281,1,59.9999981689454,2|10,0:0|0:0,0:0:0:0:
162,209,178649,2,0,P|208:228|286:248,1,119.999996337891,8|8,0:0|0:0,0:0:0:0:
424,41,179316,5,2,1:2:0:0:
424,41,179483,1,2,1:2:0:0:
488,106,179649,1,10,0:0:0:0:
359,260,179983,2,0,P|370:207|385:198,1,59.9999981689454,10|0,0:0|0:0,0:0:0:0:
399,189,180233,1,2,0:0:0:0:
399,189,180316,2,0,P|358:174|327:156,1,59.9999981689454,2|2,0:0|0:0,0:0:0:0:
176,28,180649,5,2,1:2:0:0:
176,28,180816,1,0,1:0:0:0:
114,103,180983,1,2,0:0:0:0:
278,232,181316,5,2,1:2:0:0:
278,232,181483,1,0,1:0:0:0:
216,157,181650,1,10,0:0:0:0:
100,345,181983,5,2,1:2:0:0:
100,345,182150,1,0,1:0:0:0:
162,270,182316,2,0,B|130:260|96:243,1,59.9999981689454,8|0,0:0|0:0,0:0:0:0:
200,356,182649,2,0,P|230:336|262:341,1,59.9999981689454,8|0,0:0|0:0,0:0:0:0:
283,327,182899,1,8,0:0:0:0:
283,327,182983,2,0,P|316:339|331:368,1,59.9999981689454,2|10,0:0|0:0,0:0:0:0:
464,209,183316,5,0,1:0:0:0:
464,209,183483,1,0,1:0:0:0:
342,39,183816,1,8,0:0:0:0:
416,102,183983,2,0,P|374:112|322:130,1,89.9999972534181,8|0,0:0|0:0,0:0:0:0:
319,146,184316,2,0,P|281:135|246:129,1,59.9999981689454,10|2,0:0|0:0,0:0:0:0:
113,11,184649,5,0,1:0:0:0:
113,11,184816,1,0,1:0:0:0:
55,98,184983,2,0,P|44:65|31:36,1,59.9999981689454,8|0,0:0|0:0,0:0:0:0:
163,96,185316,2,0,P|139:147|124:204,1,89.9999972534181,8|8,0:0|0:0,0:0:0:0:
119,206,185649,2,0,L|92:195,3,19.9999993896485,0|0|0|8,1:0|1:0|1:0|1:2,0:0:0:0:
245,363,185983,5,2,1:2:0:0:
245,363,186149,1,0,1:0:0:0:
317,306,186316,2,0,P|359:321|385:328,1,59.9999981689454,2|10,0:0|0:0,0:0:0:0:
345,219,186649,2,0,P|314:255|236:240,2,119.999996337891,10|2|2,0:0|0:0|1:2,0:0:0:0:
33,196,189983,5,0,1:0:0:0:
39,198,190316,5,0,1:0:0:0:
46,200,190649,5,0,1:0:0:0:
54,203,190983,5,0,1:0:0:0:
61,205,191316,5,0,1:0:0:0:
215,90,191649,5,0,1:0:0:0:
154,35,191816,1,0,1:0:0:0:
154,35,191899,1,0,1:0:0:0:
154,35,191983,1,8,0:0:0:0:
360,282,192149,5,8,0:0:0:0:
362,290,192649,6,0,P|374:224|410:80,1,209.999993591309,6|10,1:2|0:0,0:0:0:0:
294,216,193149,2,0,P|240:238|194:215,1,104.999996795654,2|0,0:0|1:0,0:0:0:0:
379,15,193483,2,0,P|427:9|472:43,1,104.999996795654,2|8,0:0|0:0,0:0:0:0:
395,139,193816,1,2,0:0:0:0:
85,0,193983,5,2,1:2:0:0:
160,84,194150,1,2,0:0:0:0:
255,23,194316,1,10,0:0:0:0:
56,247,194483,2,0,P|124:218|215:195,1,157.499995193482,2|0,0:0|0:0,0:0:0:0:
221,193,194816,1,0,1:0:0:0:
371,343,194983,2,0,P|315:375|265:363,1,104.999996795654,8|2,0:0|0:0,0:0:0:0:
168,302,195316,5,2,1:2:0:0:
221,193,195483,1,2,0:0:0:0:
28,62,195649,1,10,0:0:0:0:
88,166,195816,1,2,0:0:0:0:
276,0,195983,2,0,P|355:0|410:60,1,157.499995193482,2|0,1:2|0:0,0:0:0:0:
409,69,196316,1,10,0:0:0:0:
232,284,196483,6,0,B|227:219|275:191|275:191|315:170|314:103,1,209.999993591309,2|2,0:0|1:2,0:0:0:0:
276,0,196983,1,10,0:0:0:0:
113,66,197149,2,0,P|167:84|222:106,1,104.999996795654,2|0,0:0|1:0,0:0:0:0:
440,261,197483,1,2,0:0:0:0:
351,349,197649,1,10,0:0:0:0:
170,216,197816,1,2,0:0:0:0:
170,216,197899,1,2,0:0:0:0:
170,216,197983,6,0,P|110:232|62:252,1,104.999996795654,4|0,1:2|0:0,0:0:0:0:
0,345,198316,1,8,0:0:0:0:
280,141,198483,2,0,P|231:121|180:108,1,104.999996795654,2|0,0:0|1:0,0:0:0:0:
351,349,198816,1,2,0:0:0:0:
245,248,198983,1,8,0:0:0:0:
507,184,199149,6,0,P|413:237|299:287,1,209.999993591309,2|2,0:0|1:2,0:0:0:0:
152,348,199649,1,10,0:0:0:0:
192,99,199816,2,0,P|218:165|250:269,1,157.499995193482,2|0,0:0|0:0,0:0:0:0:
244,266,200149,1,0,1:0:0:0:
13,221,200316,2,0,P|75:205|130:184,1,104.999996795654,8|2,0:0|0:0,0:0:0:0:
404,125,200649,6,0,P|358:125|295:-22,1,209.999993591309,0|8,1:0|0:0,0:0:0:0:
192,99,201149,1,2,0:0:0:0:
472,240,201316,1,2,1:2:0:0:
360,333,201483,6,0,P|367:297|371:279,1,44.999998626709,2|0,1:2|0:0,0:0:0:0:
418,78,201816,5,6,1:2:0:0:
187,243,202149,5,2,1:2:0:0:
280,213,202316,1,8,0:0:0:0:
377,193,202483,1,10,0:0:0:0:
377,193,202566,1,8,0:0:0:0:
377,193,202649,1,8,0:0:0:0:
133,5,202816,5,8,0:0:0:0:
178,29,202899,1,8,0:0:0:0:
194,77,202982,1,8,0:0:0:0:
172,124,203066,1,8,0:0:0:0:
130,154,203149,1,8,0:0:0:0:
96,192,203232,1,8,0:0:0:0:
91,241,203316,6,0,B|103:325|192:332|192:332|230:287|178:232,1,250,6|10,1:2|0:0,0:0:0:0:
0,109,203816,2,0,P|55:94|103:76,1,104.999996795654,2|0,0:0|1:0,0:0:0:0:
286,210,204149,2,0,P|230:224|182:242,1,104.999996795654,2|8,0:0|0:0,0:0:0:0:
129,340,204483,1,2,0:0:0:0:
488,231,204649,5,2,1:2:0:0:
387,196,204816,1,2,0:0:0:0:
340,294,204983,1,10,0:0:0:0:
226,43,205149,2,0,P|290:69|443:114,1,209.999993591309,2|2,0:0|1:2,0:0:0:0:
298,208,205649,1,10,0:0:0:0:
209,141,205816,1,2,0:0:0:0:
61,362,205983,5,2,1:2:0:0:
160,293,206149,1,2,0:0:0:0:
27,111,206316,1,10,0:0:0:0:
27,111,206483,1,0,0:0:0:0:
8,221,206649,2,0,P|68:211|127:85,1,209.999993591309,2|10,1:2|0:0,0:0:0:0:
75,0,207149,1,2,0:0:0:0:
391,154,207316,5,2,1:2:0:0:
300,206,207483,1,2,0:0:0:0:
234,121,207649,1,10,0:0:0:0:
475,34,207816,2,0,P|456:104|425:254,1,209.999993591309,2|0,0:0|1:2,0:0:0:0:
353,316,208316,6,0,P|396:327|423:361,1,89.9999972534181,8|0,0:0|0:0,0:0:0:0:
294,242,208649,6,0,P|225:269|114:296,1,170.000003242493,4|0,1:2|1:2,0:0:0:0:
34,68,209149,1,2,0:0:0:0:
34,68,209316,2,0,P|103:95|213:122,1,170.000003242493,8|0,0:0|1:0,0:0:0:0:
110,219,209816,1,0,1:0:0:0:
110,219,209899,1,0,1:0:0:0:
110,219,209983,5,8,0:0:0:0:
265,49,210149,1,0,1:0:0:0:
285,67,210232,1,0,1:0:0:0:
298,95,210315,1,8,0:0:0:0:
298,128,210399,1,0,1:0:0:0:
282,155,210483,1,0,1:0:0:0:
416,357,210649,5,8,3:0:0:0:
217,288,210816,1,0,1:0:0:0:
217,288,210899,1,0,1:0:0:0:
217,288,210983,2,0,P|289:266|320:252,1,89.9999972534181,4|0,3:0|0:0,0:0:0:0:
495,133,211316,6,0,P|434:124|383:-5,1,209.999993591309,6|8,1:2|0:0,0:0:0:0:
282,155,211816,1,0,1:0:0:0:
105,16,211983,5,8,0:0:0:0:
174,238,212149,1,0,1:0:0:0:
174,238,212233,1,0,1:0:0:0:
174,238,212316,1,8,0:0:0:0:
51,169,212483,1,0,1:0:0:0:
336,48,212649,5,8,0:0:0:0:
147,114,212816,1,0,1:0:0:0:
432,231,212983,5,8,0:0:0:0:
239,192,213150,1,0,1:0:0:0:
481,0,213316,5,10,0:0:0:0:
481,0,213649,5,8,0:0:0:0:
453,124,213816,1,2,1:2:0:0:
122,215,213983,5,8,0:0:0:0:
320,168,214149,1,0,1:0:0:0:
67,330,214316,5,8,0:0:0:0:
266,379,214482,1,0,1:0:0:0:
26,137,214649,5,8,0:0:0:0:
72,348,214816,1,0,1:0:0:0:
237,80,214983,5,8,0:0:0:0:
204,292,215150,1,0,1:0:0:0:
385,18,215316,5,8,0:0:0:0:
431,229,215483,1,2,1:2:0:0:
137,92,215649,5,10,0:0:0:0:
359,145,215816,1,2,1:2:0:0:
359,145,215899,1,0,1:0:0:0:
359,145,215983,1,10,0:0:0:0:
256,225,216149,1,0,1:0:0:0:
102,0,216316,5,10,0:0:0:0:
102,0,216483,1,0,1:0:0:0:
352,274,216649,5,14,0:0:0:0:
143,217,216816,1,0,1:0:0:0:
423,56,216983,5,8,0:0:0:0:
218,117,217150,1,0,1:0:0:0:
402,359,217316,5,8,0:0:0:0:
355,154,217483,1,0,1:0:0:0:
355,154,217566,1,0,1:0:0:0:
355,154,217649,1,8,0:0:0:0:
264,237,217816,1,0,1:0:0:0:
63,23,217983,5,8,0:0:0:0:
272,80,218149,1,0,1:0:0:0:
9,275,218316,5,8,0:0:0:0:
224,219,218483,1,0,1:0:0:0:
224,219,218566,1,0,1:0:0:0:
224,219,218649,1,10,0:0:0:0:
224,219,218983,2,0,P|164:200|121:177,1,104.999996795654,8|0,0:0|1:0,0:0:0:0:
272,377,219316,6,0,P|298:333|411:329,1,157.499995193482,6|0,1:2|0:0,0:0:0:0:
413,336,219649,1,8,0:0:0:0:
340,104,219816,6,0,P|377:170|452:182,1,157.499995193482,6|0,1:2|0:0,0:0:0:0:
474,169,220149,1,2,1:2:0:0:
358,10,220316,1,8,0:0:0:0:
171,275,220483,6,0,P|225:182|170:86,1,209.999993591309,6|0,1:2|1:0,0:0:0:0:
0,261,220983,1,8,0:0:0:0:
0,261,221066,1,0,1:0:0:0:
0,261,221149,1,0,1:0:0:0:
98,380,221316,1,8,3:0:0:0:
303,161,221483,1,10,0:0:0:0:
259,162,221566,1,0,1:0:0:0:
222,184,221649,1,10,0:0:0:0:
197,220,221733,1,0,1:0:0:0:
168,252,221816,1,0,1:0:0:0:
130,272,221899,1,0,1:0:0:0:
89,258,221983,6,0,B|210:287|131:346|270:375,1,220.000006713867,6|8,1:2|0:0,0:0:0:0:
405,287,222483,1,0,0:0:0:0:
222,184,222649,1,0,1:0:0:0:
305,302,222816,1,0,1:0:0:0:
443,116,222983,2,0,P|421:174|407:226,1,100,8|0,0:0|1:0,0:0:0:0:
259,0,223316,5,2,1:2:0:0:
373,76,223483,1,0,1:0:0:0:
191,219,223649,2,0,P|128:246|-4:282,1,200,10|2,0:0|1:2,0:0:0:0:
81,133,224149,1,0,1:0:0:0:
261,334,224316,2,0,P|324:358|414:372,1,150,10|0,0:0|0:0,0:0:0:0:
462,227,224649,6,0,P|408:227|340:348,2,200,2|8|2,1:2|0:0|1:2,0:0:0:0:
285,156,225483,1,2,1:2:0:0:
460,2,225649,1,8,0:0:0:0:
211,73,225816,6,0,P|295:110|402:143,1,200,2|0,1:2|1:0,0:0:0:0:
131,283,226316,2,0,P|191:257|245:243,1,100,10|0,0:0|0:0,0:0:0:0:
354,1,226649,1,2,1:2:0:0:
199,75,226816,2,0,P|215:106|224:134,1,50,0|0,1:0|1:0,0:0:0:0:
304,375,226983,5,12,0:0:0:0:
304,375,227316,6,0,P|349:313|438:323,1,150,10|0,0:0|0:0,0:0:0:0:
494,228,227649,2,0,P|424:207|398:139,1,150,10|0,0:0|0:0,0:0:0:0:
480,35,227983,1,10,0:0:0:0:
310,224,228149,1,2,1:2:0:0:
310,224,228233,1,0,1:2:0:0:
310,224,228316,1,8,0:0:0:0:
417,310,228483,1,2,1:2:0:0:
233,63,228649,6,0,P|161:40|72:143,1,200,10|10,0:0|0:0,0:0:0:0:
32,280,229149,1,2,1:2:0:0:
24,259,229233,1,0,1:0:0:0:
14,237,229316,1,8,0:0:0:0:
172,147,229483,1,2,1:2:0:0:
52,384,229649,1,8,0:0:0:0:
52,384,229816,1,0,1:0:0:0:
371,263,229983,5,10,0:0:0:0:
75,116,230149,1,10,0:0:0:0:
75,116,230316,1,0,1:0:0:0:
424,11,230483,5,10,0:0:0:0:
140,235,230649,1,8,0:0:0:0:
198,337,230816,1,2,1:2:0:0:
198,337,230899,1,0,1:0:0:0:
198,337,230983,1,8,0:0:0:0:
3,38,231149,5,6,1:2:0:0:
3,38,231483,5,2,1:2:0:0:
75,116,231649,1,2,1:2:0:0:
169,69,231816,1,2,1:2:0:0:
370,361,231983,5,10,0:0:0:0:
454,196,232150,1,2,1:2:0:0:
169,69,232317,1,10,0:0:0:0:
224,327,232483,1,10,0:0:0:0:
454,196,232649,6,0,L|406:210,1,50,8|4,3:0|3:0,3:0:0:0:
272,338,232816,2,0,L|221:326,1,50,8|4,3:0|3:0,3:0:0:0:
75,116,232983,5,6,1:2:0:0:
256,192,233066,12,0,238983,0:0:0:0:
